osu file format v14

[General]
AudioFilename: audio.mp3
AudioLeadIn: 0
PreviewTime: 48299
Countdown: 1
SampleSet: Soft
StackLeniency: 0
Mode: 0
LetterboxInBreaks: 0
UseSkinSprites: 1
SkinPreference:Default
EpilepsyWarning: 1
WidescreenStoryboard: 1

[Editor]
DistanceSpacing: 1
BeatDivisor: 4
GridSize: 4
TimelineZoom: 1.4

[Metadata]
Title:Tsurupettan (Game Ver.)
TitleUnicode:つるぺったん (Game Ver.)
Artist:Silver Forest
ArtistUnicode:Silver Forest
Creator:Bloxi
Version:Phynta's Extra
Source:東方永夜抄 ~ Imperishable Night.
Tags:touhou 東方project japanese video game vgm novelty zun 2hu th8 in reitaisai 14 rts14 例大祭14 collective performance とうほうインスパイア くろねこ アキ カガリ 星河さきち kuroneko aki kagari hoshikawa sakichi toho inspire 東方萃奏楽 suisougaku chunithm sound voltex iv heavenly haven pettan hare yukai crossover ハレ晴レユカイ harupittan mojipittan 竹取飛翔 ~ Lunatic Princess 蓬莱山 輝夜 Houraisan Kaguya はるぴったん レッツゴー!陰陽師 let's lets go! onmyoji 伊吹 萃香 Ibuki Suika 電波 denpa ニコニコ動画 nico douga boshyman741 frey kival_evan deppyforce uberfazz flux3on fluxie phynta bnmc coppertine
BeatmapID:3690392
BeatmapSetID:1615177

[Difficulty]
HPDrainRate:5
CircleSize:4.5
OverallDifficulty:8
ApproachRate:8.5
SliderMultiplier:2
SliderTickRate:1

[Events]
//Background and Video events
0,0,"bg/bg2.jpg",0,0
//Break Periods
2,80499,83624
//Storyboard Layer 0 (Background)
//Storyboard Layer 1 (Fail)
//Storyboard Layer 2 (Pass)
//Storyboard Layer 3 (Foreground)
//Storyboard Layer 4 (Overlay)
//Storyboard Sound Samples

[TimingPoints]
300,333.333333333333,4,2,1,75,1,0
5633,-100,4,2,1,75,0,0
46799,-80,4,2,1,75,0,0
48299,-100,4,2,1,75,0,0
58966,-80,4,2,1,75,0,1
69633,-100,4,2,1,75,0,0
80299,-100,4,2,1,75,0,0
110799,-80,4,2,1,75,0,0
111799,-90.9090909090909,4,2,1,75,0,0
122966,-100,4,2,1,75,0,1
133633,-100,4,2,1,75,0,0
144299,-100,4,2,1,75,0,1
148424,-100,4,2,1,5,0,1
148466,-100,4,2,1,75,0,1
148591,-100,4,2,1,5,0,1
148633,-100,4,2,1,75,0,1
148758,-100,4,2,1,5,0,1
148799,-100,4,2,1,75,0,1
148924,-100,4,2,1,5,0,1
148966,-100,4,2,1,75,0,1
154799,-100,4,2,1,75,0,0
158966,-100,4,2,1,5,0,0

[Colours]
Combo1 : 224,170,143
Combo2 : 190,226,154
Combo3 : 148,128,202
Combo4 : 205,113,105
Sliderborder : 255,255,255

[HitObjects]
79,130,5633,6,2,P|43:172|80:258,1,150,2|0,1:0|0:0,0:0:0:0:
182,197,5967,2,0,P|161:142|70:133,1,150,10|0,0:0|0:0,0:0:0:0:
72,253,6300,2,2,P|128:263|182:188,1,150,2|0,1:0|0:0,0:0:0:0:
79,130,6633,2,0,P|43:172|80:258,1,150,10|0,0:0|0:0,0:0:0:0:
113,192,6967,5,2,1:0:0:0:
256,192,7133,1,2,0:0:0:0:
400,192,7300,2,0,B|436:157|436:157|436:108,1,100,10|0,0:0|0:0,0:0:0:0:
363,35,7633,2,0,B|327:70|327:70|327:119,1,100,2|2,1:0|0:0,0:0:0:0:
328,265,7967,1,10,0:0:0:0:
433,130,8133,5,2,0:0:0:0:
433,130,8217,1,2,0:0:0:0:
433,130,8300,2,2,P|469:172|432:258,1,150,2|0,1:0|0:0,0:0:0:0:
328,196,8633,2,0,P|347:143|439:132,1,150,10|0,0:0|0:0,0:0:0:0:
440,253,8967,2,2,P|384:262|329:188,1,150,2|0,1:0|0:0,0:0:0:0:
433,130,9300,2,0,P|469:172|432:258,1,150,10|0,0:0|0:0,0:0:0:0:
399,192,9633,5,2,1:0:0:0:
256,192,9799,1,2,0:0:0:0:
112,192,9966,2,0,B|76:157|76:157|76:108,1,100,10|0,0:0|0:0,0:0:0:0:
149,35,10299,2,0,B|185:70|185:70|185:119,1,100,2|2,1:0|0:0,0:0:0:0:
185,119,10549,1,10,0:0:0:0:
185,119,10633,1,10,0:0:0:0:
184,264,10799,5,8,0:0:0:0:
184,264,10883,1,8,0:0:0:0:
184,264,10966,2,2,B|256:284|256:284|328:264,1,150,6|0,1:0|0:0,0:0:0:0:
328,338,11299,2,0,B|256:358|256:358|184:338,1,150,10|0,0:0|0:0,0:0:0:0:
184,264,11633,2,2,B|256:284|256:284|328:264,1,150,2|0,1:0|0:0,0:0:0:0:
328,190,11966,2,0,B|256:210|256:210|184:190,1,150,10|0,0:0|0:0,0:0:0:0:
113,161,12299,5,2,1:0:0:0:
256,114,12466,1,2,0:0:0:0:
399,161,12633,2,0,P|445:185|480:161,1,100,10|2,0:0|0:0,0:0:0:0:
480,36,12966,2,0,P|439:11|399:36,1,100,2|2,1:0|0:0,0:0:0:0:
440,98,13299,1,10,0:0:0:0:
184,120,13466,5,2,0:0:0:0:
184,120,13550,1,2,0:0:0:0:
184,120,13633,2,2,B|256:100|256:100|328:120,1,150,2|0,1:0|0:0,0:0:0:0:
328,46,13966,2,0,B|256:26|256:26|184:46,1,150,10|0,0:0|0:0,0:0:0:0:
184,120,14300,2,2,B|256:100|256:100|328:120,1,150,2|0,1:0|0:0,0:0:0:0:
328,194,14633,2,0,B|256:174|256:174|184:194,1,150,10|0,0:0|0:0,0:0:0:0:
113,223,14966,5,2,1:0:0:0:
256,270,15133,1,2,0:0:0:0:
399,223,15300,2,0,P|445:199|480:223,1,100,10|2,0:0|0:0,0:0:0:0:
480,347,15633,1,0,1:0:0:0:
463,365,15716,1,8,0:0:0:0:
439,372,15799,1,8,0:0:0:0:
416,365,15883,1,8,0:0:0:0:
398,347,15966,1,8,0:0:0:0:
342,285,16133,5,8,0:0:0:0:
342,285,16216,1,8,0:0:0:0:
342,285,16299,2,2,P|256:355|170:285,1,200,10|10,0:0|0:0,0:0:0:0:
186,320,16799,1,2,0:0:0:0:
180,239,16966,2,2,P|91:207|25:275,1,200,2|10,0:0|0:0,0:0:0:0:
169,99,17633,6,2,P|236:31|325:63,1,200,2|10,0:0|0:0,0:0:0:0:
331,144,18132,2,2,P|420:176|487:109,1,200
325,63,18633,1,10,0:0:0:0:
325,63,18716,1,2,0:0:0:0:
325,63,18799,1,2,0:0:0:0:
188,301,18966,6,2,L|170:101,1,200,2|10,0:0|0:0,0:0:0:0:
170,101,19466,1,2,0:0:0:0:
9,54,19633,2,2,L|26:253,1,200,2|10,0:0|0:0,0:0:0:0:
324,301,20299,6,2,L|341:101,1,200,2|10,0:0|0:0,0:0:0:0:
503,54,20799,2,2,L|485:253,1,200,2|10,0:0|0:0,0:0:0:0:
485,253,21299,1,10,0:0:0:0:
412,176,21466,1,2,0:0:0:0:
200,290,21633,6,2,B|207:350|207:350|69:371,1,200,6|10,0:0|0:0,0:0:0:0:
68,371,22132,1,2,0:0:0:0:
4,291,22299,2,2,B|-4:232|-4:232|135:210,1,200,2|10,0:0|0:0,0:0:0:0:
377,174,22966,6,2,B|516:152|516:152|508:93,1,200,2|10,0:0|0:0,0:0:0:0:
443,13,23466,2,2,B|305:34|305:34|312:94,1,200
377,174,23966,1,10,0:0:0:0:
377,174,24133,1,2,0:0:0:0:
477,371,24299,6,2,P|441:327|309:341,1,200,2|10,0:0|0:0,0:0:0:0:
310,339,24799,1,2,0:0:0:0:
201,339,24966,2,2,P|109:310|35:371,1,200,2|10,0:0|0:0,0:0:0:0:
35,13,25633,6,2,P|71:57|203:43,1,200,2|10,0:0|0:0,0:0:0:0:
310,44,26133,2,2,P|402:73|477:13,1,200
415,101,26633,1,10,0:0:0:0:
415,101,26716,1,2,0:0:0:0:
415,101,26799,2,2,P|409:129|417:150,1,50
487,247,26966,6,2,P|477:313|330:243,1,300,6|2,0:0|0:0,0:0:0:0:
408,268,27633,1,2,0:0:0:0:
408,268,27799,1,2,0:0:0:0:
272,184,27966,2,0,P|233:182|192:225,1,100,10|2,0:0|0:0,0:0:0:0:
51,372,28299,6,0,P|37:286|10:176,1,200,2|10,0:0|0:0,0:0:0:0:
10,176,28799,1,2,0:0:0:0:
134,357,28966,6,0,P|120:271|93:161,1,200,2|10,0:0|0:0,0:0:0:0:
93,161,29466,1,2,0:0:0:0:
197,243,29633,6,0,P|208:295|215:348,1,100,2|2,0:0|0:0,0:0:0:0:
297,341,29966,2,0,P|304:291|315:243,1,100,10|2,0:0|0:0,0:0:0:0:
417,160,30299,5,2,0:0:0:0:
417,160,30466,2,0,P|393:257|377:356,1,200,2|6,0:0|0:0,0:0:0:0:
460,371,30966,5,0,0:0:0:0:
476,272,31132,1,2,0:0:0:0:
500,175,31299,1,10,0:0:0:0:
417,160,31466,5,8,0:0:0:0:
417,160,31549,1,8,0:0:0:0:
417,160,31633,1,10,0:0:0:0:
393,257,31800,1,10,0:0:0:0:
376,356,31966,1,10,0:0:0:0:
311,241,32133,5,8,0:0:0:0:
311,241,32216,1,8,0:0:0:0:
311,241,32299,2,0,B|238:168|169:249|185:255|119:322|43:264,1,300,14|2,0:0|0:0,0:0:0:0:
104,193,32966,1,2,0:0:0:0:
104,193,33133,1,2,0:0:0:0:
11,165,33299,1,10,0:0:0:0:
114,31,33466,6,0,B|177:22|186:85|186:85|199:180,1,200,2|2,0:0|0:0,0:0:0:0:
398,31,33966,6,0,P|350:41|327:83,1,100,10|2,0:0|0:0,0:0:0:0:
313,180,34299,1,2,0:0:0:0:
313,180,34466,1,2,0:0:0:0:
501,165,34633,6,0,P|477:122|429:112,1,100,10|2,0:0|0:0,0:0:0:0:
300,277,34966,6,0,L|518:259,1,200,2|10,0:0|0:0,0:0:0:0:
212,277,35633,5,2,0:0:0:0:
212,277,35799,2,0,L|102:267,1,100,2|10,0:0|0:0,0:0:0:0:
12,260,36133,6,0,B|16:336|80:353|80:353|432:353|432:353|496:336|499:261,1,600,6|2,0:0|0:0,0:0:0:0:
448,192,37299,1,8,0:0:0:0:
499,124,37466,5,8,0:0:0:0:
499,124,37549,1,8,0:0:0:0:
499,124,37633,2,0,B|423:60|329:140|408:182|316:246|256:192,1,300,14|2,0:0|0:0,0:0:0:0:
203,123,38299,1,2,0:0:0:0:
203,123,38466,1,2,0:0:0:0:
252,42,38633,2,0,P|290:79|300:132,1,100,10|2,0:0|0:0,0:0:0:0:
168,203,38966,6,0,P|114:125|161:43,1,200,2|10,0:0|0:0,0:0:0:0:
161,44,39466,1,2,0:0:0:0:
256,192,39633,6,0,P|215:277|120:277,1,200,2|10,0:0|0:0,0:0:0:0:
120,277,40133,1,2,0:0:0:0:
120,365,40299,6,0,P|175:370|223:356,1,100,2|2,0:0|0:0,0:0:0:0:
392,365,40633,2,0,P|337:370|289:356,1,100,10|2,0:0|0:0,0:0:0:0:
217,358,40966,1,2,0:0:0:0:
294,358,41133,2,0,B|324:327|305:263|266:277|260:221,1,150,2|2,0:0|0:0,0:0:0:0:
256,192,41466,1,6,0:0:0:0:
390,121,41633,5,2,0:0:0:0:
345,199,41799,1,2,0:0:0:0:
256,192,41966,1,10,0:0:0:0:
122,121,42133,5,8,0:0:0:0:
122,121,42216,1,8,0:0:0:0:
122,121,42299,1,10,0:0:0:0:
167,199,42465,1,10,0:0:0:0:
256,192,42632,1,10,0:0:0:0:
256,96,42799,5,8,0:0:0:0:
256,96,42883,1,8,0:0:0:0:
256,96,42966,2,2,B|252:31|192:16|192:16|0:16,1,300,10|2,0:0|0:0,0:0:0:0:
56,96,43633,2,2,L|160:96,1,100
306,176,43966,2,2,L|206:176,1,100,10|2,0:0|0:0,0:0:0:0:
256,96,44299,6,2,B|260:31|320:16|320:16|512:16,1,300
456,96,44966,1,2,0:0:0:0:
356,96,45133,1,2,0:0:0:0:
356,96,45216,1,0,0:0:0:0:
356,96,45299,2,2,P|386:143|392:207,1,100,14|2,0:0|0:0,0:0:0:0:
363,299,45633,5,10,0:0:0:0:
394,275,45716,1,2,0:0:0:0:
427,298,45799,1,10,0:0:0:0:
415,336,45883,1,2,0:0:0:0:
374,336,45966,1,10,0:0:0:0:
149,299,46299,5,10,0:0:0:0:
118,275,46382,1,2,0:0:0:0:
85,298,46465,1,10,0:0:0:0:
97,336,46549,1,2,0:0:0:0:
138,336,46632,1,10,0:0:0:0:
200,236,46799,6,0,B|188:218|169:213|169:213|342:213|342:213|323:218|312:236,1,250,14|10,0:0|0:0,0:0:0:0:
256,328,47299,5,10,0:0:0:0:
256,328,47466,1,10,0:0:0:0:
256,56,47633,1,10,0:0:0:0:
256,191,47799,5,8,0:0:0:0:
291,191,47882,1,8,0:0:0:0:
326,191,47966,1,8,0:0:0:0:
361,191,48049,1,8,0:0:0:0:
400,191,48132,1,8,0:0:0:0:
435,191,48216,1,8,0:0:0:0:
471,191,48299,6,2,P|450:242|357:250,1,150,6|0,1:0|0:0,0:0:0:0:
362,131,48633,2,0,P|418:123|471:199,1,150,10|2,0:0|0:0,0:0:0:0:
363,254,48966,2,2,P|329:209|368:126,1,150,2|0,1:0|0:0,0:0:0:0:
471,191,49299,2,0,P|450:242|357:250,1,150,10|0,0:0|0:0,0:0:0:0:
399,192,49633,5,2,1:0:0:0:
256,192,49799,1,2,0:0:0:0:
112,192,49966,2,0,P|92:232|112:280,1,100,10|0,0:0|0:0,0:0:0:0:
256,192,50299,2,0,P|276:152|256:104,1,100,2|2,1:0|0:0,0:0:0:0:
184,316,50633,1,10,0:0:0:0:
42,192,50799,5,2,0:0:0:0:
42,192,50883,1,0,0:0:0:0:
42,192,50966,2,2,P|62:140|155:132,1,150,2|0,1:0|0:0,0:0:0:0:
151,253,51300,2,0,P|94:260|41:184,1,150,10|2,0:0|0:0,0:0:0:0:
147,127,51633,2,2,P|181:174|151:253,1,150,2|0,1:0|0:0,0:0:0:0:
42,192,51966,2,0,P|62:140|155:132,1,150,10|0,0:0|0:0,0:0:0:0:
113,192,52299,5,2,1:0:0:0:
256,192,52465,1,2,0:0:0:0:
400,192,52632,2,0,P|420:232|400:280,1,100,10|0,0:0|0:0,0:0:0:0:
256,192,52966,2,0,P|236:152|256:104,1,100,2|2,1:0|0:0,0:0:0:0:
256,103,53216,1,2,0:0:0:0:
256,103,53299,1,10,0:0:0:0:
399,280,53466,5,2,0:0:0:0:
399,280,53549,1,2,0:0:0:0:
399,280,53633,2,2,B|336:280|336:280|320:296|320:296|256:296,1,150,6|0,1:0|0:0,0:0:0:0:
185,354,53966,2,0,B|185:291|185:291|169:275|169:275|169:211,1,150,10|2,0:0|0:0,0:0:0:0:
111,140,54299,2,2,B|174:140|174:140|190:124|190:124|254:124,1,150,2|0,1:0|0:0,0:0:0:0:
325,66,54633,2,0,B|325:129|325:129|341:145|341:145|341:209,1,150,10|0,0:0|0:0,0:0:0:0:
399,280,54966,5,2,1:0:0:0:
256,208,55133,1,2,0:0:0:0:
113,280,55299,2,0,B|113:327|113:327|120:336|120:336|120:377,1,100,10|0,0:0|0:0,0:0:0:0:
169,210,55633,2,0,B|169:163|169:163|176:154|176:154|176:113,1,100,2|2,1:0|0:0,0:0:0:0:
256,208,55966,1,10,0:0:0:0:
113,280,56133,5,2,0:0:0:0:
113,280,56216,1,2,0:0:0:0:
113,280,56300,2,2,B|176:280|176:280|192:296|192:296|256:296,1,150,2|0,1:0|0:0,0:0:0:0:
327,354,56633,2,0,B|327:291|327:291|343:275|343:275|343:211,1,150,10|2,0:0|0:0,0:0:0:0:
401,140,56966,2,2,B|338:140|338:140|322:124|322:124|258:124,1,150,2|0,1:0|0:0,0:0:0:0:
187,66,57300,2,0,B|187:129|187:129|171:145|171:145|171:209,1,150,10|0,0:0|0:0,0:0:0:0:
113,280,57633,5,2,1:0:0:0:
256,208,57800,1,2,0:0:0:0:
399,280,57966,2,0,B|399:327|399:327|392:336|392:336|392:377,1,100,10|0,0:0|0:0,0:0:0:0:
343,210,58299,1,2,1:0:0:0:
256,208,58466,1,8,0:0:0:0:
256,232,58549,1,8,0:0:0:0:
256,257,58633,1,10,0:0:0:0:
256,281,58716,1,8,0:0:0:0:
256,305,58799,1,8,0:0:0:0:
100,192,58966,5,6,1:0:0:0:
178,56,59133,1,2,0:0:0:0:
335,56,59299,1,10,0:0:0:0:
413,191,59466,1,2,0:0:0:0:
334,327,59633,5,2,1:0:0:0:
334,327,59716,1,0,0:0:0:0:
334,327,59799,1,2,1:0:0:0:
178,327,59966,2,0,P|205:341|215:380,1,62.5,10|0,0:0|0:0,0:0:0:0:
413,191,60299,5,2,1:0:0:0:
335,56,60466,1,2,0:0:0:0:
178,56,60632,1,10,0:0:0:0:
100,192,60799,1,2,0:0:0:0:
178,327,60966,5,2,1:0:0:0:
178,327,61049,1,0,0:0:0:0:
178,327,61132,1,2,1:0:0:0:
335,327,61299,2,0,P|308:341|298:380,1,62.5,10|0,0:0|0:0,0:0:0:0:
480,258,61633,5,2,1:0:0:0:
478,126,61800,1,2,0:0:0:0:
348,126,61966,1,10,0:0:0:0:
347,257,62133,1,2,0:0:0:0:
413,191,62299,5,2,1:0:0:0:
413,191,62383,1,0,0:0:0:0:
413,191,62466,1,2,1:0:0:0:
256,192,62633,2,0,L|256:128,1,62.5,10|0,0:0|0:0,0:0:0:0:
32,258,62966,5,2,1:0:0:0:
34,126,63133,1,2,0:0:0:0:
164,126,63299,1,10,0:0:0:0:
165,257,63466,1,2,0:0:0:0:
99,191,63632,5,2,1:0:0:0:
99,191,63716,1,0,0:0:0:0:
99,191,63799,1,2,1:0:0:0:
256,192,63966,2,2,L|256:256,1,62.5,10|2,0:0|0:0,0:0:0:0:
99,61,64299,5,6,1:0:0:0:
99,61,64466,1,2,0:0:0:0:
256,16,64633,1,10,0:0:0:0:
256,16,64799,1,2,0:0:0:0:
413,61,64966,5,2,1:0:0:0:
413,61,65049,1,2,0:0:0:0:
413,61,65133,1,2,1:0:0:0:
256,106,65299,2,0,L|256:44,1,62.5,10|0,0:0|0:0,0:0:0:0:
413,323,65633,5,2,1:0:0:0:
413,323,65800,1,2,0:0:0:0:
256,368,65967,1,10,0:0:0:0:
256,368,66133,1,2,0:0:0:0:
99,323,66300,5,2,1:0:0:0:
99,323,66383,1,2,0:0:0:0:
99,323,66467,1,2,1:0:0:0:
256,278,66633,2,0,L|256:340,1,62.5,10|0,0:0|0:0,0:0:0:0:
496,192,66966,5,2,1:0:0:0:
431,101,67133,1,2,0:0:0:0:
324,136,67299,1,10,0:0:0:0:
324,248,67466,1,2,0:0:0:0:
431,284,67633,5,2,1:0:0:0:
431,284,67716,1,2,0:0:0:0:
431,284,67799,1,2,1:0:0:0:
401,192,67966,2,0,L|420:133,1,62.5,10|0,0:0|0:0,0:0:0:0:
16,192,68299,5,2,1:0:0:0:
81,101,68466,1,2,0:0:0:0:
188,136,68632,1,10,0:0:0:0:
188,248,68799,1,2,0:0:0:0:
81,284,68966,5,2,1:0:0:0:
81,284,69049,1,10,0:0:0:0:
81,284,69132,1,2,1:0:0:0:
110,192,69299,5,10,0:0:0:0:
103,169,69383,1,10,0:0:0:0:
96,147,69466,1,10,0:0:0:0:
89,124,69549,1,10,0:0:0:0:
81,101,69633,6,2,P|81:49|178:35,1,150,6|0,1:0|0:0,0:0:0:0:
183,42,69966,2,0,P|189:99|159:128,1,100,10|0,0:0|0:0,0:0:0:0:
431,101,70299,6,0,P|431:49|334:35,1,150,2|0,1:0|0:0,0:0:0:0:
329,42,70632,2,0,P|323:99|353:128,1,100,10|0,0:0|0:0,0:0:0:0:
256,352,70966,5,2,1:0:0:0:
196,272,71133,1,2,0:0:0:0:
256,192,71299,1,10,0:0:0:0:
316,272,71466,1,2,0:0:0:0:
256,352,71633,5,2,1:0:0:0:
256,112,71966,1,10,0:0:0:0:
337,352,72299,6,2,P|387:344|401:250,1,150,2|0,1:0|0:0,0:0:0:0:
396,245,72633,2,0,L|297:256,1,100,10|0,0:0|0:0,0:0:0:0:
175,352,72966,6,0,P|125:344|111:250,1,150,2|0,1:0|0:0,0:0:0:0:
116,245,73300,2,0,L|215:256,1,100,10|0,0:0|0:0,0:0:0:0:
406,151,73633,5,2,1:0:0:0:
362,60,73799,1,2,0:0:0:0:
255,23,73966,1,10,0:0:0:0:
149,60,74133,1,2,0:0:0:0:
105,151,74299,5,2,1:0:0:0:
406,151,74549,1,0,0:0:0:0:
406,151,74633,1,10,0:0:0:0:
256,232,74799,5,8,0:0:0:0:
256,232,74883,1,8,0:0:0:0:
256,232,74966,2,0,B|204:210|204:210|110:248,1,150,2|0,1:0|0:0,0:0:0:0:
103,254,75299,2,0,P|91:293|146:322,1,100,10|0,0:0|0:0,0:0:0:0:
256,232,75633,6,0,B|307:210|307:210|401:248,1,150,2|0,1:0|0:0,0:0:0:0:
409,254,75966,2,0,P|421:293|366:322,1,100,10|0,0:0|0:0,0:0:0:0:
208,136,76299,5,2,1:0:0:0:
208,40,76466,1,2,0:0:0:0:
304,136,76633,1,10,0:0:0:0:
304,40,76800,1,2,0:0:0:0:
125,88,76966,5,2,1:0:0:0:
387,88,77299,1,10,0:0:0:0:
125,88,77633,6,2,P|130:22|198:27,1,150,2|2,1:0|0:0,0:0:0:0:
208,40,77966,2,0,B|208:88|208:88|204:92|204:92|204:140,1,100,10|0,0:0|0:0,0:0:0:0:
387,88,78299,6,2,P|382:22|314:27,1,150,2|2,1:0|0:0,0:0:0:0:
304,40,78632,2,0,B|304:88|304:88|308:92|308:92|308:140,1,100,10|0,0:0|0:0,0:0:0:0:
136,348,78966,5,2,1:0:0:0:
216,348,79133,1,2,0:0:0:0:
296,348,79300,1,8,0:0:0:0:
376,348,79466,1,2,0:0:0:0:
336,272,79633,5,2,1:0:0:0:
256,272,79800,1,10,0:0:0:0:
176,272,79967,1,10,0:0:0:0:
256,192,80133,5,2,0:0:0:0:
256,192,80216,1,2,0:0:0:0:
256,192,80299,1,2,0:0:0:0:
221,122,84299,6,2,B|200:66|253:15|348:62|294:157|256:192|256:192|217:227|165:320|258:369|308:318|291:262,1,500,2|8,0:0|0:0,0:0:0:0:
291,262,85299,1,8,0:0:0:0:
11,149,85633,6,2,B|107:181|107:181|126:282,1,200,6|10,0:0|0:0,0:0:0:0:
125,278,86133,1,2,0:0:0:0:
135,369,86299,2,2,B|39:337|39:337|20:236,1,200,2|10,0:0|0:0,0:0:0:0:
501,149,86966,6,2,B|405:181|405:181|386:282,1,200,2|10,0:0|0:0,0:0:0:0:
377,369,87466,2,2,B|473:337|473:337|492:236,1,200
386,278,87966,1,10,0:0:0:0:
386,278,88049,1,2,0:0:0:0:
386,278,88133,1,2,0:0:0:0:
176,154,88299,6,2,P|139:105|215:8,1,200,2|10,0:0|0:0,0:0:0:0:
210,8,88799,1,2,0:0:0:0:
301,8,88966,2,2,P|373:68|336:154,1,200,2|10,0:0|0:0,0:0:0:0:
176,230,89633,5,2,0:0:0:0:
139,317,89799,1,10,0:0:0:0:
210,375,89966,1,10,0:0:0:0:
301,375,90133,2,2,P|373:315|336:230,1,200
256,296,90633,1,10,0:0:0:0:
256,88,90799,5,2,0:0:0:0:
256,88,90883,1,2,0:0:0:0:
256,88,90966,2,2,B|296:27|362:83|366:91|386:173|512:144|520:58,1,300,6|2,0:0|0:0,0:0:0:0:
437,41,91633,1,2,0:0:0:0:
437,41,91799,1,2,0:0:0:0:
380,191,91966,2,2,P|367:241|390:282,1,100,10|2,0:0|0:0,0:0:0:0:
512,346,92299,6,2,B|425:359|425:359|406:354|406:354|314:366,1,200,2|10,0:0|0:0,0:0:0:0:
314,365,92799,1,2,0:0:0:0:
132,106,92966,6,2,B|164:187|164:187|178:201|178:201|213:287,1,200,2|10,0:0|0:0,0:0:0:0:
213,287,93466,1,2,0:0:0:0:
336,195,93633,6,2,B|297:287,1,100
314,365,93966,2,2,B|412:352,1,100,10|2,0:0|0:0,0:0:0:0:
198,365,94299,5,2,0:0:0:0:
198,365,94466,2,2,B|106:353|106:353|87:358|87:358|0:345,1,200,2|6,0:0|0:0,0:0:0:0:
215,287,94966,5,2,0:0:0:0:
176,195,95133,1,2,0:0:0:0:
256,132,95299,1,10,0:0:0:0:
297,287,95466,5,10,0:0:0:0:
297,287,95549,1,10,0:0:0:0:
297,287,95633,1,10,0:0:0:0:
336,195,95800,1,2,0:0:0:0:
256,132,95966,1,10,0:0:0:0:
256,356,96133,5,10,0:0:0:0:
256,356,96216,1,10,0:0:0:0:
256,356,96299,2,2,L|256:52,1,300,14|2,0:0|0:0,0:0:0:0:
196,8,96966,1,2,0:0:0:0:
196,8,97133,1,2,0:0:0:0:
316,8,97299,1,10,0:0:0:0:
471,142,97466,6,2,B|505:129|458:44|348:94|422:164|309:149,1,200
471,242,97966,6,2,B|496:258|469:298|431:292|410:281,1,100,10|2,0:0|0:0,0:0:0:0:
332,234,98299,1,2,0:0:0:0:
332,234,98466,1,2,0:0:0:0:
256,352,98633,6,2,B|229:365|208:322|232:292|252:279,1,100,10|2,0:0|0:0,0:0:0:0:
179,150,98966,6,2,B|90:164|164:94|54:44|7:129|41:142,1,200,2|10,0:0|0:0,0:0:0:0:
179,233,99633,5,2,0:0:0:0:
179,233,99799,2,2,B|144:224|125:242|121:274|91:286,1,100,2|10,0:0|0:0,0:0:0:0:
38,243,100133,6,2,B|172:228|164:352|164:352|228:352|256:317|256:317|284:352|348:352|348:352|340:228|468:243,1,600,6|2,0:0|0:0,0:0:0:0:
482,325,101299,1,10,0:0:0:0:
413,281,101466,5,10,0:0:0:0:
413,281,101549,1,10,0:0:0:0:
413,281,101633,2,2,B|335:259|334:133|406:106|415:140|451:67|416:16,1,300,14|2,0:0|0:0,0:0:0:0:
347,55,102299,1,2,0:0:0:0:
347,55,102466,1,2,0:0:0:0:
500,89,102633,2,2,P|479:145|448:178,1,100,10|2,0:0|0:0,0:0:0:0:
266,193,102966,6,2,P|202:119|194:21,1,200,2|10,0:0|0:0,0:0:0:0:
194,20,103466,1,2,0:0:0:0:
356,151,103633,6,2,B|386:213|358:258|344:243|312:296|344:348,1,200,2|10,0:0|0:0,0:0:0:0:
339,340,104133,1,2,0:0:0:0:
231,282,104299,6,2,L|128:291,1,100
3,374,104633,2,2,L|105:364,1,100,10|2,0:0|0:0,0:0:0:0:
172,358,104967,1,2,0:0:0:0:
60,297,105133,2,2,B|51:272|68:227|112:220|112:220|210:211,1,200,2|6,0:0|0:0,0:0:0:0:
305,211,105633,5,2,0:0:0:0:
368,145,105800,1,2,0:0:0:0:
338,60,105966,1,10,0:0:0:0:
207,211,106133,5,10,0:0:0:0:
207,211,106216,1,10,0:0:0:0:
207,211,106299,1,10,0:0:0:0:
144,145,106466,1,10,0:0:0:0:
174,60,106632,1,10,0:0:0:0:
304,211,106799,5,10,0:0:0:0:
304,211,106883,1,10,0:0:0:0:
304,211,106966,2,2,B|399:220|399:220|444:227|461:272|452:297,1,200,10|10,0:0|0:0,0:0:0:0:
418,375,107466,1,2,0:0:0:0:
418,375,107633,2,2,P|381:352|367:294,1,100
405,203,107966,2,2,P|443:182|500:199,1,100,10|2,0:0|0:0,0:0:0:0:
354,125,108299,6,2,B|259:133|259:133|214:140|197:185|206:210,1,200,2|10,0:0|0:0,0:0:0:0:
256,292,108799,1,2,0:0:0:0:
305,211,108966,1,2,0:0:0:0:
207,211,109133,1,2,0:0:0:0:
207,211,109216,1,2,0:0:0:0:
207,211,109299,2,2,P|168:231|111:214,1,100,14|2,0:0|0:0,0:0:0:0:
57,146,109633,5,10,0:0:0:0:
58,131,109716,1,2,0:0:0:0:
60,116,109799,1,10,0:0:0:0:
62,101,109883,1,2,0:0:0:0:
64,86,109966,1,10,0:0:0:0:
448,86,110299,5,10,0:0:0:0:
450,101,110382,1,2,0:0:0:0:
452,116,110466,1,10,0:0:0:0:
454,131,110549,1,2,0:0:0:0:
455,146,110632,1,10,0:0:0:0:
226,134,110799,6,0,B|219:120|208:113|208:113|256:28|256:28|304:113|304:113|294:120|287:134,1,250,14|10,0:0|0:0,0:0:0:0:
184,320,111299,1,10,0:0:0:0:
184,320,111466,1,10,0:0:0:0:
328,320,111633,1,10,0:0:0:0:
256,192,111799,5,8,0:0:0:0:
217,192,111882,1,8,0:0:0:0:
179,192,111966,1,8,0:0:0:0:
140,192,112049,1,8,0:0:0:0:
97,192,112132,1,8,0:0:0:0:
59,192,112216,1,8,0:0:0:0:
15,192,112299,6,2,B|56:263|56:263|138:264,1,165.000005035401,6|0,1:0|0:0,0:0:0:0:
138,119,112633,2,0,B|56:119|56:119|14:190,1,165.000005035401,10|2,0:0|0:0,0:0:0:0:
138,262,112966,2,2,B|179:191|179:191|139:120,1,165.000005035401,2|0,1:0|0:0,0:0:0:0:
15,192,113299,2,0,B|56:263|56:263|138:264,1,165.000005035401,10|0,0:0|0:0,0:0:0:0:
97,192,113633,5,2,1:0:0:0:
256,192,113799,1,2,0:0:0:0:
415,192,113966,2,0,B|456:228|456:228|456:284,1,110.000003356934,10|0,0:0|0:0,0:0:0:0:
297,361,114299,2,0,B|256:325|256:325|256:269,1,110.000003356934,2|2,1:0|0:0,0:0:0:0:
256,192,114633,1,10,0:0:0:0:
487,151,114799,5,0,0:0:0:0:
487,151,114883,1,0,0:0:0:0:
487,151,114966,2,2,B|487:233|487:233|416:275,1,165.000005035401,2|0,1:0|0:0,0:0:0:0:
343,149,115300,2,0,B|414:108|414:108|486:148,1,165.000005035401,10|0,0:0|0:0,0:0:0:0:
415,273,115633,2,2,B|344:232|344:232|343:151,1,165.000005035401,2|0,1:0|0:0,0:0:0:0:
487,151,115966,2,0,B|487:233|487:233|416:275,1,165.000005035401,10|0,0:0|0:0,0:0:0:0:
415,192,116300,5,2,1:0:0:0:
256,192,116466,1,2,0:0:0:0:
97,192,116633,2,0,B|56:228|56:228|56:284,1,110.000003356934,10|0,0:0|0:0,0:0:0:0:
215,361,116966,2,0,B|256:325|256:325|256:269,1,110.000003356934,2|2,1:0|0:0,0:0:0:0:
256,270,117216,1,0,0:0:0:0:
256,270,117299,1,10,0:0:0:0:
169,149,117466,5,10,0:0:0:0:
169,149,117549,1,10,0:0:0:0:
169,149,117633,2,2,P|118:109|74:109,1,110.000003356934,6|0,1:0|0:0,0:0:0:0:
157,11,117966,2,0,P|202:41|218:93,1,110.000003356934,10|0,0:0|0:0,0:0:0:0:
355,11,118299,6,2,P|310:41|294:93,1,110.000003356934,2|0,1:0|0:0,0:0:0:0:
343,149,118633,2,0,P|394:109|438:109,1,110.000003356934,10|0,0:0|0:0,0:0:0:0:
433,256,118966,5,2,1:0:0:0:
256,324,119133,1,2,0:0:0:0:
79,256,119299,2,0,B|61:233|64:200|88:208|88:177|79:152,1,110.000003356934,10|0,0:0|0:0,0:0:0:0:
256,219,119633,2,0,B|247:244|247:275|271:267|274:300|256:323,1,110.000003356934,2|2,1:0|0:0,0:0:0:0:
168,290,119966,1,10,0:0:0:0:
344,290,120133,5,0,0:0:0:0:
344,290,120216,1,0,0:0:0:0:
344,290,120299,2,2,P|376:342|422:357,1,110.000003356934,2|0,1:0|0:0,0:0:0:0:
433,256,120633,2,0,P|401:204|355:189,1,110.000003356934,10|0,0:0|0:0,0:0:0:0:
168,290,120966,6,2,P|136:342|90:357,1,110.000003356934,2|0,1:0|0:0,0:0:0:0:
79,256,121300,2,0,P|111:204|157:189,1,110.000003356934,10|0,0:0|0:0,0:0:0:0:
256,320,121633,5,2,1:0:0:0:
356,189,121799,1,2,0:0:0:0:
256,64,121966,2,0,B|237:88|248:120|264:112|269:142|256:168,1,110.000003356934,10|0,0:0|0:0,0:0:0:0:
256,320,122299,1,2,1:0:0:0:
156,189,122466,1,8,0:0:0:0:
131,167,122549,1,8,0:0:0:0:
98,158,122633,1,10,0:0:0:0:
66,167,122716,1,8,0:0:0:0:
42,189,122799,1,8,0:0:0:0:
256,320,122966,5,6,1:0:0:0:
394,366,123133,1,2,0:0:0:0:
485,246,123299,1,10,0:0:0:0:
398,124,123466,1,2,0:0:0:0:
256,167,123633,5,2,1:0:0:0:
256,167,123716,1,0,0:0:0:0:
256,167,123799,1,2,1:0:0:0:
358,245,123966,2,0,L|411:245,1,50,10|0,0:0|0:0,0:0:0:0:
256,320,124299,5,2,1:0:0:0:
118,366,124466,1,2,0:0:0:0:
27,246,124632,1,10,0:0:0:0:
114,124,124799,1,2,0:0:0:0:
256,167,124966,5,2,1:0:0:0:
256,167,125049,1,0,0:0:0:0:
256,167,125132,1,2,1:0:0:0:
154,245,125299,2,0,L|101:245,1,50,10|0,0:0|0:0,0:0:0:0:
398,124,125633,5,2,1:0:0:0:
290,23,125799,1,2,0:0:0:0:
256,167,125966,1,10,0:0:0:0:
364,268,126133,1,2,0:0:0:0:
506,225,126299,5,2,1:0:0:0:
506,225,126383,1,0,0:0:0:0:
506,225,126466,1,2,1:0:0:0:
398,124,126633,2,0,L|398:182,1,50,10|0,0:0|0:0,0:0:0:0:
114,124,126966,5,2,1:0:0:0:
222,23,127132,1,2,0:0:0:0:
256,167,127299,1,10,0:0:0:0:
148,268,127466,1,2,0:0:0:0:
6,225,127632,5,2,1:0:0:0:
6,225,127716,1,0,0:0:0:0:
6,225,127799,1,2,1:0:0:0:
114,124,127966,2,2,L|114:182,1,50,10|2,0:0|0:0,0:0:0:0:
165,340,128299,5,2,1:0:0:0:
347,340,128466,1,2,0:0:0:0:
148,268,128633,1,10,0:0:0:0:
364,268,128799,1,2,0:0:0:0:
95,319,128966,5,2,1:0:0:0:
95,319,129049,1,2,0:0:0:0:
95,319,129133,1,2,1:0:0:0:
417,319,129299,2,0,P|433:298|439:270,1,50,10|0,0:0|0:0,0:0:0:0:
347,44,129633,5,2,1:0:0:0:
165,44,129800,1,2,0:0:0:0:
364,116,129967,1,10,0:0:0:0:
148,116,130133,1,2,0:0:0:0:
417,65,130300,5,2,1:0:0:0:
417,65,130383,1,2,0:0:0:0:
417,65,130467,1,2,1:0:0:0:
95,65,130633,2,0,P|79:86|73:114,1,50,10|0,0:0|0:0,0:0:0:0:
256,340,130966,5,2,1:0:0:0:
148,268,131133,1,2,0:0:0:0:
256,192,131299,1,10,0:0:0:0:
364,116,131466,1,2,0:0:0:0:
256,44,131633,5,2,1:0:0:0:
256,44,131716,1,2,0:0:0:0:
256,44,131799,1,2,1:0:0:0:
256,192,131966,2,0,L|256:247,1,50,10|0,0:0|0:0,0:0:0:0:
256,340,132299,5,2,1:0:0:0:
364,268,132466,1,2,0:0:0:0:
256,192,132632,1,10,0:0:0:0:
148,116,132799,1,2,0:0:0:0:
256,44,132966,5,2,1:0:0:0:
256,44,133049,1,10,0:0:0:0:
256,44,133132,1,2,1:0:0:0:
364,116,133299,1,10,0:0:0:0:
396,139,133383,1,2,0:0:0:0:
435,144,133466,1,10,0:0:0:0:
473,135,133549,1,10,0:0:0:0:
496,97,133633,6,2,B|434:142|434:142|434:226,1,150,6|0,1:0|0:0,0:0:0:0:
434,240,133966,2,0,L|434:340,1,100,10|0,0:0|0:0,0:0:0:0:
194,97,134299,6,0,B|256:142|256:142|256:226,1,150,2|0,1:0|0:0,0:0:0:0:
256,240,134632,2,0,L|256:340,1,100,10|0,0:0|0:0,0:0:0:0:
344,372,134966,5,2,1:0:0:0:
434,340,135133,1,2,0:0:0:0:
344,272,135299,1,10,0:0:0:0:
434,240,135466,1,2,0:0:0:0:
344,172,135633,5,2,1:0:0:0:
344,172,135799,1,0,0:0:0:0:
434,340,135966,1,10,0:0:0:0:
16,97,136299,6,2,B|78:142|78:142|78:226,1,150,2|0,1:0|0:0,0:0:0:0:
78,240,136632,2,0,L|78:340,1,100,10|0,0:0|0:0,0:0:0:0:
318,97,136966,6,0,B|256:142|256:142|256:226,1,150,2|0,1:0|0:0,0:0:0:0:
256,240,137299,2,0,L|256:340,1,100,10|2,0:0|0:0,0:0:0:0:
168,372,137633,5,2,1:0:0:0:
78,340,137800,1,2,0:0:0:0:
168,272,137966,1,10,0:0:0:0:
78,240,138133,1,2,0:0:0:0:
168,172,138300,5,2,1:0:0:0:
168,172,138466,1,2,0:0:0:0:
78,340,138633,1,10,0:0:0:0:
10,99,138966,6,0,P|10:61|102:33,1,150,2|2,1:0|0:0,0:0:0:0:
117,49,139299,2,0,P|164:73|210:54,1,100,10|0,0:0|0:0,0:0:0:0:
502,99,139633,6,0,P|502:61|410:33,1,150,2|2,1:0|0:0,0:0:0:0:
395,49,139966,2,0,P|348:73|302:54,1,100,10|0,0:0|0:0,0:0:0:0:
92,128,140299,5,2,1:0:0:0:
175,163,140466,1,2,0:0:0:0:
256,116,140633,1,10,0:0:0:0:
337,163,140799,1,2,0:0:0:0:
420,128,140966,5,2,1:0:0:0:
420,128,141133,1,2,0:0:0:0:
256,192,141299,1,10,0:0:0:0:
502,285,141633,6,2,P|502:323|410:351,1,150,2|2,1:0|0:0,0:0:0:0:
395,335,141966,2,0,P|348:311|302:330,1,100,10|0,0:0|0:0,0:0:0:0:
10,285,142300,6,2,P|10:323|102:351,1,150,2|2,1:0|0:0,0:0:0:0:
117,335,142633,2,0,P|164:311|210:330,1,100,10|0,0:0|0:0,0:0:0:0:
420,256,142966,5,2,1:0:0:0:
337,221,143133,1,2,0:0:0:0:
256,268,143300,1,10,0:0:0:0:
175,221,143466,1,2,0:0:0:0:
92,256,143633,5,2,1:0:0:0:
92,256,143800,1,10,0:0:0:0:
256,192,143966,1,10,0:0:0:0:
256,167,144049,1,8,0:0:0:0:
256,141,144133,1,10,0:0:0:0:
341,368,144299,5,6,1:0:0:0:
470,368,144466,1,2,0:0:0:0:
509,244,144633,1,10,0:0:0:0:
403,169,144799,1,2,0:0:0:0:
298,245,144966,5,2,1:0:0:0:
298,245,145049,1,2,0:0:0:0:
298,245,145133,1,2,1:0:0:0:
256,64,145299,1,10,0:0:0:0:
171,368,145633,5,2,1:0:0:0:
42,368,145800,1,2,0:0:0:0:
3,244,145967,1,10,0:0:0:0:
109,169,146133,1,2,0:0:0:0:
214,245,146300,5,2,1:0:0:0:
214,245,146383,1,2,0:0:0:0:
214,245,146467,1,2,1:0:0:0:
256,64,146633,1,10,0:0:0:0:
300,312,146799,5,8,0:0:0:0:
300,312,146883,1,8,0:0:0:0:
300,312,146966,1,2,1:0:0:0:
406,371,147133,1,2,0:0:0:0:
512,312,147299,1,10,0:0:0:0:
512,194,147466,1,2,0:0:0:0:
406,253,147633,5,2,1:0:0:0:
406,253,147716,1,2,0:0:0:0:
406,253,147799,1,2,1:0:0:0:
407,131,147966,1,10,0:0:0:0:
212,312,148299,5,2,1:0:0:0:
106,371,148466,1,6,0:0:0:0:
0,312,148632,1,10,0:0:0:0:
0,194,148799,1,6,0:0:0:0:
106,253,148966,5,2,1:0:0:0:
106,253,149049,1,10,0:0:0:0:
106,253,149132,1,2,1:0:0:0:
105,131,149299,1,10,0:0:0:0:
105,131,149383,1,10,0:0:0:0:
105,131,149466,1,8,0:0:0:0:
312,192,149633,5,6,1:0:0:0:
407,50,149799,1,2,0:0:0:0:
256,100,149966,1,10,0:0:0:0:
105,50,150133,1,2,0:0:0:0:
200,192,150299,5,2,1:0:0:0:
200,192,150383,1,2,0:0:0:0:
200,192,150466,1,2,1:0:0:0:
256,20,150633,1,10,0:0:0:0:
312,192,150966,5,2,1:0:0:0:
407,334,151132,1,2,0:0:0:0:
256,284,151299,1,10,0:0:0:0:
105,334,151466,1,10,0:0:0:0:
200,192,151632,5,2,1:0:0:0:
200,192,151716,1,2,0:0:0:0:
200,192,151799,1,2,1:0:0:0:
256,364,151966,1,10,0:0:0:0:
424,192,152133,5,10,0:0:0:0:
424,192,152216,1,2,0:0:0:0:
424,192,152299,1,2,1:0:0:0:
503,113,152466,1,2,0:0:0:0:
424,34,152633,1,10,0:0:0:0:
345,113,152799,1,2,0:0:0:0:
424,271,152966,5,2,1:0:0:0:
424,271,153049,1,2,0:0:0:0:
424,271,153133,1,2,1:0:0:0:
256,113,153299,1,10,0:0:0:0:
88,192,153633,5,2,1:0:0:0:
61,165,153716,1,0,0:0:0:0:
34,138,153799,1,10,0:0:0:0:
8,112,153883,1,2,0:0:0:0:
36,86,153966,1,10,0:0:0:0:
62,60,154050,1,2,0:0:0:0:
89,33,154133,1,10,0:0:0:0:
88,271,154300,5,2,1:0:0:0:
88,271,154383,1,10,0:0:0:0:
88,271,154467,1,14,0:0:0:0:
256,113,154633,5,14,0:0:0:0:
