osu file format v14

[General]
AudioFilename: audio.mp3
AudioLeadIn: 0
PreviewTime: 48299
Countdown: 1
SampleSet: Soft
StackLeniency: 0.3
Mode: 0
LetterboxInBreaks: 0
UseSkinSprites: 1
SkinPreference:Default
EpilepsyWarning: 1
WidescreenStoryboard: 1

[Editor]
DistanceSpacing: 1
BeatDivisor: 4
GridSize: 8
TimelineZoom: 1

[Metadata]
Title:Tsurupettan (Game Ver.)
TitleUnicode:つるぺったん (Game Ver.)
Artist:Silver Forest
ArtistUnicode:Silver Forest
Creator:Bloxi
Version:Normal
Source:東方永夜抄 ~ Imperishable Night.
Tags:touhou 東方project japanese video game vgm novelty zun 2hu th8 in reitaisai 14 rts14 例大祭14 collective performance とうほうインスパイア くろねこ アキ カガリ 星河さきち kuroneko aki kagari hoshikawa sakichi toho inspire 東方萃奏楽 suisougaku chunithm sound voltex iv heavenly haven pettan hare yukai crossover ハレ晴レユカイ harupittan mojipittan 竹取飛翔 ~ Lunatic Princess 蓬莱山 輝夜 Houraisan Kaguya はるぴったん レッツゴー!陰陽師 let's lets go! onmyoji 伊吹 萃香 Ibuki Suika 電波 denpa ニコニコ動画 nico douga boshyman741 frey kival_evan deppyforce uberfazz flux3on fluxie phynta bnmc coppertine
BeatmapID:3690391
BeatmapSetID:1615177

[Difficulty]
HPDrainRate:3
CircleSize:3
OverallDifficulty:5
ApproachRate:6
SliderMultiplier:0.959999999999999
SliderTickRate:1

[Events]
//Background and Video events
0,0,"bg/bg6.jpg",0,0
//Break Periods
2,80499,84583
//Storyboard Layer 0 (Background)
//Storyboard Layer 1 (Fail)
//Storyboard Layer 2 (Pass)
//Storyboard Layer 3 (Foreground)
//Storyboard Layer 4 (Overlay)
//Storyboard Sound Samples

[TimingPoints]
300,333.333333333333,4,2,1,75,1,0
5633,-100,4,2,1,75,0,0
58966,-100,4,2,1,75,0,1
69633,-100,4,2,1,75,0,0
80299,-100,4,2,1,75,0,0
122966,-100,4,2,1,75,0,1
133633,-100,4,2,1,75,0,0
144299,-100,4,2,1,75,0,1
154799,-100,4,2,1,75,0,0
157633,-100,4,2,1,5,0,0

[Colours]
Combo1 : 224,170,143
Combo2 : 190,226,154
Combo3 : 148,128,202
Combo4 : 205,113,105
Sliderborder : 255,255,255

[HitObjects]
400,288,5633,6,2,L|400:392,1,95.9999999999999,2|10,1:0|0:0,0:0:0:0:
304,384,6299,2,2,L|200:384,1,95.9999999999999,2|10,1:0|0:0,0:0:0:0:
112,384,6966,2,2,L|112:272,1,95.9999999999999,2|10,1:0|0:0,0:0:0:0:
112,192,7633,1,2,1:0:0:0:
112,0,8299,6,2,L|224:0,1,95.9999999999999,2|10,1:0|0:0,0:0:0:0:
304,0,8965,2,2,L|408:0,1,95.9999999999999,2|10,1:0|0:0,0:0:0:0:
400,96,9632,2,2,L|400:208,1,95.9999999999999,2|10,1:0|0:0,0:0:0:0:
400,288,10299,1,2,1:0:0:0:
400,384,10633,1,10,0:0:0:0:
304,384,10966,6,2,L|208:384,1,95.9999999999999,6|10,1:0|0:0,0:0:0:0:
208,288,11633,2,2,L|208:184,1,95.9999999999999,2|10,1:0|0:0,0:0:0:0:
304,192,12299,1,2,1:0:0:0:
400,192,12633,1,10,0:0:0:0:
496,192,12966,1,2,1:0:0:0:
496,384,13633,6,2,L|384:384,1,95.9999999999999,2|10,1:0|0:0,0:0:0:0:
304,384,14299,2,2,L|304:272,1,95.9999999999999,2|10,1:0|0:0,0:0:0:0:
304,192,14966,2,0,L|304:88,1,95.9999999999999,2|10,1:0|0:0,0:0:0:0:
208,96,15633,1,0,1:0:0:0:
112,96,15966,1,8,0:0:0:0:
16,96,16299,6,0,L|16:256,1,144,2|2,0:0|0:0,0:0:0:0:
16,288,16966,1,2,0:0:0:0:
16,384,17299,1,10,0:0:0:0:
112,384,17633,2,0,L|224:384,1,95.9999999999999,2|10,0:0|0:0,0:0:0:0:
256,384,18133,1,2,0:0:0:0:
304,384,18299,2,2,L|400:384,1,95.9999999999999,2|10,0:0|0:0,0:0:0:0:
496,384,18966,6,0,L|496:280,1,95.9999999999999,2|10,0:0|0:0,0:0:0:0:
496,240,19466,1,2,0:0:0:0:
448,240,19633,1,2,0:0:0:0:
352,240,19966,1,10,0:0:0:0:
256,240,20299,2,0,L|152:240,1,95.9999999999999,2|10,0:0|0:0,0:0:0:0:
112,240,20799,1,2,0:0:0:0:
16,240,21133,1,10,0:0:0:0:
16,192,21299,1,10,0:0:0:0:
16,96,21633,6,2,L|120:96,1,95.9999999999999,6|10,0:0|0:0,0:0:0:0:
160,96,22133,1,2,0:0:0:0:
208,96,22299,2,2,L|208:0,1,95.9999999999999,2|10,0:0|0:0,0:0:0:0:
304,0,22966,1,2,0:0:0:0:
400,0,23299,1,10,0:0:0:0:
448,0,23466,2,0,L|448:144,1,144,2|10,0:0|0:0,0:0:0:0:
448,240,24299,6,0,L|344:240,1,95.9999999999999,2|10,0:0|0:0,0:0:0:0:
256,240,24966,2,2,L|256:144,1,95.9999999999999,2|10,0:0|0:0,0:0:0:0:
160,144,25633,1,2,0:0:0:0:
112,144,25799,1,10,0:0:0:0:
64,144,25966,1,10,0:0:0:0:
64,240,26299,1,2,0:0:0:0:
64,336,26633,1,10,0:0:0:0:
160,336,26966,6,2,L|360:336,1,192,6|2,0:0|0:0,0:0:0:0:
448,336,27966,1,10,0:0:0:0:
448,240,28299,2,2,L|448:40,1,192
304,48,29466,2,2,L|160:48,1,144,2|10,0:0|0:0,0:0:0:0:
64,48,30299,2,0,L|64:152,1,95.9999999999999,2|10,0:0|0:0,0:0:0:0:
64,192,30799,1,6,0:0:0:0:
64,240,30966,5,2,0:0:0:0:
160,240,31299,1,10,0:0:0:0:
256,240,31633,1,2,0:0:0:0:
256,336,31966,1,10,0:0:0:0:
352,336,32299,6,2,L|352:128,1,192,14|2,0:0|0:0,0:0:0:0:
352,48,33299,1,10,0:0:0:0:
256,48,33633,2,2,L|56:48,2,192
352,48,35299,1,10,0:0:0:0:
448,48,35633,1,2,0:0:0:0:
448,192,36133,2,2,L|200:192,1,240,6|2,0:0|0:0,0:0:0:0:
112,192,37299,1,8,0:0:0:0:
16,192,37633,6,2,L|16:80,1,95.9999999999999,14|10,0:0|0:0,0:0:0:0:
16,0,38299,1,2,0:0:0:0:
112,0,38633,1,10,0:0:0:0:
208,0,38966,2,2,L|408:0,1,192
400,144,40133,2,2,L|400:288,1,144,2|10,0:0|0:0,0:0:0:0:
304,288,40966,2,0,L|304:176,1,95.9999999999999,2|10,0:0|0:0,0:0:0:0:
304,144,41466,1,6,0:0:0:0:
304,96,41633,5,2,0:0:0:0:
400,96,41966,1,10,0:0:0:0:
496,96,42300,1,2,0:0:0:0:
496,0,42633,1,10,0:0:0:0:
400,0,42966,6,2,L|208:0,1,192,10|2,0:0|0:0,0:0:0:0:
208,96,43966,1,10,0:0:0:0:
208,192,44299,2,2,L|0:192,2,192,2|2|10,0:0|0:0|0:0,0:0:0:0:
304,192,45966,1,10,0:0:0:0:
400,192,46299,2,0,L|512:192,2,95.9999999999999,10|10|10,0:0|0:0|0:0,0:0:0:0:
400,288,47299,1,10,0:0:0:0:
400,384,47633,1,10,0:0:0:0:
304,384,47966,1,8,0:0:0:0:
208,384,48299,6,2,L|208:288,1,95.9999999999999,6|10,1:0|0:0,0:0:0:0:
208,192,48966,2,2,L|208:96,1,95.9999999999999,2|10,1:0|0:0,0:0:0:0:
208,0,49633,2,0,L|112:0,2,95.9999999999999,2|10|2,1:0|0:0|1:0,0:0:0:0:
400,0,50966,6,2,L|400:112,1,95.9999999999999,2|10,1:0|0:0,0:0:0:0:
400,192,51633,2,2,L|304:192,1,95.9999999999999,2|10,1:0|0:0,0:0:0:0:
208,192,52299,2,0,L|208:296,2,95.9999999999999,2|10|2,1:0|0:0|1:0,0:0:0:0:
400,192,53633,6,2,L|400:88,1,95.9999999999999,6|10,1:0|0:0,0:0:0:0:
304,96,54299,2,2,L|192:96,1,95.9999999999999,2|10,1:0|0:0,0:0:0:0:
112,96,54966,1,2,1:0:0:0:
16,96,55299,1,10,0:0:0:0:
16,192,55633,1,2,1:0:0:0:
16,384,56299,6,2,L|128:384,1,95.9999999999999,2|10,1:0|0:0,0:0:0:0:
208,384,56966,2,2,L|320:384,1,95.9999999999999,2|10,1:0|0:0,0:0:0:0:
400,384,57633,1,2,1:0:0:0:
400,288,57966,1,10,0:0:0:0:
400,192,58299,2,2,L|248:192,1,144,2|2,1:0|0:0,0:0:0:0:
208,192,58966,5,6,1:0:0:0:
112,192,59299,1,10,0:0:0:0:
112,96,59633,2,0,L|112:48,2,48,2|2|10,1:0|1:0|0:0,0:0:0:0:
208,96,60299,5,2,1:0:0:0:
304,96,60633,1,10,0:0:0:0:
400,96,60966,2,0,L|400:40,2,48,2|2|10,1:0|1:0|0:0,0:0:0:0:
400,192,61633,5,2,1:0:0:0:
304,192,61967,1,10,0:0:0:0:
208,192,62300,2,0,L|208:248,2,48,2|2|10,1:0|1:0|0:0,0:0:0:0:
208,96,62966,5,2,1:0:0:0:
112,96,63300,1,10,0:0:0:0:
16,96,63633,2,0,L|16:40,2,48,2|2|10,1:0|1:0|0:0,0:0:0:0:
16,192,64299,5,2,1:0:0:0:
16,288,64633,1,10,0:0:0:0:
16,384,64966,2,0,L|64:384,2,48,2|2|10,1:0|1:0|0:0,0:0:0:0:
16,288,65633,5,2,1:0:0:0:
112,288,65966,1,10,0:0:0:0:
208,288,66299,2,0,L|208:224,2,48,2|2|10,1:0|1:0|0:0,0:0:0:0:
208,384,66966,5,2,1:0:0:0:
304,384,67299,1,10,0:0:0:0:
400,384,67633,2,0,L|456:384,2,48,2|2|10,1:0|1:0|0:0,0:0:0:0:
400,288,68299,5,2,1:0:0:0:
400,192,68633,1,10,0:0:0:0:
304,192,68966,1,2,1:0:0:0:
208,192,69299,2,0,L|144:192,1,48,10|8,0:0|0:0,0:0:0:0:
112,192,69633,6,2,L|8:192,1,95.9999999999999,6|10,1:0|0:0,0:0:0:0:
16,96,70299,2,2,L|16:-8,1,95.9999999999999,2|10,1:0|0:0,0:0:0:0:
112,0,70966,1,2,1:0:0:0:
208,0,71299,1,10,0:0:0:0:
304,0,71633,2,2,L|304:96,1,95.9999999999999,2|10,1:0|0:0,0:0:0:0:
304,192,72299,6,2,L|408:192,1,95.9999999999999,2|10,1:0|0:0,0:0:0:0:
496,192,72966,2,2,L|496:296,1,95.9999999999999,2|10,1:0|0:0,0:0:0:0:
496,384,73633,1,2,1:0:0:0:
400,384,73966,1,10,0:0:0:0:
304,384,74299,2,2,L|304:288,1,95.9999999999999,2|10,1:0|0:0,0:0:0:0:
304,240,74799,1,10,0:0:0:0:
304,192,74966,6,0,L|192:192,1,95.9999999999999,2|10,1:0|0:0,0:0:0:0:
112,192,75633,2,0,L|0:192,1,95.9999999999999,2|10,1:0|0:0,0:0:0:0:
16,288,76299,1,2,1:0:0:0:
16,384,76633,1,10,0:0:0:0:
112,384,76966,2,0,L|208:384,1,95.9999999999999,2|10,1:0|0:0,0:0:0:0:
304,384,77633,6,2,L|400:384,1,95.9999999999999,2|10,1:0|0:0,0:0:0:0:
496,384,78299,2,2,L|496:280,1,95.9999999999999,2|10,1:0|0:0,0:0:0:0:
496,192,78966,2,0,L|384:192,1,95.9999999999999,2|8,1:0|0:0,0:0:0:0:
352,192,79466,1,2,0:0:0:0:
304,192,79633,2,0,L|304:80,2,95.9999999999999,2|10|2,1:0|0:0|0:0,0:0:0:0:
496,288,85633,6,0,L|496:128,1,144,6|2,0:0|0:0,0:0:0:0:
496,96,86300,1,10,0:0:0:0:
496,0,86633,1,10,0:0:0:0:
400,0,86967,2,0,L|288:0,1,95.9999999999999,2|10,0:0|0:0,0:0:0:0:
304,48,87467,1,2,0:0:0:0:
304,96,87633,2,2,L|208:96,1,95.9999999999999,2|10,0:0|0:0,0:0:0:0:
112,96,88300,6,0,L|112:200,1,95.9999999999999,2|10,0:0|0:0,0:0:0:0:
112,240,88800,1,2,0:0:0:0:
112,288,88967,1,2,0:0:0:0:
112,384,89299,2,0,L|216:384,1,95.9999999999999,10|2,0:0|0:0,0:0:0:0:
256,384,89799,1,10,0:0:0:0:
304,384,89966,1,10,0:0:0:0:
400,384,90299,2,0,L|400:288,1,95.9999999999999,2|10,0:0|0:0,0:0:0:0:
400,192,90966,6,2,L|200:192,1,192,6|2,0:0|0:0,0:0:0:0:
112,192,91966,1,10,0:0:0:0:
16,192,92299,2,2,L|16:-8,1,192
160,0,93466,2,2,L|304:0,1,144,2|10,0:0|0:0,0:0:0:0:
400,0,94299,2,0,L|400:104,1,95.9999999999999,2|10,0:0|0:0,0:0:0:0:
400,144,94799,1,6,0:0:0:0:
400,192,94966,5,2,0:0:0:0:
400,288,95299,1,10,0:0:0:0:
400,384,95633,1,2,0:0:0:0:
304,384,95966,1,10,0:0:0:0:
208,384,96299,6,2,L|208:176,1,192,10|2,0:0|0:0,0:0:0:0:
208,96,97299,1,10,0:0:0:0:
208,0,97633,2,2,L|8:0,2,192
304,0,99299,1,10,0:0:0:0:
400,0,99633,1,2,0:0:0:0:
400,144,100133,2,2,L|400:392,1,240,6|10,0:0|0:0,0:0:0:0:
304,384,101299,1,10,0:0:0:0:
208,384,101633,6,2,L|96:384,1,95.9999999999999,10|10,0:0|0:0,0:0:0:0:
16,384,102299,1,2,0:0:0:0:
16,288,102633,1,10,0:0:0:0:
16,192,102966,2,2,L|216:192,1,192
352,192,104133,2,2,L|352:48,1,144,2|10,0:0|0:0,0:0:0:0:
256,48,104966,2,0,L|160:48,1,95.9999999999999,2|10,0:0|0:0,0:0:0:0:
112,48,105466,1,6,0:0:0:0:
64,48,105633,5,2,0:0:0:0:
64,144,105966,1,10,0:0:0:0:
160,144,106300,1,2,0:0:0:0:
256,144,106633,1,10,0:0:0:0:
256,240,106966,6,2,L|448:240,1,192,10|2,0:0|0:0,0:0:0:0:
448,144,107966,1,10,0:0:0:0:
448,48,108299,2,2,L|240:48,2,192,2|2|10,0:0|0:0|0:0,0:0:0:0:
448,144,109966,1,10,0:0:0:0:
448,240,110299,2,0,L|336:240,2,95.9999999999999,10|10|10,0:0|0:0|0:0,0:0:0:0:
448,144,111299,1,10,0:0:0:0:
448,48,111633,1,10,0:0:0:0:
352,48,111966,1,8,0:0:0:0:
256,48,112299,6,2,L|256:144,1,95.9999999999999,6|10,1:0|0:0,0:0:0:0:
256,240,112966,2,2,L|256:336,1,95.9999999999999,2|10,1:0|0:0,0:0:0:0:
160,336,113633,2,0,L|64:336,2,95.9999999999999,2|10|2,1:0|0:0|1:0,0:0:0:0:
352,336,114966,6,2,L|352:224,1,95.9999999999999,2|10,1:0|0:0,0:0:0:0:
352,144,115633,2,2,L|256:144,1,95.9999999999999,2|10,1:0|0:0,0:0:0:0:
160,144,116299,2,0,L|56:144,2,95.9999999999999,2|10|2,1:0|0:0|1:0,0:0:0:0:
352,144,117633,6,2,L|352:248,1,95.9999999999999,6|10,1:0|0:0,0:0:0:0:
352,336,118299,2,2,L|456:336,1,95.9999999999999,2|10,1:0|0:0,0:0:0:0:
448,240,118966,1,2,1:0:0:0:
448,144,119299,1,10,0:0:0:0:
448,48,119633,1,2,1:0:0:0:
256,48,120299,6,2,L|160:48,1,95.9999999999999,2|10,1:0|0:0,0:0:0:0:
160,144,120966,2,2,L|48:144,1,95.9999999999999,2|10,1:0|0:0,0:0:0:0:
64,240,121633,1,2,1:0:0:0:
64,336,121966,1,10,0:0:0:0:
160,336,122299,2,2,L|312:336,1,144,2|2,1:0|0:0,0:0:0:0:
352,336,122966,5,6,1:0:0:0:
448,336,123299,1,10,0:0:0:0:
448,240,123633,2,0,L|448:192,2,48,2|2|10,1:0|1:0|0:0,0:0:0:0:
448,336,124299,5,2,1:0:0:0:
352,336,124633,1,10,0:0:0:0:
256,336,124966,2,0,L|256:280,2,48,2|2|10,1:0|1:0|0:0,0:0:0:0:
160,336,125633,5,2,1:0:0:0:
64,336,125967,1,10,0:0:0:0:
64,240,126299,2,0,L|64:184,2,48,2|2|10,1:0|1:0|0:0,0:0:0:0:
64,336,126966,5,2,1:0:0:0:
160,336,127300,1,10,0:0:0:0:
256,336,127633,2,0,L|312:336,2,48,2|2|10,1:0|1:0|0:0,0:0:0:0:
256,240,128299,5,2,1:0:0:0:
256,144,128633,1,10,0:0:0:0:
256,48,128966,2,0,L|256:0,2,48,2|2|10,1:0|1:0|0:0,0:0:0:0:
256,144,129633,5,2,1:0:0:0:
256,240,129966,1,10,0:0:0:0:
256,336,130299,2,0,L|256:400,2,48,2|2|10,1:0|1:0|0:0,0:0:0:0:
256,240,130966,5,2,1:0:0:0:
256,144,131299,1,10,0:0:0:0:
160,144,131633,2,0,L|104:144,2,48,2|2|10,1:0|1:0|0:0,0:0:0:0:
256,144,132299,5,2,1:0:0:0:
352,144,132633,1,10,0:0:0:0:
448,144,132966,1,2,1:0:0:0:
448,48,133299,2,0,L|448:0,1,48,10|8,0:0|0:0,0:0:0:0:
400,0,133633,6,2,L|296:0,1,95.9999999999999,6|10,1:0|0:0,0:0:0:0:
208,0,134299,2,2,L|104:0,1,95.9999999999999,2|10,1:0|0:0,0:0:0:0:
16,0,134966,1,2,1:0:0:0:
16,96,135299,1,10,0:0:0:0:
16,192,135633,2,2,L|16:288,1,95.9999999999999,2|10,1:0|0:0,0:0:0:0:
16,384,136299,6,2,L|120:384,1,95.9999999999999,2|10,1:0|0:0,0:0:0:0:
208,384,136966,2,2,L|208:280,1,95.9999999999999,2|10,1:0|0:0,0:0:0:0:
208,192,137633,1,2,1:0:0:0:
208,96,137966,1,10,0:0:0:0:
304,96,138299,2,2,L|400:96,1,95.9999999999999,2|10,1:0|0:0,0:0:0:0:
496,96,138966,6,0,L|496:208,1,95.9999999999999,2|10,1:0|0:0,0:0:0:0:
496,288,139633,2,0,L|384:288,1,95.9999999999999,2|10,1:0|0:0,0:0:0:0:
304,288,140299,1,2,1:0:0:0:
208,288,140633,1,10,0:0:0:0:
112,288,140966,2,0,L|16:288,1,95.9999999999999,2|10,1:0|0:0,0:0:0:0:
16,192,141633,6,2,L|16:96,1,95.9999999999999,2|10,1:0|0:0,0:0:0:0:
112,96,142299,2,2,L|216:96,1,95.9999999999999,2|10,1:0|0:0,0:0:0:0:
304,96,142966,2,0,L|416:96,1,95.9999999999999,2|10,1:0|0:0,0:0:0:0:
448,96,143466,1,2,0:0:0:0:
448,144,143633,2,0,L|448:256,1,95.9999999999999,2|10,1:0|0:0,0:0:0:0:
448,336,144299,5,6,1:0:0:0:
352,336,144633,1,10,0:0:0:0:
256,336,144966,2,0,L|200:336,2,48,2|2|10,1:0|1:0|0:0,0:0:0:0:
256,240,145633,6,2,L|256:192,1,48,2|2,1:0|0:0,0:0:0:0:
256,144,145966,2,2,L|256:96,1,48,10|2,0:0|0:0,0:0:0:0:
256,48,146299,2,2,L|200:48,2,48,2|2|10,1:0|1:0|0:0,0:0:0:0:
352,48,146966,5,2,1:0:0:0:
352,144,147299,1,10,0:0:0:0:
352,240,147633,2,2,L|408:240,2,48,2|2|10,1:0|1:0|0:0,0:0:0:0:
256,240,148299,6,2,L|256:192,1,48,2|2,1:0|0:0,0:0:0:0:
256,144,148633,2,2,L|208:144,1,48,10|2,0:0|0:0,0:0:0:0:
160,144,148966,2,2,L|104:144,2,48,2|2|10,1:0|1:0|0:0,0:0:0:0:
256,144,149633,5,6,1:0:0:0:
352,144,149966,1,10,0:0:0:0:
448,144,150299,2,2,L|448:80,2,48,2|2|10,1:0|1:0|0:0,0:0:0:0:
352,144,150966,6,2,L|304:144,1,48,2|2,1:0|0:0,0:0:0:0:
256,144,151299,2,2,L|256:96,1,48,10|2,0:0|0:0,0:0:0:0:
256,48,151633,2,2,L|320:48,2,48,2|2|10,1:0|1:0|0:0,0:0:0:0:
256,144,152299,5,2,1:0:0:0:
256,240,152633,1,10,0:0:0:0:
352,240,152966,2,2,L|352:304,2,48,2|2|10,1:0|1:0|0:0,0:0:0:0:
256,240,153633,6,2,L|208:240,1,48,2|2,1:0|0:0,0:0:0:0:
160,240,153966,2,2,L|160:184,1,48,10|2,0:0|0:0,0:0:0:0:
160,144,154299,2,0,L|160:80,2,48,2|14|14,1:0|0:0|0:0,0:0:0:0:
256,192,154799,12,0,157633,0:0:0:0:
