osu file format v14

[General]
AudioFilename: audio.mp3
AudioLeadIn: 0
PreviewTime: 48299
Countdown: 1
SampleSet: Soft
StackLeniency: 0
Mode: 0
LetterboxInBreaks: 0
UseSkinSprites: 1
SkinPreference:Default
EpilepsyWarning: 1
WidescreenStoryboard: 1

[Editor]
DistanceSpacing: 1
BeatDivisor: 16
GridSize: 8
TimelineZoom: 1

[Metadata]
Title:Tsurupettan (Game Ver.)
TitleUnicode:つるぺったん (Game Ver.)
Artist:Silver Forest
ArtistUnicode:Silver Forest
Creator:Bloxi
Version:Extra Stage
Source:東方永夜抄 ~ Imperishable Night.
Tags:touhou 東方project japanese video game vgm novelty zun 2hu th8 in reitaisai 14 rts14 例大祭14 collective performance とうほうインスパイア くろねこ アキ カガリ 星河さきち kuroneko aki kagari hoshikawa sakichi toho inspire 東方萃奏楽 suisougaku chunithm sound voltex iv heavenly haven pettan hare yukai crossover ハレ晴レユカイ harupittan mojipittan 竹取飛翔 ~ Lunatic Princess 蓬莱山 輝夜 Houraisan Kaguya はるぴったん レッツゴー!陰陽師 let's lets go! onmyoji 伊吹 萃香 Ibuki Suika 電波 denpa ニコニコ動画 nico douga boshyman741 frey kival_evan deppyforce uberfazz flux3on fluxie phynta bnmc coppertine
BeatmapID:3535586
BeatmapSetID:1615177

[Difficulty]
HPDrainRate:7
CircleSize:5
OverallDifficulty:9
ApproachRate:8
SliderMultiplier:1.92
SliderTickRate:1

[Events]
//Background and Video events
0,0,"bg/bg.jpg",0,0
//Break Periods
2,80499,84883
//Storyboard Layer 0 (Background)
//Storyboard Layer 1 (Fail)
//Storyboard Layer 2 (Pass)
//Storyboard Layer 3 (Foreground)
//Storyboard Layer 4 (Overlay)
//Storyboard Sound Samples

[TimingPoints]
300,333.333333333333,4,2,1,75,1,0
5633,-100,4,2,1,75,0,0
58966,-100,4,2,1,75,0,1
69633,-100,4,2,1,75,0,0
80049,-50,4,2,1,75,0,0
80299,-100,4,2,1,75,0,0
122966,-100,4,2,1,75,0,1
133633,-100,4,2,1,75,0,0
144299,-100,4,2,1,75,0,1
154799,-100,4,2,1,75,0,0
158966,-100,4,2,1,5,0,0

[Colours]
Combo1 : 224,170,143
Combo2 : 190,226,154
Combo3 : 148,128,202
Combo4 : 205,113,105
Sliderborder : 255,255,255

[HitObjects]
0,384,5633,6,2,L|192:384,1,192,2|10,1:0|0:0,0:0:0:0:
192,192,6299,2,2,L|0:192,1,192,2|10,1:0|0:0,0:0:0:0:
192,192,6966,6,2,L|192:288,1,96.0000000000002,2|2,1:0|0:0,0:0:0:0:
192,384,7299,1,10,0:0:0:0:
192,0,7633,1,2,1:0:0:0:
512,0,8299,6,2,L|320:0,1,192,2|10,1:0|0:0,0:0:0:0:
320,192,8966,2,2,L|128:192,1,192,2|10,1:0|0:0,0:0:0:0:
320,192,9633,6,2,L|416:192,1,96.0000000000002,2|2,1:0|0:0,0:0:0:0:
512,192,9966,1,10,0:0:0:0:
0,192,10299,1,2,1:0:0:0:
0,64,10549,1,10,0:0:0:0:
0,16,10633,1,10,0:0:0:0:
96,16,10799,5,8,0:0:0:0:
144,16,10883,1,8,0:0:0:0:
192,16,10966,2,2,L|384:16,1,192,6|10,1:0|0:0,0:0:0:0:
512,192,11633,2,2,L|320:192,1,192,2|10,1:0|0:0,0:0:0:0:
96,192,12299,5,2,1:0:0:0:
0,192,12466,1,2,0:0:0:0:
192,192,12633,1,10,0:0:0:0:
512,192,12966,1,2,1:0:0:0:
96,384,13633,6,2,L|96:192,1,192,2|10,1:0|0:0,0:0:0:0:
192,0,14299,2,2,L|192:192,1,192,2|10,1:0|0:0,0:0:0:0:
192,384,14966,5,2,1:0:0:0:
320,384,15133,1,2,0:0:0:0:
320,256,15299,1,10,0:0:0:0:
320,0,15633,5,0,1:0:0:0:
368,0,15716,1,10,0:0:0:0:
416,0,15799,1,8,0:0:0:0:
464,0,15883,1,8,0:0:0:0:
512,0,15966,1,8,0:0:0:0:
512,96,16133,1,8,0:0:0:0:
512,192,16299,1,2,0:0:0:0:
416,192,16466,5,2,0:0:0:0:
320,192,16633,1,10,0:0:0:0:
272,192,16716,1,2,0:0:0:0:
224,192,16799,1,2,0:0:0:0:
224,288,16966,5,2,0:0:0:0:
224,336,17049,1,2,0:0:0:0:
224,384,17133,1,2,0:0:0:0:
176,384,17216,1,2,0:0:0:0:
128,384,17299,1,10,0:0:0:0:
80,384,17383,1,2,0:0:0:0:
32,384,17466,1,2,0:0:0:0:
32,288,17633,5,2,0:0:0:0:
32,240,17716,1,2,0:0:0:0:
32,192,17799,1,2,0:0:0:0:
128,192,17966,1,10,0:0:0:0:
128,96,18133,1,2,0:0:0:0:
224,96,18299,2,2,L|272:96,2,48
128,96,18633,2,2,L|128:192,1,96,10|2,0:0|0:0,0:0:0:0:
32,192,18966,5,2,0:0:0:0:
32,144,19049,1,2,0:0:0:0:
32,96,19133,1,2,0:0:0:0:
128,96,19299,1,10,0:0:0:0:
128,144,19383,1,2,0:0:0:0:
128,192,19466,1,2,0:0:0:0:
224,192,19633,1,2,0:0:0:0:
224,144,19716,1,2,0:0:0:0:
224,96,19799,1,2,0:0:0:0:
224,0,19966,1,10,0:0:0:0:
128,0,20133,1,2,0:0:0:0:
128,96,20299,5,2,0:0:0:0:
224,96,20466,2,2,L|336:96,1,96,2|10,0:0|0:0,0:0:0:0:
368,96,20716,1,2,0:0:0:0:
416,96,20799,1,2,0:0:0:0:
512,96,20966,1,2,0:0:0:0:
512,144,21049,1,2,0:0:0:0:
512,192,21133,1,10,0:0:0:0:
512,240,21216,2,2,L|512:288,1,48,2|10,0:0|0:0,0:0:0:0:
416,384,21633,6,2,L|416:336,1,48,6|2,0:0|0:0,0:0:0:0:
416,288,21799,1,2,0:0:0:0:
416,240,21883,2,2,L|416:80,1,144
416,0,22299,2,2,L|512:0,1,96
512,96,22633,1,10,0:0:0:0:
464,96,22716,1,2,0:0:0:0:
416,96,22799,1,2,0:0:0:0:
320,96,22966,5,2,0:0:0:0:
272,96,23049,1,2,0:0:0:0:
272,144,23133,1,2,0:0:0:0:
224,144,23216,1,2,0:0:0:0:
224,192,23299,1,10,0:0:0:0:
128,192,23466,1,2,0:0:0:0:
32,192,23633,1,2,0:0:0:0:
32,240,23716,1,2,0:0:0:0:
32,288,23799,2,2,L|128:288,1,96,2|10,0:0|0:0,0:0:0:0:
320,288,24299,5,2,0:0:0:0:
368,288,24383,1,2,0:0:0:0:
416,288,24466,1,2,0:0:0:0:
416,336,24549,1,2,0:0:0:0:
416,384,24633,1,10,0:0:0:0:
512,384,24799,1,2,0:0:0:0:
512,288,24966,2,2,L|512:176,2,96,2|2|10,0:0|0:0|0:0,0:0:0:0:
416,288,25466,1,2,0:0:0:0:
416,192,25633,5,2,0:0:0:0:
368,192,25716,1,2,0:0:0:0:
320,192,25799,1,10,0:0:0:0:
320,96,25966,1,10,0:0:0:0:
416,96,26133,1,2,0:0:0:0:
416,0,26299,1,2,0:0:0:0:
368,0,26383,1,2,0:0:0:0:
272,0,26549,1,2,0:0:0:0:
320,0,26633,1,10,0:0:0:0:
512,0,26966,6,2,L|512:192,2,192,6|10|2,0:0|0:0|0:0,0:0:0:0:
320,0,27966,1,10,0:0:0:0:
320,192,28299,2,2,L|512:192,1,192,2|10,0:0|0:0,0:0:0:0:
512,384,28966,2,2,L|320:384,1,192,2|10,0:0|0:0,0:0:0:0:
320,288,29466,2,2,L|112:288,1,192
32,288,29966,1,10,0:0:0:0:
32,96,30299,5,2,0:0:0:0:
32,0,30466,1,2,0:0:0:0:
128,0,30633,1,10,0:0:0:0:
128,96,30799,1,6,0:0:0:0:
128,192,30966,2,2,L|240:192,2,96,2|2|10,0:0|0:0|0:0,0:0:0:0:
128,384,31633,1,2,0:0:0:0:
384,384,31966,1,10,0:0:0:0:
512,384,32133,5,8,0:0:0:0:
512,336,32216,1,8,0:0:0:0:
512,288,32299,2,2,L|512:96,2,192,14|10|2,0:0|0:0|0:0,0:0:0:0:
320,288,33299,1,10,0:0:0:0:
320,96,33633,2,2,L|112:96,1,192,2|10,0:0|0:0,0:0:0:0:
128,288,34299,2,2,L|416:288,1,288
416,192,34966,2,2,L|208:192,1,192,2|10,0:0|0:0,0:0:0:0:
224,0,35633,2,2,L|432:0,1,192,2|10,0:0|0:0,0:0:0:0:
416,192,36133,6,2,L|208:192,1,192,6|2,0:0|0:0,0:0:0:0:
128,192,36633,1,10,0:0:0:0:
32,192,36799,1,10,0:0:0:0:
32,144,36883,1,10,0:0:0:0:
32,96,36966,2,2,L|144:96,1,96,10|10,0:0|0:0,0:0:0:0:
224,96,37299,1,8,0:0:0:0:
320,96,37466,1,8,0:0:0:0:
320,144,37549,1,8,0:0:0:0:
320,192,37633,6,2,L|512:192,2,192,14|10|2,0:0|0:0|0:0,0:0:0:0:
128,192,38633,1,10,0:0:0:0:
128,0,38966,2,2,L|336:0,1,192,2|10,0:0|0:0,0:0:0:0:
320,288,39633,2,2,L|96:288,1,192,2|10,0:0|0:0,0:0:0:0:
96,192,40133,2,2,L|400:192,1,288,2|10,0:0|0:0,0:0:0:0:
384,384,40966,1,2,0:0:0:0:
384,288,41133,1,2,0:0:0:0:
384,192,41299,1,10,0:0:0:0:
384,384,41466,5,6,0:0:0:0:
288,384,41633,2,2,L|80:384,1,192,2|10,0:0|0:0,0:0:0:0:
64,192,42299,2,2,L|272:192,1,192,2|10,0:0|0:0,0:0:0:0:
352,192,42799,1,8,0:0:0:0:
400,192,42883,1,8,0:0:0:0:
448,192,42966,6,2,L|448:0,2,192,10|10|2,0:0|0:0|0:0,0:0:0:0:
448,384,43966,1,10,0:0:0:0:
256,384,44299,2,2,L|64:384,1,192,2|10,0:0|0:0,0:0:0:0:
16,192,44966,2,2,L|208:192,1,192,2|14,0:0|0:0,0:0:0:0:
208,384,45633,5,10,0:0:0:0:
160,384,45716,1,2,0:0:0:0:
112,384,45799,1,10,0:0:0:0:
64,384,45883,1,2,0:0:0:0:
16,384,45966,1,10,0:0:0:0:
16,192,46299,5,10,0:0:0:0:
16,240,46383,1,2,0:0:0:0:
64,240,46466,1,10,0:0:0:0:
64,288,46549,1,2,0:0:0:0:
112,288,46633,1,10,0:0:0:0:
208,288,46799,1,14,0:0:0:0:
304,288,46966,5,10,0:0:0:0:
304,192,47133,1,10,0:0:0:0:
208,192,47299,1,10,0:0:0:0:
208,96,47466,1,10,0:0:0:0:
304,96,47633,1,10,0:0:0:0:
304,0,47799,5,8,0:0:0:0:
256,0,47883,1,8,0:0:0:0:
208,0,47966,1,8,0:0:0:0:
208,48,48049,1,8,0:0:0:0:
208,96,48133,1,8,0:0:0:0:
160,96,48216,1,8,0:0:0:0:
112,96,48299,6,2,L|112:288,1,192,6|10,1:0|0:0,0:0:0:0:
400,288,48966,2,2,L|400:96,1,192,2|10,1:0|0:0,0:0:0:0:
400,288,49633,5,2,1:0:0:0:
304,288,49799,1,2,0:0:0:0:
496,288,49966,1,10,0:0:0:0:
16,288,50299,1,2,1:0:0:0:
16,288,50966,6,2,L|208:288,1,192,2|10,1:0|0:0,0:0:0:0:
208,96,51633,2,2,L|16:96,1,192,2|10,1:0|0:0,0:0:0:0:
208,96,52299,5,2,1:0:0:0:
304,96,52466,1,2,0:0:0:0:
112,96,52633,1,10,0:0:0:0:
496,96,52966,1,2,1:0:0:0:
496,288,53633,6,2,L|304:288,1,192,6|10,1:0|0:0,0:0:0:0:
136,192,54299,2,2,L|328:192,1,192,2|10,1:0|0:0,0:0:0:0:
328,0,54966,5,2,1:0:0:0:
232,0,55133,1,2,0:0:0:0:
424,0,55299,1,10,0:0:0:0:
424,192,55633,1,2,1:0:0:0:
32,192,56299,6,2,L|256:192,1,192,2|10,1:0|0:0,0:0:0:0:
224,384,56966,2,2,L|416:384,1,192,2|10,1:0|0:0,0:0:0:0:
416,192,57633,5,2,1:0:0:0:
416,96,57799,1,2,0:0:0:0:
416,288,57966,1,10,0:0:0:0:
96,288,58299,2,2,L|96:96,1,192,2|10,1:0|0:0,0:0:0:0:
256,272,58966,5,6,1:0:0:0:
256,112,59133,1,2,0:0:0:0:
336,192,59299,1,10,0:0:0:0:
176,192,59466,1,2,0:0:0:0:
496,192,59633,5,2,1:0:0:0:
496,240,59716,1,2,0:0:0:0:
496,288,59799,1,2,1:0:0:0:
496,384,59966,1,10,0:0:0:0:
256,112,60299,5,2,1:0:0:0:
256,272,60466,1,2,0:0:0:0:
176,192,60633,1,10,0:0:0:0:
336,192,60799,1,2,0:0:0:0:
16,192,60966,5,2,1:0:0:0:
16,144,61049,1,2,0:0:0:0:
16,96,61133,1,2,1:0:0:0:
16,0,61299,1,10,0:0:0:0:
336,192,61633,5,2,1:0:0:0:
255,272,61799,1,2,0:0:0:0:
176,192,61966,1,10,0:0:0:0:
256,112,62133,1,2,0:0:0:0:
256,384,62299,5,2,1:0:0:0:
304,384,62383,1,2,0:0:0:0:
352,384,62466,1,2,1:0:0:0:
448,384,62633,1,10,0:0:0:0:
176,192,62966,5,2,1:0:0:0:
256,112,63133,1,2,0:0:0:0:
336,192,63299,1,10,0:0:0:0:
256,272,63466,1,2,0:0:0:0:
256,0,63633,5,2,1:0:0:0:
208,0,63716,1,2,0:0:0:0:
160,0,63799,1,2,1:0:0:0:
64,0,63966,2,2,L|0:0,1,48,10|2,0:0|0:0,0:0:0:0:
16,144,64299,5,2,1:0:0:0:
176,144,64466,1,2,0:0:0:0:
48,240,64633,1,10,0:0:0:0:
96,80,64799,1,2,0:0:0:0:
144,240,64966,5,2,1:0:0:0:
192,240,65049,1,2,0:0:0:0:
240,240,65133,1,2,1:0:0:0:
336,240,65299,1,10,0:0:0:0:
496,240,65633,5,2,1:0:0:0:
336,240,65799,1,2,0:0:0:0:
464,144,65966,1,10,0:0:0:0:
416,304,66133,1,2,0:0:0:0:
368,144,66299,5,2,1:0:0:0:
320,144,66383,1,2,0:0:0:0:
272,144,66466,1,2,1:0:0:0:
176,144,66633,1,10,0:0:0:0:
112,64,66966,5,2,1:0:0:0:
112,224,67133,1,2,0:0:0:0:
16,96,67299,1,10,0:0:0:0:
176,144,67466,1,2,0:0:0:0:
16,192,67633,5,2,1:0:0:0:
16,240,67716,1,2,0:0:0:0:
16,288,67799,1,2,1:0:0:0:
16,384,67966,1,10,0:0:0:0:
256,384,68299,5,2,1:0:0:0:
256,192,68466,1,2,0:0:0:0:
256,288,68633,1,10,0:0:0:0:
256,96,68799,1,2,0:0:0:0:
256,0,68966,5,2,1:0:0:0:
304,0,69049,1,10,0:0:0:0:
352,0,69133,1,10,0:0:0:0:
400,0,69216,2,10,L|400:64,1,48
400,144,69466,1,8,0:0:0:0:
448,144,69549,1,8,0:0:0:0:
496,144,69633,6,2,L|496:336,1,192,6|10,1:0|0:0,0:0:0:0:
16,144,70299,2,2,L|16:336,1,192,2|10,1:0|0:0,0:0:0:0:
208,336,70966,1,2,1:0:0:0:
304,336,71133,1,2,0:0:0:0:
304,240,71299,1,10,0:0:0:0:
208,240,71466,1,2,0:0:0:0:
112,240,71633,2,2,L|112:32,1,192,2|10,1:0|0:0,0:0:0:0:
400,48,72299,6,2,L|400:240,1,192,2|10,1:0|0:0,0:0:0:0:
256,384,72966,2,2,L|256:192,1,192,2|10,1:0|0:0,0:0:0:0:
256,96,73466,1,2,0:0:0:0:
160,96,73633,1,2,1:0:0:0:
352,96,73799,2,2,L|448:96,1,96,2|10,0:0|0:0,0:0:0:0:
448,192,74133,1,2,0:0:0:0:
448,288,74299,2,2,L|240:288,1,192,2|10,1:0|0:0,0:0:0:0:
64,288,74966,5,2,1:0:0:0:
64,96,75133,1,2,0:0:0:0:
64,192,75299,1,10,0:0:0:0:
352,96,75633,5,2,1:0:0:0:
160,96,75799,1,2,0:0:0:0:
256,96,75966,1,10,0:0:0:0:
160,288,76299,5,2,1:0:0:0:
352,288,76466,1,2,0:0:0:0:
256,288,76633,1,10,0:0:0:0:
448,288,76799,1,2,0:0:0:0:
448,96,76966,1,2,1:0:0:0:
448,192,77133,1,2,0:0:0:0:
352,96,77299,1,10,0:0:0:0:
64,96,77633,6,2,L|176:96,2,96,2|2|10,1:0|0:0|0:0,0:0:0:0:
352,96,78299,2,2,L|256:96,2,96,2|2|10,1:0|0:0|0:0,0:0:0:0:
448,96,78966,1,2,1:0:0:0:
448,192,79133,1,2,0:0:0:0:
448,288,79300,2,2,L|448:192,1,96,10|2,0:0|0:0,0:0:0:0:
448,96,79633,5,2,1:0:0:0:
448,48,79716,1,10,0:0:0:0:
400,48,79799,1,10,0:0:0:0:
400,0,79883,1,10,0:0:0:0:
352,0,79966,1,10,0:0:0:0:
304,0,80049,6,2,L|-12:-1,1,288
16,192,85633,5,6,0:0:0:0:
16,288,85799,1,2,0:0:0:0:
16,384,85966,1,10,0:0:0:0:
64,384,86049,1,2,0:0:0:0:
112,384,86133,1,2,0:0:0:0:
112,288,86299,5,10,0:0:0:0:
112,240,86383,1,2,0:0:0:0:
112,192,86466,1,10,0:0:0:0:
160,192,86549,1,2,0:0:0:0:
208,192,86633,1,10,0:0:0:0:
208,144,86716,1,2,0:0:0:0:
208,96,86799,1,2,0:0:0:0:
208,0,86966,5,2,0:0:0:0:
256,0,87049,1,2,0:0:0:0:
304,0,87133,1,2,0:0:0:0:
304,96,87299,1,10,0:0:0:0:
304,192,87466,1,2,0:0:0:0:
400,192,87633,2,2,L|448:192,2,48
400,288,87966,2,2,L|400:384,1,96,10|2,0:0|0:0,0:0:0:0:
304,384,88299,5,2,0:0:0:0:
304,336,88383,1,2,0:0:0:0:
256,336,88466,1,2,0:0:0:0:
160,336,88633,1,10,0:0:0:0:
112,336,88716,1,2,0:0:0:0:
112,288,88799,1,2,0:0:0:0:
112,192,88966,1,2,0:0:0:0:
112,144,89049,1,2,0:0:0:0:
160,144,89133,1,2,0:0:0:0:
256,144,89299,1,10,0:0:0:0:
352,144,89466,1,2,0:0:0:0:
352,48,89633,5,2,0:0:0:0:
256,48,89799,2,10,L|144:48,1,96
112,48,90049,1,2,0:0:0:0:
112,96,90133,1,2,0:0:0:0:
112,192,90299,1,2,0:0:0:0:
160,192,90383,1,2,0:0:0:0:
208,192,90466,1,2,0:0:0:0:
256,192,90549,2,2,L|256:272,1,48,2|10,0:0|0:0,0:0:0:0:
448,288,90966,6,2,L|256:288,2,192,6|10|2,0:0|0:0|0:0,0:0:0:0:
448,96,91966,1,10,0:0:0:0:
256,96,92299,2,2,L|64:96,1,192,2|10,0:0|0:0,0:0:0:0:
64,288,92966,2,2,L|256:288,1,192,2|10,0:0|0:0,0:0:0:0:
256,192,93466,2,2,L|48:192,1,192
64,96,93966,1,10,0:0:0:0:
256,96,94299,5,2,0:0:0:0:
256,0,94466,1,2,0:0:0:0:
352,0,94633,1,10,0:0:0:0:
160,0,94799,1,6,0:0:0:0:
160,96,94966,2,2,L|160:192,2,96,2|2|10,0:0|0:0|0:0,0:0:0:0:
160,288,95633,1,2,0:0:0:0:
352,288,95966,1,10,0:0:0:0:
448,288,96133,5,10,0:0:0:0:
448,240,96216,1,10,0:0:0:0:
448,192,96299,2,2,L|448:0,2,192,10|10|2,0:0|0:0|0:0,0:0:0:0:
256,192,97299,1,10,0:0:0:0:
256,0,97633,2,2,L|48:0,1,192,2|10,0:0|0:0,0:0:0:0:
64,192,98299,2,2,L|352:192,1,288
352,288,98966,2,2,L|144:288,1,192,2|10,0:0|0:0,0:0:0:0:
160,96,99633,2,2,L|160:296,1,192,2|10,0:0|0:0,0:0:0:0:
352,288,100133,6,2,L|352:96,1,192,6|2,0:0|0:0,0:0:0:0:
256,96,100633,1,10,0:0:0:0:
160,96,100799,1,10,0:0:0:0:
160,48,100883,1,10,0:0:0:0:
160,0,100966,2,2,L|272:0,1,96,10|10,0:0|0:0,0:0:0:0:
352,0,101299,1,8,0:0:0:0:
448,0,101466,1,8,0:0:0:0:
496,0,101549,1,8,0:0:0:0:
496,48,101633,6,2,L|496:240,2,192,14|10|2,0:0|0:0|0:0,0:0:0:0:
304,48,102633,1,10,0:0:0:0:
304,240,102966,2,2,L|80:240,1,192,2|10,0:0|0:0,0:0:0:0:
112,48,103633,2,2,L|336:48,1,192,2|10,0:0|0:0,0:0:0:0:
304,144,104133,2,2,L|0:144,1,288,2|10,0:0|0:0,0:0:0:0:
16,336,104966,1,2,0:0:0:0:
16,240,105133,1,2,0:0:0:0:
16,144,105299,1,10,0:0:0:0:
16,336,105466,5,6,0:0:0:0:
112,336,105633,2,2,L|320:336,1,192,2|10,0:0|0:0,0:0:0:0:
448,192,106299,2,2,L|240:192,1,192,2|10,0:0|0:0,0:0:0:0:
160,192,106799,1,8,0:0:0:0:
112,192,106883,1,8,0:0:0:0:
64,192,106966,6,2,L|64:0,2,192,10|10|2,0:0|0:0|0:0,0:0:0:0:
64,384,107966,1,10,0:0:0:0:
256,384,108299,2,2,L|448:384,1,192,2|10,0:0|0:0,0:0:0:0:
496,192,108966,2,2,L|304:192,1,192,2|14,0:0|0:0,0:0:0:0:
256,0,109633,5,10,0:0:0:0:
304,0,109716,1,2,0:0:0:0:
352,0,109799,1,10,0:0:0:0:
400,0,109883,1,2,0:0:0:0:
448,0,109966,1,10,0:0:0:0:
496,192,110299,5,10,0:0:0:0:
448,192,110383,1,2,0:0:0:0:
448,240,110466,1,10,0:0:0:0:
448,288,110549,1,2,0:0:0:0:
400,288,110633,1,10,0:0:0:0:
304,288,110799,1,14,0:0:0:0:
208,288,110966,5,10,0:0:0:0:
208,192,111133,1,10,0:0:0:0:
304,192,111299,1,10,0:0:0:0:
304,96,111466,1,10,0:0:0:0:
208,96,111633,1,10,0:0:0:0:
208,0,111799,5,8,0:0:0:0:
256,0,111883,1,8,0:0:0:0:
304,0,111966,1,8,0:0:0:0:
304,48,112049,1,8,0:0:0:0:
352,48,112133,1,8,0:0:0:0:
400,48,112216,1,8,0:0:0:0:
400,96,112299,6,2,L|400:288,1,192,6|10,1:0|0:0,0:0:0:0:
112,288,112966,2,2,L|112:96,1,192,2|10,1:0|0:0,0:0:0:0:
400,96,113633,5,2,1:0:0:0:
400,192,113799,1,2,0:0:0:0:
400,0,113966,1,10,0:0:0:0:
400,384,114299,1,2,1:0:0:0:
400,288,114966,6,2,L|208:288,1,192,2|10,1:0|0:0,0:0:0:0:
208,96,115633,2,2,L|400:96,1,192,2|10,1:0|0:0,0:0:0:0:
400,288,116299,5,2,1:0:0:0:
400,192,116466,1,2,0:0:0:0:
400,384,116633,1,10,0:0:0:0:
112,384,116966,1,2,1:0:0:0:
64,0,117633,6,2,L|64:192,1,192,6|10,1:0|0:0,0:0:0:0:
256,384,118299,2,2,L|256:192,1,192,2|10,1:0|0:0,0:0:0:0:
256,192,118966,5,2,1:0:0:0:
448,192,119133,1,2,0:0:0:0:
352,192,119299,1,10,0:0:0:0:
64,192,119633,1,2,1:0:0:0:
448,336,120299,6,2,L|224:336,1,192,2|10,1:0|0:0,0:0:0:0:
64,336,120966,2,2,L|256:336,1,192,2|10,1:0|0:0,0:0:0:0:
256,144,121633,5,2,1:0:0:0:
256,336,121799,1,2,0:0:0:0:
256,240,121966,1,10,0:0:0:0:
256,48,122299,2,10,L|64:48,1,192,2|10,1:0|0:0,0:0:0:0:
256,192,122966,5,6,1:0:0:0:
256,288,123133,1,2,0:0:0:0:
160,192,123299,1,10,0:0:0:0:
352,192,123466,1,2,0:0:0:0:
256,96,123633,5,2,1:0:0:0:
208,96,123716,1,2,0:0:0:0:
160,96,123799,1,2,1:0:0:0:
160,0,123966,1,10,0:0:0:0:
256,192,124299,5,2,1:0:0:0:
256,96,124466,1,2,0:0:0:0:
256,288,124633,1,10,0:0:0:0:
160,192,124799,1,2,0:0:0:0:
352,192,124966,5,2,1:0:0:0:
352,144,125049,1,2,0:0:0:0:
352,96,125133,1,2,1:0:0:0:
448,96,125299,1,10,0:0:0:0:
256,192,125633,5,2,1:0:0:0:
352,192,125799,1,2,0:0:0:0:
256,96,125966,1,10,0:0:0:0:
160,192,126133,1,2,0:0:0:0:
256,288,126299,5,2,1:0:0:0:
304,288,126383,1,2,0:0:0:0:
304,336,126466,1,2,1:0:0:0:
400,336,126633,1,10,0:0:0:0:
256,192,126966,5,2,1:0:0:0:
256,96,127133,1,2,0:0:0:0:
352,192,127299,1,10,0:0:0:0:
256,288,127466,1,2,0:0:0:0:
160,192,127633,5,2,1:0:0:0:
160,144,127716,1,2,0:0:0:0:
112,144,127799,1,2,1:0:0:0:
112,48,127966,2,2,L|112:0,1,48,10|2,0:0|0:0,0:0:0:0:
256,48,128299,5,2,1:0:0:0:
352,48,128466,1,2,0:0:0:0:
352,144,128633,1,10,0:0:0:0:
448,144,128799,1,2,0:0:0:0:
448,240,128966,5,2,1:0:0:0:
400,240,129049,1,2,0:0:0:0:
352,240,129133,1,2,1:0:0:0:
256,240,129299,1,10,0:0:0:0:
64,240,129633,5,2,1:0:0:0:
64,336,129799,1,2,0:0:0:0:
160,336,129966,1,10,0:0:0:0:
256,336,130133,1,2,0:0:0:0:
256,240,130299,5,2,1:0:0:0:
256,192,130383,1,2,0:0:0:0:
256,144,130466,1,2,1:0:0:0:
256,48,130633,1,10,0:0:0:0:
64,48,130966,5,2,1:0:0:0:
64,144,131133,1,2,0:0:0:0:
160,144,131299,1,10,0:0:0:0:
160,240,131466,1,2,0:0:0:0:
256,240,131633,5,2,1:0:0:0:
304,240,131716,1,2,0:0:0:0:
352,240,131799,1,2,1:0:0:0:
352,144,131966,1,10,0:0:0:0:
352,336,132299,5,2,1:0:0:0:
448,336,132466,1,2,0:0:0:0:
448,240,132633,1,10,0:0:0:0:
448,144,132799,1,2,0:0:0:0:
448,48,132966,5,2,1:0:0:0:
400,48,133049,1,2,0:0:0:0:
400,0,133133,1,10,0:0:0:0:
352,0,133216,2,2,L|288:0,1,48,2|10,0:0|0:0,0:0:0:0:
208,0,133466,1,8,0:0:0:0:
160,0,133549,1,8,0:0:0:0:
112,0,133633,6,2,L|112:192,1,192,6|10,1:0|0:0,0:0:0:0:
400,192,134299,2,2,L|400:0,1,192,2|10,1:0|0:0,0:0:0:0:
208,0,134966,1,2,1:0:0:0:
304,0,135133,1,2,0:0:0:0:
304,96,135299,1,10,0:0:0:0:
304,192,135466,1,2,0:0:0:0:
208,192,135633,6,2,L|208:-16,1,192,2|10,1:0|0:0,0:0:0:0:
208,0,136299,2,2,L|208:192,1,192,2|10,1:0|0:0,0:0:0:0:
208,384,136966,2,2,L|208:192,1,192,2|10,1:0|0:0,0:0:0:0:
304,192,137466,1,2,0:0:0:0:
304,96,137633,1,2,1:0:0:0:
208,96,137799,2,2,L|112:96,1,96,2|10,0:0|0:0,0:0:0:0:
16,96,138133,1,2,0:0:0:0:
16,288,138299,2,2,L|224:288,1,192,2|10,1:0|0:0,0:0:0:0:
496,288,138966,5,2,1:0:0:0:
304,288,139133,1,2,0:0:0:0:
400,288,139299,1,10,0:0:0:0:
304,96,139633,5,2,1:0:0:0:
112,96,139799,1,2,0:0:0:0:
208,96,139966,1,10,0:0:0:0:
16,96,140299,5,2,1:0:0:0:
16,288,140466,1,2,0:0:0:0:
16,192,140633,1,10,0:0:0:0:
112,288,140799,1,2,0:0:0:0:
208,192,140966,1,2,1:0:0:0:
208,288,141133,1,2,0:0:0:0:
208,96,141299,1,10,0:0:0:0:
400,96,141633,6,2,L|288:96,2,96,2|2|10,1:0|0:0|0:0,0:0:0:0:
400,288,142299,2,2,L|496:288,2,96,2|2|10,1:0|0:0|0:0,0:0:0:0:
208,288,142966,1,2,1:0:0:0:
208,192,143133,1,2,0:0:0:0:
112,192,143299,2,2,L|-8:192,1,96,10|2,0:0|0:0,0:0:0:0:
16,96,143633,5,2,1:0:0:0:
112,96,143799,1,10,0:0:0:0:
160,96,143883,1,10,0:0:0:0:
208,96,143966,1,10,0:0:0:0:
208,192,144133,1,10,0:0:0:0:
304,192,144299,5,6,1:0:0:0:
176,288,144466,1,2,0:0:0:0:
336,288,144633,1,10,0:0:0:0:
256,336,144799,1,2,0:0:0:0:
480,192,144966,5,2,1:0:0:0:
480,240,145049,1,2,0:0:0:0:
480,288,145133,1,2,1:0:0:0:
480,96,145299,1,10,0:0:0:0:
256,96,145633,5,2,1:0:0:0:
368,96,145799,1,2,0:0:0:0:
144,96,145966,1,10,0:0:0:0:
256,192,146133,1,2,0:0:0:0:
32,192,146299,5,2,1:0:0:0:
32,144,146383,1,2,0:0:0:0:
32,96,146466,1,2,1:0:0:0:
32,288,146633,1,10,0:0:0:0:
224,288,146799,5,8,0:0:0:0:
176,288,146883,1,8,0:0:0:0:
128,288,146966,1,2,1:0:0:0:
304,288,147133,1,2,0:0:0:0:
352,192,147299,1,10,0:0:0:0:
256,96,147466,1,2,0:0:0:0:
160,192,147633,5,2,1:0:0:0:
112,192,147716,1,2,0:0:0:0:
64,192,147799,1,2,1:0:0:0:
256,192,147966,1,10,0:0:0:0:
400,192,148299,5,2,1:0:0:0:
256,48,148466,1,6,0:0:0:0:
112,192,148633,1,10,0:0:0:0:
256,336,148799,1,6,0:0:0:0:
400,192,148966,5,2,1:0:0:0:
448,192,149049,1,10,0:0:0:0:
496,192,149133,1,2,1:0:0:0:
304,192,149299,2,2,L|240:192,1,48,10|2,0:0|0:0,0:0:0:0:
256,48,149633,5,6,1:0:0:0:
192,120,149799,1,2,0:0:0:0:
320,120,149966,1,10,0:0:0:0:
256,192,150133,1,2,0:0:0:0:
256,336,150299,5,2,1:0:0:0:
208,336,150383,1,2,0:0:0:0:
160,336,150466,1,2,1:0:0:0:
352,336,150633,1,10,0:0:0:0:
64,336,150966,5,2,1:0:0:0:
64,240,151133,1,2,0:0:0:0:
160,240,151299,1,10,0:0:0:0:
208,240,151383,1,10,0:0:0:0:
208,192,151466,1,10,0:0:0:0:
304,192,151633,5,2,1:0:0:0:
304,240,151716,1,2,0:0:0:0:
352,240,151799,1,2,1:0:0:0:
448,240,151966,1,10,0:0:0:0:
448,288,152049,1,10,0:0:0:0:
448,336,152133,1,10,0:0:0:0:
400,336,152216,1,10,0:0:0:0:
352,336,152299,5,2,1:0:0:0:
352,240,152466,1,2,0:0:0:0:
352,144,152633,1,10,0:0:0:0:
448,144,152799,1,2,0:0:0:0:
448,48,152966,5,2,1:0:0:0:
400,48,153049,1,2,0:0:0:0:
352,48,153133,1,2,1:0:0:0:
160,48,153299,1,10,0:0:0:0:
160,336,153633,5,2,1:0:0:0:
160,288,153716,1,2,0:0:0:0:
160,240,153799,1,10,0:0:0:0:
208,240,153883,1,2,0:0:0:0:
256,240,153966,1,10,0:0:0:0:
256,192,154049,1,2,0:0:0:0:
256,144,154133,1,10,0:0:0:0:
256,48,154299,5,2,1:0:0:0:
208,48,154383,1,10,0:0:0:0:
160,48,154466,1,14,0:0:0:0:
160,144,154633,1,14,0:0:0:0:
256,192,154799,12,0,158966,0:0:0:0:
