osu file format v14

[General]
AudioFilename: audio.mp3
AudioLeadIn: 0
PreviewTime: 48299
Countdown: 1
SampleSet: Soft
StackLeniency: 0.2
Mode: 0
LetterboxInBreaks: 0
UseSkinSprites: 1
SkinPreference:Default
EpilepsyWarning: 1
WidescreenStoryboard: 1

[Editor]
Bookmarks: 300,5633,16299,26966,45633,48299,58966,69633,80299,85633,90966,109633,112299,122966,133633,144299,154633
DistanceSpacing: 1
BeatDivisor: 16
GridSize: 16
TimelineZoom: 1.5

[Metadata]
Title:Tsurupettan (Game Ver.)
TitleUnicode:つるぺったん (Game Ver.)
Artist:Silver Forest
ArtistUnicode:Silver Forest
Creator:Bloxi
Version:BoshyMan's Phantasm
Source:東方永夜抄 ~ Imperishable Night.
Tags:touhou 東方project japanese video game vgm novelty zun 2hu th8 in reitaisai 14 rts14 例大祭14 collective performance とうほうインスパイア くろねこ アキ カガリ 星河さきち kuroneko aki kagari hoshikawa sakichi toho inspire 東方萃奏楽 suisougaku chunithm sound voltex iv heavenly haven pettan hare yukai crossover ハレ晴レユカイ harupittan mojipittan 竹取飛翔 ~ Lunatic Princess 蓬莱山 輝夜 Houraisan Kaguya はるぴったん レッツゴー!陰陽師 let's lets go! onmyoji 伊吹 萃香 Ibuki Suika 電波 denpa ニコニコ動画 nico douga boshyman741 frey kival_evan deppyforce uberfazz flux3on fluxie phynta bnmc coppertine
BeatmapID:3690388
BeatmapSetID:1615177

[Difficulty]
HPDrainRate:5
CircleSize:4.3
OverallDifficulty:8.3
ApproachRate:7.4
SliderMultiplier:2.5
SliderTickRate:1

[Events]
//Background and Video events
0,0,"bg/bg5.jpg",0,0
//Break Periods
//Storyboard Layer 0 (Background)
//Storyboard Layer 1 (Fail)
//Storyboard Layer 2 (Pass)
//Storyboard Layer 3 (Foreground)
//Storyboard Layer 4 (Overlay)
//Storyboard Sound Samples

[TimingPoints]
300,333.333333333333,4,2,1,75,1,0
300,-200,4,2,1,75,0,0
5633,-100,4,2,1,75,0,0
6299,-83.3333333333333,4,2,1,75,0,0
6633,-166.666666666667,4,2,1,75,0,0
6966,-55.5555555555556,4,2,1,75,0,0
8299,-100,4,2,1,75,0,0
8966,-83.3333333333333,4,2,1,75,0,0
9299,-166.666666666667,4,2,1,75,0,0
9633,-55.5555555555556,4,2,1,75,0,0
10966,-100,4,2,1,75,0,0
11633,-83.3333333333333,4,2,1,75,0,0
11966,-166.666666666667,4,2,1,75,0,0
12299,-55.5555555555556,4,2,1,75,0,0
13633,-100,4,2,1,75,0,0
14299,-83.3333333333333,4,2,1,75,0,0
14633,-166.666666666667,4,2,1,75,0,0
14966,-50,4,2,1,75,0,0
16466,-133.333333333333,4,2,1,75,0,0
42966,-166.666666666667,4,2,1,75,0,0
48299,-100,4,2,1,75,0,0
48966,-83.3333333333333,4,2,1,75,0,0
49299,-166.666666666667,4,2,1,75,0,0
49633,-55.5555555555556,4,2,1,75,0,0
50966,-100,4,2,1,75,0,0
51633,-83.3333333333333,4,2,1,75,0,0
51966,-166.666666666667,4,2,1,75,0,0
52299,-55.5555555555556,4,2,1,75,0,0
53633,-100,4,2,1,75,0,0
54299,-83.3333333333333,4,2,1,75,0,0
54633,-166.666666666667,4,2,1,75,0,0
54966,-55.5555555555556,4,2,1,75,0,0
56299,-100,4,2,1,75,0,0
56966,-83.3333333333333,4,2,1,75,0,0
57299,-166.666666666667,4,2,1,75,0,0
57633,-55.5555555555556,4,2,1,75,0,0
58966,-66.6666666666667,4,2,1,75,0,1
59633,-50,4,2,1,75,0,1
59966,-57.1428571428571,4,2,1,75,0,1
60299,-66.6666666666667,4,2,1,75,0,1
60966,-50,4,2,1,75,0,1
61299,-57.1428571428571,4,2,1,75,0,1
61633,-66.6666666666667,4,2,1,75,0,1
62299,-50,4,2,1,75,0,1
62633,-57.1428571428571,4,2,1,75,0,1
62966,-66.6666666666667,4,2,1,75,0,1
63633,-50,4,2,1,75,0,1
63966,-57.1428571428571,4,2,1,75,0,1
64299,-66.6666666666667,4,2,1,75,0,1
64966,-50,4,2,1,75,0,1
65299,-57.1428571428571,4,2,1,75,0,1
65633,-66.6666666666667,4,2,1,75,0,1
66299,-50,4,2,1,75,0,1
66633,-57.1428571428571,4,2,1,75,0,1
66966,-66.6666666666667,4,2,1,75,0,1
67633,-50,4,2,1,75,0,1
67966,-57.1428571428571,4,2,1,75,0,1
68299,-66.6666666666667,4,2,1,75,0,1
68966,-50,4,2,1,75,0,1
69633,-57.1428571428571,4,2,1,75,0,0
80466,-133.333333333333,4,2,1,75,0,0
90966,-153.846153846154,4,2,1,75,0,0
112299,-100,4,2,1,75,0,0
112966,-83.3333333333333,4,2,1,75,0,0
113299,-166.666666666667,4,2,1,75,0,0
113633,-55.5555555555556,4,2,1,75,0,0
114966,-100,4,2,1,75,0,0
115633,-83.3333333333333,4,2,1,75,0,0
115966,-166.666666666667,4,2,1,75,0,0
116299,-55.5555555555556,4,2,1,75,0,0
117633,-100,4,2,1,75,0,0
118299,-83.3333333333333,4,2,1,75,0,0
118633,-166.666666666667,4,2,1,75,0,0
118966,-55.5555555555556,4,2,1,75,0,0
120299,-100,4,2,1,75,0,0
120966,-83.3333333333333,4,2,1,75,0,0
121299,-166.666666666667,4,2,1,75,0,0
121633,-55.5555555555556,4,2,1,75,0,0
122966,-66.6666666666667,4,2,1,75,0,1
123633,-50,4,2,1,75,0,1
123966,-57.1428571428571,4,2,1,75,0,1
124299,-66.6666666666667,4,2,1,75,0,1
124966,-50,4,2,1,75,0,1
125299,-57.1428571428571,4,2,1,75,0,1
125633,-66.6666666666667,4,2,1,75,0,1
126299,-50,4,2,1,75,0,1
126633,-57.1428571428571,4,2,1,75,0,1
126966,-66.6666666666667,4,2,1,75,0,1
127633,-50,4,2,1,75,0,1
127966,-57.1428571428571,4,2,1,75,0,1
128299,-66.6666666666667,4,2,1,75,0,1
128966,-50,4,2,1,75,0,1
129299,-57.1428571428571,4,2,1,75,0,1
129633,-66.6666666666667,4,2,1,75,0,1
130299,-50,4,2,1,75,0,1
130633,-57.1428571428571,4,2,1,75,0,1
130966,-66.6666666666667,4,2,1,75,0,1
131633,-50,4,2,1,75,0,1
131966,-57.1428571428571,4,2,1,75,0,1
132299,-66.6666666666667,4,2,1,75,0,1
132966,-50,4,2,1,75,0,1
133633,-57.1428571428571,4,2,1,75,0,0
144299,-50,4,2,1,75,0,1
144966,-40,4,2,1,75,0,1
145633,-50,4,2,1,75,0,1
146299,-40,4,2,1,75,0,1
146966,-50,4,2,1,75,0,1
147633,-40,4,2,1,75,0,1
148299,-44.4444444444445,4,2,1,75,0,1
148424,-44.4444444444445,4,2,1,5,0,1
148466,-44.4444444444445,4,2,1,75,0,1
148591,-44.4444444444445,4,2,1,5,0,1
148633,-44.4444444444445,4,2,1,75,0,1
148758,-44.4444444444445,4,2,1,5,0,1
148799,-44.4444444444445,4,2,1,75,0,1
148924,-44.4444444444445,4,2,1,5,0,1
148966,-44.4444444444445,4,2,1,75,0,1
149633,-50,4,2,1,75,0,1
150299,-40,4,2,1,75,0,1
150966,-50,4,2,1,75,0,1
151633,-40,4,2,1,75,0,1
151855,-47.6190476190476,4,2,1,40,0,1
151911,-47.6190476190476,4,2,1,60,0,1
151966,-47.6190476190476,4,2,1,75,0,1
152299,-50,4,2,1,75,0,1
152966,-40,4,2,1,75,0,1
154299,-33.3333333333333,4,2,1,75,0,1
154633,-50,4,2,1,75,0,0
158966,-50,4,2,1,5,0,0

[Colours]
Combo1 : 139,219,245
Combo2 : 251,221,130
Combo3 : 196,100,247
Combo4 : 241,105,221
Combo5 : 228,184,122
Combo6 : 179,186,253
Sliderborder : 255,255,255

[HitObjects]
32,352,300,5,2,0:0:0:0:
96,352,466,1,0,0:0:0:0:
176,352,633,1,0,0:0:0:0:
272,352,799,1,0,0:0:0:0:
352,352,966,1,0,0:0:0:0:
416,352,1133,1,0,0:0:0:0:
480,288,1299,1,2,0:0:0:0:
416,288,1465,1,0,0:0:0:0:
336,288,1632,1,0,0:0:0:0:
240,288,1798,1,0,0:0:0:0:
160,288,1965,1,0,0:0:0:0:
96,288,2132,1,0,0:0:0:0:
32,224,2299,1,2,0:0:0:0:
144,224,2466,1,0,0:0:0:0:
256,224,2633,1,2,0:0:0:0:
368,224,2799,1,0,0:0:0:0:
480,160,2966,1,2,0:0:0:0:
416,160,3132,1,0,0:0:0:0:
336,160,3299,1,0,0:0:0:0:
240,160,3465,1,0,0:0:0:0:
160,160,3632,1,0,0:0:0:0:
96,160,3799,1,0,0:0:0:0:
32,96,3965,1,2,0:0:0:0:
96,96,4133,1,0,0:0:0:0:
176,96,4299,1,0,0:0:0:0:
272,96,4466,1,0,0:0:0:0:
352,96,4633,1,0,0:0:0:0:
416,96,4798,1,0,0:0:0:0:
480,32,4965,1,2,0:0:0:0:
368,32,5132,1,0,0:0:0:0:
256,32,5299,1,2,0:0:0:0:
144,32,5465,1,0,0:0:0:0:
32,32,5633,6,2,B|-58:116|14:214|102:157|88:85,1,250,2|10,1:0|0:0,0:0:0:0:
20,235,6133,5,2,0:0:0:0:
20,235,6216,1,2,0:0:0:0:
20,235,6299,2,2,P|55:247|175:325,1,149.999995422363,2|0,1:0|0:0,0:0:0:0:
290,384,6633,6,0,P|286:343|279:302,1,74.9999977111817,10|0,0:0|0:0,0:0:0:0:
388,242,6966,6,2,B|319:181|254:203|267:297|159:244|220:233,2,224.999993133545,2|2|10,1:0|0:0|0:0,0:0:0:0:
432,310,7466,1,0,0:0:0:0:
493,40,7633,5,2,1:0:0:0:
421,60,7799,1,2,0:0:0:0:
349,80,7966,1,10,0:0:0:0:
192,27,8133,5,2,0:0:0:0:
192,27,8216,1,2,0:0:0:0:
192,27,8299,2,2,B|117:20|96:104|181:147|243:92|208:-1,1,250,2|10,1:0|0:0,0:0:0:0:
26,99,8799,5,2,0:0:0:0:
26,99,8883,1,2,0:0:0:0:
26,99,8966,2,2,P|103:120|188:130,1,149.999995422363,2|0,1:0|0:0,0:0:0:0:
368,115,9299,6,0,P|356:170|354:220,1,74.9999977111817,10|0,0:0|0:0,0:0:0:0:
201,298,9633,6,2,B|260:290|255:138|185:228|264:104|288:108|283:138,2,224.999993133545,2|2|10,1:0|0:0|0:0,0:0:0:0:
121,270,10133,1,0,0:0:0:0:
338,368,10299,5,2,1:0:0:0:
457,269,10466,5,2,0:0:0:0:
457,269,10522,5,10,0:0:0:0:
457,269,10577,5,10,0:0:0:0:
457,269,10633,5,10,0:0:0:0:
482,111,10799,5,8,0:0:0:0:
417,153,10883,1,8,0:0:0:0:
355,106,10966,2,2,B|298:53|211:85|180:174|271:213|320:160,1,250,6|10,1:0|0:0,0:0:0:0:
189,328,11466,5,2,0:0:0:0:
189,328,11549,1,2,0:0:0:0:
189,328,11633,2,2,P|210:225|211:156,1,149.999995422363,2|0,1:0|0:0,0:0:0:0:
15,59,11966,6,0,P|69:68|109:81,1,74.9999977111817,10|0,0:0|0:0,0:0:0:0:
49,214,12299,6,0,B|87:286|126:134|185:42|211:108|188:113,2,224.999993133545,2|2|10,1:0|0:0|0:0,0:0:0:0:
7,143,12799,1,2,0:0:0:0:
169,264,12966,5,2,1:0:0:0:
102,306,13133,1,2,0:0:0:0:
36,349,13299,1,10,0:0:0:0:
282,324,13466,5,2,0:0:0:0:
282,324,13549,1,2,0:0:0:0:
282,324,13633,2,2,B|352:265|333:196|274:151|208:248|277:310,1,250,2|10,1:0|0:0,0:0:0:0:
470,303,14133,5,2,0:0:0:0:
470,303,14216,1,2,0:0:0:0:
470,303,14299,2,2,P|403:233|367:157,1,149.999995422363,2|0,1:0|0:0,0:0:0:0:
212,48,14633,6,0,P|220:80|225:127,1,74.9999977111817,10|0,0:0|0:0,0:0:0:0:
470,67,14966,6,0,B|417:35|364:121|311:155|252:151|342:95,2,250,2|2|10,1:0|0:0|0:0,0:0:0:0:
253,196,15466,1,2,0:0:0:0:
128,40,15633,5,0,1:0:0:0:
53,25,15716,1,10,0:0:0:0:
5,74,15799,1,8,0:0:0:0:
16,123,15883,1,8,0:0:0:0:
48,143,15966,1,8,0:0:0:0:
82,130,16049,1,8,0:0:0:0:
96,102,16132,1,8,0:0:0:0:
85,80,16216,1,8,0:0:0:0:
65,74,16299,1,2,0:0:0:0:
14,224,16466,5,2,0:0:0:0:
18,270,16549,1,2,0:0:0:0:
22,317,16632,1,10,0:0:0:0:
190,306,16799,1,2,0:0:0:0:
190,306,16883,1,2,0:0:0:0:
216,234,16966,5,2,0:0:0:0:
246,239,17049,1,2,0:0:0:0:
277,245,17132,1,2,0:0:0:0:
308,251,17215,1,2,0:0:0:0:
334,179,17299,5,10,0:0:0:0:
364,184,17382,1,2,0:0:0:0:
395,190,17465,1,2,0:0:0:0:
426,196,17548,1,2,0:0:0:0:
481,250,17633,5,2,0:0:0:0:
379,376,17799,5,2,0:0:0:0:
383,329,17882,1,2,0:0:0:0:
387,283,17966,1,10,0:0:0:0:
395,190,18133,1,2,0:0:0:0:
403,97,18299,1,2,0:0:0:0:
411,4,18466,1,2,0:0:0:0:
387,283,18633,5,10,0:0:0:0:
391,236,18716,1,2,0:0:0:0:
395,190,18800,1,2,0:0:0:0:
411,4,18966,5,2,0:0:0:0:
407,51,19049,1,2,0:0:0:0:
403,97,19133,1,2,0:0:0:0:
395,190,19299,5,10,0:0:0:0:
399,143,19382,1,2,0:0:0:0:
403,97,19466,1,2,0:0:0:0:
266,16,19633,5,2,0:0:0:0:
212,33,19716,1,2,0:0:0:0:
212,89,19799,1,2,0:0:0:0:
266,107,19883,1,2,0:0:0:0:
299,61,19966,1,10,0:0:0:0:
129,61,20133,2,2,B|102:61|102:61|110:93|110:93|123:93|123:93|126:68,1,93.7500035762788
34,95,20383,5,2,0:0:0:0:
12,136,20466,1,2,0:0:0:0:
11,182,20549,1,2,0:0:0:0:
28,225,20632,1,10,0:0:0:0:
28,225,20716,1,2,0:0:0:0:
196,185,20883,1,2,0:0:0:0:
196,185,20966,1,2,0:0:0:0:
206,230,21049,1,2,0:0:0:0:
203,276,21132,1,10,0:0:0:0:
185,320,21215,1,2,0:0:0:0:
156,356,21299,2,2,B|111:338|111:338|94:347|94:347|54:342,1,93.7500035762788,10|2,0:0|0:0,0:0:0:0:
292,245,21633,6,2,B|343:253|343:253|357:268|357:268|409:250,1,93.7500035762788,6|2,0:0|0:0,0:0:0:0:
408,230,21883,2,2,B|483:243|483:243|445:322,1,140.625005364418
348,173,22299,5,2,0:0:0:0:
450,104,22466,1,2,0:0:0:0:
406,37,22577,5,2,0:0:0:0:
406,37,22633,1,10,0:0:0:0:
290,58,22799,1,2,0:0:0:0:
71,29,22966,5,2,0:0:0:0:
126,102,23077,5,2,0:0:0:0:
164,19,23188,5,2,0:0:0:0:
78,44,23299,5,10,0:0:0:0:
134,87,23383,1,2,0:0:0:0:
147,18,23466,1,2,0:0:0:0:
16,168,23633,5,2,0:0:0:0:
179,230,23799,1,2,0:0:0:0:
174,276,23882,1,2,0:0:0:0:
170,323,23966,2,2,B|213:347|213:347|234:344|234:344|257:347,1,93.7500035762788,10|2,0:0|0:0,0:0:0:0:
464,338,24299,5,2,0:0:0:0:
419,281,24383,5,2,0:0:0:0:
474,266,24466,1,2,0:0:0:0:
416,251,24549,1,2,0:0:0:0:
461,239,24633,1,10,0:0:0:0:
413,221,24716,1,2,0:0:0:0:
447,212,24800,1,2,0:0:0:0:
411,192,24883,1,2,0:0:0:0:
433,186,24966,1,2,0:0:0:0:
295,78,25133,5,2,0:0:0:0:
341,85,25216,1,2,0:0:0:0:
387,93,25299,1,10,0:0:0:0:
358,129,25383,1,2,0:0:0:0:
329,166,25466,1,2,0:0:0:0:
187,59,25633,5,2,0:0:0:0:
187,59,25716,2,2,L|137:49,1,46.8750017881394,2|10,0:0|0:0,0:0:0:0:
71,202,25883,2,2,L|121:192,1,46.8750017881394,2|10,0:0|0:0,0:0:0:0:
247,164,26077,5,2,0:0:0:0:
213,234,26188,5,2,0:0:0:0:
267,291,26299,5,2,0:0:0:0:
267,291,26383,2,2,L|252:343,1,46.8750017881394
92,345,26549,1,2,0:0:0:0:
92,345,26633,1,10,0:0:0:0:
413,374,26799,5,2,0:0:0:0:
403,328,26882,1,2,0:0:0:0:
393,282,26966,5,6,0:0:0:0:
437,202,27299,1,10,0:0:0:0:
404,117,27633,1,2,0:0:0:0:
319,87,27799,1,2,0:0:0:0:
240,132,27966,1,10,0:0:0:0:
225,222,28133,1,2,0:0:0:0:
150,277,28466,1,2,0:0:0:0:
60,263,28633,1,10,0:0:0:0:
11,187,28966,1,2,0:0:0:0:
37,100,29133,1,2,0:0:0:0:
121,64,29299,1,10,0:0:0:0:
235,319,29633,5,2,0:0:0:0:
288,326,29966,1,10,0:0:0:0:
341,333,30299,1,2,0:0:0:0:
394,340,30466,1,2,0:0:0:0:
447,347,30633,1,10,0:0:0:0:
454,294,30799,1,6,0:0:0:0:
461,241,31133,1,2,0:0:0:0:
468,188,31299,1,10,0:0:0:0:
475,135,31466,1,8,0:0:0:0:
422,128,31549,1,8,0:0:0:0:
369,121,31633,1,10,0:0:0:0:
316,114,31799,1,8,0:0:0:0:
263,107,31966,1,10,0:0:0:0:
256,160,32133,1,8,0:0:0:0:
249,213,32216,1,8,0:0:0:0:
241,266,32299,5,14,0:0:0:0:
164,257,32633,1,10,0:0:0:0:
123,194,32966,1,2,0:0:0:0:
145,122,33133,1,2,0:0:0:0:
215,93,33299,1,10,0:0:0:0:
282,128,33466,1,2,0:0:0:0:
304,202,33799,1,2,0:0:0:0:
373,231,33966,1,10,0:0:0:0:
441,197,34299,1,2,0:0:0:0:
457,124,34466,1,2,0:0:0:0:
411,65,34633,1,10,0:0:0:0:
343,302,34966,5,2,0:0:0:0:
262,313,35299,1,10,0:0:0:0:
181,324,35633,1,2,0:0:0:0:
100,336,35799,1,2,0:0:0:0:
88,255,35966,1,10,0:0:0:0:
77,174,36133,1,6,0:0:0:0:
66,93,36466,1,2,0:0:0:0:
77,174,36633,1,10,0:0:0:0:
88,255,36799,1,10,0:0:0:0:
100,336,36883,1,10,0:0:0:0:
181,324,36966,1,10,0:0:0:0:
262,313,37133,1,10,0:0:0:0:
343,302,37299,1,8,0:0:0:0:
262,313,37466,1,8,0:0:0:0:
181,324,37549,1,8,0:0:0:0:
100,336,37633,5,14,0:0:0:0:
45,265,37966,1,10,0:0:0:0:
78,182,38299,1,2,0:0:0:0:
167,169,38466,1,2,0:0:0:0:
223,239,38633,1,10,0:0:0:0:
313,248,38799,1,2,0:0:0:0:
384,190,39133,1,2,0:0:0:0:
392,99,39299,1,10,0:0:0:0:
334,29,39633,1,2,0:0:0:0:
243,21,39799,1,2,0:0:0:0:
173,80,39966,1,10,0:0:0:0:
193,383,40299,5,2,0:0:0:0:
242,355,40633,1,10,0:0:0:0:
291,327,40966,1,2,0:0:0:0:
340,300,41133,1,2,0:0:0:0:
390,272,41299,1,10,0:0:0:0:
342,242,41466,1,6,0:0:0:0:
293,212,41799,1,2,0:0:0:0:
245,182,41966,1,10,0:0:0:0:
197,152,42133,1,8,0:0:0:0:
148,180,42216,1,8,0:0:0:0:
99,208,42299,1,10,0:0:0:0:
49,235,42466,1,8,0:0:0:0:
0,263,42633,1,10,0:0:0:0:
48,293,42799,1,8,0:0:0:0:
96,323,42882,1,8,0:0:0:0:
139,353,42966,6,2,L|232:329,1,74.9999977111817,10|0,0:0|0:0,0:0:0:0:
283,315,43299,2,2,L|376:291,1,74.9999977111817,10|0,0:0|0:0,0:0:0:0:
427,277,43633,2,2,L|333:253,1,74.9999977111817,2|0,0:0|0:0,0:0:0:0:
283,239,43966,2,2,L|189:215,1,74.9999977111817,10|0,0:0|0:0,0:0:0:0:
139,201,44300,2,2,L|232:177,1,74.9999977111817,2|0,0:0|0:0,0:0:0:0:
283,163,44633,1,10,0:0:0:0:
427,125,44799,2,2,L|334:149,1,74.9999977111817
427,125,45133,1,2,0:0:0:0:
210,68,45299,2,2,L|283:87,1,74.9999977111817,14|0,0:0|0:0,0:0:0:0:
64,36,45633,5,10,0:0:0:0:
78,115,45716,1,2,0:0:0:0:
64,36,45799,1,10,0:0:0:0:
78,115,45883,1,2,0:0:0:0:
64,36,45966,1,10,0:0:0:0:
151,236,46299,5,10,0:0:0:0:
165,157,46382,1,2,0:0:0:0:
151,236,46465,1,10,0:0:0:0:
165,157,46549,1,2,0:0:0:0:
151,236,46632,1,10,0:0:0:0:
37,279,46799,5,14,0:0:0:0:
287,347,46966,5,10,0:0:0:0:
249,171,47133,1,10,0:0:0:0:
404,105,47299,1,10,0:0:0:0:
349,276,47466,1,10,0:0:0:0:
311,100,47633,1,10,0:0:0:0:
75,306,47799,5,8,0:0:0:0:
147,295,47883,1,8,0:0:0:0:
173,227,47966,1,8,0:0:0:0:
127,170,48049,1,8,0:0:0:0:
56,182,48133,1,8,0:0:0:0:
29,249,48216,1,8,0:0:0:0:
101,239,48299,6,2,B|154:151|124:78|28:78|24:161|64:189,1,250,6|10,1:0|0:0,0:0:0:0:
23,32,48799,5,2,0:0:0:0:
23,32,48883,1,2,0:0:0:0:
23,32,48966,2,2,P|121:42|179:61,1,149.999995422363,2|0,1:0|0:0,0:0:0:0:
370,77,49299,6,0,P|319:91|278:106,1,74.9999977111817,10|0,0:0|0:0,0:0:0:0:
190,306,49633,6,0,B|253:199|163:217|176:122|217:78|241:115|240:129|216:136,2,224.999993133545,2|2|10,1:0|0:0|0:0,0:0:0:0:
108,363,50133,1,0,0:0:0:0:
291,222,50299,5,2,1:0:0:0:
365,233,50466,1,2,0:0:0:0:
439,244,50633,1,10,0:0:0:0:
450,41,50799,5,2,0:0:0:0:
450,41,50883,1,2,0:0:0:0:
450,41,50966,2,2,B|398:23|364:75|392:232|456:162|470:63,1,250,2|10,1:0|0:0,0:0:0:0:
284,0,51466,5,2,0:0:0:0:
284,0,51549,1,2,0:0:0:0:
284,0,51633,2,2,P|308:75|322:146,1,149.999995422363,2|0,1:0|0:0,0:0:0:0:
219,336,51966,6,0,P|259:330|305:318,1,74.9999977111817,10|0,0:0|0:0,0:0:0:0:
434,202,52299,6,0,B|343:194|393:313|247:240|227:201|268:201,2,224.999993133545,2|2|10,1:0|0:0|0:0,0:0:0:0:
503,252,52799,1,0,0:0:0:0:
222,93,52966,5,2,1:0:0:0:
172,152,53133,1,2,0:0:0:0:
122,211,53299,1,10,0:0:0:0:
47,30,53466,5,2,0:0:0:0:
47,30,53549,1,2,0:0:0:0:
47,30,53633,2,2,B|12:10|-50:45|-36:124|73:137|82:0,1,250,6|10,1:0|0:0,0:0:0:0:
0,176,54133,5,2,0:0:0:0:
0,176,54216,1,2,0:0:0:0:
0,176,54299,2,2,P|7:241|33:355,1,149.999995422363,2|0,1:0|0:0,0:0:0:0:
217,311,54633,6,0,P|213:352|203:387,1,74.9999977111817,10|0,0:0|0:0,0:0:0:0:
117,176,54966,6,0,B|93:172|99:256|166:348|122:383|92:368,2,224.999993133545,2|2|10,1:0|0:0|0:0,0:0:0:0:
193,144,55466,1,0,0:0:0:0:
349,286,55633,5,2,1:0:0:0:
380,215,55799,1,2,0:0:0:0:
411,144,55966,1,10,0:0:0:0:
276,42,56133,5,2,0:0:0:0:
276,42,56216,1,2,0:0:0:0:
276,42,56299,2,2,B|270:-2|337:-3|388:39|386:126|290:153|248:59,1,250,2|10,1:0|0:0,0:0:0:0:
95,22,56799,5,2,0:0:0:0:
95,22,56883,1,2,0:0:0:0:
95,22,56966,2,2,P|178:30|267:57,1,149.999995422363,2|0,1:0|0:0,0:0:0:0:
290,189,57299,6,0,P|252:190|212:199,1,74.9999977111817,10|0,0:0|0:0,0:0:0:0:
0,155,57633,6,0,B|66:177|164:156|228:115|206:104|177:118,2,224.999993133545,2|2|10,1:0|0:0|0:0,0:0:0:0:
77,194,58133,1,0,0:0:0:0:
170,345,58299,5,2,1:0:0:0:
325,128,58466,5,10,0:0:0:0:
393,163,58549,1,8,0:0:0:0:
404,227,58633,1,10,0:0:0:0:
361,261,58716,1,8,0:0:0:0:
331,249,58799,1,8,0:0:0:0:
328,222,58883,1,8,0:0:0:0:
348,211,58966,6,0,P|412:273|392:361,3,187.500007152558,6|2|10|2,1:0|0:0|0:0|0:0,0:0:0:0:
207,223,59633,2,0,B|295:241|295:241|357:232,2,125,2|2|2,1:0|0:0|1:0,0:0:0:0:
485,159,59966,2,0,B|449:70|410:161|286:125,1,218.750002086163,10|0,0:0|0:0,0:0:0:0:
144,173,60299,6,0,P|136:83|58:40,3,187.500007152558,2|2|10|2,1:0|0:0|0:0|0:0,0:0:0:0:
124,311,60966,2,0,B|111:235|111:235|127:164,2,125,2|2|2,1:0|0:0|1:0,0:0:0:0:
251,144,61299,2,0,B|187:230|220:276|249:238|234:365,1,218.750002086163,10|0,0:0|0:0,0:0:0:0:
305,219,61633,6,0,P|393:243|471:196,3,187.500007152558,2|2|10|2,1:0|0:0|0:0|0:0,0:0:0:0:
255,74,62299,2,0,B|295:142|295:142|306:211,2,125,2|2|2,1:0|0:0|1:0,0:0:0:0:
192,264,62633,2,0,B|227:117|147:143|168:53,1,218.750002086163,10|0,0:0|0:0,0:0:0:0:
153,327,62966,6,0,P|63:330|6:261,3,187.500007152558,2|2|10|2,1:0|0:0|0:0|0:0,0:0:0:0:
291,272,63633,2,0,B|226:267|226:267|158:299,2,125,2|2|2,1:0|0:0|1:0,0:0:0:0:
466,243,63966,6,2,P|412:241|501:302,1,328.125003129244,10|0,0:0|0:0,0:0:0:0:
376,222,64299,6,0,P|345:152|391:47,3,187.500007152558,2|2|10|2,1:0|0:0|0:0|0:0,0:0:0:0:
296,351,64966,2,0,L|285:226,2,125,2|2|2,1:0|0:0|1:0,0:0:0:0:
189,31,65299,2,0,B|165:110|255:114|241:219|159:235,1,218.750002086163,10|0,0:0|0:0,0:0:0:0:
13,25,65633,6,0,P|67:37|106:164,3,187.500007152558,2|2|10|2,1:0|0:0|0:0|0:0,0:0:0:0:
283,0,66299,2,0,L|154:14,2,125,2|2|2,1:0|0:0|1:0,0:0:0:0:
478,109,66633,2,0,B|398:178|382:41|283:58|242:106,1,218.750002086163,10|0,0:0|0:0,0:0:0:0:
196,256,66966,6,0,P|128:306|25:277,3,187.500007152558,2|2|10|2,1:0|0:0|0:0|0:0,0:0:0:0:
297,316,67633,2,0,L|263:194,2,125,2|2|2,1:0|0:0|1:0,0:0:0:0:
494,355,67966,2,0,B|504:286|429:236|352:346|340:128,1,218.750002086163,10|0,0:0|0:0,0:0:0:0:
293,34,68299,6,0,P|355:6|491:68,3,187.500007152558,2|2|10|2,1:0|0:0|0:0|0:0,0:0:0:0:
252,228,68966,2,8,L|260:93,2,125,2|10|10,1:0|0:0|0:0,0:0:0:0:
92,6,69299,5,10,0:0:0:0:
129,69,69383,1,8,0:0:0:0:
63,122,69466,1,8,0:0:0:0:
113,198,69549,1,8,0:0:0:0:
66,292,69633,6,2,B|37:348|279:297|247:296|494:256|472:307,3,437.500004172325,6|10|2|10,1:0|0:0|1:0|0:0,0:0:0:0:
124,76,70966,2,0,B|143:67|128:23|52:77|134:253,3,218.750002086163,2|2|10|2,1:0|0:0|0:0|0:0,0:0:0:0:
282,128,71633,2,2,B|270:82|379:0|543:250|349:295|227:306|270:97|247:-32|133:182|226:107,1,437.500004172325,2|10,1:0|0:0,0:0:0:0:
444,318,72299,6,2,B|428:393|187:384|403:254|82:189|69:317,3,437.500004172325,2|10|2|10,1:0|0:0|1:0|0:0,0:0:0:0:
464,161,73633,2,0,B|492:148|521:194|356:306|324:265|346:243,3,218.750002086163,2|2|10|2,1:0|0:0|0:0|0:0,0:0:0:0:
310,18,74299,2,2,B|339:171|428:256|461:165|267:-53|186:80|201:138,1,437.500004172325,2|10,1:0|0:0,0:0:0:0:
294,321,74799,5,8,0:0:0:0:
218,294,74883,1,8,0:0:0:0:
145,327,74966,6,0,B|94:135|94:135|69:196,2,218.750002086163,2|2|10,1:0|0:0|0:0,0:0:0:0:
145,327,75466,1,2,0:0:0:0:
219,154,75633,2,0,B|266:180|266:180|474:159,2,218.750002086163,2|2|10,1:0|0:0|0:0,0:0:0:0:
219,154,76133,1,2,0:0:0:0:
478,34,76299,2,0,B|463:13|322:35|447:8|342:177|262:63,3,218.750002086163,2|2|10|2,1:0|0:0|0:0|0:0,0:0:0:0:
338,212,76966,2,0,B|344:107|344:107|306:0,2,218.750002086163,2|2|10,1:0|0:0|0:0,0:0:0:0:
338,212,77466,1,2,0:0:0:0:
27,153,77633,6,2,B|58:163|58:163|253:151,2,218.750002086163,2|2|10,1:0|0:0|0:0,0:0:0:0:
27,153,78133,1,2,0:0:0:0:
248,335,78299,2,2,B|181:286|181:286|39:255,2,218.750002086163,2|2|10,1:0|0:0|0:0,0:0:0:0:
248,335,78799,1,2,0:0:0:0:
475,176,78966,2,0,B|494:157|528:212|492:297|381:234|393:378,3,218.750002086163,2|2|10|2,1:0|0:0|0:0|0:0,0:0:0:0:
508,99,79633,5,2,1:0:0:0:
480,23,79716,1,10,0:0:0:0:
415,10,79799,1,10,0:0:0:0:
371,53,79883,1,10,0:0:0:0:
389,103,79966,1,10,0:0:0:0:
436,112,80049,1,2,0:0:0:0:
456,91,80133,1,8,0:0:0:0:
450,73,80216,1,8,0:0:0:0:
438,70,80299,1,2,0:0:0:0:
304,96,80466,5,2,0:0:0:0:
221,148,80633,1,0,0:0:0:0:
197,214,80799,1,0,0:0:0:0:
216,274,80966,1,2,0:0:0:0:
197,214,81133,1,0,0:0:0:0:
221,148,81299,1,0,0:0:0:0:
304,96,81466,1,2,0:0:0:0:
438,70,81633,5,0,0:0:0:0:
486,214,81799,5,2,0:0:0:0:
379,167,81966,1,0,0:0:0:0:
305,236,82133,1,0,0:0:0:0:
344,297,82299,1,2,0:0:0:0:
305,236,82466,1,0,0:0:0:0:
379,167,82633,1,0,0:0:0:0:
486,214,82800,1,2,0:0:0:0:
438,70,82966,5,0,0:0:0:0:
257,11,83133,5,2,0:0:0:0:
268,141,83299,1,0,0:0:0:0:
201,208,83466,1,0,0:0:0:0:
126,218,83633,1,2,0:0:0:0:
201,208,83799,1,0,0:0:0:0:
268,141,83966,1,0,0:0:0:0:
257,11,84132,1,2,0:0:0:0:
438,70,84299,5,0,0:0:0:0:
457,244,84466,5,10,0:0:0:0:
339,115,84633,1,0,0:0:0:0:
407,3,84799,1,0,0:0:0:0:
503,35,84966,1,2,0:0:0:0:
407,3,85133,1,8,0:0:0:0:
339,115,85299,1,8,0:0:0:0:
457,244,85466,1,2,0:0:0:0:
271,355,85633,5,6,0:0:0:0:
227,295,85716,6,2,L|169:310,1,46.8750017881394
64,340,85883,1,2,0:0:0:0:
53,299,85966,1,10,0:0:0:0:
93,288,86049,1,2,0:0:0:0:
104,329,86133,1,2,0:0:0:0:
13,169,86299,5,10,0:0:0:0:
13,169,86382,2,2,L|71:184,1,46.8750017881394,2|10,0:0|0:0,0:0:0:0:
176,214,86549,1,2,0:0:0:0:
187,173,86632,1,10,0:0:0:0:
147,162,86715,1,2,0:0:0:0:
136,203,86799,1,2,0:0:0:0:
218,27,86966,5,2,0:0:0:0:
189,53,87049,1,2,0:0:0:0:
152,44,87133,1,2,0:0:0:0:
124,70,87215,1,2,0:0:0:0:
86,62,87299,1,10,0:0:0:0:
58,88,87382,1,2,0:0:0:0:
20,79,87466,1,2,0:0:0:0:
148,160,87633,1,2,0:0:0:0:
218,27,87799,1,2,0:0:0:0:
86,62,87966,5,10,0:0:0:0:
124,70,88049,1,2,0:0:0:0:
152,44,88132,1,2,0:0:0:0:
299,85,88299,5,2,0:0:0:0:
343,79,88383,1,2,0:0:0:0:
371,62,88466,1,2,0:0:0:0:
390,40,88549,1,2,0:0:0:0:
396,69,88633,1,10,0:0:0:0:
412,97,88716,1,2,0:0:0:0:
447,124,88800,1,2,0:0:0:0:
288,254,88966,5,2,0:0:0:0:
244,240,89049,1,2,0:0:0:0:
243,193,89133,1,2,0:0:0:0:
288,179,89216,1,2,0:0:0:0:
315,217,89299,1,10,0:0:0:0:
160,268,89466,1,2,0:0:0:0:
370,349,89633,5,2,0:0:0:0:
408,333,89716,1,2,0:0:0:0:
447,319,89799,2,10,L|508:335,1,46.8750017881394,10|2,0:0|0:0,0:0:0:0:
479,150,89966,1,10,0:0:0:0:
438,216,90049,2,2,L|350:238,1,46.8750017881394
298,93,90216,1,0,0:0:0:0:
355,101,90299,1,2,0:0:0:0:
411,111,90383,1,2,0:0:0:0:
390,58,90465,1,2,0:0:0:0:
370,5,90549,1,2,0:0:0:0:
334,49,90633,1,10,0:0:0:0:
165,25,90799,5,2,0:0:0:0:
155,71,90882,1,2,0:0:0:0:
145,117,90966,5,6,0:0:0:0:
233,136,91299,1,10,0:0:0:0:
271,217,91633,1,2,0:0:0:0:
233,298,91799,1,2,0:0:0:0:
145,317,91966,1,10,0:0:0:0:
75,262,92133,1,2,0:0:0:0:
75,172,92466,1,2,0:0:0:0:
145,117,92633,1,10,0:0:0:0:
233,136,92966,1,2,0:0:0:0:
271,217,93133,1,2,0:0:0:0:
233,298,93299,1,10,0:0:0:0:
399,143,93633,5,2,0:0:0:0:
342,172,93966,1,10,0:0:0:0:
352,233,94299,1,2,0:0:0:0:
414,243,94466,1,2,0:0:0:0:
442,187,94633,1,10,0:0:0:0:
399,143,94799,1,6,0:0:0:0:
342,172,95133,1,2,0:0:0:0:
352,233,95299,1,10,0:0:0:0:
414,243,95466,1,8,0:0:0:0:
442,187,95549,1,8,0:0:0:0:
399,143,95633,1,10,0:0:0:0:
342,172,95799,1,10,0:0:0:0:
352,233,95965,1,10,0:0:0:0:
414,243,96133,1,10,0:0:0:0:
442,187,96216,1,10,0:0:0:0:
399,143,96299,5,10,0:0:0:0:
376,65,96633,1,10,0:0:0:0:
299,43,96966,1,2,0:0:0:0:
244,100,97133,1,2,0:0:0:0:
265,176,97299,1,10,0:0:0:0:
341,197,97466,1,2,0:0:0:0:
399,143,97799,1,2,0:0:0:0:
376,65,97966,1,10,0:0:0:0:
299,43,98299,1,2,0:0:0:0:
244,100,98466,1,2,0:0:0:0:
265,176,98632,1,10,0:0:0:0:
112,350,98966,5,2,0:0:0:0:
30,320,99299,1,10,0:0:0:0:
59,239,99633,1,2,0:0:0:0:
140,269,99799,1,2,0:0:0:0:
112,350,99966,1,10,0:0:0:0:
30,320,100133,1,6,0:0:0:0:
59,239,100466,1,2,0:0:0:0:
140,269,100632,1,10,0:0:0:0:
112,350,100799,1,10,0:0:0:0:
30,320,100883,1,10,0:0:0:0:
59,239,100966,1,10,0:0:0:0:
140,269,101133,1,10,0:0:0:0:
112,350,101299,1,8,0:0:0:0:
30,320,101466,1,8,0:0:0:0:
59,239,101549,1,8,0:0:0:0:
140,269,101633,5,14,0:0:0:0:
226,313,101966,1,10,0:0:0:0:
315,274,102299,1,2,0:0:0:0:
340,180,102466,1,2,0:0:0:0:
283,102,102633,1,10,0:0:0:0:
184,98,102799,1,2,0:0:0:0:
121,172,103133,1,2,0:0:0:0:
140,269,103299,1,10,0:0:0:0:
226,313,103632,1,2,0:0:0:0:
315,274,103799,1,2,0:0:0:0:
340,180,103966,1,10,0:0:0:0:
503,293,104299,5,2,0:0:0:0:
511,223,104632,1,10,0:0:0:0:
448,195,104965,1,2,0:0:0:0:
401,247,105132,1,2,0:0:0:0:
436,307,105299,1,10,0:0:0:0:
503,293,105465,1,6,0:0:0:0:
511,223,105799,1,2,0:0:0:0:
448,195,105965,1,10,0:0:0:0:
401,247,106132,1,8,0:0:0:0:
436,307,106215,1,8,0:0:0:0:
503,293,106299,1,10,0:0:0:0:
511,223,106465,1,8,0:0:0:0:
448,195,106633,1,10,0:0:0:0:
401,247,106799,1,8,0:0:0:0:
436,307,106882,1,8,0:0:0:0:
503,293,106966,6,2,L|490:199,1,81.2499962806703,10|0,0:0|0:0,0:0:0:0:
479,130,107299,2,0,L|392:94,1,81.2499962806703,10|0,0:0|0:0,0:0:0:0:
328,67,107633,2,0,L|253:124,1,81.2499962806703,2|0,0:0|0:0,0:0:0:0:
199,168,107966,2,0,L|211:261,1,81.2499962806703,10|0,0:0|0:0,0:0:0:0:
220,329,108299,2,2,L|209:248,1,81.2499962806703,2|0,0:0|0:0,0:0:0:0:
199,168,108633,1,10,0:0:0:0:
328,67,108799,2,0,L|263:116,1,81.2499962806703,2|2,0:0|0:0,0:0:0:0:
199,168,109133,1,2,0:0:0:0:
47,106,109299,2,0,L|122:137,1,81.2499962806703,14|0,0:0|0:0,0:0:0:0:
393,225,109633,5,10,0:0:0:0:
314,239,109716,1,2,0:0:0:0:
393,225,109799,1,10,0:0:0:0:
314,239,109883,1,2,0:0:0:0:
393,225,109966,1,10,0:0:0:0:
170,289,110299,5,10,0:0:0:0:
249,303,110382,1,2,0:0:0:0:
170,289,110465,1,10,0:0:0:0:
249,303,110549,1,2,0:0:0:0:
170,289,110632,1,10,0:0:0:0:
376,361,110799,5,14,0:0:0:0:
342,140,110966,5,10,0:0:0:0:
161,78,111133,1,10,0:0:0:0:
258,216,111299,1,10,0:0:0:0:
458,163,111466,1,10,0:0:0:0:
291,380,111633,1,10,0:0:0:0:
47,217,111799,5,8,0:0:0:0:
74,150,111882,1,8,0:0:0:0:
119,207,111966,1,8,0:0:0:0:
164,264,112049,1,8,0:0:0:0:
191,197,112133,1,8,0:0:0:0:
218,130,112216,1,8,0:0:0:0:
263,187,112299,6,2,B|287:198|342:162|331:73|276:41|205:68|218:130,1,250,6|10,1:0|0:0,0:0:0:0:
405,144,112799,5,2,0:0:0:0:
405,144,112883,1,2,0:0:0:0:
405,144,112966,2,2,P|384:222|383:295,1,149.999995422363,2|0,1:0|0:0,0:0:0:0:
272,384,113299,6,0,P|309:380|344:365,1,74.9999977111817,10|0,0:0|0:0,0:0:0:0:
132,220,113633,6,0,B|168:193|220:225|221:300|306:315|324:300|306:283|282:284,2,224.999993133545,2|2|10,1:0|0:0|0:0,0:0:0:0:
76,279,114133,1,0,0:0:0:0:
184,96,114299,5,2,1:0:0:0:
111,67,114466,1,2,0:0:0:0:
38,38,114633,1,10,0:0:0:0:
277,24,114799,5,2,0:0:0:0:
277,24,114883,1,2,0:0:0:0:
277,24,114966,2,2,B|328:26|454:67|449:157|235:83|351:50,1,250,2|10,1:0|0:0,0:0:0:0:
512,106,115466,5,2,0:0:0:0:
512,106,115549,1,2,0:0:0:0:
512,106,115633,2,2,P|449:110|359:143,1,149.999995422363,2|0,1:0|0:0,0:0:0:0:
229,235,115966,6,0,P|224:192|209:152,1,74.9999977111817,10|0,0:0|0:0,0:0:0:0:
419,367,116299,6,0,B|325:340|366:251|315:150|304:225,2,224.999993133545,2|2|10,1:0|0:0|0:0,0:0:0:0:
486,319,116799,1,0,0:0:0:0:
238,313,116966,5,2,1:0:0:0:
162,332,117133,1,2,0:0:0:0:
86,351,117299,1,10,0:0:0:0:
29,142,117466,5,2,0:0:0:0:
29,142,117549,1,2,0:0:0:0:
29,142,117633,2,2,B|33:106|83:59|106:65|108:125|51:268|22:273|52:199,1,250,6|10,1:0|0:0,0:0:0:0:
162,63,118133,5,2,0:0:0:0:
162,63,118216,1,2,0:0:0:0:
162,63,118299,2,2,P|211:91|325:124,1,149.999995422363,2|0,1:0|0:0,0:0:0:0:
466,212,118633,6,0,P|423:218|368:238,1,74.9999977111817,10|0,0:0|0:0,0:0:0:0:
231,380,118966,6,0,B|211:241|309:318|350:198|314:140|299:241,2,224.999993133545,2|2|10,1:0|0:0|0:0,0:0:0:0:
150,340,119466,1,0,0:0:0:0:
110,146,119633,5,2,1:0:0:0:
173,98,119799,1,2,0:0:0:0:
236,50,119966,1,10,0:0:0:0:
446,119,120133,5,2,0:0:0:0:
446,119,120216,1,2,0:0:0:0:
446,119,120299,2,2,B|515:72|379:-43|318:87|370:169|404:115,1,250,2|10,1:0|0:0,0:0:0:0:
275,131,120799,5,2,0:0:0:0:
275,131,120883,1,2,0:0:0:0:
275,131,120966,2,2,P|308:174|345:271,1,149.999995422363,2|0,1:0|0:0,0:0:0:0:
497,294,121299,6,0,P|462:280|425:273,1,74.9999977111817,10|0,0:0|0:0,0:0:0:0:
140,266,121633,6,0,B|143:363|245:381|332:367|305:316|276:325,2,224.999993133545,2|2|10,1:0|0:0|0:0,0:0:0:0:
147,356,122133,1,0,0:0:0:0:
23,149,122299,5,2,1:0:0:0:
276,105,122466,5,10,0:0:0:0:
289,31,122549,1,8,0:0:0:0:
241,0,122633,1,10,0:0:0:0:
195,18,122716,1,8,0:0:0:0:
194,52,122799,1,8,0:0:0:0:
210,65,122883,1,8,0:0:0:0:
231,55,122966,6,0,P|199:18|68:40,3,187.500007152558,6|2|10|2,1:0|0:0|0:0|0:0,0:0:0:0:
195,245,123633,2,0,B|177:179|177:179|185:116,2,125,2|2|2,1:0|0:0|1:0,0:0:0:0:
454,154,123966,2,0,B|391:109|354:269|278:227|242:171,1,218.750002086163,10|0,0:0|0:0,0:0:0:0:
391,359,124299,6,0,P|384:301|492:239,3,187.500007152558,2|2|10|2,1:0|0:0|0:0|0:0,0:0:0:0:
189,337,124966,2,0,B|229:360|229:360|333:337,2,125,2|2|2,1:0|0:0|1:0,0:0:0:0:
68,173,125299,2,0,B|42:271|141:226|99:390,1,218.750002086163,10|0,0:0|0:0,0:0:0:0:
143,90,125633,6,0,P|44:81|-1:-2,3,187.500007152558,2|2|10|2,1:0|0:0|0:0|0:0,0:0:0:0:
234,0,126299,2,0,B|212:39|212:39|229:136,2,125,2|2|2,1:0|0:0|1:0,0:0:0:0:
343,307,126633,2,0,B|223:261|378:168|285:99,1,218.750002086163,10|0,0:0|0:0,0:0:0:0:
236,341,126966,6,0,P|189:263|99:249,3,187.500007152558,2|2|10|2,1:0|0:0|0:0|0:0,0:0:0:0:
387,206,127633,2,0,B|312:230|312:230|257:221,2,125,2|2|2,1:0|0:0|1:0,0:0:0:0:
428,8,127966,6,2,P|380:47|490:30,1,328.125003129244,10|2,0:0|0:0,0:0:0:0:
344,63,128299,6,0,P|248:51|162:81,3,187.500007152558,2|2|10|2,1:0|0:0|0:0|0:0,0:0:0:0:
339,257,128966,2,0,L|307:129,2,125,2|2|2,1:0|0:0|1:0,0:0:0:0:
35,130,129299,2,0,B|96:79|78:148|232:247|273:86,1,218.750002086163,10|0,0:0|0:0,0:0:0:0:
132,375,129633,6,0,P|80:297|64:205,3,187.500007152558,2|2|10|2,1:0|0:0|0:0|0:0,0:0:0:0:
300,331,130299,2,0,L|160:300,2,125,2|2|2,1:0|0:0|1:0,0:0:0:0:
440,106,130633,2,0,B|488:140|429:276|385:161|368:329,1,218.750002086163,10|0,0:0|0:0,0:0:0:0:
194,72,130966,6,0,P|230:140|352:224,3,187.500007152558,2|2|10|2,1:0|0:0|0:0|0:0,0:0:0:0:
16,30,131633,2,0,L|151:9,2,125,2|2|2,1:0|0:0|1:0,0:0:0:0:
85,294,131966,2,0,B|39:198|147:218|144:134|104:78,1,218.750002086163,10|0,0:0|0:0,0:0:0:0:
345,286,132299,6,0,P|232:304|134:333,3,187.500007152558,2|2|10|2,1:0|0:0|0:0|0:0,0:0:0:0:
492,221,132966,2,8,L|403:342,2,125,2|2|10,1:0|0:0|0:0,0:0:0:0:
222,7,133299,5,10,0:0:0:0:
251,80,133383,1,8,0:0:0:0:
326,38,133466,1,8,0:0:0:0:
421,75,133549,1,8,0:0:0:0:
410,168,133633,6,2,B|374:190|228:235|134:34|3:82|5:139,3,437.500004172325,6|10|2|10,1:0|0:0|1:0|0:0,0:0:0:0:
380,295,134966,2,0,B|355:279|341:319|389:364|422:291|403:232|477:209|543:216,3,218.750002086163,2|2|10|2,1:0|0:0|0:0|0:0,0:0:0:0:
174,317,135633,2,2,B|199:320|193:340|172:360|81:391|-52:319|-1:123|158:48|300:165|281:288|125:331|-2:295|-46:211|25:147|68:232|23:214|80:177,1,437.500004172325,2|10,1:0|0:0,0:0:0:0:
304,32,136299,6,2,B|360:16|481:72|369:239|256:97|245:274|295:380,3,437.500004172325,2|10|2|10,1:0|0:0|1:0|0:0,0:0:0:0:
91,63,137633,2,0,B|78:48|168:17|193:114|257:138|286:103,3,218.750002086163,2|2|10|2,1:0|0:0|0:0|0:0,0:0:0:0:
175,279,138299,2,2,B|160:329|95:317|118:238|117:90|55:41|-50:102|-22:152|4:205|107:210|191:171|136:119,1,437.500004172325,2|10,1:0|0:0,0:0:0:0:
318,0,138799,5,2,0:0:0:0:
351,34,138883,1,2,0:0:0:0:
396,38,138966,6,0,B|379:199|379:199|422:243,2,218.750002086163,2|2|10,1:0|0:0|0:0,0:0:0:0:
318,0,139466,1,0,0:0:0:0:
112,209,139633,2,0,B|203:138|203:138|334:118,2,218.750002086163,2|2|10,1:0|0:0|0:0,0:0:0:0:
147,289,140133,1,0,0:0:0:0:
54,23,140299,2,0,B|70:10|132:29|66:195|1:181,3,218.750002086163,2|2|10|2,1:0|0:0|0:0|0:0,0:0:0:0:
291,331,140966,2,0,B|208:304|208:304|78:329,2,218.750002086163,2|2|10,1:0|0:0|0:0,0:0:0:0:
360,384,141466,1,0,0:0:0:0:
436,114,141633,6,2,B|413:230|413:230|424:348,2,218.750002086163,2|2|10,1:0|0:0|0:0,0:0:0:0:
375,50,142133,1,0,0:0:0:0:
133,212,142299,2,2,B|182:221|182:221|359:155,2,218.750002086163,2|2|10,1:0|0:0|0:0,0:0:0:0:
61,161,142799,1,2,0:0:0:0:
293,33,142966,2,0,B|280:109|213:112|148:37|95:98,3,218.750002086163,2|2|10|2,1:0|0:0|0:0|0:0,0:0:0:0:
61,359,143633,5,2,1:0:0:0:
395,348,143799,5,10,0:0:0:0:
361,266,143882,1,10,0:0:0:0:
301,216,143966,1,10,0:0:0:0:
236,194,144049,1,8,0:0:0:0:
189,201,144132,1,10,0:0:0:0:
158,216,144216,1,8,0:0:0:0:
197,117,144299,6,0,B|338:141|283:27|425:47,3,250,6|2|10|2,1:0|0:0|0:0|0:0,0:0:0:0:
76,78,144966,2,0,B|49:133|49:133|86:286,2,156.25,2|2|2,1:0|0:0|1:0,0:0:0:0:
373,143,145299,6,2,B|396:116|394:74|394:74|369:101|336:82|349:130,1,156.25,10|2,0:0|0:0,0:0:0:0:
270,195,145466,2,2,B|259:162|222:142|222:142|232:177|199:196|247:209,1,156.25,2|0,0:0|0:0,0:0:0:0:
263,310,145633,6,0,B|327:272|392:311|357:353|410:393|498:351,3,250,2|2|10|2,1:0|0:0|0:0|0:0,0:0:0:0:
122,354,146299,2,0,B|163:275|163:275|131:154,2,156.25,2|2|2,1:0|0:0|1:0,0:0:0:0:
434,350,146633,6,0,B|401:339|381:302|381:302|416:311|435:279|448:327,1,156.25,10|0,0:0|0:0,0:0:0:0:
477,156,146799,5,8,0:0:0:0:
448,119,146883,1,8,0:0:0:0:
469,42,146966,6,0,B|406:14|342:43|364:89|289:147|195:55,3,250,2|2|10|2,1:0|0:0|0:0|0:0,0:0:0:0:
377,223,147633,2,0,B|310:176|310:176|187:192,2,156.25,2|2|2,1:0|0:0|1:0,0:0:0:0:
428,49,147966,6,2,B|393:51|364:81|364:81|400:81|410:117|435:74,1,156.25,10|2,0:0|0:0,0:0:0:0:
461,164,148133,2,2,B|495:166|524:196|524:196|488:196|478:232|453:189,1,156.25,2|0,0:0|0:0,0:0:0:0:
331,294,148299,6,0,L|87:328,1,210.937508046627,2|0,1:0|0:0,0:0:0:0:
104,345,148466,2,0,L|312:315,1,210.937508046627,6|0,0:0|0:0,0:0:0:0:
331,294,148633,2,0,L|87:328,1,210.937508046627,10|0,0:0|0:0,0:0:0:0:
104,345,148800,2,0,L|312:315,1,210.937508046627,6|0,0:0|0:0,0:0:0:0:
386,350,148966,5,2,1:0:0:0:
417,286,149049,1,10,0:0:0:0:
414,228,149133,1,2,1:0:0:0:
389,195,149216,1,8,0:0:0:0:
310,215,149299,5,10,0:0:0:0:
318,144,149383,1,2,0:0:0:0:
326,73,149466,1,8,0:0:0:0:
115,80,149633,6,0,B|75:152|147:207|149:180|213:201|181:302,3,250,6|2|10|2,1:0|0:0|0:0|0:0,0:0:0:0:
39,39,150299,2,0,L|271:55,2,156.25,2|2|2,1:0|0:0|1:0,0:0:0:0:
261,161,150633,6,2,B|227:171|207:208|207:208|242:199|261:231|274:183,1,156.25,10|2,0:0|0:0,0:0:0:0:
352,229,150799,2,2,B|344:263|366:299|366:299|375:264|413:263|377:228,1,156.25,2|0,0:0|0:0,0:0:0:0:
504,15,150966,6,0,B|436:-5|399:56|399:56|383:50|383:50|346:100|283:85,1,250,2|2,1:0|0:0,0:0:0:0:
491,263,151299,5,10,0:0:0:0:
482,178,151383,1,10,0:0:0:0:
474,94,151466,1,10,0:0:0:0:
244,320,151633,6,0,L|440:351,2,156.25,2|2|2,1:0|0:0|1:0,0:0:0:0:
234,326,151855,5,8,0:0:0:0:
220,333,151911,5,8,0:0:0:0:
202,343,151966,5,10,0:0:0:0:
74,111,152133,5,10,0:0:0:0:
119,172,152216,1,10,0:0:0:0:
46,223,152299,6,0,B|116:247|164:186|141:171|181:107|264:129,3,250,2|2|10|2,1:0|0:0|0:0|0:0,0:0:0:0:
487,143,152966,2,0,L|283:178,2,156.25,2|2|2,1:0|0:0|1:0,0:0:0:0:
234,225,153299,6,2,B|211:197|170:192|170:192|191:221|168:250|217:245,1,156.25,10|2,0:0|0:0,0:0:0:0:
178,322,153466,2,2,B|143:327|117:360|117:360|153:356|167:391|187:346,1,156.25,2|0,0:0|0:0,0:0:0:0:
434,223,153633,5,2,1:0:0:0:
488,278,153716,1,8,0:0:0:0:
414,297,153799,1,10,0:0:0:0:
342,270,153883,1,10,0:0:0:0:
306,203,153966,1,10,0:0:0:0:
315,127,154049,1,10,0:0:0:0:
368,69,154133,1,10,0:0:0:0:
25,12,154299,6,8,L|73:193,2,187.500007152558,2|10|14,1:0|0:0|0:0,0:0:0:0:
448,52,154633,5,14,0:0:0:0:
