osu file format v14

[General]
AudioFilename: audio.mp3
AudioLeadIn: 0
PreviewTime: 46464
Countdown: 0
SampleSet: Drum
StackLeniency: 0.3
Mode: 0
LetterboxInBreaks: 0
WidescreenStoryboard: 1

[Editor]
Bookmarks: 11464,34321,46464,69321,82178,105035,127892,139321
DistanceSpacing: 1.2
BeatDivisor: 4
GridSize: 8
TimelineZoom: 1.9

[Metadata]
Title:Todokanai Eien no Kyori
TitleUnicode:届かない永遠の距離
Artist:Silver Forest
ArtistUnicode:Silver Forest
Creator:ConsumerOfBean
Version:Lunatic
Source:東方永夜抄 ~ Imperishable Night.
Tags:fujiwara no mokou touhou project 8 unreachably eternally distant video game japanese eiyashou 月まで届け、不死の煙 tsuki made todoke fushi no kemuri 藤原 妹紅 Reach for the Moon Immortal Smoke 東方Project
BeatmapID:2702259
BeatmapSetID:1280488

[Difficulty]
HPDrainRate:6
CircleSize:4
OverallDifficulty:8
ApproachRate:8.8
SliderMultiplier:1.7
SliderTickRate:1

[Events]
//Background and Video events
0,0,"mokou.jpg",0,0
//Break Periods
//Storyboard Layer 0 (Background)
//Storyboard Layer 1 (Fail)
//Storyboard Layer 2 (Pass)
//Storyboard Layer 3 (Foreground)
//Storyboard Layer 4 (Overlay)
//Storyboard Sound Samples

[TimingPoints]
36,357.142857142857,4,3,0,90,1,0
11464,-100,4,3,0,90,0,0
28607,-83.3333333333333,4,3,0,90,0,0
34321,-100,4,3,0,90,0,0
34589,-100,4,3,0,5,0,0
34678,-100,4,3,0,90,0,0
36018,-100,4,3,0,5,0,0
36107,-100,4,3,0,90,0,0
40303,-100,4,3,0,5,0,0
40393,-100,4,3,0,90,0,0
41732,-100,4,3,0,5,0,0
41821,-100,4,3,0,90,0,0
43160,-100,4,3,0,5,0,0
43250,-100,4,3,0,90,0,0
43875,-100,4,3,0,5,0,0
43964,-100,4,3,0,90,0,0
45750,-100,4,3,0,20,0,0
45928,-100,4,3,0,40,0,0
46107,-100,4,3,0,60,0,0
46285,-100,4,3,0,80,0,0
46464,357.142857142857,4,3,0,90,1,0
46464,-83.3333333333333,4,3,0,90,0,0
69321,-100,4,3,0,90,0,0
75035,-83.3333333333333,4,3,0,90,0,0
80749,-200,4,3,0,90,0,0
82178,357.142857142857,4,3,0,70,1,0
82178,-142.857142857143,4,3,0,70,0,0
93606,-100,4,3,0,80,0,0
105035,-83.3333333333333,4,3,0,90,0,0
127892,-100,4,3,0,90,0,0
133606,-83.3333333333333,4,3,0,90,0,0
139321,-100,4,3,0,90,0,0
139588,-100,4,3,0,5,0,0
139678,-100,4,3,0,90,0,0
141017,-100,4,3,0,5,0,0
141107,-100,4,3,0,90,0,0
145303,-100,4,3,0,5,0,0
145393,-100,4,3,0,90,0,0
146731,-100,4,3,0,5,0,0
146821,-100,4,3,0,90,0,0
148160,-100,4,3,0,5,0,0
148250,-100,4,3,0,90,0,0
148874,-100,4,3,0,5,0,0
148964,-100,4,3,0,90,0,0
151017,-100,4,3,0,5,0,0
151107,-100,4,3,0,90,0,0
152446,-100,4,3,0,5,0,0
152536,-100,4,3,0,90,0,0
156731,-100,4,3,0,5,0,0
156821,-100,4,3,0,90,0,0
158160,-100,4,3,0,5,0,0
158250,-100,4,3,0,90,0,0
159588,-100,4,3,0,5,0,0
159678,-100,4,3,0,90,0,0
160303,-100,4,3,0,5,0,0
160393,-100,4,3,0,90,0,0
161821,-100,4,3,0,80,0,0
162178,-100,4,3,0,70,0,0
162535,-100,4,3,0,60,0,0
162892,-100,4,3,0,40,0,0
163249,-100,4,3,0,20,0,0
163606,-100,4,3,0,5,0,0

[Colours]
Combo1 : 196,0,98
Combo2 : 250,155,157
Combo3 : 255,102,102
Combo4 : 243,48,77

[HitObjects]
213,124,8607,5,0,3:2:0:0:
251,253,8964,1,0,3:2:0:0:
297,127,9321,1,0,3:2:0:0:
186,202,9678,1,0,3:2:0:0:
320,207,10035,5,0,3:2:0:0:
213,124,10393,1,0,3:2:0:0:
194,209,10571,1,0,3:2:0:0:
194,209,10660,1,0,3:2:0:0:
194,209,10750,2,0,L|150:207,3,42.5,0|0|0|0,3:2|3:2|3:2|3:2,0:0:0:0:
81,245,11107,6,0,L|50:248,3,28.3333333333333,0|0|0|0,3:2|3:2|3:2|3:2,0:0:0:0:
159,314,11464,5,4,1:1:0:0:
189,293,11553,1,0,2:2:0:0:
226,289,11643,1,0,2:2:0:0:
261,302,11732,1,0,2:2:0:0:
285,330,11821,2,0,L|289:373,3,42.5,8|2|0|0,2:2|2:2|2:2|2:2,0:0:0:0:
332,266,12178,5,0,1:2:0:0:
362,287,12268,1,0,2:2:0:0:
399,291,12357,1,0,2:2:0:0:
434,278,12446,1,2,2:2:0:0:
458,250,12535,2,0,L|462:207,3,42.5,8|2|0|0,2:2|2:2|2:2|2:2,0:0:0:0:
426,136,12893,5,0,1:2:0:0:
399,153,12982,1,0,2:2:0:0:
368,158,13071,1,2,2:2:0:0:
337,150,13160,1,0,2:2:0:0:
313,129,13250,1,8,2:2:0:0:
288,108,13339,1,0,2:2:0:0:
258,100,13428,1,2,2:2:0:0:
227,105,13518,1,0,2:2:0:0:
200,122,13607,2,0,L|196:166,3,42.5,2|0|0|0,1:2|2:2|2:2|2:2,0:0:0:0:
128,212,13964,2,0,L|132:256,3,42.5,8|0|2|2,2:2|2:2|1:2|2:2,0:0:0:0:
54,174,14321,5,0,1:2:0:0:
35,142,14410,1,0,2:2:0:0:
29,105,14500,1,0,2:2:0:0:
37,69,14589,1,0,2:2:0:0:
58,39,14678,2,0,P|78:36|101:35,3,42.5,8|2|0|0,2:2|2:2|2:2|2:2,0:0:0:0:
173,90,15035,5,0,1:2:0:0:
197,62,15125,1,0,2:2:0:0:
230,44,15214,1,0,2:2:0:0:
267,41,15303,1,2,2:2:0:0:
302,52,15393,2,0,P|311:70|319:91,3,42.5,8|2|0|0,2:2|2:2|2:2|2:2,0:0:0:0:
333,176,15750,5,0,1:2:0:0:
362,163,15839,1,0,2:2:0:0:
393,160,15928,1,2,2:2:0:0:
424,168,16018,1,0,2:2:0:0:
451,186,16107,1,8,2:2:0:0:
470,211,16196,1,0,2:2:0:0:
481,240,16285,1,2,2:2:0:0:
481,272,16375,1,0,2:2:0:0:
471,302,16464,2,0,P|449:309|428:312,3,42.5,0|0|0|0,1:2|2:2|2:2|2:2,0:0:0:0:
356,281,16821,1,8,2:2:0:0:
283,363,17000,1,2,1:2:0:0:
283,363,17089,1,2,1:2:0:0:
283,363,17178,5,4,1:1:0:0:
285,326,17268,1,0,2:2:0:0:
273,291,17357,1,0,2:2:0:0:
248,264,17446,1,0,2:2:0:0:
214,249,17535,2,0,L|168:245,3,42.5,8|2|0|0,2:2|2:2|2:2|2:2,0:0:0:0:
87,271,17893,5,0,1:2:0:0:
85,234,17982,1,0,2:2:0:0:
97,199,18071,1,0,2:2:0:0:
122,172,18160,1,2,2:2:0:0:
156,157,18250,2,0,L|202:153,3,42.5,8|2|0|0,2:2|2:2|2:2|2:2,0:0:0:0:
268,103,18607,5,0,1:2:0:0:
295,119,18696,1,0,2:2:0:0:
325,128,18785,1,2,2:2:0:0:
357,129,18875,1,0,2:2:0:0:
388,122,18964,1,8,2:2:0:0:
416,107,19053,1,0,2:2:0:0:
439,86,19143,1,2,2:2:0:0:
457,59,19232,1,0,2:2:0:0:
467,29,19321,2,0,P|489:21|510:17,3,42.5,0|0|0|0,1:2|2:2|2:2|2:2,0:0:0:0:
376,36,19678,2,0,P|354:44|333:48,3,42.5,8|0|2|2,2:2|2:2|1:2|2:2,0:0:0:0:
246,24,20035,5,0,1:2:0:0:
209,16,20125,1,0,2:2:0:0:
173,23,20214,1,0,2:2:0:0:
141,42,20303,1,0,2:2:0:0:
119,72,20393,2,0,P|115:97|113:117,3,42.5,8|2|0|0,2:2|2:2|2:2|2:2,0:0:0:0:
209,117,20750,5,0,1:2:0:0:
241,133,20839,1,0,2:2:0:0:
258,166,20928,1,0,2:2:0:0:
252,202,21018,1,2,2:2:0:0:
227,228,21107,2,0,P|203:228|181:223,3,42.5,8|2|0|0,2:2|2:2|2:2|2:2,0:0:0:0:
281,307,21464,5,0,1:2:0:0:
300,281,21553,1,0,2:2:0:0:
326,263,21643,1,2,2:2:0:0:
356,252,21732,1,0,2:2:0:0:
387,251,21821,1,8,2:2:0:0:
418,258,21910,1,0,2:2:0:0:
445,274,22000,1,2,2:2:0:0:
467,298,22089,1,0,2:2:0:0:
481,326,22178,2,0,P|452:323|434:314,3,42.5,0|0|0|0,1:2|2:2|2:2|2:2,0:0:0:0:
378,370,22535,1,8,2:2:0:0:
289,314,22714,1,2,1:2:0:0:
289,314,22803,1,2,1:2:0:0:
289,314,22893,5,4,1:1:0:0:
261,338,22982,1,0,2:2:0:0:
225,348,23071,1,0,2:2:0:0:
189,341,23160,1,0,2:2:0:0:
159,319,23250,2,0,P|157:294|157:268,3,42.5,8|2|0|0,2:2|2:2|2:2|2:2,0:0:0:0:
196,201,23607,5,0,1:2:0:0:
223,225,23696,1,0,2:2:0:0:
259,235,23785,1,0,2:2:0:0:
295,228,23875,1,2,2:2:0:0:
325,206,23964,2,0,P|327:180|327:154,3,42.5,8|2|0|0,2:2|2:2|2:2|2:2,0:0:0:0:
287,84,24321,5,0,1:2:0:0:
258,98,24410,1,0,2:2:0:0:
227,102,24500,1,2,2:2:0:0:
196,95,24589,1,0,2:2:0:0:
170,77,24678,1,8,2:2:0:0:
143,59,24768,1,0,2:2:0:0:
112,51,24857,1,2,2:2:0:0:
81,55,24946,1,0,2:2:0:0:
53,70,25035,2,0,P|44:94|40:115,3,42.5,0|0|0|0,1:2|2:2|2:2|2:2,0:0:0:0:
115,136,25393,2,0,P|122:155|127:176,3,42.5,8|0|2|2,2:2|2:2|1:2|2:2,0:0:0:0:
107,271,25750,5,0,1:2:0:0:
142,256,25839,1,0,2:2:0:0:
180,256,25928,1,0,2:2:0:0:
215,271,26018,1,0,2:2:0:0:
240,300,26107,2,0,P|248:322|251:342,3,42.5,8|2|0|0,2:2|2:2|2:2|2:2,0:0:0:0:
316,258,26464,5,0,1:2:0:0:
285,235,26553,1,0,2:2:0:0:
266,202,26643,1,0,2:2:0:0:
262,164,26732,1,2,2:2:0:0:
274,128,26821,2,0,P|289:110|304:97,3,42.5,8|2|0|0,2:2|2:2|2:2|2:2,0:0:0:0:
384,66,27178,5,0,1:2:0:0:
412,77,27268,1,0,2:2:0:0:
432,101,27357,1,2,2:2:0:0:
439,132,27446,1,0,2:2:0:0:
431,163,27535,1,8,2:2:0:0:
423,194,27625,1,0,2:2:0:0:
430,225,27714,1,2,2:2:0:0:
450,249,27803,1,0,2:2:0:0:
478,260,27893,2,0,P|483:280|483:301,3,42.5,0|0|0|0,1:2|2:2|2:2|2:2,0:0:0:0:
434,369,28250,1,8,2:2:0:0:
338,298,28428,1,2,1:2:0:0:
338,298,28518,1,2,1:2:0:0:
338,298,28607,5,4,1:1:0:0:
298,267,28696,1,0,3:2:0:0:
247,263,28785,1,0,3:2:0:0:
203,286,28875,1,0,3:2:0:0:
179,330,28964,2,0,P|179:364|180:388,3,50.9999984436036,10|2|2|2,3:2|3:2|3:2|3:2,0:0:0:0:
115,264,29321,5,4,1:1:0:0:
99,215,29410,1,0,3:2:0:0:
97,164,29500,1,0,3:2:0:0:
111,115,29589,1,0,3:2:0:0:
137,72,29678,2,0,P|159:64|191:56,3,50.9999984436036,10|2|2|2,0:2|3:2|3:2|3:2,0:0:0:0:
291,55,30035,6,0,L|297:3,1,50.9999984436036,4|0,1:1|3:2,0:0:0:0:
212,134,30214,2,0,L|206:83,1,50.9999984436036,2|0,3:2|3:2,0:0:0:0:
300,178,30393,2,0,L|306:126,1,50.9999984436036,8|0,3:2|3:2,0:0:0:0:
221,257,30571,2,0,L|215:206,1,50.9999984436036,2|0,3:2|3:2,0:0:0:0:
309,301,30750,5,0,1:2:0:0:
340,262,30839,1,2,3:2:0:0:
389,250,30928,1,2,3:2:0:0:
434,271,31018,1,2,3:2:0:0:
457,316,31107,2,0,P|422:348|380:325,1,101.999996887207,10|0,3:2|1:2,0:0:0:0:
440,185,31464,5,4,1:1:0:0:
457,138,31553,1,0,3:2:0:0:
442,90,31643,1,0,3:2:0:0:
400,63,31732,1,0,3:2:0:0:
351,67,31821,2,0,P|344:98|346:122,3,50.9999984436036,10|2|2|2,3:2|3:2|3:2|3:2,0:0:0:0:
262,120,32178,5,4,1:1:0:0:
279,166,32268,1,0,3:2:0:0:
264,214,32357,1,0,3:2:0:0:
222,241,32446,1,0,3:2:0:0:
173,237,32535,2,0,P|165:206|167:182,3,50.9999984436036,10|2|2|2,3:2|3:2|3:2|3:2,0:0:0:0:
95,137,32893,6,0,L|44:134,1,50.9999984436036,4|0,1:1|3:2,0:0:0:0:
25,227,33071,2,0,L|76:224,1,50.9999984436036,2|0,3:2|3:2,0:0:0:0:
224,240,33250,2,0,L|173:237,1,50.9999984436036,8|0,3:2|3:2,0:0:0:0:
152,331,33428,2,0,L|203:328,1,50.9999984436036,2|0,3:2|3:2,0:0:0:0:
295,370,33607,5,0,1:2:0:0:
318,325,33696,1,2,3:2:0:0:
358,294,33785,1,2,3:2:0:0:
408,285,33875,1,2,3:2:0:0:
457,298,33964,1,10,3:2:0:0:
370,208,34143,1,0,1:2:0:0:
370,208,34232,1,0,0:0:0:0:
370,208,34321,6,0,B|336:173|336:173|344:94,1,127.5,4|0,1:2|2:2,0:0:0:0:
349,61,34678,1,8,2:2:0:0:
253,105,34857,1,2,2:2:0:0:
253,105,34946,1,2,2:2:0:0:
253,105,35035,5,2,1:2:0:0:
126,19,35303,1,0,1:2:0:0:
18,128,35571,1,0,1:2:0:0:
93,171,35750,6,0,B|121:211|121:211|113:319,1,127.5,0|0,1:2|2:2,0:0:0:0:
114,318,36107,1,8,2:2:0:0:
205,246,36285,1,0,2:2:0:0:
277,337,36464,1,2,2:2:0:0:
292,336,36553,1,2,2:2:0:0:
308,336,36643,1,2,2:2:0:0:
324,335,36732,1,2,2:2:0:0:
340,335,36821,2,0,L|428:333,1,85,10|2,2:2|1:2,0:0:0:0:
495,222,37178,6,0,P|487:179|459:147,1,85,0|0,1:2|2:2,0:0:0:0:
490,62,37535,2,0,P|447:56|408:73,1,85,8|0,2:2|2:2,0:0:0:0:
337,17,37893,2,0,P|318:55|322:98,1,85,0|0,1:2|2:2,0:0:0:0:
246,149,38250,2,0,P|276:178|318:187,1,85,8|0,2:2|2:2,0:0:0:0:
200,234,38607,5,0,1:2:0:0:
178,235,38696,1,2,2:2:0:0:
157,236,38785,1,0,2:2:0:0:
136,237,38875,1,0,2:2:0:0:
115,238,38964,2,0,L|73:240,2,42.5,10|0|0,2:2|2:2|2:2,0:0:0:0:
155,156,39232,2,0,L|153:114,2,42.5,2|0|0,2:2|1:2|2:2,0:0:0:0:
200,234,39500,2,0,L|198:276,2,42.5,2|0|8,2:2|2:2|2:2,0:0:0:0:
266,176,39768,1,2,2:2:0:0:
288,178,39857,1,0,1:2:0:0:
309,180,39946,1,0,1:2:0:0:
330,183,40035,6,0,B|376:187|376:187|401:166|401:166|449:170,1,127.5,4|0,1:2|2:2,0:0:0:0:
478,175,40393,1,8,2:2:0:0:
440,267,40571,1,2,2:2:0:0:
440,267,40660,1,2,2:2:0:0:
440,267,40750,5,2,1:2:0:0:
322,168,41018,1,0,1:2:0:0:
246,298,41285,1,0,1:2:0:0:
179,251,41464,6,0,B|132:246|132:246|107:267|107:267|59:263,1,127.5,0|0,1:2|2:2,0:0:0:0:
31,259,41821,1,10,2:2:0:0:
22,239,41910,1,2,2:2:0:0:
19,218,42000,1,2,2:2:0:0:
23,197,42089,1,2,2:2:0:0:
33,179,42178,5,2,1:2:0:0:
154,335,42446,1,0,1:2:0:0:
199,148,42714,1,0,1:2:0:0:
261,211,42893,6,0,L|345:218,1,85,4|0,1:2|0:0,0:0:0:0:
430,228,43250,1,8,2:2:0:0:
375,141,43428,1,2,2:2:0:0:
359,134,43518,1,2,2:2:0:0:
343,126,43607,2,0,L|335:41,1,85,6|0,1:2|0:0,0:0:0:0:
256,16,43964,1,8,2:2:0:0:
166,50,44143,1,2,2:2:0:0:
150,57,44232,1,2,2:2:0:0:
134,65,44321,6,0,L|126:149,1,85,6|0,1:2|2:2,0:0:0:0:
226,227,44678,2,0,L|233:311,1,85,14|0,1:2|2:2,0:0:0:0:
338,170,45035,2,0,L|323:0,1,170,6|8,1:2|2:2,0:0:0:0:
434,76,45571,1,0,1:2:0:0:
434,76,45660,1,0,1:2:0:0:
434,76,45750,6,0,L|431:100,14,21.25,2|2|2|2|2|2|2|2|2|2|2|2|2|2|2,2:2|2:2|2:2|2:2|2:2|2:2|2:2|2:2|2:2|2:2|2:2|2:2|2:2|2:2|2:2,0:0:0:0:
348,133,46464,6,0,B|371:183|427:188|427:188|371:183|339:228,1,203.999993774414,6|8,1:2|2:2,0:0:0:0:
309,338,46999,1,0,2:2:0:0:
195,256,47178,1,2,1:2:0:0:
195,256,47356,1,2,2:2:0:0:
118,353,47535,2,0,P|67:372|19:360,1,101.999996887207,10|0,2:2|2:2,0:0:0:0:
97,189,47892,6,0,B|96:156|67:142|67:142|20:203|64:278,1,203.999993774414,2|8,1:2|2:2,0:0:0:0:
118,353,48428,1,2,2:3:0:0:
162,270,48606,1,2,1:3:0:0:
187,272,48696,1,2,2:3:0:0:
213,274,48785,1,2,2:3:0:0:
238,277,48874,1,2,2:3:0:0:
263,279,48964,1,2,2:3:0:0:
293,368,49142,1,2,2:3:0:0:
373,292,49321,6,0,P|367:245|340:198,1,101.999996887207,2|0,1:2|2:2,0:0:0:0:
359,81,49678,2,0,P|312:72|259:83,1,101.999996887207,10|0,2:2|2:2,0:0:0:0:
154,29,50035,2,0,P|131:70|125:124,1,101.999996887207,2|0,1:2|2:2,0:0:0:0:
41,207,50392,2,0,P|73:241|122:263,1,101.999996887207,10|0,2:2|2:2,0:0:0:0:
215,378,50749,6,0,P|297:322|392:349,1,203.999993774414,2|8,1:2|2:2,0:0:0:0:
296,294,51285,1,2,2:3:0:0:
215,378,51464,1,2,1:3:0:0:
189,377,51553,1,2,2:3:0:0:
164,377,51642,1,2,2:3:0:0:
138,376,51731,1,2,2:3:0:0:
114,375,51821,1,2,2:3:0:0:
39,284,51999,1,2,1:3:0:0:
35,265,52089,1,0,1:3:0:0:
41,240,52178,6,0,B|92:257|139:233|139:233|143:235|143:235|193:219|239:243,1,203.999993774414,4|8,1:2|2:2,0:0:0:0:
306,314,52714,1,0,2:2:0:0:
298,167,52892,5,2,1:2:0:0:
429,233,53071,1,2,2:2:0:0:
306,314,53249,2,0,P|256:339|210:337,1,101.999996887207,10|0,2:2|2:2,0:0:0:0:
108,218,53606,6,0,P|183:166|238:241,1,203.999993774414,2|8,1:2|2:2,0:0:0:0:
211,337,54142,1,0,2:2:0:0:
266,208,54321,2,0,B|308:172|361:193|361:193|414:212|458:178,1,203.999993774414,2|8,1:2|2:2,0:0:0:0:
397,99,54856,1,0,1:2:0:0:
326,289,55035,6,0,B|250:296|250:296|218:336|218:336|141:344,1,203.999993774414,4|8,1:2|2:2,0:0:0:0:
87,247,55571,1,0,1:2:0:0:
87,247,55660,1,0,1:2:0:0:
87,247,55749,2,0,B|163:238|163:238|195:199|195:199|271:191,1,203.999993774414,4|8,1:2|2:2,0:0:0:0:
177,97,56285,1,0,1:2:0:0:
177,97,56374,1,0,1:2:0:0:
177,97,56464,6,0,L|279:87,1,101.999996887207,6|2,1:2|2:2,0:0:0:0:
466,153,56821,2,0,L|365:147,1,101.999996887207,14|2,1:2|2:2,0:0:0:0:
86,246,57178,2,0,B|163:238|163:238|195:198|195:198|271:191,1,203.999993774414,6|8,1:2|2:2,0:0:0:0:
251,299,57713,1,0,1:2:0:0:
254,324,57803,1,0,1:2:0:0:
258,349,57892,6,0,B|309:372|352:339|352:339|395:304|449:324,1,203.999993774414,6|8,1:2|2:2,0:0:0:0:
512,384,58428,1,0,2:2:0:0:
490,250,58606,1,2,1:2:0:0:
356,337,58785,1,2,2:2:0:0:
334,203,58963,2,0,P|379:175|427:176,1,101.999996887207,10|0,2:2|2:2,0:0:0:0:
264,283,59321,6,0,P|219:311|104:232,1,203.999993774414,2|8,1:2|2:2,0:0:0:0:
41,170,59856,1,2,2:3:0:0:
137,149,60035,1,2,1:3:0:0:
161,158,60124,1,2,2:3:0:0:
185,167,60213,1,2,2:3:0:0:
208,176,60303,1,2,2:3:0:0:
233,185,60392,1,2,2:3:0:0:
329,165,60571,1,2,2:3:0:0:
282,0,60749,6,0,P|256:49|264:95,1,101.999996887207,2|0,1:2|2:2,0:0:0:0:
395,108,61106,2,0,P|421:157|413:203,1,101.999996887207,10|0,2:2|2:2,0:0:0:0:
233,185,61463,2,0,P|209:235|219:280,1,101.999996887207,2|0,1:2|2:2,0:0:0:0:
351,287,61821,2,0,P|379:334|373:380,1,101.999996887207,10|0,2:2|2:2,0:0:0:0:
173,380,62178,6,0,B|121:359|111:306|111:306|105:308|105:308|76:262|18:271,1,203.999993774414,2|8,1:2|2:2,0:0:0:0:
115,184,62713,1,2,2:3:0:0:
73,79,62892,1,2,2:3:0:0:
98,81,62981,1,2,2:3:0:0:
123,83,63071,1,2,2:3:0:0:
149,85,63160,1,2,2:3:0:0:
174,87,63249,1,2,2:3:0:0:
115,184,63428,1,2,1:3:0:0:
113,210,63517,1,0,1:3:0:0:
111,235,63606,6,0,P|164:208|279:280,1,203.999993774414,6|8,1:2|2:2,0:0:0:0:
182,309,64142,1,0,2:2:0:0:
282,194,64321,1,2,1:2:0:0:
371,333,64499,1,2,2:2:0:0:
470,218,64678,2,0,P|483:167|466:120,1,101.999996887207,10|0,2:2|2:2,0:0:0:0:
348,46,65035,6,0,B|294:32|256:72|256:72|216:113|162:100,1,203.999993774414,2|8,1:2|2:2,0:0:0:0:
104,192,65571,1,0,2:2:0:0:
162,284,65749,2,0,B|216:271|256:312|256:312|294:351|348:338,1,203.999993774414,2|8,1:2|2:2,0:0:0:0:
440,284,66285,1,0,1:2:0:0:
335,128,66464,6,0,B|307:87|307:87|326:240,1,203.999993774414,4|8,1:2|2:2,0:0:0:0:
224,282,66999,1,0,1:2:0:0:
224,282,67088,1,0,1:2:0:0:
224,282,67178,2,0,L|198:77,1,203.999993774414,4|8,1:2|2:2,0:0:0:0:
106,146,67713,1,0,1:2:0:0:
106,146,67803,1,0,1:2:0:0:
106,146,67892,6,0,L|118:247,1,101.999996887207,6|2,1:2|2:2,0:0:0:0:
212,384,68249,2,0,L|224:282,1,101.999996887207,14|2,1:2|2:2,0:0:0:0:
247,86,68606,2,0,B|323:79|323:79|361:112|361:112|438:105,1,203.999993774414,6|8,1:2|1:2,0:0:0:0:
291,175,69142,1,0,1:2:0:0:
291,175,69231,1,0,1:2:0:0:
291,175,69321,5,4,1:1:0:0:
267,203,69410,1,0,2:2:0:0:
233,216,69499,1,0,2:2:0:0:
196,212,69588,1,0,2:2:0:0:
167,190,69678,2,0,P|163:178|159:139,3,42.5,8|2|0|0,2:2|2:2|2:2|2:2,0:0:0:0:
144,65,70035,5,0,1:2:0:0:
120,37,70124,1,0,2:2:0:0:
86,23,70213,1,0,2:2:0:0:
49,28,70303,1,2,2:2:0:0:
20,50,70392,2,0,P|15:62|11:101,3,42.5,8|2|0|0,2:2|2:2|2:2|2:2,0:0:0:0:
62,150,70749,5,0,1:2:0:0:
82,173,70838,1,0,2:2:0:0:
93,203,70928,1,2,2:2:0:0:
93,235,71017,1,0,2:2:0:0:
81,264,71106,1,8,2:2:0:0:
69,293,71196,1,0,2:2:0:0:
68,325,71285,1,2,2:2:0:0:
79,354,71374,1,0,2:2:0:0:
100,378,71463,2,0,P|124:378|146:377,3,42.5,0|0|0|0,1:2|2:2|2:2|2:2,0:0:0:0:
203,314,71821,2,0,P|224:313|245:313,3,42.5,8|0|2|2,2:2|2:2|1:2|2:2,0:0:0:0:
320,245,72178,5,0,1:2:0:0:
350,265,72267,1,0,2:2:0:0:
387,269,72356,1,0,2:2:0:0:
422,258,72446,1,0,2:2:0:0:
448,232,72535,2,0,P|452:207|453:188,3,42.5,8|2|0|0,2:2|2:2|2:2|2:2,0:0:0:0:
387,128,72892,5,0,1:2:0:0:
349,125,72981,1,0,2:2:0:0:
312,123,73071,1,0,2:2:0:0:
275,121,73160,1,2,2:2:0:0:
238,119,73249,2,0,L|191:115,3,42.5,8|2|0|0,2:2|2:2|2:2|2:2,0:0:0:0:
117,54,73606,5,0,1:2:0:0:
101,81,73696,1,0,2:2:0:0:
94,112,73785,1,2,2:2:0:0:
98,144,73874,1,0,2:2:0:0:
112,172,73963,1,8,2:2:0:0:
125,200,74053,1,0,2:2:0:0:
129,232,74142,1,2,2:2:0:0:
123,263,74231,1,0,2:2:0:0:
107,290,74321,2,0,P|76:297|51:295,3,42.5,0|0|0|0,1:2|2:2|2:2|2:2,0:0:0:0:
11,241,74678,1,8,2:2:0:0:
107,290,74856,1,2,1:2:0:0:
113,307,74946,1,2,1:2:0:0:
121,325,75035,5,4,1:1:0:0:
167,345,75124,1,0,3:2:0:0:
217,339,75213,1,0,3:2:0:0:
256,308,75303,1,0,3:2:0:0:
275,262,75392,2,0,L|279:209,3,50.9999984436036,10|2|2|2,3:2|3:2|3:2|3:2,0:0:0:0:
356,135,75749,5,4,1:1:0:0:
402,115,75838,1,0,3:2:0:0:
452,121,75928,1,0,3:2:0:0:
491,152,76017,1,0,3:2:0:0:
510,198,76106,2,0,L|513:252,3,50.9999984436036,10|2|2|2,0:2|3:2|3:2|3:2,0:0:0:0:
457,325,76463,6,0,L|460:375,1,50.9999984436036,4|0,1:1|3:2,0:0:0:0:
386,259,76642,2,0,L|390:209,1,50.9999984436036,2|0,3:2|3:2,0:0:0:0:
324,330,76821,2,0,L|327:380,1,50.9999984436036,8|0,3:2|3:2,0:0:0:0:
253,266,76999,2,0,L|257:216,1,50.9999984436036,2|0,3:2|3:2,0:0:0:0:
181,327,77178,5,0,1:2:0:0:
132,342,77267,1,2,3:2:0:0:
83,331,77356,1,2,3:2:0:0:
47,296,77446,1,2,3:2:0:0:
31,248,77535,2,0,L|39:146,1,101.999996887207,10|0,3:2|3:2,0:0:0:0:
152,92,77892,5,4,1:1:0:0:
200,106,77981,1,0,3:2:0:0:
249,95,78071,1,0,3:2:0:0:
285,60,78160,1,0,3:2:0:0:
298,11,78249,2,0,P|304:37|307:69,3,50.9999984436036,10|2|2|2,3:2|3:2|3:2|3:2,0:0:0:0:
318,145,78606,5,4,1:1:0:0:
366,131,78696,1,0,3:2:0:0:
415,142,78785,1,0,3:2:0:0:
451,177,78874,1,0,3:2:0:0:
464,226,78963,2,0,P|470:200|473:168,3,50.9999984436036,10|2|2|2,3:2|3:2|3:2|3:2,0:0:0:0:
423,348,79321,6,0,P|417:322|414:290,1,50.9999984436036,4|0,1:1|3:2,0:0:0:0:
321,312,79499,2,0,P|319:338|313:362,1,50.9999984436036,2|0,3:2|3:2,0:0:0:0:
356,223,79678,2,0,P|362:197|365:165,1,50.9999984436036,8|0,3:2|3:2,0:0:0:0:
255,186,79856,2,0,P|261:212|264:244,1,50.9999984436036,2|0,3:2|3:2,0:0:0:0:
206,312,80035,5,0,1:2:0:0:
155,315,80124,1,2,3:2:0:0:
104,317,80213,1,2,3:2:0:0:
53,319,80303,1,2,3:2:0:0:
2,322,80392,1,10,3:2:0:0:
75,216,80571,1,0,1:2:0:0:
75,216,80660,1,0,0:0:0:0:
75,216,80749,5,0,1:0:0:0:
169,209,82178,5,2,3:2:0:0:
256,384,82892,1,2,3:2:0:0:
343,209,83606,1,2,3:2:0:0:
343,209,85035,5,2,3:2:0:0:
158,327,85749,1,2,3:2:0:0:
40,142,86463,1,2,3:2:0:0:
40,142,87535,5,2,2:2:0:0:
92,208,87713,1,0,2:2:0:0:
172,119,87892,5,0,1:2:0:0:
223,219,88071,2,0,L|228:282,1,59.4999981842042,2|0,2:2|2:2,0:0:0:0:
305,271,88428,2,0,L|300:212,1,59.4999981842042,2|0,2:2|1:2,0:0:0:0:
377,205,88785,2,0,L|382:268,1,59.4999981842042,2|0,2:2|2:2,0:0:0:0:
459,257,89142,2,0,L|454:198,1,59.4999981842042,2|0,2:2|1:2,0:0:0:0:
333,139,89499,6,0,L|338:79,1,59.4999981842042,2|0,2:2|2:2,0:0:0:0:
230,70,89856,2,0,L|224:129,1,59.4999981842042,2|0,2:2|1:2,0:0:0:0:
115,119,90213,2,0,L|121:60,1,59.4999981842042,2|0,2:2|2:2,0:0:0:0:
12,50,90571,2,0,L|6:109,1,59.4999981842042,2|0,2:2|1:2,0:0:0:0:
55,265,90928,5,0,2:2:0:0:
130,229,91106,1,0,2:2:0:0:
63,182,91285,1,2,2:2:0:0:
220,157,91463,5,0,1:2:0:0:
228,74,91642,1,0,2:2:0:0:
145,66,91821,1,0,2:2:0:0:
137,149,91999,1,2,2:2:0:0:
226,275,92178,6,0,L|221:334,1,59.4999981842042,2|2,1:2|2:2,0:0:0:0:
296,205,92535,1,2,1:2:0:0:
372,265,92713,1,2,2:2:0:0:
372,276,92803,1,0,1:2:0:0:
372,287,92892,2,0,L|312:292,3,59.4999981842042,2|0|0|0,1:2|1:2|1:2|1:2,0:0:0:0:
132,340,93606,5,4,1:2:0:0:
80,255,93785,2,0,L|87:165,2,85,2|8|2,2:2|2:2|2:2,0:0:0:0:
132,340,94321,1,0,1:2:0:0:
216,288,94499,2,0,L|223:198,2,85,2|8|2,2:2|2:2|2:2,0:0:0:0:
172,118,95035,5,0,1:2:0:0:
286,130,95213,2,0,L|370:137,2,85,2|8|2,2:2|2:2|2:2,0:0:0:0:
172,118,95749,2,0,L|130:114,4,42.5,2|2|2|2|10,1:2|2:2|2:2|2:2|2:2,0:0:0:0:
286,130,96285,1,2,1:2:0:0:
309,242,96463,5,0,1:2:0:0:
209,298,96642,2,0,L|124:305,2,85,2|8|2,2:2|2:2|2:2,0:0:0:0:
309,242,97178,1,0,1:2:0:0:
191,207,97356,2,0,L|106:214,2,85,2|8|2,2:2|2:2|2:2,0:0:0:0:
36,275,97892,5,0,1:2:0:0:
27,170,98071,2,0,L|19:85,2,85,2|8|2,2:2|2:2|2:2,0:0:0:0:
36,275,98606,2,0,L|31:320,4,42.5,2|2|2|2|10,1:2|2:2|2:2|2:2|2:2,0:0:0:0:
106,214,99142,1,2,1:2:0:0:
110,222,99231,1,0,1:2:0:0:
114,230,99321,5,0,1:2:0:0:
218,197,99499,2,0,L|210:281,1,85,2|8,2:2|2:2,0:0:0:0:
314,291,99856,2,0,L|321:206,1,85,2|0,2:2|1:2,0:0:0:0:
273,117,100213,2,0,L|281:33,1,85,2|8,2:2|2:2,0:0:0:0:
384,42,100571,2,0,L|377:127,1,85,2|0,2:2|1:2,0:0:0:0:
245,99,100928,6,0,L|160:91,1,85,2|8,2:2|2:2,0:0:0:0:
74,189,101285,2,0,L|158:181,1,85,2|0,2:2|1:2,0:0:0:0:
240,278,101642,2,0,L|155:270,1,85,2|8,2:2|2:2,0:0:0:0:
69,368,101999,1,2,1:2:0:0:
155,270,102178,6,0,B|282:282|282:282|253:251,1,170,4|8,1:2|2:2,0:0:0:0:
169,155,102713,1,0,1:2:0:0:
169,155,102803,1,0,1:2:0:0:
169,155,102892,2,0,B|140:124|140:124|267:135,1,170,4|8,1:2|2:2,0:0:0:0:
376,146,103428,1,0,1:2:0:0:
407,148,103517,1,0,1:2:0:0:
439,151,103606,6,0,L|446:236,1,85,4|0,1:2|2:2,0:0:0:0:
345,292,103963,2,0,L|337:377,1,85,4|0,1:2|2:2,0:0:0:0:
300,365,104231,1,0,1:2:0:0:
264,351,104321,2,0,L|180:359,3,85,4|0|0|0,1:2|1:2|1:2|1:2,0:0:0:0:
196,252,105035,6,0,B|164:207|108:212|108:212|164:207|187:157,1,203.999993774414,6|8,1:2|2:2,0:0:0:0:
226,71,105571,1,0,2:2:0:0:
226,71,105749,1,2,1:2:0:0:
105,122,105928,1,2,2:2:0:0:
264,197,106106,2,0,P|316:195|351:162,1,101.999996887207,10|0,2:2|0:0,0:0:0:0:
495,88,106463,6,0,P|446:180|468:273,1,203.999993774414,2|8,1:2|2:2,0:0:0:0:
384,325,106999,1,2,2:3:0:0:
313,251,107178,1,2,1:3:0:0:
296,272,107267,1,2,2:3:0:0:
279,290,107356,1,2,2:3:0:0:
260,274,107446,1,2,2:3:0:0:
240,258,107535,1,2,2:3:0:0:
191,341,107713,1,2,1:3:0:0:
50,278,107892,6,0,P|92:252|142:256,1,101.999996887207,2|0,1:2|2:2,0:0:0:0:
131,140,108249,2,0,P|173:165|223:161,1,101.999996887207,10|0,2:2|2:2,0:0:0:0:
240,258,108606,2,0,P|277:290|288:339,1,101.999996887207,2|0,1:2|2:2,0:0:0:0:
321,160,108963,2,0,P|358:127|369:78,1,101.999996887207,10|0,2:2|2:2,0:0:0:0:
399,263,109321,6,0,B|348:265|318:315|318:315|297:263|239:257,1,203.999993774414,2|10,1:2|2:2,0:0:0:0:
166,333,109856,1,2,2:3:0:0:
80,266,110035,1,2,1:3:0:0:
78,240,110124,1,2,2:3:0:0:
76,215,110213,1,2,2:3:0:0:
74,189,110303,1,2,2:3:0:0:
71,164,110392,1,2,2:3:0:0:
144,83,110571,1,2,1:3:0:0:
148,88,110660,1,0,1:3:0:0:
152,93,110749,6,0,B|199:113|247:83|247:83|250:87|250:87|292:54|347:69,1,203.999993774414,4|8,1:2|2:2,0:0:0:0:
314,153,111285,1,0,2:2:0:0:
430,84,111463,1,2,1:2:0:0:
314,153,111642,1,2,2:2:0:0:
431,218,111821,2,0,P|454:263|456:319,1,101.999996887207,10|0,2:2|2:2,0:0:0:0:
318,250,112178,6,0,B|345:256|357:282|357:282|285:327|212:289,1,203.999993774414,2|8,1:2|2:2,0:0:0:0:
152,192,112713,1,0,2:2:0:0:
213,94,112892,2,0,B|285:57|357:102|357:102|345:128|318:134,1,203.999993774414,2|8,1:2|2:2,0:0:0:0:
420,192,113428,1,0,1:2:0:0:
318,250,113606,6,0,B|237:259|237:259|200:287|200:287|122:277,1,203.999993774414,4|8,1:2|2:2,0:0:0:0:
96,184,114142,1,0,1:2:0:0:
96,184,114231,1,0,1:2:0:0:
96,184,114321,2,0,B|172:194|172:194|209:166|209:166|289:156,1,203.999993774414,4|8,1:2|2:2,0:0:0:0:
436,197,114856,1,0,1:2:0:0:
436,197,114946,1,0,1:2:0:0:
436,197,115035,6,0,L|448:95,1,101.999996887207,6|2,1:2|2:2,0:0:0:0:
277,54,115392,2,0,L|289:155,1,101.999996887207,14|2,1:2|2:2,0:0:0:0:
404,317,115749,2,0,B|307:288|307:288|228:353,1,203.999993774414,6|8,1:2|2:2,0:0:0:0:
126,300,116285,1,0,1:2:0:0:
126,300,116374,1,0,1:2:0:0:
126,300,116463,6,0,P|67:271|115:169,1,203.999993774414,6|8,1:2|2:2,0:0:0:0:
206,224,116999,1,0,2:2:0:0:
270,113,117178,1,2,1:2:0:0:
395,139,117356,1,2,2:2:0:0:
408,265,117535,2,0,P|377:224|374:175,1,101.999996887207,10|0,2:2|0:0,0:0:0:0:
442,358,117892,6,0,B|391:378|345:343|345:343|288:335|254:373,1,203.999993774414,2|8,1:2|2:2,0:0:0:0:
181,292,118428,1,2,2:3:0:0:
83,335,118606,1,2,1:3:0:0:
85,309,118696,1,2,2:3:0:0:
87,284,118785,1,2,2:3:0:0:
89,258,118874,1,2,2:3:0:0:
91,233,118963,1,2,2:3:0:0:
181,292,119142,1,2,1:3:0:0:
228,202,119321,6,0,P|276:178|324:178,1,101.999996887207,2|0,1:2|2:2,0:0:0:0:
91,233,119678,2,0,P|38:224|0:195,1,101.999996887207,10|0,2:2|2:2,0:0:0:0:
220,288,120035,2,0,P|257:326|272:371,1,101.999996887207,2|0,1:2|2:2,0:0:0:0:
147,167,120392,2,0,P|139:114|153:69,1,101.999996887207,10|0,2:2|2:2,0:0:0:0:
141,318,120749,6,0,B|126:369|69:384|69:384|82:336|131:306,1,203.999993774414,2|8,1:2|2:2,0:0:0:0:
147,167,121285,1,2,2:3:0:0:
190,243,121463,1,2,1:3:0:0:
213,245,121553,1,2,2:3:0:0:
238,248,121642,1,2,2:3:0:0:
261,251,121731,1,2,2:3:0:0:
285,254,121821,1,2,2:3:0:0:
347,190,121999,1,2,1:3:0:0:
346,182,122088,1,0,1:3:0:0:
345,174,122178,6,0,P|405:176|432:307,1,203.999993774414,6|8,1:2|2:2,0:0:0:0:
350,370,122713,1,0,2:2:0:0:
256,296,122892,1,2,1:2:0:0:
162,370,123071,1,2,2:2:0:0:
72,295,123249,2,0,P|55:252|62:197,1,101.999996887207,10|0,2:2|2:2,0:0:0:0:
162,81,123606,6,0,B|201:49|259:70|259:70|261:67|261:67|294:102|351:90,1,203.999993774414,2|8,1:2|2:2,0:0:0:0:
449,45,124142,1,0,2:2:0:0:
367,118,124321,2,0,B|335:136|316:166|316:166|310:241|346:296,1,203.999993774414,2|8,1:2|2:2,0:0:0:0:
427,363,124856,1,0,1:2:0:0:
312,303,125035,6,0,B|262:310|262:310|221:279|221:279|171:285|171:285|131:253,1,203.999993774414,4|8,1:2|2:2,0:0:0:0:
161,140,125571,1,0,1:2:0:0:
161,140,125660,1,0,1:2:0:0:
161,140,125749,2,0,B|201:172|201:172|251:166|251:166|292:197|292:197|342:190,1,203.999993774414,4|8,1:2|2:2,0:0:0:0:
319,86,126285,1,0,1:2:0:0:
319,86,126374,1,0,1:2:0:0:
319,86,126463,6,0,B|277:55|277:55|228:61,1,101.999996887207,6|2,1:2|2:2,0:0:0:0:
70,115,126821,2,0,B|112:146|112:146|161:140,1,101.999996887207,14|2,1:2|2:2,0:0:0:0:
227,61,127178,5,2,1:2:0:0:
252,183,127356,1,0,1:0:0:0:
277,305,127535,1,0,1:0:0:0:
349,198,127713,1,0,1:0:0:0:
355,189,127803,1,0,1:0:0:0:
362,181,127892,5,4,1:1:0:0:
397,170,127981,1,0,2:2:0:0:
433,176,128071,1,0,2:2:0:0:
463,198,128160,1,0,2:2:0:0:
479,231,128249,2,0,L|484:276,3,42.5,8|2|0|0,2:2|2:2|2:2|2:2,0:0:0:0:
393,308,128606,5,0,1:2:0:0:
363,331,128696,1,0,2:2:0:0:
328,340,128785,1,0,2:2:0:0:
291,332,128874,1,2,2:2:0:0:
264,308,128963,2,0,L|259:265,3,42.5,8|2|0|0,2:2|2:2|2:2|2:2,0:0:0:0:
201,188,129321,5,0,1:2:0:0:
170,178,129410,1,0,2:2:0:0:
139,184,129499,1,2,2:2:0:0:
115,204,129588,1,0,2:2:0:0:
102,233,129678,1,8,2:2:0:0:
105,264,129767,1,0,2:2:0:0:
122,291,129856,1,2,2:2:0:0:
149,307,129946,1,0,2:2:0:0:
181,307,130035,2,0,P|180:279|171:254,3,42.5,0|0|0|0,1:2|2:2|2:2|2:2,0:0:0:0:
201,188,130392,2,0,P|202:159|211:134,3,42.5,8|0|2|2,2:2|2:2|1:2|2:2,0:0:0:0:
283,83,130749,5,0,1:2:0:0:
313,103,130838,1,0,2:2:0:0:
350,107,130928,1,0,2:2:0:0:
384,93,131017,1,0,2:2:0:0:
407,65,131106,2,0,P|410:46|409:17,3,42.5,8|2|0|0,2:2|2:2|2:2|2:2,0:0:0:0:
489,92,131463,5,0,1:2:0:0:
500,121,131553,1,0,2:2:0:0:
505,152,131642,1,0,2:2:0:0:
504,184,131731,1,2,2:2:0:0:
495,215,131821,2,0,P|494:236|496:257,3,42.5,8|2|0|0,2:2|2:2|2:2|2:2,0:0:0:0:
433,318,132178,5,0,1:2:0:0:
403,304,132267,1,0,2:2:0:0:
372,301,132356,1,2,2:2:0:0:
341,308,132446,1,0,2:2:0:0:
315,326,132535,1,8,2:2:0:0:
287,343,132624,1,0,2:2:0:0:
257,351,132713,1,2,2:2:0:0:
224,348,132803,1,0,2:2:0:0:
196,334,132892,2,0,P|184:309|180:295,3,42.5,0|0|0|0,1:2|2:2|2:2|2:2,0:0:0:0:
214,217,133249,1,8,2:2:0:0:
156,139,133428,1,2,1:2:0:0:
156,139,133517,1,2,1:2:0:0:
156,139,133606,5,4,1:1:0:0:
151,89,133696,1,0,3:2:0:0:
181,49,133785,1,0,3:2:0:0:
230,41,133874,1,0,3:2:0:0:
271,69,133963,2,0,P|242:83|221:85,3,50.9999984436036,10|2|2|2,3:2|3:2|3:2|3:2,0:0:0:0:
156,139,134321,5,4,1:1:0:0:
160,188,134410,1,0,3:2:0:0:
130,228,134499,1,0,3:2:0:0:
81,236,134588,1,0,3:2:0:0:
40,208,134678,2,0,P|69:194|90:192,3,50.9999984436036,10|2|2|2,0:2|3:2|3:2|3:2,0:0:0:0:
203,259,135035,6,0,L|254:263,1,50.9999984436036,4|0,1:1|3:2,0:0:0:0:
328,292,135213,2,0,L|332:241,1,50.9999984436036,2|0,3:2|3:2,0:0:0:0:
361,167,135392,2,0,L|310:163,1,50.9999984436036,8|0,3:2|3:2,0:0:0:0:
236,134,135571,2,0,L|232:185,1,50.9999984436036,2|0,3:2|3:2,0:0:0:0:
296,85,135749,5,0,1:2:0:0:
253,57,135838,1,2,3:2:0:0:
203,62,135928,1,2,3:2:0:0:
166,95,136017,1,2,3:2:0:0:
158,145,136106,2,0,P|138:166|67:171,1,101.999996887207,10|0,3:2|3:2,0:0:0:0:
43,272,136463,5,4,1:1:0:0:
93,270,136553,1,0,3:2:0:0:
144,278,136642,1,0,3:2:0:0:
192,296,136731,1,0,3:2:0:0:
235,322,136821,2,0,P|265:332|288:335,3,50.9999984436036,10|2|2|2,3:2|3:2|3:2|3:2,0:0:0:0:
282,229,137178,5,4,1:1:0:0:
307,185,137267,1,0,3:2:0:0:
352,164,137356,1,0,3:2:0:0:
402,172,137446,1,0,3:2:0:0:
437,208,137535,2,0,P|441:236|442:260,3,50.9999984436036,10|2|2|2,3:2|3:2|3:2|3:2,0:0:0:0:
352,164,137892,6,0,P|353:138|357:113,1,50.9999984436036,4|0,1:1|3:2,0:0:0:0:
245,101,138071,2,0,P|243:126|239:151,1,50.9999984436036,2|0,3:2|3:2,0:0:0:0:
139,239,138249,2,0,P|140:213|144:188,1,50.9999984436036,8|0,3:2|3:2,0:0:0:0:
32,176,138428,2,0,P|30:201|26:226,1,50.9999984436036,2|0,3:2|3:2,0:0:0:0:
71,324,138606,5,0,1:2:0:0:
116,345,138696,1,2,3:2:0:0:
167,343,138785,1,2,3:2:0:0:
211,318,138874,1,2,3:2:0:0:
239,276,138963,1,10,3:2:0:0:
314,352,139142,1,0,1:2:0:0:
332,356,139231,1,0,1:0:0:0:
350,360,139321,6,0,B|326:315|326:315|342:241,1,127.5,4|0,1:2|2:2,0:0:0:0:
349,216,139678,1,8,2:2:0:0:
422,309,139856,1,2,2:2:0:0:
422,309,139946,1,2,2:2:0:0:
422,309,140035,5,2,1:2:0:0:
269,321,140303,1,0,1:2:0:0:
116,333,140571,1,0,1:2:0:0:
184,257,140749,6,0,B|208:212|208:212|192:138,1,127.5,0|0,1:2|2:2,0:0:0:0:
186,112,141106,1,8,2:2:0:0:
102,185,141285,1,0,2:2:0:0:
184,257,141463,1,2,2:2:0:0:
205,255,141553,1,2,2:2:0:0:
226,253,141642,1,2,2:2:0:0:
247,251,141731,1,2,2:2:0:0:
268,249,141821,2,0,L|260:333,1,85,10|2,2:2|1:2,0:0:0:0:
114,306,142178,6,0,P|100:266|105:224,1,85,0|0,1:2|2:2,0:0:0:0:
87,136,142535,2,0,P|126:122|168:127,1,85,8|0,2:2|2:2,0:0:0:0:
257,109,142892,2,0,P|270:148|265:190,1,85,0|0,1:2|2:2,0:0:0:0:
284,279,143249,2,0,P|244:292|202:287,1,85,8|0,2:2|2:2,0:0:0:0:
320,361,143606,5,0,1:2:0:0:
346,344,143696,1,2,2:2:0:0:
377,337,143785,1,0,2:2:0:0:
409,343,143874,1,0,2:2:0:0:
436,359,143963,2,0,P|458:359|483:354,2,42.5,10|0|0,2:2|2:2|2:2,0:0:0:0:
411,252,144231,2,0,P|389:251|364:246,2,42.5,2|0|0,2:2|1:2|2:2,0:0:0:0:
447,165,144499,2,0,P|468:164|493:159,2,42.5,2|0|8,2:2|2:2|2:2,0:0:0:0:
388,90,144767,1,2,2:2:0:0:
359,86,144856,1,0,1:2:0:0:
331,83,144946,1,0,1:2:0:0:
303,80,145035,6,0,B|207:74|207:74|227:99,1,127.5,4|0,1:2|2:2,0:0:0:0:
244,122,145392,1,8,2:2:0:0:
156,186,145571,1,2,2:2:0:0:
156,186,145660,1,2,2:2:0:0:
156,186,145749,5,2,1:2:0:0:
197,374,146017,1,0,1:2:0:0:
156,186,146285,1,0,1:2:0:0:
84,269,146463,6,0,B|-12:262|-12:262|7:287,1,127.5,0|0,1:2|2:2,0:0:0:0:
23,310,146821,1,10,2:2:0:0:
44,310,146910,1,2,2:2:0:0:
65,311,146999,1,2,2:2:0:0:
86,312,147088,1,2,2:2:0:0:
107,313,147178,5,2,1:2:0:0:
230,192,147446,1,0,1:2:0:0:
298,354,147713,1,0,1:2:0:0:
356,288,147892,6,0,L|363:203,1,85,4|0,1:2|0:0,0:0:0:0:
372,94,148249,1,8,2:2:0:0:
230,153,148428,1,2,2:2:0:0:
230,153,148517,1,2,2:2:0:0:
230,153,148606,2,0,L|222:237,1,85,6|0,1:2|0:0,0:0:0:0:
213,346,148963,1,8,2:2:0:0:
74,292,149142,1,2,2:2:0:0:
74,292,149231,1,2,2:2:0:0:
74,292,149321,6,0,L|157:284,1,85,6|0,1:2|2:2,0:0:0:0:
229,152,149678,2,0,L|314:160,1,85,14|0,1:2|2:2,0:0:0:0:
396,289,150035,2,0,B|390:226|390:226|417:193|417:193|412:128,1,170,6|8,1:2|2:2,0:0:0:0:
396,15,150571,1,0,1:2:0:0:
396,15,150660,1,0,1:2:0:0:
396,15,150749,6,0,L|267:26,1,127.5,4|0,1:2|2:2,0:0:0:0:
190,38,151106,1,8,2:2:0:0:
251,133,151285,1,2,2:2:0:0:
251,133,151374,1,2,2:2:0:0:
251,133,151463,5,2,1:2:0:0:
203,310,151731,1,0,1:2:0:0:
381,263,151999,1,0,1:2:0:0:
278,235,152178,6,0,B|230:239|230:239|210:262|210:262|161:266,1,127.5,0|0,1:2|2:2,0:0:0:0:
140,269,152535,1,8,2:2:0:0:
184,163,152713,1,0,2:2:0:0:
278,235,152892,1,2,2:2:0:0:
299,233,152981,1,2,2:2:0:0:
320,232,153071,1,2,2:2:0:0:
341,230,153160,1,2,2:2:0:0:
362,229,153249,2,0,L|447:223,1,85,10|2,2:2|1:2,0:0:0:0:
431,68,153606,6,0,P|403:103|395:142,1,85,0|0,1:2|2:2,0:0:0:0:
362,229,153963,2,0,P|406:235|444:223,1,85,8|0,2:2|2:2,0:0:0:0:
303,156,154321,2,0,P|259:150|221:162,1,85,0|0,1:2|2:2,0:0:0:0:
232,320,154678,2,0,P|258:287|268:246,1,85,8|0,2:2|2:2,0:0:0:0:
143,292,155035,5,0,1:2:0:0:
122,296,155124,1,2,2:2:0:0:
101,295,155213,1,0,2:2:0:0:
80,290,155303,1,0,2:2:0:0:
61,281,155392,2,0,L|56:231,2,42.5,10|0|0,2:2|2:2|2:2,0:0:0:0:
126,190,155660,2,0,L|131:140,2,42.5,2|0|0,2:2|1:2|2:2,0:0:0:0:
44,135,155928,2,0,L|39:85,2,42.5,2|0|8,2:2|2:2|2:2,0:0:0:0:
137,63,156196,1,2,2:2:0:0:
172,61,156285,1,0,1:2:0:0:
207,59,156374,1,0,1:2:0:0:
243,57,156463,6,0,B|292:55|292:55|281:133,1,127.5,4|0,1:2|2:2,0:0:0:0:
276,158,156821,1,8,2:2:0:0:
257,263,156999,1,2,2:2:0:0:
257,263,157088,1,2,2:2:0:0:
257,263,157178,5,2,1:2:0:0:
367,157,157446,1,0,1:2:0:0:
478,260,157713,1,0,1:2:0:0:
463,173,157892,6,0,B|452:95|452:95|501:97,1,127.5,0|0,1:2|2:2,0:0:0:0:
504,83,158249,1,10,2:2:0:0:
482,82,158338,1,2,2:2:0:0:
461,81,158428,1,2,2:2:0:0:
440,80,158517,1,2,2:2:0:0:
419,79,158606,5,2,1:2:0:0:
365,221,158874,1,0,1:2:0:0:
224,167,159142,1,0,1:2:0:0:
127,253,159321,6,0,B|84:263|84:263|47:245,1,85,4|0,1:2|0:0,0:0:0:0:
97,158,159678,1,8,2:2:0:0:
302,283,159856,1,2,2:2:0:0:
302,283,159946,1,2,2:2:0:0:
302,283,160035,2,0,B|345:293|345:293|382:275,1,85,6|0,1:2|0:0,0:0:0:0:
335,182,160392,1,8,2:2:0:0:
234,353,160571,5,2,2:2:0:0:
234,353,160660,1,2,2:2:0:0:
234,353,160749,2,0,B|191:363|191:363|154:345,1,85,6|0,1:2|2:2,0:0:0:0:
335,182,161106,2,0,B|378:172|378:172|415:190,1,85,14|0,1:2|2:2,0:0:0:0:
502,380,161463,1,4,1:1:0:0:
256,192,161553,12,0,163606,0:0:0:0:
