osu file format v14

[General]
AudioFilename: audio.mp3
AudioLeadIn: 0
PreviewTime: 46464
Countdown: 0
SampleSet: Drum
StackLeniency: 0.3
Mode: 0
LetterboxInBreaks: 0
WidescreenStoryboard: 0

[Editor]
Bookmarks: 11464,34321,46464,69321,82178,105035,127892,139321
DistanceSpacing: 1.1
BeatDivisor: 4
GridSize: 4
TimelineZoom: 6.399996

[Metadata]
Title:Todokanai Eien no Kyori
TitleUnicode:届かない永遠の距離
Artist:Silver Forest
ArtistUnicode:Silver Forest
Creator:ConsumerOfBean
Version:Eternal
Source:東方永夜抄 ~ Imperishable Night.
Tags:fujiwara no mokou touhou project 8 unreachably eternally distant video game japanese eiyashou 月まで届け、不死の煙 tsuki made todoke fushi no kemuri 藤原 妹紅 Reach for the Moon Immortal Smoke 東方Project
BeatmapID:2659870
BeatmapSetID:1280488

[Difficulty]
HPDrainRate:6
CircleSize:5
OverallDifficulty:9
ApproachRate:9.2
SliderMultiplier:2.2
SliderTickRate:1

[Events]
//Background and Video events
0,0,"mokou.jpg",0,0
//Break Periods
//Storyboard Layer 0 (Background)
//Storyboard Layer 1 (Fail)
//Storyboard Layer 2 (Pass)
//Storyboard Layer 3 (Foreground)
//Storyboard Layer 4 (Overlay)
//Storyboard Sound Samples

[TimingPoints]
36,357.142857142857,4,3,0,90,1,0
11464,-100,4,3,0,90,0,0
34589,-100,4,3,0,5,0,0
34678,-100,4,3,0,90,0,0
36018,-100,4,3,0,5,0,0
36107,-100,4,3,0,90,0,0
40303,-100,4,3,0,5,0,0
40393,-100,4,3,0,90,0,0
41732,-100,4,3,0,5,0,0
41821,-100,4,3,0,90,0,0
43160,-100,4,3,0,5,0,0
43250,-100,4,3,0,90,0,0
43875,-100,4,3,0,5,0,0
43964,-100,4,3,0,90,0,0
45750,-100,4,3,0,20,0,0
45928,-100,4,3,0,40,0,0
46107,-100,4,3,0,60,0,0
46285,-100,4,3,0,80,0,0
46464,357.142857142857,4,3,0,90,1,0
46464,-83.3333333333333,4,3,0,90,0,0
46731,-83.3333333333333,4,3,0,5,0,0
46821,-83.3333333333333,4,3,0,90,0,0
48160,-83.3333333333333,4,3,0,5,0,0
48250,-83.3333333333333,4,3,0,90,0,0
51017,-83.3333333333333,4,3,0,5,0,0
51107,-83.3333333333333,4,3,0,90,0,0
52446,-83.3333333333333,4,3,0,5,0,0
52536,-83.3333333333333,4,3,0,90,0,0
53874,-83.3333333333333,4,3,0,5,0,0
53964,-83.3333333333333,4,3,0,90,0,0
58160,-83.3333333333333,4,3,0,5,0,0
58250,-83.3333333333333,4,3,0,90,0,0
59588,-83.3333333333333,4,3,0,5,0,0
59678,-83.3333333333333,4,3,0,90,0,0
62446,-83.3333333333333,4,3,0,5,0,0
62536,-83.3333333333333,4,3,0,90,0,0
63874,-83.3333333333333,4,3,0,5,0,0
63964,-83.3333333333333,4,3,0,90,0,0
65303,-83.3333333333333,4,3,0,5,0,0
65393,-83.3333333333333,4,3,0,90,0,0
69321,-90.9090909090909,4,3,0,90,0,0
82178,357.142857142857,4,3,0,70,1,0
82178,-142.857142857143,4,3,0,70,0,0
93606,-100,4,3,0,80,0,0
102713,-83.3333333333333,4,3,0,80,0,0
103160,-83.3333333333333,4,3,0,5,0,0
103250,-83.3333333333333,4,3,0,80,0,0
103428,-100,4,3,0,80,0,0
103963,-83.3333333333333,4,3,0,80,0,0
105035,-83.3333333333333,4,3,0,90,0,0
105303,-83.3333333333333,4,3,0,5,0,0
105393,-83.3333333333333,4,3,0,90,0,0
106374,-83.3333333333333,4,3,0,5,0,0
106464,-83.3333333333333,4,3,0,90,0,0
109588,-83.3333333333333,4,3,0,5,0,0
109678,-83.3333333333333,4,3,0,90,0,0
111017,-83.3333333333333,4,3,0,5,0,0
111107,-83.3333333333333,4,3,0,90,0,0
112446,-83.3333333333333,4,3,0,5,0,0
112536,-83.3333333333333,4,3,0,90,0,0
116731,-83.3333333333333,4,3,0,5,0,0
116821,-83.3333333333333,4,3,0,90,0,0
117803,-83.3333333333333,4,3,0,5,0,0
117893,-83.3333333333333,4,3,0,90,0,0
121017,-83.3333333333333,4,3,0,5,0,0
121107,-83.3333333333333,4,3,0,90,0,0
122446,-83.3333333333333,4,3,0,5,0,0
122536,-83.3333333333333,4,3,0,90,0,0
123874,-83.3333333333333,4,3,0,5,0,0
123964,-83.3333333333333,4,3,0,90,0,0
127892,-83.3333333333333,4,3,0,90,0,0
139321,-83.3333333333333,4,3,0,90,0,0
139588,-83.3333333333333,4,3,0,5,0,0
139678,-83.3333333333333,4,3,0,90,0,0
141017,-83.3333333333333,4,3,0,5,0,0
141107,-83.3333333333333,4,3,0,90,0,0
145303,-83.3333333333333,4,3,0,5,0,0
145393,-83.3333333333333,4,3,0,90,0,0
146731,-83.3333333333333,4,3,0,5,0,0
146821,-83.3333333333333,4,3,0,90,0,0
148160,-83.3333333333333,4,3,0,5,0,0
148250,-83.3333333333333,4,3,0,90,0,0
148874,-83.3333333333333,4,3,0,5,0,0
148964,-83.3333333333333,4,3,0,90,0,0
151017,-83.3333333333333,4,3,0,5,0,0
151107,-83.3333333333333,4,3,0,90,0,0
152446,-83.3333333333333,4,3,0,5,0,0
152536,-83.3333333333333,4,3,0,90,0,0
156731,-83.3333333333333,4,3,0,5,0,0
156821,-83.3333333333333,4,3,0,90,0,0
158160,-83.3333333333333,4,3,0,5,0,0
158250,-83.3333333333333,4,3,0,90,0,0
159588,-83.3333333333333,4,3,0,5,0,0
159678,-83.3333333333333,4,3,0,90,0,0
160303,-83.3333333333333,4,3,0,5,0,0
160393,-83.3333333333333,4,3,0,90,0,0
161821,-83.3333333333333,4,3,0,80,0,0
162178,-83.3333333333333,4,3,0,70,0,0
162535,-83.3333333333333,4,3,0,60,0,0
162892,-83.3333333333333,4,3,0,40,0,0
163249,-83.3333333333333,4,3,0,20,0,0
163606,-83.3333333333333,4,3,0,5,0,0

[Colours]
Combo1 : 196,0,98
Combo2 : 250,155,157
Combo3 : 255,102,102
Combo4 : 243,48,77

[HitObjects]
160,13,8607,5,0,3:2:0:0:
166,86,8964,1,0,3:2:0:0:
172,159,9321,1,0,3:2:0:0:
179,232,9678,1,0,3:2:0:0:
185,305,10035,1,0,3:2:0:0:
192,378,10393,1,0,3:2:0:0:
252,336,10571,5,0,3:2:0:0:
279,338,10660,1,0,3:2:0:0:
306,340,10750,1,0,3:2:0:0:
334,343,10839,1,0,3:2:0:0:
361,345,10928,1,0,3:2:0:0:
388,347,11018,1,0,3:2:0:0:
416,350,11107,5,0,3:2:0:0:
413,339,11166,5,0,3:2:0:0:
410,328,11226,5,0,3:2:0:0:
407,317,11285,6,0,L|393:257,1,55,0|0,3:2|3:2,0:0:0:0:
368,154,11464,5,4,1:1:0:0:
342,185,11553,1,0,2:2:0:0:
303,198,11643,1,0,2:2:0:0:
264,189,11732,1,0,2:2:0:0:
235,161,11821,1,8,2:2:0:0:
206,132,11910,1,2,2:2:0:0:
166,123,12000,1,0,2:2:0:0:
127,136,12089,1,0,2:2:0:0:
102,168,12178,5,0,1:2:0:0:
131,197,12268,1,0,2:2:0:0:
171,206,12357,1,0,2:2:0:0:
210,193,12446,1,2,2:2:0:0:
235,161,12535,5,8,2:2:0:0:
206,132,12625,1,2,2:2:0:0:
166,123,12714,1,0,2:2:0:0:
127,136,12803,1,0,2:2:0:0:
102,168,12893,5,0,1:2:0:0:
107,208,12982,1,0,2:2:0:0:
134,239,13071,1,2,2:2:0:0:
173,252,13160,1,0,2:2:0:0:
212,240,13250,1,8,2:2:0:0:
251,228,13339,1,0,2:2:0:0:
290,241,13428,1,2,2:2:0:0:
317,272,13518,1,0,2:2:0:0:
322,312,13607,5,2,1:2:0:0:
283,324,13696,1,0,2:2:0:0:
244,311,13785,1,0,2:2:0:0:
217,280,13875,1,0,2:2:0:0:
212,240,13964,1,8,2:2:0:0:
207,200,14053,1,0,2:2:0:0:
180,169,14143,1,2,1:2:0:0:
141,156,14232,1,2,2:2:0:0:
102,168,14321,5,0,1:2:0:0:
140,180,14410,1,0,2:2:0:0:
180,169,14500,1,0,2:2:0:0:
207,137,14589,1,0,2:2:0:0:
213,97,14678,1,8,2:2:0:0:
219,57,14768,1,2,2:2:0:0:
246,25,14857,1,0,2:2:0:0:
286,14,14946,1,0,2:2:0:0:
324,26,15035,5,0,1:2:0:0:
318,66,15125,1,0,2:2:0:0:
291,98,15214,1,0,2:2:0:0:
251,109,15303,1,2,2:2:0:0:
213,97,15393,5,8,2:2:0:0:
219,57,15482,1,2,2:2:0:0:
246,25,15571,1,0,2:2:0:0:
286,14,15660,1,0,2:2:0:0:
324,26,15750,5,0,1:2:0:0:
318,65,15839,1,0,2:2:0:0:
336,102,15928,1,2,2:2:0:0:
371,124,16018,1,0,2:2:0:0:
411,122,16107,1,8,2:2:0:0:
451,120,16196,1,0,2:2:0:0:
486,142,16285,1,2,2:2:0:0:
504,179,16375,1,0,2:2:0:0:
498,218,16464,5,0,1:2:0:0:
467,193,16553,1,0,2:2:0:0:
426,190,16643,1,0,2:2:0:0:
389,210,16732,1,0,2:2:0:0:
372,246,16821,5,8,2:2:0:0:
403,271,16910,1,0,2:2:0:0:
444,274,17000,1,2,1:2:0:0:
481,254,17089,1,2,1:2:0:0:
498,218,17178,5,4,1:1:0:0:
467,193,17268,1,0,2:2:0:0:
426,190,17357,1,0,2:2:0:0:
389,210,17446,1,0,2:2:0:0:
372,246,17535,1,8,2:2:0:0:
355,282,17625,1,2,2:2:0:0:
318,302,17714,1,0,2:2:0:0:
277,299,17803,1,0,2:2:0:0:
246,274,17893,5,0,1:2:0:0:
263,238,17982,1,0,2:2:0:0:
300,218,18071,1,0,2:2:0:0:
341,221,18160,1,2,2:2:0:0:
372,246,18250,1,8,2:2:0:0:
403,271,18339,1,2,2:2:0:0:
444,274,18428,1,0,2:2:0:0:
481,254,18518,1,0,2:2:0:0:
498,218,18607,5,0,1:2:0:0:
463,237,18696,1,0,2:2:0:0:
421,231,18785,1,2,2:2:0:0:
390,205,18875,1,0,2:2:0:0:
380,167,18964,1,8,2:2:0:0:
370,129,19053,1,0,2:2:0:0:
339,103,19143,1,2,2:2:0:0:
297,97,19232,1,0,2:2:0:0:
262,116,19321,5,0,1:2:0:0:
272,154,19410,1,0,2:2:0:0:
303,180,19500,1,0,2:2:0:0:
345,186,19589,1,0,2:2:0:0:
380,167,19678,5,8,2:2:0:0:
370,129,19768,1,0,2:2:0:0:
339,103,19857,1,2,1:2:0:0:
297,97,19946,1,2,2:2:0:0:
262,116,20035,5,0,1:2:0:0:
252,154,20125,1,0,2:2:0:0:
221,180,20214,1,0,2:2:0:0:
179,186,20303,1,0,2:2:0:0:
144,167,20393,1,8,2:2:0:0:
109,148,20482,1,2,2:2:0:0:
67,154,20571,1,0,2:2:0:0:
36,180,20660,1,0,2:2:0:0:
26,218,20750,5,0,1:2:0:0:
61,237,20839,1,0,2:2:0:0:
103,231,20928,1,0,2:2:0:0:
134,205,21018,1,2,2:2:0:0:
144,167,21107,1,8,2:2:0:0:
154,129,21196,1,2,2:2:0:0:
185,103,21285,1,0,2:2:0:0:
227,97,21375,1,0,2:2:0:0:
262,116,21464,5,0,1:2:0:0:
276,152,21553,1,0,2:2:0:0:
266,191,21643,1,2,2:2:0:0:
235,221,21732,1,0,2:2:0:0:
196,226,21821,5,8,2:2:0:0:
182,190,21910,1,0,2:2:0:0:
192,151,22000,1,2,2:2:0:0:
223,121,22089,1,0,2:2:0:0:
262,116,22178,5,0,1:2:0:0:
294,136,22268,1,0,2:2:0:0:
309,174,22357,1,0,2:2:0:0:
301,216,22446,1,0,2:2:0:0:
273,243,22535,5,8,2:2:0:0:
241,223,22625,1,0,2:2:0:0:
226,185,22714,1,2,1:2:0:0:
234,143,22803,1,2,1:2:0:0:
262,116,22893,5,4,1:1:0:0:
302,109,22982,1,0,2:2:0:0:
341,121,23071,1,0,2:2:0:0:
369,151,23160,1,0,2:2:0:0:
380,190,23250,1,8,2:2:0:0:
391,229,23339,1,2,2:2:0:0:
419,258,23428,1,0,2:2:0:0:
458,271,23518,1,0,2:2:0:0:
498,264,23607,5,0,1:2:0:0:
470,235,23696,1,0,2:2:0:0:
431,222,23785,1,0,2:2:0:0:
391,229,23875,1,2,2:2:0:0:
360,255,23964,5,8,2:2:0:0:
388,284,24053,1,2,2:2:0:0:
427,297,24143,1,0,2:2:0:0:
467,290,24232,1,0,2:2:0:0:
498,264,24321,5,0,1:2:0:0:
492,224,24410,1,0,2:2:0:0:
468,190,24500,1,2,2:2:0:0:
432,172,24589,1,0,2:2:0:0:
391,175,24678,1,8,2:2:0:0:
350,178,24768,1,0,2:2:0:0:
314,160,24857,1,2,2:2:0:0:
290,126,24946,1,0,2:2:0:0:
284,86,25035,5,0,1:2:0:0:
325,83,25125,1,0,2:2:0:0:
361,101,25214,1,0,2:2:0:0:
385,135,25303,1,0,2:2:0:0:
391,175,25393,5,8,2:2:0:0:
349,177,25482,1,0,2:2:0:0:
316,201,25571,1,2,1:2:0:0:
299,238,25660,1,2,2:2:0:0:
299,279,25750,5,0,1:2:0:0:
341,277,25839,1,0,2:2:0:0:
374,253,25928,1,0,2:2:0:0:
391,216,26018,1,0,2:2:0:0:
391,175,26107,1,8,2:2:0:0:
391,134,26196,1,2,2:2:0:0:
408,97,26285,1,0,2:2:0:0:
441,73,26375,1,0,2:2:0:0:
483,71,26464,5,0,1:2:0:0:
483,112,26553,1,0,2:2:0:0:
466,149,26643,1,0,2:2:0:0:
433,173,26732,1,2,2:2:0:0:
391,175,26821,1,8,2:2:0:0:
349,177,26910,1,2,2:2:0:0:
316,201,27000,1,0,2:2:0:0:
299,238,27089,1,0,2:2:0:0:
299,279,27178,5,0,1:2:0:0:
263,255,27268,1,0,2:2:0:0:
223,255,27357,1,2,2:2:0:0:
187,275,27446,1,0,2:2:0:0:
163,309,27535,1,8,2:2:0:0:
139,343,27625,1,0,2:2:0:0:
103,363,27714,1,2,2:2:0:0:
63,363,27803,1,0,2:2:0:0:
27,339,27893,5,0,1:2:0:0:
51,305,27982,1,0,2:2:0:0:
87,285,28071,1,0,2:2:0:0:
127,285,28160,1,0,2:2:0:0:
163,309,28250,5,8,2:2:0:0:
139,343,28339,1,0,2:2:0:0:
103,363,28428,1,2,1:2:0:0:
63,363,28518,1,2,1:2:0:0:
27,339,28607,5,4,1:1:0:0:
44,287,28696,1,0,3:2:0:0:
84,250,28785,1,0,3:2:0:0:
136,235,28875,1,0,3:2:0:0:
190,247,28964,1,10,3:2:0:0:
243,258,29053,1,2,3:2:0:0:
295,244,29143,1,2,3:2:0:0:
335,206,29232,1,2,3:2:0:0:
353,155,29321,5,4,1:1:0:0:
300,144,29410,1,0,3:2:0:0:
248,158,29500,1,0,3:2:0:0:
208,196,29589,1,0,3:2:0:0:
190,247,29678,1,10,0:2:0:0:
172,298,29768,1,2,3:2:0:0:
132,336,29857,1,2,3:2:0:0:
80,350,29946,1,2,3:2:0:0:
27,339,30035,5,4,1:1:0:0:
45,288,30125,1,0,3:2:0:0:
85,250,30214,1,2,3:2:0:0:
137,236,30303,1,0,3:2:0:0:
190,247,30393,5,8,3:2:0:0:
166,198,30482,1,0,3:2:0:0:
168,143,30571,1,2,3:2:0:0:
194,96,30660,1,0,3:2:0:0:
240,66,30750,5,0,1:2:0:0:
264,115,30839,1,2,3:2:0:0:
262,170,30928,1,2,3:2:0:0:
236,217,31018,1,2,3:2:0:0:
190,247,31107,2,0,L|76:253,1,110,10|0,3:2|1:2,0:0:0:0:
240,66,31464,5,4,1:1:0:0:
293,69,31553,1,0,3:2:0:0:
340,98,31643,1,0,3:2:0:0:
367,144,31732,1,0,3:2:0:0:
371,199,31821,1,10,3:2:0:0:
375,254,31910,1,2,3:2:0:0:
402,300,32000,1,2,3:2:0:0:
449,329,32089,1,2,3:2:0:0:
502,332,32178,5,4,1:1:0:0:
498,277,32268,1,0,3:2:0:0:
471,231,32357,1,0,3:2:0:0:
424,202,32446,1,0,3:2:0:0:
371,199,32535,1,10,3:2:0:0:
318,196,32625,1,2,3:2:0:0:
271,167,32714,1,2,3:2:0:0:
244,121,32803,1,2,3:2:0:0:
240,66,32893,5,4,1:1:0:0:
293,69,32982,1,0,3:2:0:0:
340,98,33071,1,2,3:2:0:0:
367,144,33160,1,0,3:2:0:0:
371,199,33250,5,8,3:2:0:0:
326,227,33339,1,0,3:2:0:0:
271,231,33428,1,2,3:2:0:0:
222,210,33518,1,0,3:2:0:0:
186,168,33607,5,0,1:2:0:0:
205,118,33696,1,2,3:2:0:0:
248,83,33785,1,2,3:2:0:0:
300,71,33875,1,2,3:2:0:0:
352,83,33964,2,0,L|461:92,1,110,10|0,3:2|1:2,0:0:0:0:
186,168,34321,6,0,L|22:181,1,165,4|0,1:2|2:2,0:0:0:0:
81,260,34678,1,8,2:2:0:0:
186,168,34857,1,2,2:2:0:0:
188,140,34946,1,2,2:2:0:0:
190,113,35035,5,2,1:2:0:0:
363,172,35303,1,0,1:2:0:0:
360,353,35571,1,0,1:2:0:0:
255,261,35750,6,0,L|418:274,1,165,0|0,1:2|2:2,0:0:0:0:
360,353,36107,1,8,2:2:0:0:
255,261,36285,1,0,2:2:0:0:
135,332,36464,1,2,2:2:0:0:
79,329,36553,1,2,2:2:0:0:
65,276,36643,1,2,2:2:0:0:
111,246,36732,1,2,2:2:0:0:
154,280,36821,1,10,2:2:0:0:
4,322,37000,1,2,1:2:0:0:
42,171,37178,6,0,L|51:61,1,110,0|0,1:2|2:2,0:0:0:0:
154,280,37535,2,0,L|144:170,1,110,8|0,2:2|2:2,0:0:0:0:
246,169,37893,2,0,L|255:59,1,110,0|0,1:2|2:2,0:0:0:0:
358,278,38250,2,0,L|348:168,1,110,8|0,2:2|2:2,0:0:0:0:
338,58,38607,5,0,1:2:0:0:
367,86,38696,1,2,2:2:0:0:
407,94,38785,1,0,2:2:0:0:
445,80,38875,1,0,2:2:0:0:
470,48,38964,5,10,2:2:0:0:
430,39,39053,1,0,2:2:0:0:
391,53,39143,1,0,2:2:0:0:
367,86,39232,5,2,2:2:0:0:
394,117,39321,1,0,1:2:0:0:
434,129,39410,1,0,2:2:0:0:
472,116,39500,5,2,2:2:0:0:
445,85,39589,1,0,2:2:0:0:
405,73,39678,1,8,2:2:0:0:
367,86,39768,5,2,2:2:0:0:
370,126,39857,1,0,1:2:0:0:
395,160,39946,1,0,1:2:0:0:
434,171,40035,6,0,L|421:334,1,165,4|0,1:2|2:2,0:0:0:0:
342,276,40393,1,8,2:2:0:0:
244,341,40571,1,2,2:2:0:0:
216,338,40660,1,2,2:2:0:0:
189,336,40750,5,2,1:2:0:0:
342,276,41018,1,0,1:2:0:0:
331,112,41285,1,0,1:2:0:0:
160,66,41464,6,0,L|173:229,1,165,0|0,1:2|2:2,0:0:0:0:
252,171,41821,1,10,2:2:0:0:
279,169,41910,1,2,2:2:0:0:
303,157,42000,1,2,2:2:0:0:
322,136,42089,1,2,2:2:0:0:
331,111,42178,5,2,1:2:0:0:
273,254,42446,1,0,1:2:0:0:
390,353,42714,1,0,1:2:0:0:
358,234,42893,6,0,L|193:220,1,165,4|0,1:2|2:2,0:0:0:0:
97,212,43250,1,8,2:2:0:0:
346,180,43428,1,2,2:2:0:0:
351,206,43518,1,2,2:2:0:0:
358,234,43607,2,0,L|193:220,1,165,6|0,1:2|2:2,0:0:0:0:
0,203,43964,1,8,2:2:0:0:
126,7,44143,1,2,2:2:0:0:
143,27,44232,1,2,2:2:0:0:
161,48,44321,6,0,L|151:157,1,110,6|0,1:2|2:2,0:0:0:0:
367,343,44678,2,0,L|357:233,1,110,14|0,1:2|2:2,0:0:0:0:
59,0,45035,2,0,L|40:218,1,220,6|8,1:2|2:2,0:0:0:0:
32,308,45571,1,0,1:2:0:0:
29,335,45660,1,0,1:2:0:0:
26,362,45750,6,0,L|59:359,14,27.5,2|2|2|2|2|2|2|2|2|2|2|2|2|2|2,2:2|2:2|2:2|2:2|2:2|2:2|2:2|2:2|2:2|2:2|2:2|2:2|2:2|2:2|2:2,0:0:0:0:
132,351,46464,6,0,B|180:372|224:337|224:337|267:302|318:322,1,197.99999395752,6|0,1:2|2:2,0:0:0:0:
368,384,46821,1,8,2:2:0:0:
168,273,46999,1,0,2:2:0:0:
161,240,47089,1,0,2:2:0:0:
155,208,47178,1,2,1:2:0:0:
132,351,47356,1,2,2:2:0:0:
392,242,47535,2,0,P|340:202|275:201,1,131.99999597168,10|0,2:2|2:2,0:0:0:0:
132,351,47892,2,0,P|67:349|6:241,1,197.99999395752,2|0,1:2|2:2,0:0:0:0:
52,176,48249,1,8,2:2:0:0:
132,351,48428,5,2,2:3:0:0:
323,328,48606,1,2,1:3:0:0:
351,269,48696,1,2,2:3:0:0:
305,222,48785,1,2,2:3:0:0:
247,252,48874,1,2,2:3:0:0:
257,317,48964,1,2,2:3:0:0:
430,158,49142,1,2,2:3:0:0:
206,88,49321,6,0,P|150:135|151:195,1,131.99999597168,2|0,1:2|2:2,0:0:0:0:
380,140,49678,2,0,P|328:102|265:117,1,131.99999597168,10|0,2:2|2:2,0:0:0:0:
384,321,50035,2,0,P|403:259|370:205,1,131.99999597168,2|0,1:2|2:2,0:0:0:0:
213,380,50392,2,0,P|277:379|318:331,1,131.99999597168,10|0,2:2|2:2,0:0:0:0:
104,235,50749,2,0,P|124:295|241:288,1,197.99999395752,2|0,1:2|2:2,0:0:0:0:
179,243,51106,1,8,2:2:0:0:
4,341,51285,5,2,2:3:0:0:
7,141,51464,1,2,1:3:0:0:
36,169,51553,1,2,2:3:0:0:
53,206,51642,1,2,2:3:0:0:
55,247,51731,1,2,2:3:0:0:
42,286,51821,1,2,2:3:0:0:
7,141,51999,1,2,1:3:0:0:
35,101,52089,1,0,1:3:0:0:
82,88,52178,6,0,B|136:93|152:148|152:148|165:200|224:207,1,197.99999395752,4|0,1:2|2:2,0:0:0:0:
293,167,52535,1,8,2:2:0:0:
185,354,52714,1,0,2:2:0:0:
77,166,52892,1,2,1:2:0:0:
292,291,53071,1,2,2:2:0:0:
76,291,53249,2,0,P|138:240|188:233,1,131.99999597168,10|0,2:2|2:2,0:0:0:0:
397,349,53606,6,0,B|417:301|385:259|385:259|380:258|380:258|347:212|373:165,1,197.99999395752,2|0,1:2|2:2,0:0:0:0:
443,130,53964,1,8,2:2:0:0:
324,316,54142,1,0,2:2:0:0:
316,345,54231,1,0,2:2:0:0:
320,378,54321,1,2,1:2:0:0:
439,207,54499,1,0,2:2:0:0:
231,189,54678,1,8,2:2:0:0:
320,378,54856,1,0,1:2:0:0:
340,137,55035,5,4,1:2:0:0:
122,241,55214,1,0,2:2:0:0:
364,244,55392,1,8,2:2:0:0:
146,140,55571,1,0,1:2:0:0:
143,127,55660,1,0,1:2:0:0:
141,113,55749,5,4,1:2:0:0:
300,327,55928,1,0,2:2:0:0:
244,92,56106,1,8,2:2:0:0:
192,328,56285,1,0,1:2:0:0:
194,342,56374,1,0,1:2:0:0:
197,355,56464,5,6,1:2:0:0:
364,244,56642,1,2,2:2:0:0:
129,198,56821,1,14,1:2:0:0:
368,38,56999,1,2,2:2:0:0:
360,323,57178,2,0,P|286:231|381:166,1,263.99999194336,6|8,1:2|2:2,0:0:0:0:
281,34,57713,1,0,1:2:0:0:
280,82,57803,1,0,1:2:0:0:
250,120,57892,6,0,B|202:149|156:116|156:116|112:85|64:108,1,197.99999395752,6|0,1:2|2:2,0:0:0:0:
6,173,58249,1,8,2:2:0:0:
235,274,58428,1,0,2:2:0:0:
218,245,58517,1,0,2:2:0:0:
201,216,58606,1,2,1:2:0:0:
110,58,58785,1,2,2:2:0:0:
83,306,58963,2,0,P|143:317|211:295,1,131.99999597168,10|0,2:2|2:2,0:0:0:0:
356,154,59321,2,0,P|296:165|185:96,1,197.99999395752,2|0,1:2|2:2,0:0:0:0:
168,18,59678,1,8,2:2:0:0:
251,189,59856,5,2,2:3:0:0:
114,320,60035,1,2,1:3:0:0:
51,299,60124,1,2,2:3:0:0:
51,233,60213,1,2,2:3:0:0:
114,213,60303,1,2,2:3:0:0:
152,266,60392,1,2,2:3:0:0:
161,82,60571,1,2,2:3:0:0:
341,296,60749,6,0,P|313:260|231:232,1,131.99999597168,2|0,1:2|2:2,0:0:0:0:
508,166,61106,2,0,P|461:210|444:273,1,131.99999597168,10|0,2:2|2:2,0:0:0:0:
378,0,61463,2,0,P|422:47|485:64,1,131.99999597168,2|0,1:2|2:2,0:0:0:0:
211,130,61821,2,0,P|258:85|275:22,1,131.99999597168,10|0,2:2|2:2,0:0:0:0:
341,296,62178,6,0,P|313:260|171:251,1,197.99999395752,2|0,1:2|2:2,0:0:0:0:
125,314,62535,1,8,2:2:0:0:
271,169,62713,1,2,2:3:0:0:
73,116,62892,1,2,2:3:0:0:
83,152,62981,1,2,2:3:0:0:
105,182,63071,1,2,2:3:0:0:
136,203,63160,1,2,2:3:0:0:
172,213,63249,1,2,2:3:0:0:
73,116,63428,1,2,1:3:0:0:
29,137,63517,1,0,1:3:0:0:
8,181,63606,6,0,B|4:235|56:259|56:259|105:280|103:339,1,197.99999395752,6|0,1:2|2:2,0:0:0:0:
27,330,63963,1,8,2:2:0:0:
172,213,64142,1,0,2:2:0:0:
289,358,64321,1,2,1:2:0:0:
172,213,64499,1,2,2:2:0:0:
317,96,64678,2,0,P|362:95|444:129,1,131.99999597168,10|0,2:2|2:2,0:0:0:0:
172,213,65035,6,0,B|99:222|48:182|48:182|78:167|110:192,1,197.99999395752,2|0,1:2|2:2,0:0:0:0:
131,293,65392,1,8,2:2:0:0:
213,133,65571,1,0,2:2:0:0:
224,109,65660,1,0,2:2:0:0:
222,82,65749,1,2,1:2:0:0:
310,284,65928,1,0,2:2:0:0:
125,189,66106,1,8,2:2:0:0:
304,180,66285,1,0,1:2:0:0:
223,340,66464,5,4,1:2:0:0:
125,189,66642,1,0,2:2:0:0:
277,91,66821,1,8,2:2:0:0:
375,243,66999,1,0,1:2:0:0:
400,249,67088,1,0,1:2:0:0:
425,255,67178,5,4,1:2:0:0:
215,163,67356,1,0,2:2:0:0:
331,361,67535,1,8,2:2:0:0:
354,133,67713,1,0,1:2:0:0:
358,107,67803,1,0,1:2:0:0:
363,81,67892,5,6,1:2:0:0:
105,194,68071,1,2,2:2:0:0:
331,361,68249,1,14,1:2:0:0:
201,63,68428,1,2,2:2:0:0:
9,325,68606,1,6,1:2:0:0:
25,324,68696,1,0,1:2:0:0:
41,323,68785,1,0,1:2:0:0:
58,322,68874,1,0,1:2:0:0:
74,321,68963,1,8,1:2:0:0:
91,320,69053,1,0,1:2:0:0:
107,319,69142,1,0,1:2:0:0:
124,318,69231,1,0,1:2:0:0:
140,318,69321,5,4,1:1:0:0:
167,282,69410,1,0,2:2:0:0:
173,238,69499,1,0,2:2:0:0:
156,197,69588,1,0,2:2:0:0:
119,170,69678,1,8,2:2:0:0:
82,143,69767,1,2,2:2:0:0:
65,102,69856,1,0,2:2:0:0:
71,57,69946,1,0,2:2:0:0:
98,22,70035,5,0,1:2:0:0:
122,59,70124,1,0,2:2:0:0:
163,79,70213,1,0,2:2:0:0:
208,75,70303,1,2,2:2:0:0:
246,48,70392,5,8,2:2:0:0:
218,82,70481,1,2,2:2:0:0:
212,128,70571,1,0,2:2:0:0:
230,169,70660,1,0,2:2:0:0:
267,197,70749,5,0,1:2:0:0:
295,163,70838,1,0,2:2:0:0:
301,117,70928,1,2,2:2:0:0:
283,76,71017,1,0,2:2:0:0:
246,48,71106,5,8,2:2:0:0:
218,82,71196,1,0,2:2:0:0:
212,128,71285,1,2,2:2:0:0:
230,169,71374,1,0,2:2:0:0:
267,197,71463,5,0,1:2:0:0:
309,185,71553,1,0,2:2:0:0:
341,152,71642,1,0,2:2:0:0:
351,108,71731,1,0,2:2:0:0:
337,64,71821,5,8,2:2:0:0:
361,100,71910,1,0,2:2:0:0:
402,120,71999,1,2,1:2:0:0:
447,116,72088,1,2,2:2:0:0:
485,89,72178,5,0,1:2:0:0:
461,53,72267,1,0,2:2:0:0:
420,33,72356,1,0,2:2:0:0:
375,37,72446,1,0,2:2:0:0:
337,64,72535,1,8,2:2:0:0:
299,91,72624,1,2,2:2:0:0:
254,95,72713,1,0,2:2:0:0:
213,75,72803,1,0,2:2:0:0:
189,39,72892,5,0,1:2:0:0:
162,72,72981,1,0,2:2:0:0:
155,118,73071,1,0,2:2:0:0:
173,159,73160,1,2,2:2:0:0:
210,187,73249,1,8,2:2:0:0:
247,215,73338,1,2,2:2:0:0:
265,256,73428,1,0,2:2:0:0:
258,302,73517,1,0,2:2:0:0:
231,335,73606,5,0,1:2:0:0:
194,307,73696,1,0,2:2:0:0:
176,266,73785,1,2,2:2:0:0:
183,220,73874,1,0,2:2:0:0:
210,187,73963,5,8,2:2:0:0:
233,223,74053,1,0,2:2:0:0:
275,243,74142,1,2,2:2:0:0:
319,239,74231,1,0,2:2:0:0:
358,213,74321,5,0,1:2:0:0:
335,177,74410,1,0,2:2:0:0:
293,157,74499,1,0,2:2:0:0:
249,161,74588,1,0,2:2:0:0:
210,187,74678,5,8,2:2:0:0:
193,231,74767,1,0,2:2:0:0:
160,260,74856,1,2,1:2:0:0:
114,268,74946,1,2,1:2:0:0:
74,252,75035,5,4,1:1:0:0:
68,193,75124,1,0,3:2:0:0:
107,148,75213,1,0,3:2:0:0:
166,146,75303,1,0,3:2:0:0:
210,187,75392,1,10,3:2:0:0:
254,228,75481,1,2,3:2:0:0:
313,226,75571,1,2,3:2:0:0:
352,181,75660,1,2,3:2:0:0:
346,122,75749,5,4,1:1:0:0:
302,81,75838,1,0,3:2:0:0:
243,83,75928,1,0,3:2:0:0:
204,128,76017,1,0,3:2:0:0:
210,187,76106,1,10,0:2:0:0:
216,246,76196,1,2,3:2:0:0:
177,291,76285,1,2,3:2:0:0:
118,293,76374,1,2,3:2:0:0:
74,252,76463,5,4,1:1:0:0:
127,223,76553,1,0,3:2:0:0:
143,166,76642,1,2,3:2:0:0:
112,115,76731,1,0,3:2:0:0:
55,103,76821,5,8,3:2:0:0:
98,144,76910,1,0,3:2:0:0:
158,142,76999,1,2,3:2:0:0:
197,96,77088,1,0,3:2:0:0:
190,38,77178,5,0,1:2:0:0:
163,92,77267,1,2,3:2:0:0:
184,148,77356,1,2,3:2:0:0:
240,170,77446,1,2,3:2:0:0:
294,144,77535,2,0,L|304:22,1,121.000003692627,10|0,3:2|3:2,0:0:0:0:
442,146,77892,5,4,1:1:0:0:
469,200,77981,1,0,3:2:0:0:
448,256,78071,1,0,3:2:0:0:
392,278,78160,1,0,3:2:0:0:
338,252,78249,1,10,3:2:0:0:
284,226,78338,1,2,3:2:0:0:
228,248,78428,1,2,3:2:0:0:
207,304,78517,1,2,3:2:0:0:
234,358,78606,5,4,1:1:0:0:
288,384,78696,1,0,3:2:0:0:
344,362,78785,1,0,3:2:0:0:
365,306,78874,1,0,3:2:0:0:
338,252,78963,1,10,3:2:0:0:
311,198,79053,1,2,3:2:0:0:
332,142,79142,1,2,3:2:0:0:
388,120,79231,1,2,3:2:0:0:
442,146,79321,5,4,1:1:0:0:
382,154,79410,1,0,3:2:0:0:
335,117,79499,1,2,3:2:0:0:
331,57,79588,1,0,3:2:0:0:
373,15,79678,5,8,3:2:0:0:
362,74,79767,1,0,3:2:0:0:
312,107,79856,1,2,3:2:0:0:
254,93,79946,1,0,3:2:0:0:
227,40,80035,5,0,1:2:0:0:
279,68,80124,1,2,3:2:0:0:
295,126,80213,1,2,3:2:0:0:
264,177,80303,1,2,3:2:0:0:
205,186,80392,2,0,L|81:175,1,121.000003692627,10|0,3:2|1:2,0:0:0:0:
0,167,80749,5,0,1:0:0:0:
10,234,81285,1,0,1:0:0:0:
20,301,81642,1,0,3:2:0:0:
49,308,81731,1,0,3:2:0:0:
78,314,81821,1,0,1:2:0:0:
138,223,81999,1,0,1:2:0:0:
181,212,82088,1,0,1:2:0:0:
225,203,82178,5,2,3:2:0:0:
203,234,82267,1,0,2:2:0:0:
200,272,82356,1,0,2:2:0:0:
219,305,82446,1,0,2:2:0:0:
252,324,82535,1,2,2:2:0:0:
290,322,82624,1,0,2:2:0:0:
321,301,82713,1,0,2:2:0:0:
337,266,82803,1,0,2:2:0:0:
331,229,82892,2,0,P|312:237|299:248,1,38.4999988250733,2|0,3:2|2:2,0:0:0:0:
388,190,83071,2,0,P|374:173|359:164,1,38.4999988250733,2|0,2:2|2:2,0:0:0:0:
442,231,83249,2,0,P|453:212|457:196,1,38.4999988250733,2|0,2:2|2:2,0:0:0:0:
419,295,83428,2,0,P|439:300|456:299,1,38.4999988250733,2|0,2:2|2:2,0:0:0:0:
352,293,83606,5,2,3:2:0:0:
335,305,83696,1,0,2:2:0:0:
329,323,83785,1,0,2:2:0:0:
333,342,83874,1,0,2:2:0:0:
347,356,83963,2,0,P|327:358|309:355,1,38.4999988250733,2|0,2:2|2:2,0:0:0:0:
232,325,84142,2,0,P|219:310|212:293,1,38.4999988250733,0|0,2:2|2:2,0:0:0:0:
202,211,84321,2,0,P|201:196|206:168,3,38.4999988250733,2|0|0|0,2:2|2:2|2:2|2:2,0:0:0:0:
290,127,84678,2,0,P|290:112|286:84,3,38.4999988250733,2|0|0|0,2:2|2:2|2:2|2:2,0:0:0:0:
214,22,85035,5,2,3:2:0:0:
174,23,85124,1,0,2:2:0:0:
141,41,85213,1,0,2:2:0:0:
118,72,85303,1,0,2:2:0:0:
112,109,85392,1,2,2:2:0:0:
106,146,85481,1,0,2:2:0:0:
83,177,85571,1,0,2:2:0:0:
50,195,85660,1,0,2:2:0:0:
10,196,85749,2,0,P|9:172|11:156,1,38.4999988250733,2|0,3:2|2:2,0:0:0:0:
123,243,85928,2,0,P|124:262|123:281,1,38.4999988250733,2|0,2:2|2:2,0:0:0:0:
53,304,86106,2,0,P|52:280|54:264,1,38.4999988250733,2|0,2:2|2:2,0:0:0:0:
152,345,86285,2,0,P|153:364|152:383,1,38.4999988250733,2|0,2:2|2:2,0:0:0:0:
226,349,86463,5,2,3:2:0:0:
244,344,86552,1,0,2:2:0:0:
261,335,86641,1,0,2:2:0:0:
274,321,86730,1,0,2:2:0:0:
284,305,86821,2,0,P|287:282|288:266,1,38.4999988250733,2|0,2:2|2:2,0:0:0:0:
212,237,86999,2,0,P|213:256|215:275,1,38.4999988250733,0|0,2:2|2:2,0:0:0:0:
313,206,87178,2,0,P|315:182|316:166,1,38.4999988250733,2|0,2:2|2:2,0:0:0:0:
225,133,87356,2,0,P|226:152|228:171,1,38.4999988250733,0|0,2:2|2:2,0:0:0:0:
347,104,87535,2,0,P|349:80|350:64,1,38.4999988250733,2|0,2:2|2:2,0:0:0:0:
249,30,87713,2,0,P|250:49|252:68,1,38.4999988250733,0|0,2:2|2:2,0:0:0:0:
386,166,87892,5,0,1:2:0:0:
452,49,88071,2,0,L|458:126,1,76.9999976501466,2|0,2:2|2:2,0:0:0:0:
319,282,88428,2,0,L|312:205,1,76.9999976501466,2|0,2:2|1:2,0:0:0:0:
458,125,88785,2,0,L|464:202,1,76.9999976501466,2|0,2:2|2:2,0:0:0:0:
325,358,89142,2,0,L|318:281,1,76.9999976501466,2|0,2:2|1:2,0:0:0:0:
60,49,89499,6,0,L|53:126,1,76.9999976501466,2|0,2:2|2:2,0:0:0:0:
193,282,89856,2,0,L|199:205,1,76.9999976501466,2|0,2:2|1:2,0:0:0:0:
54,125,90213,2,0,L|47:202,1,76.9999976501466,2|0,2:2|2:2,0:0:0:0:
187,358,90571,1,2,2:2:0:0:
212,122,90749,5,0,1:2:0:0:
243,136,90838,1,0,2:2:0:0:
278,133,90928,1,0,2:2:0:0:
306,111,91017,1,0,2:2:0:0:
334,90,91106,1,0,2:2:0:0:
369,86,91196,1,0,2:2:0:0:
401,101,91285,2,0,P|412:120|416:135,1,38.4999988250733,2|0,2:2|2:2,0:0:0:0:
470,261,91463,5,0,1:2:0:0:
431,278,91553,1,0,2:2:0:0:
389,274,91642,1,0,2:2:0:0:
356,248,91731,1,0,2:2:0:0:
324,223,91821,1,0,2:2:0:0:
283,219,91910,1,0,2:2:0:0:
245,236,91999,2,0,P|231:258|227:276,1,38.4999988250733,2|0,2:2|2:2,0:0:0:0:
144,344,92178,5,2,1:2:0:0:
140,302,92267,1,2,2:2:0:0:
136,260,92356,1,2,2:2:0:0:
245,236,92535,5,2,1:2:0:0:
249,194,92624,1,2,2:2:0:0:
253,152,92713,2,0,L|257:109,1,38.4999988250733,2|0,2:2|1:2,0:0:0:0:
112,64,92892,6,0,P|104:80|99:102,1,38.4999988250733,2|0,1:2|2:2,0:0:0:0:
152,154,93071,2,0,P|160:170|165:192,1,38.4999988250733,0|0,1:2|2:2,0:0:0:0:
71,232,93249,2,0,P|63:248|58:270,1,38.4999988250733,0|0,1:2|2:2,0:0:0:0:
144,344,93428,2,0,P|152:360|157:382,1,38.4999988250733,0|0,1:2|2:2,0:0:0:0:
71,232,93606,5,4,1:2:0:0:
144,344,93785,2,0,L|253:353,1,110,2|8,2:2|2:2,0:0:0:0:
261,144,94142,2,0,L|151:153,1,110,2|0,2:2|1:2,0:0:0:0:
253,353,94499,2,0,L|362:362,1,110,2|8,2:2|2:2,0:0:0:0:
370,134,94856,2,0,L|260:143,1,110,2|0,2:2|1:2,0:0:0:0:
362,362,95213,2,0,L|471:371,1,110,2|8,2:2|2:2,0:0:0:0:
479,124,95571,5,2,2:2:0:0:
260,143,95749,1,2,1:2:0:0:
314,138,95838,1,2,2:2:0:0:
369,133,95928,1,2,2:2:0:0:
424,128,96017,1,2,2:2:0:0:
479,123,96106,1,10,2:2:0:0:
260,143,96285,1,2,1:2:0:0:
360,243,96463,5,0,1:2:0:0:
151,153,96642,2,0,L|141:262,1,110,2|8,2:2|2:2,0:0:0:0:
360,243,96999,2,0,L|369:133,1,110,2|0,2:2|1:2,0:0:0:0:
214,274,97356,2,0,L|204:383,1,110,2|8,2:2|2:2,0:0:0:0:
297,122,97713,2,0,L|306:12,1,110,2|0,2:2|1:2,0:0:0:0:
151,153,98071,2,0,L|141:262,1,110,2|8,2:2|2:2,0:0:0:0:
204,383,98428,5,2,2:2:0:0:
345,342,98606,1,2,1:2:0:0:
306,329,98696,1,2,2:2:0:0:
266,332,98785,1,2,2:2:0:0:
229,351,98874,1,2,2:2:0:0:
204,383,98963,1,10,2:2:0:0:
345,342,99142,1,2,1:2:0:0:
384,355,99231,1,0,1:2:0:0:
424,352,99321,5,0,1:2:0:0:
401,163,99499,2,0,L|391:272,1,110,2|8,2:2|2:2,0:0:0:0:
266,332,99856,2,0,L|256:222,1,110,2|0,2:2|1:2,0:0:0:0:
410,53,100213,2,0,L|400:162,1,110,2|8,2:2|2:2,0:0:0:0:
256,222,100571,2,0,L|246:112,1,110,2|0,2:2|1:2,0:0:0:0:
381,381,100928,2,0,L|391:272,1,110,2|8,2:2|2:2,0:0:0:0:
246,112,101285,2,0,L|236:2,1,110,2|0,2:2|1:2,0:0:0:0:
400,162,101642,2,0,L|410:53,1,110,2|8,2:2|2:2,0:0:0:0:
266,332,101999,1,2,1:2:0:0:
22,201,102178,6,0,L|187:215,1,165,4|0,1:2|2:2,0:0:0:0:
261,222,102535,1,8,2:2:0:0:
22,201,102713,5,0,1:2:0:0:
17,168,102803,1,0,1:2:0:0:
13,136,102892,2,0,L|210:153,1,197.99999395752,4|0,1:2|2:2,0:0:0:0:
294,161,103249,1,8,2:2:0:0:
13,136,103428,5,0,1:2:0:0:
7,95,103517,1,0,1:2:0:0:
1,54,103606,2,0,L|109:63,1,110,4|0,1:2|2:2,0:0:0:0:
294,161,103963,2,0,L|162:172,1,131.99999597168,4|0,1:2|2:2,0:0:0:0:
129,175,104231,1,0,1:2:0:0:
95,178,104321,1,4,1:2:0:0:
294,161,104499,1,0,1:2:0:0:
112,377,104678,1,0,1:2:0:0:
311,360,104856,1,0,1:2:0:0:
95,178,105035,6,0,B|147:180|175:131|175:131|203:83|258:84,1,197.99999395752,6|0,1:2|2:2,0:0:0:0:
325,113,105392,1,8,2:2:0:0:
96,89,105571,1,0,2:2:0:0:
96,54,105660,1,0,2:2:0:0:
105,24,105749,1,2,1:2:0:0:
256,173,105928,1,2,2:2:0:0:
107,324,106106,2,0,P|92:237|165:160,1,197.99999395752,10|0,2:2|0:0,0:0:0:0:
256,173,106463,5,2,1:2:0:0:
107,324,106642,1,0,0:0:0:0:
51,120,106821,1,8,2:2:0:0:
225,291,106999,5,2,2:3:0:0:
287,55,107178,1,2,1:3:0:0:
346,76,107267,1,2,2:3:0:0:
361,137,107356,1,2,2:3:0:0:
318,183,107446,1,2,2:3:0:0:
256,173,107535,1,2,2:3:0:0:
480,71,107713,1,2,1:3:0:0:
457,316,107892,6,0,P|408:276|387:212,1,131.99999597168,2|0,1:2|2:2,0:0:0:0:
256,357,108249,2,0,P|249:292|280:235,1,131.99999597168,10|0,2:2|2:2,0:0:0:0:
84,243,108606,2,0,P|125:193|188:174,1,131.99999597168,2|0,1:2|2:2,0:0:0:0:
41,41,108963,2,0,P|106:34|164:64,1,131.99999597168,10|0,2:2|2:2,0:0:0:0:
373,147,109321,6,0,B|325:124|277:159|277:159|234:192|187:174,1,197.99999395752,2|0,1:2|2:2,0:0:0:0:
221,100,109678,1,10,2:2:0:0:
336,222,109856,1,2,2:3:0:0:
99,215,110035,1,2,1:3:0:0:
148,213,110124,1,2,2:3:0:0:
190,190,110213,1,2,2:3:0:0:
217,148,110303,1,2,2:3:0:0:
221,99,110392,1,2,2:3:0:0:
99,215,110571,1,2,1:3:0:0:
49,216,110660,1,0,1:3:0:0:
7,239,110749,6,0,P|56:302|164:287,1,197.99999395752,4|0,1:2|2:2,0:0:0:0:
99,215,111106,1,8,2:2:0:0:
307,375,111285,1,0,2:2:0:0:
233,121,111463,1,2,1:2:0:0:
144,370,111642,1,2,2:2:0:0:
361,220,111821,2,0,P|380:156|384:91,1,131.99999597168,10|0,2:2|2:2,0:0:0:0:
233,121,112178,6,0,B|188:143|139:114|139:114|138:110|138:110|92:83|47:105,1,197.99999395752,2|0,1:2|2:2,0:0:0:0:
86,183,112535,1,8,2:2:0:0:
196,58,112713,1,0,2:2:0:0:
196,58,112803,1,0,2:2:0:0:
196,58,112892,1,2,1:2:0:0:
249,215,113071,1,0,2:2:0:0:
86,183,113249,1,8,2:2:0:0:
301,110,113428,1,0,1:2:0:0:
256,332,113606,5,4,1:2:0:0:
86,183,113785,1,0,2:2:0:0:
312,204,113963,1,8,2:2:0:0:
117,320,114142,1,0,1:2:0:0:
123,352,114231,1,0,1:2:0:0:
129,384,114321,5,4,1:2:0:0:
86,183,114499,1,0,2:2:0:0:
287,140,114678,1,8,2:2:0:0:
330,341,114856,1,0,1:2:0:0:
299,330,114946,1,0,1:2:0:0:
268,319,115035,5,6,1:2:0:0:
298,61,115213,1,2,2:2:0:0:
154,175,115392,1,14,1:2:0:0:
412,205,115571,1,2,2:2:0:0:
145,259,115749,6,0,P|75:201|165:91,1,263.99999194336,6|8,1:2|2:2,0:0:0:0:
350,185,116285,1,0,1:2:0:0:
381,195,116374,1,0,1:2:0:0:
412,205,116463,6,0,B|360:203|332:252|332:252|304:300|249:299,1,197.99999395752,6|0,1:2|2:2,0:0:0:0:
182,270,116821,1,8,2:2:0:0:
409,288,116999,1,0,2:2:0:0:
421,318,117088,1,0,2:2:0:0:
426,350,117178,1,2,1:2:0:0:
256,213,117356,1,2,2:2:0:0:
474,190,117535,2,0,P|415:208|299:86,1,197.99999395752,10|0,2:2|0:0,0:0:0:0:
304,53,117892,5,2,1:2:0:0:
256,213,118071,1,0,0:0:0:0:
96,165,118249,1,8,2:2:0:0:
144,5,118428,1,2,2:3:0:0:
256,213,118606,1,2,1:3:0:0:
193,192,118696,1,2,2:3:0:0:
193,126,118785,1,2,2:3:0:0:
256,106,118874,1,2,2:3:0:0:
294,159,118963,1,2,2:3:0:0:
96,165,119142,1,2,1:3:0:0:
304,53,119321,6,0,P|349:78|362:153,1,131.99999597168,2|0,1:2|2:2,0:0:0:0:
210,334,119678,2,0,P|158:340|104:287,1,131.99999597168,10|0,2:2|2:2,0:0:0:0:
362,226,120035,2,0,P|352:276|284:312,1,131.99999597168,2|0,1:2|2:2,0:0:0:0:
65,223,120392,2,0,P|43:176|76:108,1,131.99999597168,10|0,2:2|2:2,0:0:0:0:
286,232,120749,6,0,B|231:227|210:178|210:178|219:231|178:267,1,197.99999395752,2|0,1:2|2:2,0:0:0:0:
252,313,121106,1,8,2:2:0:0:
289,145,121285,1,2,2:3:0:0:
126,197,121463,1,2,1:3:0:0:
171,215,121553,1,2,2:3:0:0:
220,211,121642,1,2,2:3:0:0:
262,186,121731,1,2,2:3:0:0:
288,145,121821,1,2,2:3:0:0:
126,197,121999,1,2,1:3:0:0:
80,178,122088,1,0,1:3:0:0:
31,182,122178,6,0,P|50:258|155:290,1,197.99999395752,6|0,1:2|2:2,0:0:0:0:
126,197,122535,1,8,2:2:0:0:
184,381,122713,1,0,2:2:0:0:
369,320,122892,1,2,1:2:0:0:
311,136,123070,1,2,2:2:0:0:
252,277,123249,2,0,P|312:319|367:320,1,131.99999597168,10|0,2:2|2:2,0:0:0:0:
457,73,123606,6,0,B|416:94|403:152|403:152|442:189|436:242,1,197.99999395752,2|0,1:2|2:2,0:0:0:0:
338,226,123963,1,8,2:2:0:0:
130,100,124142,1,0,2:2:0:0:
109,99,124231,1,0,2:2:0:0:
92,107,124321,1,2,1:2:0:0:
234,163,124499,1,0,2:2:0:0:
37,249,124678,1,8,2:2:0:0:
179,305,124856,1,0,1:2:0:0:
92,107,125035,5,4,1:2:0:0:
179,305,125213,1,0,2:2:0:0:
377,218,125392,1,8,2:2:0:0:
290,20,125571,1,0,1:2:0:0:
288,52,125660,1,0,1:2:0:0:
286,84,125749,5,4,1:2:0:0:
377,218,125928,1,0,2:2:0:0:
124,290,126106,1,8,2:2:0:0:
130,128,126285,1,0,1:2:0:0:
147,156,126374,1,0,1:2:0:0:
165,183,126463,5,6,1:2:0:0:
277,346,126642,1,2,2:2:0:0:
286,84,126821,1,14,1:2:0:0:
135,369,126999,1,2,2:2:0:0:
96,63,127178,5,2,1:2:0:0:
94,87,127267,1,0,1:0:0:0:
92,112,127356,1,0,1:0:0:0:
90,137,127445,1,0,1:0:0:0:
88,161,127535,1,0,1:0:0:0:
86,186,127624,1,0,1:0:0:0:
85,211,127713,1,0,1:0:0:0:
83,235,127802,1,0,1:0:0:0:
81,260,127892,5,4,1:1:0:0:
121,295,127981,1,0,2:2:0:0:
172,304,128071,1,0,2:2:0:0:
221,285,128160,1,0,2:2:0:0:
252,244,128249,1,8,2:2:0:0:
283,202,128338,1,2,2:2:0:0:
332,183,128428,1,0,2:2:0:0:
383,192,128517,1,0,2:2:0:0:
422,227,128606,5,0,1:2:0:0:
391,269,128696,1,0,2:2:0:0:
342,288,128785,1,0,2:2:0:0:
291,279,128874,1,2,2:2:0:0:
252,244,128963,1,8,2:2:0:0:
213,209,129053,1,2,2:2:0:0:
162,200,129142,1,0,2:2:0:0:
113,219,129231,1,0,2:2:0:0:
82,261,129321,5,0,1:2:0:0:
131,244,129410,1,0,2:2:0:0:
165,205,129499,1,2,2:2:0:0:
173,153,129588,1,0,2:2:0:0:
152,105,129678,5,8,2:2:0:0:
183,146,129767,1,0,2:2:0:0:
230,166,129856,1,2,2:2:0:0:
282,158,129946,1,0,2:2:0:0:
321,123,130035,5,0,1:2:0:0:
291,165,130124,1,0,2:2:0:0:
287,216,130213,1,0,2:2:0:0:
310,263,130303,1,0,2:2:0:0:
356,289,130392,5,8,2:2:0:0:
386,247,130481,1,0,2:2:0:0:
390,196,130571,1,2,1:2:0:0:
367,149,130660,1,2,2:2:0:0:
321,123,130749,5,0,1:2:0:0:
306,173,130838,1,0,2:2:0:0:
267,208,130928,1,0,2:2:0:0:
217,217,131017,1,0,2:2:0:0:
168,200,131106,1,8,2:2:0:0:
119,183,131196,1,2,2:2:0:0:
69,192,131285,1,0,2:2:0:0:
30,227,131374,1,0,2:2:0:0:
15,277,131463,5,0,1:2:0:0:
64,294,131553,1,0,2:2:0:0:
114,285,131642,1,0,2:2:0:0:
153,250,131731,1,2,2:2:0:0:
168,200,131821,1,8,2:2:0:0:
183,150,131910,1,2,2:2:0:0:
222,115,131999,1,0,2:2:0:0:
272,106,132088,1,0,2:2:0:0:
321,123,132178,5,0,1:2:0:0:
338,172,132267,1,0,2:2:0:0:
327,223,132356,1,2,2:2:0:0:
292,260,132446,1,0,2:2:0:0:
242,275,132535,5,8,2:2:0:0:
199,245,132624,1,0,2:2:0:0:
178,197,132713,1,2,2:2:0:0:
184,147,132803,1,0,2:2:0:0:
216,105,132892,5,0,1:2:0:0:
268,103,132981,1,0,2:2:0:0:
313,130,133071,1,0,2:2:0:0:
338,174,133160,1,0,2:2:0:0:
336,227,133249,5,8,2:2:0:0:
295,259,133338,1,0,2:2:0:0:
242,264,133428,1,2,1:2:0:0:
196,243,133517,1,2,1:2:0:0:
167,199,133606,5,4,1:1:0:0:
202,145,133696,1,0,3:2:0:0:
265,130,133785,1,0,3:2:0:0:
319,164,133874,1,0,3:2:0:0:
336,226,133963,1,10,3:2:0:0:
352,288,134053,1,2,3:2:0:0:
407,321,134142,1,2,3:2:0:0:
469,307,134231,1,2,3:2:0:0:
505,253,134321,5,4,1:1:0:0:
489,191,134410,1,0,3:2:0:0:
434,158,134499,1,0,3:2:0:0:
372,172,134588,1,0,3:2:0:0:
336,226,134678,1,10,0:2:0:0:
300,280,134767,1,2,3:2:0:0:
238,294,134856,1,2,3:2:0:0:
183,261,134946,1,2,3:2:0:0:
167,199,135035,5,4,1:1:0:0:
208,250,135124,1,0,3:2:0:0:
202,313,135213,1,2,3:2:0:0:
154,356,135303,1,0,3:2:0:0:
90,352,135392,5,8,3:2:0:0:
49,301,135481,1,0,3:2:0:0:
55,238,135571,1,2,3:2:0:0:
103,195,135660,1,0,3:2:0:0:
167,199,135749,5,0,1:2:0:0:
208,148,135838,1,2,3:2:0:0:
202,85,135928,1,2,3:2:0:0:
154,42,136017,1,2,3:2:0:0:
90,46,136106,6,0,L|79:176,1,131.99999597168,10|0,3:2|3:2,0:0:0:0:
456,70,136463,5,4,1:1:0:0:
439,132,136553,1,0,3:2:0:0:
385,166,136642,1,0,3:2:0:0:
322,151,136731,1,0,3:2:0:0:
287,97,136821,1,10,3:2:0:0:
252,43,136910,1,2,3:2:0:0:
189,28,136999,1,2,3:2:0:0:
135,62,137088,1,2,3:2:0:0:
118,124,137178,5,4,1:1:0:0:
153,178,137267,1,0,3:2:0:0:
216,193,137356,1,0,3:2:0:0:
270,159,137446,1,0,3:2:0:0:
287,97,137535,1,10,3:2:0:0:
304,35,137624,1,2,3:2:0:0:
358,1,137713,1,2,3:2:0:0:
421,16,137803,1,2,3:2:0:0:
456,70,137892,5,4,1:1:0:0:
394,87,137981,1,0,3:2:0:0:
360,142,138071,1,2,3:2:0:0:
376,204,138160,1,0,3:2:0:0:
430,240,138249,5,8,3:2:0:0:
394,186,138338,1,0,3:2:0:0:
331,170,138428,1,2,3:2:0:0:
277,205,138517,1,0,3:2:0:0:
260,267,138606,5,0,1:2:0:0:
300,216,138696,1,2,3:2:0:0:
295,151,138785,1,2,3:2:0:0:
246,110,138874,1,2,3:2:0:0:
181,113,138963,2,0,L|169:245,1,131.99999597168,10|0,3:2|1:2,0:0:0:0:
161,310,139231,1,0,1:0:0:0:
153,376,139321,6,0,L|349:358,1,197.99999395752,4|0,1:2|2:2,0:0:0:0:
449,347,139678,1,8,2:2:0:0:
437,123,139856,1,2,2:2:0:0:
434,155,139946,1,2,2:2:0:0:
431,188,140035,5,2,1:2:0:0:
449,347,140303,1,0,1:2:0:0:
290,365,140571,1,0,1:2:0:0:
272,206,140749,6,0,L|75:188,1,197.99999395752,0|0,1:2|2:2,0:0:0:0:
136,109,141106,1,8,2:2:0:0:
210,285,141285,1,0,2:2:0:0:
400,269,141463,1,2,2:2:0:0:
463,248,141553,1,2,2:2:0:0:
463,182,141642,1,2,2:2:0:0:
400,162,141731,1,2,2:2:0:0:
362,215,141821,1,10,2:2:0:0:
472,384,141999,1,2,1:2:0:0:
463,182,142178,6,0,L|451:50,1,131.99999597168,0|0,1:2|2:2,0:0:0:0:
362,215,142535,2,0,L|350:346,1,131.99999597168,8|0,2:2|2:2,0:0:0:0:
273,146,142892,2,0,L|261:14,1,131.99999597168,0|0,1:2|2:2,0:0:0:0:
172,179,143249,2,0,L|160:310,1,131.99999597168,8|0,2:2|2:2,0:0:0:0:
362,215,143606,5,0,1:2:0:0:
313,229,143696,1,2,2:2:0:0:
278,268,143785,1,0,2:2:0:0:
269,318,143874,1,0,2:2:0:0:
289,366,143963,5,10,2:2:0:0:
325,328,144053,1,0,2:2:0:0:
334,276,144142,1,0,2:2:0:0:
313,229,144231,5,2,2:2:0:0:
261,238,144321,1,0,1:2:0:0:
223,275,144410,1,0,2:2:0:0:
212,326,144499,5,2,2:2:0:0:
264,315,144588,1,0,2:2:0:0:
303,279,144678,1,8,2:2:0:0:
313,229,144767,5,2,2:2:0:0:
266,206,144856,1,0,1:2:0:0:
211,213,144946,1,0,1:2:0:0:
174,248,145035,6,0,L|191:39,1,197.99999395752,4|0,1:2|2:2,0:0:0:0:
91,43,145392,1,8,2:2:0:0:
282,156,145571,1,2,2:2:0:0:
249,153,145660,1,2,2:2:0:0:
216,152,145749,5,2,1:2:0:0:
75,241,146017,1,0,1:2:0:0:
91,43,146285,1,0,1:2:0:0:
216,152,146463,6,0,L|199:349,1,197.99999395752,0|0,1:2|2:2,0:0:0:0:
285,312,146821,1,10,2:2:0:0:
316,301,146910,1,2,2:2:0:0:
348,302,146999,1,2,2:2:0:0:
379,313,147088,1,2,2:2:0:0:
405,334,147178,5,2,1:2:0:0:
335,230,147446,1,0,1:2:0:0:
412,131,147713,1,0,1:2:0:0:
335,230,147892,6,0,L|138:247,1,197.99999395752,4|0,1:2|2:2,0:0:0:0:
38,260,148249,1,8,2:2:0:0:
316,168,148428,1,2,2:2:0:0:
325,199,148517,1,2,2:2:0:0:
335,230,148606,2,0,L|138:247,1,197.99999395752,6|0,1:2|2:2,0:0:0:0:
51,359,148963,1,8,2:2:0:0:
124,148,149142,1,2,2:2:0:0:
133,115,149231,1,2,2:2:0:0:
143,84,149321,6,0,L|274:94,1,131.99999597168,6|0,1:2|2:2,0:0:0:0:
411,318,149678,2,0,L|280:330,1,131.99999597168,14|0,1:2|2:2,0:0:0:0:
96,0,150035,2,0,L|359:21,1,263.99999194336,6|8,1:2|2:2,0:0:0:0:
493,31,150571,1,0,1:2:0:0:
484,62,150660,1,0,1:2:0:0:
476,93,150749,6,0,L|276:108,1,197.99999395752,4|0,1:2|2:2,0:0:0:0:
181,120,151106,1,8,2:2:0:0:
377,232,151285,1,2,2:2:0:0:
348,216,151374,1,2,2:2:0:0:
323,199,151463,5,2,1:2:0:0:
104,259,151731,1,0,1:2:0:0:
246,338,151999,1,0,1:2:0:0:
278,108,152178,6,0,L|78:123,1,197.99999395752,0|0,1:2|2:2,0:0:0:0:
127,35,152535,1,8,2:2:0:0:
231,196,152713,1,0,2:2:0:0:
110,344,152892,1,2,2:2:0:0:
47,323,152981,1,2,2:2:0:0:
47,257,153071,1,2,2:2:0:0:
110,237,153160,1,2,2:2:0:0:
148,290,153249,1,10,2:2:0:0:
33,134,153428,1,2,1:2:0:0:
231,196,153606,6,0,L|219:329,1,131.99999597168,0|0,1:2|2:2,0:0:0:0:
434,139,153963,2,0,L|445:7,1,131.99999597168,8|0,2:2|2:2,0:0:0:0:
309,47,154321,2,0,L|297:177,1,131.99999597168,0|0,1:2|2:2,0:0:0:0:
356,292,154678,2,0,L|367:160,1,131.99999597168,8|0,2:2|2:2,0:0:0:0:
309,47,155035,5,0,1:2:0:0:
260,39,155124,1,2,2:2:0:0:
214,57,155213,1,0,2:2:0:0:
183,95,155303,1,0,2:2:0:0:
175,143,155392,5,10,2:2:0:0:
220,125,155481,1,0,2:2:0:0:
251,87,155571,1,0,2:2:0:0:
260,39,155660,5,2,2:2:0:0:
291,76,155749,1,0,1:2:0:0:
336,93,155838,1,0,2:2:0:0:
385,87,155928,5,2,2:2:0:0:
359,127,156017,1,0,2:2:0:0:
357,175,156106,1,8,2:2:0:0:
377,220,156196,5,2,2:2:0:0:
330,207,156285,1,0,1:2:0:0:
284,220,156374,1,0,1:2:0:0:
248,253,156463,6,0,L|51:235,1,197.99999395752,4|0,1:2|2:2,0:0:0:0:
98,328,156821,1,8,2:2:0:0:
112,152,156999,1,2,2:2:0:0:
115,119,157088,1,2,2:2:0:0:
118,85,157178,5,2,1:2:0:0:
50,235,157446,1,0,1:2:0:0:
200,303,157713,1,0,1:2:0:0:
268,153,157892,6,0,L|464:170,1,197.99999395752,0|0,1:2|2:2,0:0:0:0:
389,78,158249,1,10,2:2:0:0:
348,71,158338,1,2,2:2:0:0:
309,84,158428,1,2,2:2:0:0:
280,114,158517,1,2,2:2:0:0:
268,153,158606,5,2,1:2:0:0:
285,309,158874,1,0,1:2:0:0:
441,292,159142,1,0,1:2:0:0:
424,136,159321,6,0,L|406:333,1,197.99999395752,4|0,1:2|2:2,0:0:0:0:
344,268,159678,1,8,2:2:0:0:
432,71,159856,1,2,2:2:0:0:
428,104,159946,1,2,2:2:0:0:
424,136,160035,6,0,L|406:333,1,197.99999395752,6|0,1:2|2:2,0:0:0:0:
282,203,160392,1,8,2:2:0:0:
435,44,160571,1,2,2:2:0:0:
430,90,160660,1,2,2:2:0:0:
424,136,160749,6,0,L|413:267,1,131.99999597168,6|0,1:2|2:2,0:0:0:0:
146,372,161106,2,0,L|135:241,1,131.99999597168,14|0,1:2|2:2,0:0:0:0:
435,44,161463,1,4,1:1:0:0:
256,192,161553,12,0,163606,0:0:0:0:
