osu file format v14

[General]
AudioFilename: audio.mp3
AudioLeadIn: 0
PreviewTime: 161094
Countdown: 0
SampleSet: Soft
StackLeniency: 0.7
Mode: 1
LetterboxInBreaks: 0
WidescreenStoryboard: 0

[Editor]
DistanceSpacing: 0.8
BeatDivisor: 4
GridSize: 8
TimelineZoom: 3.999998

[Metadata]
Title:Sweet Little Lily
TitleUnicode:Sweet Little Lily
Artist:Silver Forest
ArtistUnicode:Silver Forest
Creator:NlHIL
Version:kyomu
Source:東方紺珠伝 ~ Legacy of Lunatic Kingdom
Tags:touhou 狂夢 パンデモニックプラネット pandemonic planet
BeatmapID:1771908
BeatmapSetID:847254

[Difficulty]
HPDrainRate:5
CircleSize:5
OverallDifficulty:6
ApproachRate:5
SliderMultiplier:1.4
SliderTickRate:1

[Events]
//Background and Video events
Video,0,"video.mp4"
0,0,"Reisen.Udongein.Inaba.full.2086291.jpg",0,0
//Break Periods
//Storyboard Layer 0 (Background)
//Storyboard Layer 1 (Fail)
//Storyboard Layer 2 (Pass)
//Storyboard Layer 3 (Foreground)
Sprite,Foreground,Centre,"",320,240 M,0,0,,320,240
Sprite,Foreground,Centre,"",320,240 F,0,0,,1
Sprite,Foreground,Centre,"",320,240 F,0,0,,1
Sprite,Foreground,Centre,"",320,240 F,0,0,,1
Sprite,Foreground,Centre,"",320,240 F,0,0,,1
Sprite,Foreground,Centre,"",320,240 F,0,0,,1
Sprite,Foreground,Centre,"",320,240 F,0,0,,0.984
Sprite,Foreground,Centre,"",320,240 F,0,0,,1
Sprite,Foreground,Centre,"",320,240 F,0,0,,1
Sprite,Foreground,Centre,"",320,240 F,0,0,,1
//Storyboard Sound Samples

[TimingPoints]
4130,357.142857142857,4,2,0,100,1,0
52344,-66.6666666666667,4,2,0,100,0,0
52701,-83.3333333333333,4,2,0,100,0,1
69844,-133.333333333333,4,2,0,100,0,0
79844,-83.3333333333333,4,2,0,100,0,0
91272,-100,4,2,0,100,0,0
112344,-66.6666666666667,4,2,0,100,0,0
112701,-83.3333333333333,4,2,0,100,0,1
129844,-133.333333333333,4,2,0,100,0,0
138415,-100,4,2,0,100,0,0
160915,-66.6666666666667,4,2,0,100,0,0
161272,-83.3333333333333,4,2,0,100,0,1
176987,-83.3333333333333,4,2,0,100,0,0

[HitObjects]
255,197,4130,5,0,0:0:0:0:
255,197,4308,1,0,0:0:0:0:
255,197,4487,1,2,0:0:0:0:
255,197,4665,1,0,0:0:0:0:
255,197,4844,1,2,0:0:0:0:
255,197,5022,1,2,0:0:0:0:
255,197,5201,1,0,0:0:0:0:
255,197,5380,1,2,0:0:0:0:
255,197,5469,1,2,0:0:0:0:
255,197,5558,1,0,0:0:0:0:
255,197,5736,1,0,0:0:0:0:
255,197,5915,1,2,0:0:0:0:
255,197,6093,1,0,0:0:0:0:
255,197,6272,1,2,0:0:0:0:
255,197,6450,1,2,0:0:0:0:
255,197,6629,1,0,0:0:0:0:
255,197,6808,1,2,0:0:0:0:
255,197,6897,1,2,0:0:0:0:
251,201,6987,1,0,0:0:0:0:
255,197,7106,1,0,0:0:0:0:
255,197,7225,1,0,0:0:0:0:
258,200,7344,1,2,0:0:0:0:
258,200,7463,1,2,0:0:0:0:
259,199,7582,1,2,0:0:0:0:
251,201,7701,1,0,0:0:0:0:
255,197,7820,1,0,0:0:0:0:
255,197,7939,1,0,0:0:0:0:
258,200,8058,1,0,0:0:0:0:
257,202,8147,1,0,0:0:0:0:
259,199,8237,1,2,0:0:0:0:
254,196,8326,1,2,0:0:0:0:
251,201,8415,1,0,0:0:0:0:
255,197,8534,1,0,0:0:0:0:
255,197,8653,1,0,0:0:0:0:
258,200,8772,1,2,0:0:0:0:
258,200,8891,1,2,0:0:0:0:
259,199,9010,1,2,0:0:0:0:
251,201,9129,1,0,0:0:0:0:
255,197,9248,1,0,0:0:0:0:
255,197,9367,1,0,0:0:0:0:
258,200,9487,1,0,0:0:0:0:
256,202,9576,1,0,0:0:0:0:
259,199,9665,1,2,0:0:0:0:
258,200,9754,1,2,0:0:0:0:
258,200,9844,1,0,0:0:0:0:
257,209,10201,1,0,0:0:0:0:
257,209,10558,1,2,0:0:0:0:
257,209,10915,1,0,0:0:0:0:
257,209,11094,1,2,0:0:0:0:
254,216,11153,1,2,0:0:0:0:
251,215,11213,1,2,0:0:0:0:
251,214,11272,1,0,0:0:0:0:
252,212,11629,1,2,0:0:0:0:
252,212,11808,1,0,0:0:0:0:
254,216,12165,1,0,0:0:0:0:
252,212,12344,1,2,0:0:0:0:
255,197,12701,1,0,0:0:0:0:
255,197,12879,1,0,0:0:0:0:
255,197,13058,1,2,0:0:0:0:
255,197,13236,1,0,0:0:0:0:
255,197,13415,1,2,0:0:0:0:
255,197,13593,1,2,0:0:0:0:
255,197,13772,1,0,0:0:0:0:
255,197,13951,1,2,0:0:0:0:
255,197,14129,1,0,0:0:0:0:
259,194,14249,1,0,0:0:0:0:
259,194,14368,1,0,0:0:0:0:
259,194,14487,1,2,0:0:0:0:
259,194,14606,1,2,0:0:0:0:
255,197,14725,1,2,0:0:0:0:
255,197,14844,1,0,0:0:0:0:
259,194,15201,1,2,0:0:0:0:
259,194,15558,1,0,0:0:0:0:
255,197,15647,1,0,0:0:0:0:
255,197,15737,1,2,0:0:0:0:
259,194,15826,1,0,0:0:0:0:
259,203,15915,1,2,0:0:0:0:
259,203,16004,1,2,0:0:0:0:
259,203,16094,1,0,0:0:0:0:
259,202,16183,1,2,0:0:0:0:
259,194,16272,1,0,0:0:0:0:
255,197,16361,1,0,0:0:0:0:
255,197,16451,1,0,0:0:0:0:
259,194,16540,1,0,0:0:0:0:
259,203,16629,1,2,0:0:0:0:
259,203,16718,1,2,0:0:0:0:
259,203,16808,1,2,0:0:0:0:
259,202,16897,1,2,0:0:0:0:
259,194,16987,1,0,0:0:0:0:
255,197,17076,1,0,0:0:0:0:
255,197,17166,1,2,0:0:0:0:
259,194,17255,1,0,0:0:0:0:
259,203,17344,1,2,0:0:0:0:
259,203,17433,1,2,0:0:0:0:
259,203,17523,1,0,0:0:0:0:
259,202,17612,1,2,0:0:0:0:
259,194,17701,1,0,0:0:0:0:
255,197,17790,1,0,0:0:0:0:
255,197,17880,1,0,0:0:0:0:
259,194,17969,1,0,0:0:0:0:
259,203,18058,1,2,0:0:0:0:
259,203,18147,1,2,0:0:0:0:
259,203,18237,1,2,0:0:0:0:
259,202,18326,1,2,0:0:0:0:
259,194,18415,1,0,0:0:0:0:
255,197,18504,1,0,0:0:0:0:
255,197,18594,1,2,0:0:0:0:
259,194,18683,1,0,0:0:0:0:
259,203,18772,1,2,0:0:0:0:
259,203,18861,1,2,0:0:0:0:
259,203,18951,1,0,0:0:0:0:
259,202,19040,1,2,0:0:0:0:
259,194,19129,1,0,0:0:0:0:
255,197,19218,1,0,0:0:0:0:
255,197,19308,1,2,0:0:0:0:
259,194,19397,1,0,0:0:0:0:
259,203,19486,1,2,0:0:0:0:
259,203,19575,1,2,0:0:0:0:
259,203,19665,1,0,0:0:0:0:
259,202,19754,1,2,0:0:0:0:
256,198,19844,1,0,0:0:0:0:
261,190,20558,5,0,0:0:0:0:
261,190,20647,1,0,0:0:0:0:
261,190,20737,1,0,0:0:0:0:
261,190,20826,1,0,0:0:0:0:
261,190,20915,1,2,0:0:0:0:
261,190,20975,1,2,0:0:0:0:
266,189,21034,1,2,0:0:0:0:
266,189,21094,1,2,0:0:0:0:
266,189,21153,1,2,0:0:0:0:
266,189,21213,1,2,0:0:0:0:
261,190,21272,1,0,0:0:0:0:
266,191,21451,1,0,0:0:0:0:
261,190,21629,1,2,0:0:0:0:
261,190,21808,1,0,0:0:0:0:
261,190,21987,1,2,0:0:0:0:
257,190,22165,1,0,0:0:0:0:
266,187,22254,1,2,0:0:0:0:
257,190,22344,1,2,0:0:0:0:
261,190,22522,1,0,0:0:0:0:
261,190,22701,1,2,0:0:0:0:
266,187,22879,1,0,0:0:0:0:
266,187,22969,1,0,0:0:0:0:
266,187,23058,1,0,0:0:0:0:
266,187,23237,1,2,0:0:0:0:
256,189,23415,1,0,0:0:0:0:
253,189,23504,1,0,0:0:0:0:
253,189,23594,1,2,0:0:0:0:
250,189,23683,1,0,0:0:0:0:
249,189,23772,1,2,0:0:0:0:
249,189,23862,1,2,0:0:0:0:
248,189,23951,1,0,0:0:0:0:
248,189,24040,1,2,0:0:0:0:
248,189,24129,1,0,0:0:0:0:
248,193,24308,1,0,0:0:0:0:
248,193,24487,1,2,0:0:0:0:
250,189,24665,1,0,0:0:0:0:
249,189,24844,1,2,0:0:0:0:
248,189,24933,1,2,0:0:0:0:
248,189,25022,1,0,0:0:0:0:
248,189,25112,1,0,0:0:0:0:
248,193,25201,1,2,0:0:0:0:
248,193,25379,1,0,0:0:0:0:
250,189,25558,1,2,0:0:0:0:
249,189,25737,1,0,0:0:0:0:
249,189,25826,1,0,0:0:0:0:
248,189,25915,1,2,0:0:0:0:
248,189,26004,1,2,0:0:0:0:
248,189,26094,1,2,0:0:0:0:
248,193,26272,1,0,0:0:0:0:
248,193,26362,1,0,0:0:0:0:
250,189,26451,1,2,0:0:0:0:
252,194,26629,1,0,0:0:0:0:
252,194,26719,1,2,0:0:0:0:
253,194,26808,1,2,0:0:0:0:
237,188,26987,1,0,0:0:0:0:
237,188,27106,1,0,0:0:0:0:
237,188,27225,1,2,0:0:0:0:
239,188,27344,1,0,0:0:0:0:
239,188,27463,1,2,0:0:0:0:
239,188,27582,1,2,0:0:0:0:
237,188,27701,1,0,0:0:0:0:
237,188,27820,1,0,0:0:0:0:
237,188,27939,1,2,0:0:0:0:
239,188,28058,1,0,0:0:0:0:
239,188,28177,1,2,0:0:0:0:
239,188,28296,1,2,0:0:0:0:
237,188,28415,1,0,0:0:0:0:
237,188,28534,1,0,0:0:0:0:
237,188,28653,1,0,0:0:0:0:
239,188,28772,1,2,0:0:0:0:
239,188,28891,1,2,0:0:0:0:
239,188,29010,1,2,0:0:0:0:
237,188,29129,1,0,0:0:0:0:
237,188,29308,1,0,0:0:0:0:
237,188,29487,1,2,0:0:0:0:
237,188,29844,1,0,0:0:0:0:
237,188,29963,1,0,0:0:0:0:
237,188,30082,1,2,0:0:0:0:
239,188,30201,1,0,0:0:0:0:
239,188,30320,1,2,0:0:0:0:
239,188,30439,1,2,0:0:0:0:
237,188,30558,1,0,0:0:0:0:
237,188,30677,1,0,0:0:0:0:
237,188,30796,1,2,0:0:0:0:
239,188,30915,1,0,0:0:0:0:
239,188,31034,1,2,0:0:0:0:
239,188,31153,1,2,0:0:0:0:
237,188,31272,1,0,0:0:0:0:
237,188,31391,1,0,0:0:0:0:
237,188,31510,1,2,0:0:0:0:
239,188,31629,1,0,0:0:0:0:
239,188,31748,1,2,0:0:0:0:
239,188,31867,1,2,0:0:0:0:
237,188,31986,1,0,0:0:0:0:
237,188,32165,1,2,0:0:0:0:
237,188,32254,1,2,0:0:0:0:
239,188,32343,1,2,0:0:0:0:
239,188,32403,1,2,0:0:0:0:
239,188,32462,1,2,0:0:0:0:
239,188,32522,1,2,0:0:0:0:
239,188,32581,1,2,0:0:0:0:
239,188,32641,1,2,0:0:0:0:
246,194,32701,1,0,0:0:0:0:
256,177,33058,1,0,0:0:0:0:
256,177,33237,1,2,0:0:0:0:
256,177,33415,1,0,0:0:0:0:
262,176,33772,1,0,0:0:0:0:
262,176,33951,1,2,0:0:0:0:
261,176,34129,1,0,0:0:0:0:
271,177,34487,1,0,0:0:0:0:
271,177,34576,1,0,0:0:0:0:
270,177,34665,1,2,0:0:0:0:
267,177,34754,1,2,0:0:0:0:
262,176,34844,1,0,0:0:0:0:
282,176,35022,1,0,0:0:0:0:
282,176,35201,1,2,0:0:0:0:
282,176,35379,1,2,0:0:0:0:
238,191,35558,1,0,0:0:0:0:
238,191,35677,1,0,0:0:0:0:
238,191,35796,1,0,0:0:0:0:
238,191,35915,1,2,0:0:0:0:
238,191,36034,1,2,0:0:0:0:
242,191,36153,1,2,0:0:0:0:
238,191,36272,1,0,0:0:0:0:
238,191,36391,1,0,0:0:0:0:
238,191,36510,1,2,0:0:0:0:
238,191,36629,1,2,0:0:0:0:
238,191,36749,1,0,0:0:0:0:
242,191,36867,1,2,0:0:0:0:
238,191,36987,1,0,0:0:0:0:
238,191,37106,1,0,0:0:0:0:
238,191,37225,1,0,0:0:0:0:
238,191,37344,1,2,0:0:0:0:
238,191,37463,1,2,0:0:0:0:
242,191,37582,1,2,0:0:0:0:
231,197,37701,1,0,0:0:0:0:
226,197,37879,1,6,0:0:0:0:
246,194,38415,1,6,0:0:0:0:
256,177,38772,1,2,0:0:0:0:
256,177,38951,1,0,0:0:0:0:
256,177,39129,1,2,0:0:0:0:
262,176,39486,1,2,0:0:0:0:
262,176,39665,1,0,0:0:0:0:
261,176,39843,1,2,0:0:0:0:
271,177,40201,1,2,0:0:0:0:
271,177,40290,1,2,0:0:0:0:
270,177,40379,1,0,0:0:0:0:
267,177,40468,1,0,0:0:0:0:
262,176,40558,1,2,0:0:0:0:
282,176,40736,1,2,0:0:0:0:
282,176,40915,1,0,0:0:0:0:
282,176,41093,1,2,0:0:0:0:
242,191,41272,1,2,0:0:0:0:
238,191,41391,1,2,0:0:0:0:
238,191,41510,1,2,0:0:0:0:
238,191,41629,1,0,0:0:0:0:
238,191,41748,1,0,0:0:0:0:
238,191,41867,1,0,0:0:0:0:
238,191,41986,1,2,0:0:0:0:
238,191,42105,1,2,0:0:0:0:
238,191,42224,1,0,0:0:0:0:
238,191,42343,1,0,0:0:0:0:
242,191,42463,1,2,0:0:0:0:
238,191,42581,1,0,0:0:0:0:
242,191,42701,1,2,0:0:0:0:
238,191,42820,1,2,0:0:0:0:
238,191,42939,1,2,0:0:0:0:
238,191,43058,1,0,0:0:0:0:
238,191,43177,1,0,0:0:0:0:
238,191,43296,1,0,0:0:0:0:
231,197,43415,1,2,0:0:0:0:
226,197,43593,1,6,0:0:0:0:
235,206,43772,1,0,0:0:0:0:
236,205,43862,1,0,0:0:0:0:
236,205,43951,1,0,0:0:0:0:
242,199,44129,1,6,0:0:0:0:
242,199,44308,1,0,0:0:0:0:
240,193,44397,1,0,0:0:0:0:
242,199,44487,1,2,0:0:0:0:
250,193,44576,1,0,0:0:0:0:
240,199,44665,1,2,0:0:0:0:
240,193,44754,1,2,0:0:0:0:
242,199,44844,1,0,0:0:0:0:
242,199,45023,1,2,0:0:0:0:
242,193,45112,1,2,0:0:0:0:
242,199,45202,1,0,0:0:0:0:
240,199,45380,1,0,0:0:0:0:
242,193,45469,1,0,0:0:0:0:
242,199,45558,1,2,0:0:0:0:
242,199,45737,1,0,0:0:0:0:
237,201,45826,1,0,0:0:0:0:
242,199,45916,1,2,0:0:0:0:
237,201,46004,1,2,0:0:0:0:
240,199,46094,1,2,0:0:0:0:
242,199,46273,1,0,0:0:0:0:
248,199,46362,1,0,0:0:0:0:
242,199,46452,1,0,0:0:0:0:
242,199,46540,1,0,0:0:0:0:
242,199,46631,1,2,0:0:0:0:
232,198,46719,1,2,0:0:0:0:
240,199,46809,1,0,0:0:0:0:
242,199,46987,1,6,0:0:0:0:
242,199,47166,1,0,0:0:0:0:
243,204,47254,1,0,0:0:0:0:
242,199,47345,1,2,0:0:0:0:
240,199,47523,1,0,0:0:0:0:
254,208,47612,1,0,0:0:0:0:
242,199,47702,1,2,0:0:0:0:
252,207,47790,1,2,0:0:0:0:
242,199,47881,1,0,0:0:0:0:
252,207,47969,1,0,0:0:0:0:
242,199,48060,1,2,0:0:0:0:
240,199,48238,1,0,0:0:0:0:
242,199,48416,1,2,0:0:0:0:
242,199,48595,1,0,0:0:0:0:
234,204,48683,1,0,0:0:0:0:
242,199,48774,1,2,0:0:0:0:
236,204,48862,1,0,0:0:0:0:
240,199,48952,1,2,0:0:0:0:
236,204,49040,1,2,0:0:0:0:
242,199,49131,1,0,0:0:0:0:
242,199,49308,1,2,0:0:0:0:
242,199,49489,1,0,0:0:0:0:
240,199,49667,1,0,0:0:0:0:
248,199,49844,1,2,0:0:0:0:
251,202,50022,1,0,0:0:0:0:
254,202,50112,1,0,0:0:0:0:
253,202,50201,1,2,0:0:0:0:
251,202,50379,1,0,0:0:0:0:
254,202,50469,1,2,0:0:0:0:
253,202,50558,1,2,0:0:0:0:
251,202,50737,1,0,0:0:0:0:
254,202,50827,1,0,0:0:0:0:
253,202,50916,1,2,0:0:0:0:
221,201,51094,1,0,0:0:0:0:
248,196,51272,1,6,0:0:0:0:
230,186,51451,1,6,0:0:0:0:
248,196,51629,1,6,0:0:0:0:
233,187,51808,1,6,0:0:0:0:
248,206,52344,1,4,0:0:0:0:
249,195,52701,1,0,0:0:0:0:
249,195,52790,1,0,0:0:0:0:
249,195,52879,1,2,0:0:0:0:
249,195,52969,1,0,0:0:0:0:
256,195,53058,1,2,0:0:0:0:
263,193,53147,1,2,0:0:0:0:
263,193,53237,1,0,0:0:0:0:
259,193,53326,1,2,0:0:0:0:
259,199,53415,1,0,0:0:0:0:
261,199,53594,1,0,0:0:0:0:
261,199,53683,1,0,0:0:0:0:
262,198,53772,1,2,0:0:0:0:
262,198,53862,1,2,0:0:0:0:
262,198,53951,1,0,0:0:0:0:
267,195,54040,1,2,0:0:0:0:
269,195,54129,1,0,0:0:0:0:
262,208,54308,1,0,0:0:0:0:
262,208,54368,1,0,0:0:0:0:
268,208,54427,1,0,0:0:0:0:
278,191,54487,1,2,0:0:0:0:
269,208,54665,1,0,0:0:0:0:
269,208,54725,1,0,0:0:0:0:
271,207,54784,1,0,0:0:0:0:
271,207,54844,1,2,0:0:0:0:
272,204,55022,1,0,0:0:0:0:
272,204,55082,1,0,0:0:0:0:
272,204,55141,1,0,0:0:0:0:
281,211,55201,1,2,0:0:0:0:
276,209,55290,1,2,0:0:0:0:
275,206,55379,1,0,0:0:0:0:
281,216,55439,1,0,0:0:0:0:
281,216,55499,1,0,0:0:0:0:
276,214,55558,1,2,0:0:0:0:
270,225,55647,1,0,0:0:0:0:
262,223,55737,1,0,0:0:0:0:
262,220,55826,1,2,0:0:0:0:
263,219,55915,1,2,0:0:0:0:
263,219,56004,1,0,0:0:0:0:
256,237,56094,1,0,0:0:0:0:
256,237,56183,1,2,0:0:0:0:
239,247,56272,1,2,0:0:0:0:
274,242,56451,1,0,0:0:0:0:
269,256,56510,1,0,0:0:0:0:
266,255,56570,1,2,0:0:0:0:
266,247,56629,1,0,0:0:0:0:
266,247,56808,1,2,0:0:0:0:
266,245,56868,1,2,0:0:0:0:
267,243,56927,1,2,0:0:0:0:
267,243,56987,1,0,0:0:0:0:
238,224,57076,1,0,0:0:0:0:
240,225,57165,1,0,0:0:0:0:
236,218,57344,1,2,0:0:0:0:
236,218,57433,1,2,0:0:0:0:
236,215,57522,1,0,0:0:0:0:
241,215,57701,1,2,0:0:0:0:
241,215,57790,1,2,0:0:0:0:
243,215,57879,1,0,0:0:0:0:
244,215,57969,1,0,0:0:0:0:
240,225,58058,1,2,0:0:0:0:
246,222,58118,1,2,0:0:0:0:
246,222,58177,1,2,0:0:0:0:
246,222,58237,1,2,0:0:0:0:
250,221,58296,1,2,0:0:0:0:
250,221,58356,1,2,0:0:0:0:
249,195,58415,1,0,0:0:0:0:
249,195,58504,1,0,0:0:0:0:
249,195,58593,1,2,0:0:0:0:
249,195,58683,1,0,0:0:0:0:
256,195,58772,1,2,0:0:0:0:
263,193,58861,1,2,0:0:0:0:
263,193,58951,1,0,0:0:0:0:
259,193,59040,1,2,0:0:0:0:
259,199,59129,1,0,0:0:0:0:
261,199,59308,1,0,0:0:0:0:
261,199,59397,1,0,0:0:0:0:
262,198,59486,1,2,0:0:0:0:
262,198,59576,1,2,0:0:0:0:
262,198,59665,1,0,0:0:0:0:
267,195,59754,1,2,0:0:0:0:
269,195,59843,1,0,0:0:0:0:
262,208,60022,1,0,0:0:0:0:
262,208,60082,1,0,0:0:0:0:
268,208,60141,1,0,0:0:0:0:
278,191,60201,1,2,0:0:0:0:
269,208,60379,1,0,0:0:0:0:
269,208,60439,1,0,0:0:0:0:
271,207,60498,1,0,0:0:0:0:
271,207,60558,1,2,0:0:0:0:
272,204,60736,1,0,0:0:0:0:
272,204,60796,1,0,0:0:0:0:
272,204,60855,1,0,0:0:0:0:
281,211,60915,1,2,0:0:0:0:
276,209,61004,1,2,0:0:0:0:
275,206,61093,1,0,0:0:0:0:
281,216,61153,1,0,0:0:0:0:
281,216,61213,1,0,0:0:0:0:
276,214,61272,1,2,0:0:0:0:
262,222,61451,1,0,0:0:0:0:
265,222,61629,1,2,0:0:0:0:
265,222,61808,1,0,0:0:0:0:
272,237,61987,1,2,0:0:0:0:
271,237,62076,1,0,0:0:0:0:
267,237,62165,1,2,0:0:0:0:
267,232,62254,1,0,0:0:0:0:
266,232,62344,1,2,0:0:0:0:
266,232,62433,1,0,0:0:0:0:
265,222,62522,1,2,0:0:0:0:
257,225,62701,1,0,0:0:0:0:
259,238,62790,1,0,0:0:0:0:
259,238,62879,1,0,0:0:0:0:
259,238,62969,1,0,0:0:0:0:
257,225,63058,1,0,0:0:0:0:
259,238,63147,1,0,0:0:0:0:
259,238,63236,1,0,0:0:0:0:
259,238,63326,1,0,0:0:0:0:
257,225,63415,1,0,0:0:0:0:
259,238,63504,1,0,0:0:0:0:
259,238,63593,1,0,0:0:0:0:
259,238,63683,1,0,0:0:0:0:
257,225,63772,1,2,0:0:0:0:
273,248,63832,1,2,0:0:0:0:
259,238,63891,1,2,0:0:0:0:
259,234,63951,1,2,0:0:0:0:
259,234,64010,1,2,0:0:0:0:
259,238,64070,1,2,0:0:0:0:
259,194,64129,1,0,0:0:0:0:
255,197,64218,1,0,0:0:0:0:
255,197,64308,1,2,0:0:0:0:
259,194,64397,1,0,0:0:0:0:
259,203,64486,1,2,0:0:0:0:
259,203,64575,1,2,0:0:0:0:
259,203,64665,1,0,0:0:0:0:
259,202,64754,1,2,0:0:0:0:
259,194,64843,1,0,0:0:0:0:
255,197,64932,1,0,0:0:0:0:
255,197,65022,1,0,0:0:0:0:
259,194,65111,1,0,0:0:0:0:
259,203,65200,1,2,0:0:0:0:
259,203,65289,1,2,0:0:0:0:
259,203,65379,1,2,0:0:0:0:
259,202,65468,1,2,0:0:0:0:
259,194,65558,1,0,0:0:0:0:
255,197,65647,1,0,0:0:0:0:
255,197,65737,1,2,0:0:0:0:
259,194,65826,1,0,0:0:0:0:
259,203,65915,1,2,0:0:0:0:
259,203,66004,1,2,0:0:0:0:
259,203,66094,1,0,0:0:0:0:
259,202,66183,1,2,0:0:0:0:
259,194,66272,1,0,0:0:0:0:
255,197,66361,1,0,0:0:0:0:
255,197,66451,1,0,0:0:0:0:
259,194,66540,1,0,0:0:0:0:
259,203,66629,1,2,0:0:0:0:
259,203,66718,1,2,0:0:0:0:
259,203,66808,1,2,0:0:0:0:
259,202,66897,1,2,0:0:0:0:
259,194,66986,1,0,0:0:0:0:
255,197,67075,1,0,0:0:0:0:
255,197,67165,1,2,0:0:0:0:
259,194,67254,1,0,0:0:0:0:
259,203,67343,1,2,0:0:0:0:
259,203,67432,1,2,0:0:0:0:
259,203,67522,1,0,0:0:0:0:
259,202,67611,1,2,0:0:0:0:
259,194,67700,1,0,0:0:0:0:
255,197,67789,1,0,0:0:0:0:
255,197,67879,1,2,0:0:0:0:
259,194,67968,1,0,0:0:0:0:
259,203,68057,1,2,0:0:0:0:
259,203,68146,1,2,0:0:0:0:
259,203,68236,1,0,0:0:0:0:
259,202,68325,1,0,0:0:0:0:
256,198,68415,1,2,0:0:0:0:
261,212,69844,5,0,0:0:0:0:
261,212,70201,1,2,0:0:0:0:
261,212,70558,1,0,0:0:0:0:
261,212,70915,1,2,0:0:0:0:
261,212,71272,1,0,0:0:0:0:
261,212,71629,1,2,0:0:0:0:
261,212,71808,1,2,0:0:0:0:
261,212,71987,1,0,0:0:0:0:
261,212,72344,1,2,0:0:0:0:
261,212,72701,1,2,0:0:0:0:
261,212,72879,1,0,0:0:0:0:
261,212,73058,1,2,0:0:0:0:
261,212,73237,1,2,0:0:0:0:
261,212,73415,1,0,0:0:0:0:
261,212,73594,1,2,0:0:0:0:
261,212,73683,1,2,0:0:0:0:
261,212,73772,1,0,0:0:0:0:
261,212,73951,1,2,0:0:0:0:
261,212,74129,1,4,0:0:0:0:
261,212,74308,1,6,0:0:0:0:
261,212,74487,1,4,0:0:0:0:
261,212,74665,1,6,0:0:0:0:
263,225,74844,1,4,0:0:0:0:
261,212,75558,1,0,0:0:0:0:
261,212,75915,1,2,0:0:0:0:
261,212,76272,1,0,0:0:0:0:
261,212,76629,1,2,0:0:0:0:
261,212,76986,1,0,0:0:0:0:
261,212,77343,1,2,0:0:0:0:
261,212,77522,1,2,0:0:0:0:
261,212,77701,1,0,0:0:0:0:
261,212,78058,1,2,0:0:0:0:
261,212,78415,1,2,0:0:0:0:
261,212,78593,1,0,0:0:0:0:
261,212,78772,1,2,0:0:0:0:
261,212,78951,1,2,0:0:0:0:
261,212,79129,1,0,0:0:0:0:
261,212,79308,1,2,0:0:0:0:
261,212,79397,1,2,0:0:0:0:
261,212,79486,1,0,0:0:0:0:
261,212,79665,1,2,0:0:0:0:
267,234,79844,1,0,0:0:0:0:
267,234,79933,1,0,0:0:0:0:
267,235,80022,1,0,0:0:0:0:
268,235,80112,1,0,0:0:0:0:
271,235,80201,1,0,0:0:0:0:
276,236,80290,1,0,0:0:0:0:
276,236,80379,1,0,0:0:0:0:
276,236,80469,1,0,0:0:0:0:
276,236,80558,1,0,0:0:0:0:
276,236,80647,1,0,0:0:0:0:
276,236,80737,1,0,0:0:0:0:
276,236,80826,1,0,0:0:0:0:
272,242,80915,1,2,0:0:0:0:
272,242,80975,1,2,0:0:0:0:
272,242,81034,1,2,0:0:0:0:
272,242,81094,1,2,0:0:0:0:
275,242,81153,1,2,0:0:0:0:
282,239,81213,1,2,0:0:0:0:
266,241,81272,1,0,0:0:0:0:
226,217,81808,1,2,0:0:0:0:
226,217,81868,1,2,0:0:0:0:
226,217,81927,1,2,0:0:0:0:
226,217,81987,1,2,0:0:0:0:
225,209,82522,1,2,0:0:0:0:
225,209,82582,1,2,0:0:0:0:
225,209,82641,1,2,0:0:0:0:
225,206,82701,1,2,0:0:0:0:
223,199,83237,1,0,0:0:0:0:
223,199,83296,1,0,0:0:0:0:
223,199,83356,1,0,0:0:0:0:
223,199,83415,1,2,0:0:0:0:
223,199,83475,1,2,0:0:0:0:
223,199,83534,1,0,0:0:0:0:
223,199,83594,1,2,0:0:0:0:
223,199,83653,1,2,0:0:0:0:
223,199,83713,1,0,0:0:0:0:
223,199,83772,1,2,0:0:0:0:
223,199,83832,1,2,0:0:0:0:
223,199,83891,1,2,0:0:0:0:
223,199,83951,1,2,0:0:0:0:
223,199,84010,1,2,0:0:0:0:
223,199,84070,1,2,0:0:0:0:
223,199,84129,1,0,0:0:0:0:
226,217,84665,1,2,0:0:0:0:
226,217,84725,1,2,0:0:0:0:
226,217,84784,1,2,0:0:0:0:
226,217,84844,1,2,0:0:0:0:
225,209,85379,1,2,0:0:0:0:
225,209,85439,1,2,0:0:0:0:
225,209,85498,1,2,0:0:0:0:
225,206,85558,1,2,0:0:0:0:
223,199,86094,1,0,0:0:0:0:
223,199,86153,1,0,0:0:0:0:
223,199,86213,1,0,0:0:0:0:
223,199,86272,1,2,0:0:0:0:
223,199,86332,1,2,0:0:0:0:
223,199,86391,1,0,0:0:0:0:
223,199,86451,1,2,0:0:0:0:
223,199,86510,1,2,0:0:0:0:
223,199,86570,1,0,0:0:0:0:
223,199,86629,1,2,0:0:0:0:
223,199,86689,1,2,0:0:0:0:
223,199,86748,1,2,0:0:0:0:
223,199,86808,1,0,0:0:0:0:
223,199,86867,1,2,0:0:0:0:
223,199,86927,1,2,0:0:0:0:
223,199,86986,1,0,0:0:0:0:
215,203,87076,1,2,0:0:0:0:
211,203,87165,1,0,0:0:0:0:
211,203,87254,1,0,0:0:0:0:
211,203,87344,1,2,0:0:0:0:
212,203,87433,1,0,0:0:0:0:
226,217,87522,1,2,0:0:0:0:
226,217,87582,1,2,0:0:0:0:
226,217,87641,1,2,0:0:0:0:
226,217,87701,1,0,0:0:0:0:
231,215,87790,1,0,0:0:0:0:
226,215,87879,1,2,0:0:0:0:
222,215,87969,1,0,0:0:0:0:
221,213,88058,1,2,0:0:0:0:
224,211,88147,1,0,0:0:0:0:
225,209,88236,1,2,0:0:0:0:
225,209,88296,1,2,0:0:0:0:
225,209,88355,1,2,0:0:0:0:
225,206,88415,1,0,0:0:0:0:
235,195,88504,1,0,0:0:0:0:
224,196,88594,1,2,0:0:0:0:
223,196,88683,1,0,0:0:0:0:
223,193,88772,1,2,0:0:0:0:
223,193,88862,1,2,0:0:0:0:
223,199,88951,1,0,0:0:0:0:
223,199,89010,1,0,0:0:0:0:
223,199,89070,1,0,0:0:0:0:
223,199,89129,1,2,0:0:0:0:
223,199,89189,1,2,0:0:0:0:
223,199,89248,1,0,0:0:0:0:
223,199,89308,1,2,0:0:0:0:
223,199,89367,1,2,0:0:0:0:
223,199,89427,1,0,0:0:0:0:
223,199,89486,1,2,0:0:0:0:
223,199,89546,1,2,0:0:0:0:
223,199,89605,1,2,0:0:0:0:
223,199,89665,1,2,0:0:0:0:
223,199,89724,1,2,0:0:0:0:
223,199,89784,1,2,0:0:0:0:
223,199,89843,1,0,0:0:0:0:
246,201,91362,1,2,0:0:0:0:
246,201,91451,1,2,0:0:0:0:
239,201,91540,1,2,0:0:0:0:
237,201,91719,1,2,0:0:0:0:
237,199,91808,1,2,0:0:0:0:
237,203,91897,1,2,0:0:0:0:
237,203,92076,1,2,0:0:0:0:
237,203,92165,1,2,0:0:0:0:
239,201,92254,1,2,0:0:0:0:
237,199,92522,1,2,0:0:0:0:
231,202,92612,1,2,0:0:0:0:
232,200,92701,1,0,0:0:0:0:
237,203,92879,1,0,0:0:0:0:
235,206,93058,1,2,0:0:0:0:
235,206,93237,1,0,0:0:0:0:
235,206,93415,1,2,0:0:0:0:
233,206,93594,1,2,0:0:0:0:
227,208,93772,1,0,0:0:0:0:
226,210,93951,1,2,0:0:0:0:
232,200,94129,1,0,0:0:0:0:
237,203,94307,1,0,0:0:0:0:
235,206,94486,1,2,0:0:0:0:
235,206,94665,1,0,0:0:0:0:
235,206,94843,1,2,0:0:0:0:
240,225,94933,1,2,0:0:0:0:
233,206,95022,1,0,0:0:0:0:
241,221,95112,1,2,0:0:0:0:
227,208,95200,1,0,0:0:0:0:
240,221,95290,1,0,0:0:0:0:
226,210,95379,1,2,0:0:0:0:
230,217,95469,1,0,0:0:0:0:
235,206,95558,1,2,0:0:0:0:
233,206,95737,1,2,0:0:0:0:
227,208,95915,1,0,0:0:0:0:
226,210,96094,1,2,0:0:0:0:
232,200,96272,1,0,0:0:0:0:
237,203,96450,1,0,0:0:0:0:
235,206,96629,1,2,0:0:0:0:
235,206,96808,1,0,0:0:0:0:
235,206,96987,1,2,0:0:0:0:
233,206,97166,1,2,0:0:0:0:
227,208,97344,1,0,0:0:0:0:
226,210,97523,1,2,0:0:0:0:
232,200,97701,1,0,0:0:0:0:
233,206,97790,1,0,0:0:0:0:
237,203,97879,1,2,0:0:0:0:
235,206,98058,1,2,0:0:0:0:
231,203,98147,1,2,0:0:0:0:
226,203,98326,1,2,0:0:0:0:
232,200,98415,1,0,0:0:0:0:
237,203,98593,1,0,0:0:0:0:
235,206,98772,1,2,0:0:0:0:
235,206,98951,1,0,0:0:0:0:
235,206,99129,1,2,0:0:0:0:
233,206,99308,1,2,0:0:0:0:
227,208,99486,1,0,0:0:0:0:
226,210,99665,1,2,0:0:0:0:
232,200,99843,1,0,0:0:0:0:
237,203,100021,1,0,0:0:0:0:
235,206,100200,1,2,0:0:0:0:
235,206,100379,1,0,0:0:0:0:
235,206,100557,1,2,0:0:0:0:
240,225,100647,1,2,0:0:0:0:
233,206,100736,1,0,0:0:0:0:
241,221,100826,1,2,0:0:0:0:
227,208,100914,1,0,0:0:0:0:
240,221,101004,1,0,0:0:0:0:
226,210,101093,1,2,0:0:0:0:
230,217,101183,1,0,0:0:0:0:
235,206,101272,1,2,0:0:0:0:
233,206,101451,1,2,0:0:0:0:
227,208,101629,1,0,0:0:0:0:
226,210,101808,1,2,0:0:0:0:
232,200,101986,1,0,0:0:0:0:
237,203,102164,1,0,0:0:0:0:
235,206,102343,1,2,0:0:0:0:
235,206,102522,1,0,0:0:0:0:
235,206,102701,1,2,0:0:0:0:
233,206,102880,1,2,0:0:0:0:
227,208,103058,1,0,0:0:0:0:
226,210,103237,1,2,0:0:0:0:
232,200,103415,1,0,0:0:0:0:
233,206,103504,1,0,0:0:0:0:
237,203,103593,1,2,0:0:0:0:
231,203,103683,1,0,0:0:0:0:
235,206,103772,1,2,0:0:0:0:
231,203,103861,1,2,0:0:0:0:
235,206,103951,1,0,0:0:0:0:
226,203,104040,1,2,0:0:0:0:
228,209,104129,1,0,0:0:0:0:
260,196,104308,1,2,0:0:0:0:
260,196,104397,1,2,0:0:0:0:
260,196,104487,1,2,0:0:0:0:
260,196,104665,1,0,0:0:0:0:
260,196,104754,1,0,0:0:0:0:
260,196,104844,1,0,0:0:0:0:
263,204,105022,1,2,0:0:0:0:
261,206,105112,1,2,0:0:0:0:
259,208,105201,1,0,0:0:0:0:
259,208,105290,1,0,0:0:0:0:
260,207,105379,1,2,0:0:0:0:
279,217,105558,1,0,0:0:0:0:
269,216,105647,1,0,0:0:0:0:
268,216,105737,1,2,0:0:0:0:
267,216,105826,1,0,0:0:0:0:
266,215,105915,1,2,0:0:0:0:
267,213,106004,1,2,0:0:0:0:
267,213,106094,1,0,0:0:0:0:
267,213,106183,1,2,0:0:0:0:
269,214,106272,1,2,0:0:0:0:
295,216,106451,1,0,0:0:0:0:
294,216,106540,1,0,0:0:0:0:
288,217,106629,1,2,0:0:0:0:
288,217,106719,1,0,0:0:0:0:
280,217,106808,1,0,0:0:0:0:
256,208,106987,1,6,0:0:0:0:
243,215,107165,1,0,0:0:0:0:
251,221,107254,1,0,0:0:0:0:
249,222,107344,1,0,0:0:0:0:
265,220,107522,1,2,0:0:0:0:
260,220,107612,1,2,0:0:0:0:
256,220,107701,1,2,0:0:0:0:
243,215,107879,1,0,0:0:0:0:
236,217,107969,1,0,0:0:0:0:
236,217,108058,1,2,0:0:0:0:
236,217,108147,1,2,0:0:0:0:
234,217,108237,1,0,0:0:0:0:
233,216,108415,1,2,0:0:0:0:
236,247,108460,1,2,0:0:0:0:
236,247,108594,1,2,0:0:0:0:
236,247,108638,1,2,0:0:0:0:
236,247,108772,1,2,0:0:0:0:
230,248,108817,1,2,0:0:0:0:
236,247,108951,1,2,0:0:0:0:
225,248,108996,1,2,0:0:0:0:
231,243,109129,1,2,0:0:0:0:
225,248,109174,1,2,0:0:0:0:
244,219,109308,1,0,0:0:0:0:
244,222,109487,1,0,0:0:0:0:
242,223,109665,1,2,0:0:0:0:
245,211,109844,1,0,0:0:0:0:
244,219,109933,1,0,0:0:0:0:
238,213,110022,1,2,0:0:0:0:
235,213,110112,1,0,0:0:0:0:
235,213,110201,1,2,0:0:0:0:
233,213,110290,1,2,0:0:0:0:
232,213,110379,1,0,0:0:0:0:
232,213,110469,1,2,0:0:0:0:
245,211,110558,1,0,0:0:0:0:
244,219,110647,1,0,0:0:0:0:
238,213,110736,1,2,0:0:0:0:
235,213,110826,1,0,0:0:0:0:
235,213,110915,1,2,0:0:0:0:
233,213,111004,1,2,0:0:0:0:
232,213,111093,1,0,0:0:0:0:
245,211,111272,1,6,0:0:0:0:
238,213,111451,1,6,0:0:0:0:
232,208,111629,1,6,0:0:0:0:
232,208,111808,1,6,0:0:0:0:
232,208,112344,1,4,0:0:0:0:
249,195,112701,1,0,0:0:0:0:
249,195,112790,1,0,0:0:0:0:
249,195,112879,1,2,0:0:0:0:
249,195,112969,1,0,0:0:0:0:
256,195,113058,1,2,0:0:0:0:
263,193,113147,1,2,0:0:0:0:
263,193,113237,1,0,0:0:0:0:
259,193,113326,1,2,0:0:0:0:
259,199,113415,1,0,0:0:0:0:
261,199,113594,1,0,0:0:0:0:
261,199,113683,1,0,0:0:0:0:
262,198,113772,1,2,0:0:0:0:
262,198,113862,1,2,0:0:0:0:
262,198,113951,1,0,0:0:0:0:
267,195,114040,1,2,0:0:0:0:
269,195,114129,1,0,0:0:0:0:
262,208,114308,1,0,0:0:0:0:
262,208,114368,1,0,0:0:0:0:
268,208,114427,1,0,0:0:0:0:
278,191,114487,1,2,0:0:0:0:
269,208,114665,1,0,0:0:0:0:
269,208,114725,1,0,0:0:0:0:
271,207,114784,1,0,0:0:0:0:
271,207,114844,1,2,0:0:0:0:
272,204,115022,1,0,0:0:0:0:
272,204,115082,1,0,0:0:0:0:
272,204,115141,1,0,0:0:0:0:
281,211,115201,1,2,0:0:0:0:
276,209,115290,1,2,0:0:0:0:
275,206,115379,1,0,0:0:0:0:
281,216,115439,1,0,0:0:0:0:
281,216,115499,1,0,0:0:0:0:
276,214,115558,1,2,0:0:0:0:
270,225,115647,1,0,0:0:0:0:
262,223,115737,1,0,0:0:0:0:
262,220,115826,1,2,0:0:0:0:
263,219,115915,1,2,0:0:0:0:
263,219,116004,1,0,0:0:0:0:
256,237,116094,1,0,0:0:0:0:
256,237,116183,1,2,0:0:0:0:
239,247,116272,1,2,0:0:0:0:
274,242,116451,1,0,0:0:0:0:
269,256,116510,1,0,0:0:0:0:
266,255,116570,1,2,0:0:0:0:
266,247,116629,1,0,0:0:0:0:
266,247,116808,1,2,0:0:0:0:
266,245,116868,1,2,0:0:0:0:
267,243,116927,1,2,0:0:0:0:
267,243,116987,1,0,0:0:0:0:
238,224,117076,1,0,0:0:0:0:
240,225,117165,1,0,0:0:0:0:
236,218,117344,1,2,0:0:0:0:
236,218,117433,1,2,0:0:0:0:
236,215,117522,1,0,0:0:0:0:
241,215,117701,1,2,0:0:0:0:
241,215,117790,1,2,0:0:0:0:
243,215,117879,1,0,0:0:0:0:
244,215,117969,1,0,0:0:0:0:
240,225,118058,1,2,0:0:0:0:
246,222,118118,1,2,0:0:0:0:
246,222,118177,1,2,0:0:0:0:
246,222,118237,1,2,0:0:0:0:
250,221,118296,1,2,0:0:0:0:
250,221,118356,1,2,0:0:0:0:
249,195,118415,1,0,0:0:0:0:
249,195,118504,1,0,0:0:0:0:
249,195,118593,1,2,0:0:0:0:
249,195,118683,1,0,0:0:0:0:
256,195,118772,1,2,0:0:0:0:
263,193,118861,1,2,0:0:0:0:
263,193,118951,1,0,0:0:0:0:
259,193,119040,1,2,0:0:0:0:
259,199,119129,1,0,0:0:0:0:
261,199,119308,1,0,0:0:0:0:
261,199,119397,1,0,0:0:0:0:
262,198,119486,1,2,0:0:0:0:
262,198,119576,1,2,0:0:0:0:
262,198,119665,1,0,0:0:0:0:
267,195,119754,1,2,0:0:0:0:
269,195,119843,1,0,0:0:0:0:
262,208,120022,1,0,0:0:0:0:
262,208,120082,1,0,0:0:0:0:
268,208,120141,1,0,0:0:0:0:
278,191,120201,1,2,0:0:0:0:
269,208,120379,1,0,0:0:0:0:
269,208,120439,1,0,0:0:0:0:
271,207,120498,1,0,0:0:0:0:
271,207,120558,1,2,0:0:0:0:
272,204,120736,1,0,0:0:0:0:
272,204,120796,1,0,0:0:0:0:
272,204,120855,1,0,0:0:0:0:
281,211,120915,1,2,0:0:0:0:
276,209,121004,1,2,0:0:0:0:
275,206,121093,1,0,0:0:0:0:
281,216,121153,1,0,0:0:0:0:
281,216,121213,1,0,0:0:0:0:
276,214,121272,1,2,0:0:0:0:
262,222,121451,1,0,0:0:0:0:
265,222,121629,1,2,0:0:0:0:
265,222,121808,1,0,0:0:0:0:
272,237,121987,1,2,0:0:0:0:
271,237,122076,1,0,0:0:0:0:
267,237,122165,1,2,0:0:0:0:
267,232,122254,1,0,0:0:0:0:
266,232,122344,1,2,0:0:0:0:
266,232,122433,1,0,0:0:0:0:
265,222,122522,1,2,0:0:0:0:
257,225,122701,1,0,0:0:0:0:
259,238,122790,1,0,0:0:0:0:
259,238,122879,1,0,0:0:0:0:
259,238,122969,1,0,0:0:0:0:
257,225,123058,1,0,0:0:0:0:
259,238,123147,1,0,0:0:0:0:
259,238,123236,1,0,0:0:0:0:
259,238,123326,1,0,0:0:0:0:
257,225,123415,1,0,0:0:0:0:
259,238,123504,1,0,0:0:0:0:
259,238,123593,1,0,0:0:0:0:
259,238,123683,1,0,0:0:0:0:
257,225,123772,1,2,0:0:0:0:
273,248,123832,1,2,0:0:0:0:
259,238,123891,1,2,0:0:0:0:
259,234,123951,1,2,0:0:0:0:
259,234,124010,1,2,0:0:0:0:
259,238,124070,1,2,0:0:0:0:
259,194,124129,1,0,0:0:0:0:
255,197,124218,1,0,0:0:0:0:
255,197,124308,1,2,0:0:0:0:
259,194,124397,1,0,0:0:0:0:
259,203,124486,1,2,0:0:0:0:
259,203,124575,1,2,0:0:0:0:
259,203,124665,1,0,0:0:0:0:
259,202,124754,1,2,0:0:0:0:
259,194,124843,1,0,0:0:0:0:
255,197,124932,1,0,0:0:0:0:
255,197,125022,1,0,0:0:0:0:
259,194,125111,1,0,0:0:0:0:
259,203,125200,1,2,0:0:0:0:
259,203,125289,1,2,0:0:0:0:
259,203,125379,1,2,0:0:0:0:
259,202,125468,1,2,0:0:0:0:
259,194,125558,1,0,0:0:0:0:
255,197,125647,1,0,0:0:0:0:
255,197,125737,1,2,0:0:0:0:
259,194,125826,1,0,0:0:0:0:
259,203,125915,1,2,0:0:0:0:
259,203,126004,1,2,0:0:0:0:
259,203,126094,1,0,0:0:0:0:
259,202,126183,1,2,0:0:0:0:
259,194,126272,1,0,0:0:0:0:
255,197,126361,1,0,0:0:0:0:
255,197,126451,1,0,0:0:0:0:
259,194,126540,1,0,0:0:0:0:
259,203,126629,1,2,0:0:0:0:
259,203,126718,1,2,0:0:0:0:
259,203,126808,1,2,0:0:0:0:
259,202,126897,1,2,0:0:0:0:
259,194,126986,1,0,0:0:0:0:
255,197,127075,1,0,0:0:0:0:
255,197,127165,1,2,0:0:0:0:
259,194,127254,1,0,0:0:0:0:
259,203,127343,1,2,0:0:0:0:
259,203,127432,1,2,0:0:0:0:
259,203,127522,1,0,0:0:0:0:
259,202,127611,1,2,0:0:0:0:
259,194,127700,1,0,0:0:0:0:
255,197,127789,1,0,0:0:0:0:
255,197,127879,1,2,0:0:0:0:
259,194,127968,1,0,0:0:0:0:
259,203,128057,1,2,0:0:0:0:
259,203,128146,1,2,0:0:0:0:
259,203,128236,1,0,0:0:0:0:
259,202,128325,1,0,0:0:0:0:
256,198,128416,1,2,0:0:0:0:
249,198,129844,5,0,0:0:0:0:
249,198,130379,1,0,0:0:0:0:
249,198,130915,1,0,0:0:0:0:
249,198,131451,1,2,0:0:0:0:
249,198,131987,1,2,0:0:0:0:
249,198,132344,1,2,0:0:0:0:
249,198,132701,5,0,0:0:0:0:
249,198,133236,1,0,0:0:0:0:
249,198,133772,1,0,0:0:0:0:
249,198,134308,1,2,0:0:0:0:
249,198,134844,1,2,0:0:0:0:
249,198,135201,1,2,0:0:0:0:
237,185,135558,1,0,0:0:0:0:
237,185,135915,1,0,0:0:0:0:
237,185,136272,1,2,0:0:0:0:
237,185,136629,1,0,0:0:0:0:
237,185,136987,1,2,0:0:0:0:
237,185,137344,1,2,0:0:0:0:
229,182,137701,1,0,0:0:0:0:
229,180,138058,1,2,0:0:0:0:
253,208,138415,1,0,0:0:0:0:
258,208,138594,1,0,0:0:0:0:
258,208,138772,1,2,0:0:0:0:
253,208,138951,1,0,0:0:0:0:
261,236,139129,1,2,0:0:0:0:
261,236,139308,1,2,0:0:0:0:
261,236,139487,1,0,0:0:0:0:
261,236,139665,1,2,0:0:0:0:
248,238,139844,1,0,0:0:0:0:
248,241,139933,1,0,0:0:0:0:
252,242,140022,1,2,0:0:0:0:
251,242,140112,1,0,0:0:0:0:
256,242,140201,1,2,0:0:0:0:
256,242,140290,1,2,0:0:0:0:
261,236,140379,1,0,0:0:0:0:
261,237,140469,1,0,0:0:0:0:
251,243,140558,1,2,0:0:0:0:
252,245,140647,1,2,0:0:0:0:
252,242,140737,1,0,0:0:0:0:
246,245,140826,1,2,0:0:0:0:
246,245,140915,1,0,0:0:0:0:
246,245,141004,1,0,0:0:0:0:
246,245,141094,1,2,0:0:0:0:
246,245,141183,1,2,0:0:0:0:
246,194,141272,1,0,0:0:0:0:
256,177,141629,1,0,0:0:0:0:
256,177,141808,1,2,0:0:0:0:
256,177,141986,1,0,0:0:0:0:
262,176,142343,1,0,0:0:0:0:
262,176,142522,1,2,0:0:0:0:
261,176,142700,1,0,0:0:0:0:
271,177,143058,1,0,0:0:0:0:
271,177,143147,1,0,0:0:0:0:
270,177,143236,1,2,0:0:0:0:
267,177,143325,1,2,0:0:0:0:
262,176,143415,1,0,0:0:0:0:
282,176,143593,1,0,0:0:0:0:
282,176,143772,1,2,0:0:0:0:
282,176,143950,1,2,0:0:0:0:
238,191,144129,1,0,0:0:0:0:
238,191,144248,1,0,0:0:0:0:
238,191,144367,1,0,0:0:0:0:
238,191,144486,1,2,0:0:0:0:
238,191,144605,1,2,0:0:0:0:
242,191,144724,1,2,0:0:0:0:
238,191,144843,1,0,0:0:0:0:
238,191,144962,1,0,0:0:0:0:
238,191,145081,1,2,0:0:0:0:
238,191,145200,1,2,0:0:0:0:
238,191,145320,1,0,0:0:0:0:
242,191,145438,1,2,0:0:0:0:
238,191,145558,1,0,0:0:0:0:
238,191,145677,1,0,0:0:0:0:
238,191,145796,1,0,0:0:0:0:
238,191,145915,1,2,0:0:0:0:
238,191,146034,1,2,0:0:0:0:
242,191,146153,1,2,0:0:0:0:
231,197,146272,1,0,0:0:0:0:
226,197,146450,1,6,0:0:0:0:
246,194,146986,1,6,0:0:0:0:
256,177,147343,1,2,0:0:0:0:
256,177,147522,1,0,0:0:0:0:
256,177,147700,1,2,0:0:0:0:
262,176,148057,1,2,0:0:0:0:
262,176,148236,1,0,0:0:0:0:
261,176,148414,1,2,0:0:0:0:
271,177,148772,1,2,0:0:0:0:
271,177,148861,1,2,0:0:0:0:
270,177,148950,1,0,0:0:0:0:
267,177,149039,1,0,0:0:0:0:
262,176,149129,1,2,0:0:0:0:
282,176,149307,1,2,0:0:0:0:
282,176,149486,1,0,0:0:0:0:
282,176,149664,1,2,0:0:0:0:
242,191,149843,1,2,0:0:0:0:
238,191,149962,1,2,0:0:0:0:
238,191,150081,1,2,0:0:0:0:
238,191,150200,1,0,0:0:0:0:
238,191,150319,1,0,0:0:0:0:
238,191,150438,1,0,0:0:0:0:
238,191,150557,1,2,0:0:0:0:
238,191,150676,1,2,0:0:0:0:
238,191,150795,1,0,0:0:0:0:
238,191,150914,1,0,0:0:0:0:
242,191,151034,1,2,0:0:0:0:
238,191,151152,1,0,0:0:0:0:
242,191,151272,1,2,0:0:0:0:
238,191,151391,1,2,0:0:0:0:
238,191,151510,1,2,0:0:0:0:
238,191,151629,1,0,0:0:0:0:
238,191,151748,1,0,0:0:0:0:
238,191,151867,1,0,0:0:0:0:
231,197,151986,1,2,0:0:0:0:
226,197,152164,1,6,0:0:0:0:
235,206,152343,1,0,0:0:0:0:
236,205,152433,1,0,0:0:0:0:
236,205,152522,1,0,0:0:0:0:
242,199,152700,1,6,0:0:0:0:
242,199,152879,1,0,0:0:0:0:
240,193,152968,1,0,0:0:0:0:
242,199,153058,1,2,0:0:0:0:
250,193,153147,1,0,0:0:0:0:
240,199,153236,1,2,0:0:0:0:
240,193,153325,1,2,0:0:0:0:
242,199,153415,1,0,0:0:0:0:
242,199,153594,1,2,0:0:0:0:
242,193,153683,1,2,0:0:0:0:
242,199,153773,1,0,0:0:0:0:
240,199,153951,1,0,0:0:0:0:
242,193,154040,1,0,0:0:0:0:
242,199,154129,1,2,0:0:0:0:
242,199,154308,1,0,0:0:0:0:
237,201,154397,1,0,0:0:0:0:
242,199,154487,1,2,0:0:0:0:
237,201,154575,1,2,0:0:0:0:
240,199,154665,1,2,0:0:0:0:
242,199,154844,1,0,0:0:0:0:
248,199,154933,1,0,0:0:0:0:
242,199,155023,1,0,0:0:0:0:
242,199,155111,1,0,0:0:0:0:
242,199,155202,1,2,0:0:0:0:
232,198,155290,1,2,0:0:0:0:
240,199,155380,1,0,0:0:0:0:
242,199,155558,1,6,0:0:0:0:
242,199,155737,1,0,0:0:0:0:
243,204,155825,1,0,0:0:0:0:
242,199,155916,1,2,0:0:0:0:
240,199,156094,1,0,0:0:0:0:
254,208,156183,1,0,0:0:0:0:
242,199,156273,1,2,0:0:0:0:
252,207,156361,1,2,0:0:0:0:
242,199,156452,1,0,0:0:0:0:
252,207,156540,1,0,0:0:0:0:
242,199,156631,1,2,0:0:0:0:
240,199,156809,1,0,0:0:0:0:
242,199,156987,1,2,0:0:0:0:
242,199,157166,1,0,0:0:0:0:
234,204,157254,1,0,0:0:0:0:
242,199,157345,1,2,0:0:0:0:
236,204,157433,1,0,0:0:0:0:
240,199,157523,1,2,0:0:0:0:
236,204,157611,1,2,0:0:0:0:
242,199,157702,1,0,0:0:0:0:
242,199,157879,1,2,0:0:0:0:
242,199,158060,1,0,0:0:0:0:
240,199,158238,1,0,0:0:0:0:
248,199,158415,1,2,0:0:0:0:
251,202,158593,1,0,0:0:0:0:
254,202,158683,1,0,0:0:0:0:
253,202,158772,1,2,0:0:0:0:
251,202,158950,1,0,0:0:0:0:
254,202,159040,1,2,0:0:0:0:
253,202,159129,1,2,0:0:0:0:
251,202,159308,1,0,0:0:0:0:
254,202,159398,1,0,0:0:0:0:
253,202,159487,1,2,0:0:0:0:
221,201,159665,1,0,0:0:0:0:
248,196,159843,1,6,0:0:0:0:
230,186,160022,1,6,0:0:0:0:
248,196,160200,1,6,0:0:0:0:
233,187,160379,1,6,0:0:0:0:
248,206,160915,1,4,0:0:0:0:
249,195,161272,1,0,0:0:0:0:
249,195,161361,1,0,0:0:0:0:
249,195,161450,1,2,0:0:0:0:
249,195,161540,1,0,0:0:0:0:
256,195,161629,1,2,0:0:0:0:
263,193,161718,1,2,0:0:0:0:
263,193,161808,1,0,0:0:0:0:
259,193,161897,1,2,0:0:0:0:
259,199,161986,1,0,0:0:0:0:
261,199,162165,1,0,0:0:0:0:
261,199,162254,1,0,0:0:0:0:
262,198,162343,1,2,0:0:0:0:
262,198,162433,1,2,0:0:0:0:
262,198,162522,1,0,0:0:0:0:
267,195,162611,1,2,0:0:0:0:
269,195,162700,1,0,0:0:0:0:
262,208,162879,1,0,0:0:0:0:
262,208,162939,1,0,0:0:0:0:
268,208,162998,1,0,0:0:0:0:
278,191,163058,1,2,0:0:0:0:
269,208,163236,1,0,0:0:0:0:
269,208,163296,1,0,0:0:0:0:
271,207,163355,1,0,0:0:0:0:
271,207,163415,1,2,0:0:0:0:
272,204,163593,1,0,0:0:0:0:
272,204,163653,1,0,0:0:0:0:
272,204,163712,1,0,0:0:0:0:
281,211,163772,1,2,0:0:0:0:
276,209,163861,1,2,0:0:0:0:
275,206,163950,1,0,0:0:0:0:
281,216,164010,1,0,0:0:0:0:
281,216,164070,1,0,0:0:0:0:
276,214,164129,1,2,0:0:0:0:
270,225,164218,1,0,0:0:0:0:
262,223,164308,1,0,0:0:0:0:
262,220,164397,1,2,0:0:0:0:
263,219,164486,1,2,0:0:0:0:
263,219,164575,1,0,0:0:0:0:
256,237,164665,1,0,0:0:0:0:
256,237,164754,1,2,0:0:0:0:
239,247,164843,1,2,0:0:0:0:
274,242,165022,1,0,0:0:0:0:
269,256,165081,1,0,0:0:0:0:
266,255,165141,1,2,0:0:0:0:
266,247,165200,1,0,0:0:0:0:
266,247,165379,1,2,0:0:0:0:
266,245,165439,1,2,0:0:0:0:
267,243,165498,1,2,0:0:0:0:
267,243,165558,1,0,0:0:0:0:
238,224,165647,1,0,0:0:0:0:
240,225,165736,1,0,0:0:0:0:
236,218,165915,1,2,0:0:0:0:
236,218,166004,1,2,0:0:0:0:
236,215,166093,1,0,0:0:0:0:
241,215,166272,1,2,0:0:0:0:
241,215,166361,1,2,0:0:0:0:
243,215,166450,1,0,0:0:0:0:
244,215,166540,1,0,0:0:0:0:
240,225,166629,1,2,0:0:0:0:
246,222,166689,1,2,0:0:0:0:
246,222,166748,1,2,0:0:0:0:
246,222,166808,1,2,0:0:0:0:
250,221,166867,1,2,0:0:0:0:
250,221,166927,1,2,0:0:0:0:
249,195,166986,1,0,0:0:0:0:
249,195,167075,1,0,0:0:0:0:
249,195,167164,1,2,0:0:0:0:
249,195,167254,1,0,0:0:0:0:
256,195,167343,1,2,0:0:0:0:
263,193,167432,1,2,0:0:0:0:
263,193,167522,1,0,0:0:0:0:
259,193,167611,1,2,0:0:0:0:
259,199,167700,1,0,0:0:0:0:
261,199,167879,1,0,0:0:0:0:
261,199,167968,1,0,0:0:0:0:
262,198,168057,1,2,0:0:0:0:
262,198,168147,1,2,0:0:0:0:
262,198,168236,1,0,0:0:0:0:
267,195,168325,1,2,0:0:0:0:
269,195,168414,1,0,0:0:0:0:
262,208,168593,1,0,0:0:0:0:
262,208,168653,1,0,0:0:0:0:
268,208,168712,1,0,0:0:0:0:
278,191,168772,1,2,0:0:0:0:
269,208,168950,1,0,0:0:0:0:
269,208,169010,1,0,0:0:0:0:
271,207,169069,1,0,0:0:0:0:
271,207,169129,1,2,0:0:0:0:
272,204,169307,1,0,0:0:0:0:
272,204,169367,1,0,0:0:0:0:
272,204,169426,1,0,0:0:0:0:
281,211,169486,1,2,0:0:0:0:
276,209,169575,1,2,0:0:0:0:
275,206,169664,1,0,0:0:0:0:
281,216,169724,1,0,0:0:0:0:
281,216,169784,1,0,0:0:0:0:
276,214,169843,1,2,0:0:0:0:
262,222,170022,1,0,0:0:0:0:
265,222,170200,1,2,0:0:0:0:
265,222,170379,1,0,0:0:0:0:
272,237,170558,1,2,0:0:0:0:
271,237,170647,1,0,0:0:0:0:
267,237,170736,1,2,0:0:0:0:
267,232,170825,1,0,0:0:0:0:
266,232,170915,1,2,0:0:0:0:
266,232,171004,1,0,0:0:0:0:
265,222,171093,1,2,0:0:0:0:
257,225,171272,1,0,0:0:0:0:
259,238,171361,1,0,0:0:0:0:
259,238,171450,1,0,0:0:0:0:
259,238,171540,1,0,0:0:0:0:
257,225,171629,1,0,0:0:0:0:
259,238,171718,1,0,0:0:0:0:
259,238,171807,1,0,0:0:0:0:
259,238,171897,1,0,0:0:0:0:
257,225,171986,1,0,0:0:0:0:
259,238,172075,1,0,0:0:0:0:
259,238,172164,1,0,0:0:0:0:
259,238,172254,1,0,0:0:0:0:
257,225,172343,1,2,0:0:0:0:
273,248,172403,1,2,0:0:0:0:
259,238,172462,1,2,0:0:0:0:
259,234,172522,1,2,0:0:0:0:
259,234,172581,1,2,0:0:0:0:
259,238,172641,1,2,0:0:0:0:
259,194,172700,1,0,0:0:0:0:
255,197,172789,1,0,0:0:0:0:
255,197,172879,1,2,0:0:0:0:
259,194,172968,1,0,0:0:0:0:
259,203,173057,1,2,0:0:0:0:
259,203,173146,1,2,0:0:0:0:
259,203,173236,1,0,0:0:0:0:
259,202,173325,1,2,0:0:0:0:
259,194,173414,1,0,0:0:0:0:
255,197,173503,1,0,0:0:0:0:
255,197,173593,1,0,0:0:0:0:
259,194,173682,1,0,0:0:0:0:
259,203,173771,1,2,0:0:0:0:
259,203,173860,1,2,0:0:0:0:
259,203,173950,1,2,0:0:0:0:
259,202,174039,1,2,0:0:0:0:
259,194,174129,1,0,0:0:0:0:
255,197,174218,1,0,0:0:0:0:
255,197,174308,1,2,0:0:0:0:
259,194,174397,1,0,0:0:0:0:
259,203,174486,1,2,0:0:0:0:
259,203,174575,1,2,0:0:0:0:
259,203,174665,1,0,0:0:0:0:
259,202,174754,1,2,0:0:0:0:
259,194,174843,1,0,0:0:0:0:
255,197,174932,1,0,0:0:0:0:
255,197,175022,1,0,0:0:0:0:
259,194,175111,1,0,0:0:0:0:
259,203,175200,1,2,0:0:0:0:
259,203,175289,1,2,0:0:0:0:
259,203,175379,1,2,0:0:0:0:
259,202,175468,1,2,0:0:0:0:
259,194,175557,1,0,0:0:0:0:
255,197,175646,1,0,0:0:0:0:
255,197,175736,1,2,0:0:0:0:
259,194,175825,1,0,0:0:0:0:
259,203,175914,1,2,0:0:0:0:
259,203,176003,1,2,0:0:0:0:
259,203,176093,1,0,0:0:0:0:
259,202,176182,1,2,0:0:0:0:
259,194,176271,1,0,0:0:0:0:
255,197,176360,1,0,0:0:0:0:
255,197,176450,1,2,0:0:0:0:
259,194,176539,1,0,0:0:0:0:
259,203,176628,1,2,0:0:0:0:
259,203,176717,1,2,0:0:0:0:
259,203,176807,1,0,0:0:0:0:
259,202,176896,1,0,0:0:0:0:
256,198,176987,1,2,0:0:0:0:
