osu file format v14

[General]
AudioFilename: audio.mp3
AudioLeadIn: 0
PreviewTime: 50060
Countdown: 1
SampleSet: Normal
StackLeniency: 0.7
Mode: 1
LetterboxInBreaks: 0
WidescreenStoryboard: 0

[Editor]
DistanceSpacing: 0.8
BeatDivisor: 2
GridSize: 16
TimelineZoom: 2.2

[Metadata]
Title:Seishoujo Sacrifice
TitleUnicode:聖少女サクリファイス
Artist:Silver Forest
ArtistUnicode:Silver Forest
Creator:GOD82028
Version:Oni
Source:東方地霊殿 ~ Subterranean Animism.
Tags:少女さとり~3rd eye 古明地さとり 東方Project th11 zun
BeatmapID:2083941
BeatmapSetID:996309

[Difficulty]
HPDrainRate:5
CircleSize:6
OverallDifficulty:5.5
ApproachRate:5
SliderMultiplier:1.4
SliderTickRate:1

[Events]
//Background and Video events
0,0,"thumb-1920-680594.jpg",0,0
//Break Periods
//Storyboard Layer 0 (Background)
//Storyboard Layer 1 (Fail)
//Storyboard Layer 2 (Pass)
//Storyboard Layer 3 (Foreground)
//Storyboard Layer 4 (Overlay)
//Storyboard Sound Samples

[TimingPoints]
61,357.142857142857,4,1,0,40,1,0
775,-100,4,1,0,45,0,0
1132,-100,4,1,0,50,0,0
1489,-100,4,1,0,55,0,0
2918,-100,4,1,0,60,0,0
11489,-100,4,1,0,70,0,0
14346,-100,4,1,0,60,0,0
48543,-66.6666666666667,4,1,0,80,0,0
49971,-100,4,1,0,80,0,0
50060,-100,4,1,0,75,0,1
72560,-100,4,1,0,75,0,0
72828,-80,4,1,0,85,0,0
72918,-80,4,1,0,85,0,1
84346,-100,4,1,0,75,0,1
95775,-100,4,1,0,75,0,0
98632,-100,4,1,0,85,0,0
101489,-100,4,1,0,75,0,0
104346,-100,4,1,0,85,0,0
107739,-100,4,1,0,60,0,0
108453,-100,4,1,0,55,0,0
109168,-100,4,1,0,50,0,0
109882,-100,4,1,0,45,0,0
110596,-100,4,1,0,40,0,0

[HitObjects]
256,192,418,12,0,1846,0:0:0:0:
256,192,2203,5,0,0:0:0:0:
256,192,2293,1,0,0:0:0:0:
256,192,2382,1,0,0:0:0:0:
256,192,2471,1,0,0:0:0:0:
256,192,2560,1,0,0:0:0:0:
256,192,2650,1,0,0:0:0:0:
256,192,2739,1,0,0:0:0:0:
256,192,2828,1,0,0:0:0:0:
256,192,2918,1,0,0:0:0:0:
256,192,3453,1,0,0:0:0:0:
256,192,3543,1,0,0:0:0:0:
256,192,3632,1,2,0:0:0:0:
256,192,3810,1,0,0:0:0:0:
256,192,3989,1,0,0:0:0:0:
256,192,4168,1,2,0:0:0:0:
256,192,4346,1,2,0:0:0:0:
256,192,4525,1,0,0:0:0:0:
256,192,4703,1,2,0:0:0:0:
256,192,4882,1,2,0:0:0:0:
256,192,5060,1,0,0:0:0:0:
256,192,5328,1,0,0:0:0:0:
256,192,5596,1,2,0:0:0:0:
256,192,5775,1,0,0:0:0:0:
256,192,5864,1,0,0:0:0:0:
256,192,5953,1,0,0:0:0:0:
256,192,6132,1,2,0:0:0:0:
256,192,6310,1,0,0:0:0:0:
256,192,6400,1,0,0:0:0:0:
256,192,6489,1,0,0:0:0:0:
256,192,6668,1,2,0:0:0:0:
256,192,6846,1,0,0:0:0:0:
256,192,6935,1,0,0:0:0:0:
256,192,7025,1,0,0:0:0:0:
256,192,7203,1,2,0:0:0:0:
256,192,7382,1,0,0:0:0:0:
256,192,7471,1,0,0:0:0:0:
256,192,7560,1,0,0:0:0:0:
256,192,7918,1,6,0:0:0:0:
256,192,8185,1,6,0:0:0:0:
256,192,8453,1,6,0:0:0:0:
256,192,8632,1,4,0:0:0:0:
256,192,9168,1,0,0:0:0:0:
256,192,9257,1,0,0:0:0:0:
256,192,9346,1,2,0:0:0:0:
256,192,9525,1,0,0:0:0:0:
256,192,9703,1,0,0:0:0:0:
256,192,9882,1,2,0:0:0:0:
256,192,10060,1,2,0:0:0:0:
256,192,10239,1,0,0:0:0:0:
256,192,10418,1,2,0:0:0:0:
256,192,10596,1,2,0:0:0:0:
256,192,10775,1,0,0:0:0:0:
256,192,11043,1,0,0:0:0:0:
256,192,11310,1,2,0:0:0:0:
256,192,11489,1,2,0:0:0:0:
256,192,11578,1,0,0:0:0:0:
256,192,11668,1,0,0:0:0:0:
256,192,11846,1,2,0:0:0:0:
256,192,12025,1,2,0:0:0:0:
256,192,12114,1,0,0:0:0:0:
256,192,12203,1,0,0:0:0:0:
256,192,12382,1,2,0:0:0:0:
256,192,12560,1,2,0:0:0:0:
256,192,12650,1,0,0:0:0:0:
256,192,12739,1,0,0:0:0:0:
256,192,12918,1,2,0:0:0:0:
256,192,13096,1,2,0:0:0:0:
256,192,13185,1,0,0:0:0:0:
256,192,13275,1,0,0:0:0:0:
256,192,13632,1,6,0:0:0:0:
256,192,13900,1,6,0:0:0:0:
256,192,14168,1,6,0:0:0:0:
256,192,14346,1,4,0:0:0:0:
256,192,14525,1,0,0:0:0:0:
256,192,14703,1,2,0:0:0:0:
256,192,14882,1,0,0:0:0:0:
256,192,14971,1,0,0:0:0:0:
256,192,15060,1,2,0:0:0:0:
256,192,15239,1,0,0:0:0:0:
256,192,15418,1,2,0:0:0:0:
256,192,15596,1,2,0:0:0:0:
256,192,15775,1,0,0:0:0:0:
256,192,15953,1,2,0:0:0:0:
256,192,16043,1,0,0:0:0:0:
256,192,16132,1,0,0:0:0:0:
256,192,16310,1,2,0:0:0:0:
256,192,16489,1,2,0:0:0:0:
256,192,16846,1,2,0:0:0:0:
256,192,17025,1,2,0:0:0:0:
256,192,17203,1,0,0:0:0:0:
256,192,17382,1,2,0:0:0:0:
256,192,17471,1,0,0:0:0:0:
256,192,17560,1,2,0:0:0:0:
256,192,17739,1,2,0:0:0:0:
256,192,17918,1,0,0:0:0:0:
256,192,18275,1,0,0:0:0:0:
256,192,18453,1,2,0:0:0:0:
256,192,18543,1,0,0:0:0:0:
256,192,18632,1,0,0:0:0:0:
256,192,18989,1,0,0:0:0:0:
256,192,19168,1,0,0:0:0:0:
256,192,19257,1,0,0:0:0:0:
256,192,19346,1,2,0:0:0:0:
256,192,19703,1,2,0:0:0:0:
256,192,20060,1,0,0:0:0:0:
256,192,20328,1,0,0:0:0:0:
256,192,20418,1,2,0:0:0:0:
256,192,20596,1,0,0:0:0:0:
256,192,20685,1,0,0:0:0:0:
256,192,20775,1,2,0:0:0:0:
256,192,21043,1,0,0:0:0:0:
256,192,21310,1,2,0:0:0:0:
256,192,21400,1,2,0:0:0:0:
256,192,21489,1,2,0:0:0:0:
256,192,21668,1,2,0:0:0:0:
256,192,21846,1,2,0:0:0:0:
256,192,22025,1,0,0:0:0:0:
256,192,22203,1,0,0:0:0:0:
256,192,22739,1,2,0:0:0:0:
256,192,22918,1,4,0:0:0:0:
256,192,23275,1,4,0:0:0:0:
256,192,23632,1,6,0:0:0:0:
256,192,23989,1,6,0:0:0:0:
256,192,24346,2,2,L|-470:-534|-422:-534,12,35
256,192,25775,1,0,0:0:0:0:
256,192,25953,1,2,0:0:0:0:
256,192,26043,1,0,0:0:0:0:
256,192,26132,1,2,0:0:0:0:
256,192,26310,1,2,0:0:0:0:
256,192,26489,1,0,0:0:0:0:
256,192,26668,1,2,0:0:0:0:
256,192,26757,1,0,0:0:0:0:
256,192,26935,1,0,0:0:0:0:
256,192,27025,1,2,0:0:0:0:
256,192,27203,1,0,0:0:0:0:
256,192,27382,1,2,0:0:0:0:
256,192,27560,1,0,0:0:0:0:
256,192,27650,1,0,0:0:0:0:
256,192,27739,1,2,0:0:0:0:
256,192,27918,1,0,0:0:0:0:
256,192,28096,1,2,0:0:0:0:
256,192,28275,1,0,0:0:0:0:
256,192,28632,1,0,0:0:0:0:
256,192,28811,1,2,0:0:0:0:
256,192,28901,1,2,0:0:0:0:
256,192,28989,1,2,0:0:0:0:
256,192,29168,1,2,0:0:0:0:
256,192,29346,1,0,0:0:0:0:
256,192,29525,1,2,0:0:0:0:
256,192,29614,1,2,0:0:0:0:
256,192,29793,1,2,0:0:0:0:
256,192,29882,1,0,0:0:0:0:
256,192,30060,1,2,0:0:0:0:
256,192,30239,1,0,0:0:0:0:
256,192,30418,1,2,0:0:0:0:
256,192,30507,1,2,0:0:0:0:
256,192,30596,1,0,0:0:0:0:
256,192,30775,1,2,0:0:0:0:
256,192,30953,1,0,0:0:0:0:
256,192,31132,1,2,0:0:0:0:
256,192,31489,1,0,0:0:0:0:
256,192,31668,1,2,0:0:0:0:
256,192,31757,1,0,0:0:0:0:
256,192,31846,1,0,0:0:0:0:
256,192,32025,1,2,0:0:0:0:
256,192,32203,1,0,0:0:0:0:
256,192,32382,1,0,0:0:0:0:
256,192,32471,1,2,0:0:0:0:
256,192,32650,1,0,0:0:0:0:
256,192,32739,1,0,0:0:0:0:
256,192,32918,1,0,0:0:0:0:
256,192,33096,1,0,0:0:0:0:
256,192,33276,1,2,0:0:0:0:
256,192,33365,1,0,0:0:0:0:
256,192,33454,1,0,0:0:0:0:
256,192,33632,1,0,0:0:0:0:
256,192,33810,1,0,0:0:0:0:
256,192,33989,1,2,0:0:0:0:
256,192,34347,1,0,0:0:0:0:
256,192,34526,1,0,0:0:0:0:
256,192,34704,1,2,0:0:0:0:
256,192,34793,1,2,0:0:0:0:
256,192,34883,1,0,0:0:0:0:
256,192,35061,1,2,0:0:0:0:
256,192,35240,1,0,0:0:0:0:
256,192,35329,1,0,0:0:0:0:
256,192,35418,1,0,0:0:0:0:
256,192,35597,1,2,0:0:0:0:
256,192,35776,1,0,0:0:0:0:
256,192,36133,1,0,0:0:0:0:
256,192,36311,1,2,0:0:0:0:
256,192,36490,1,0,0:0:0:0:
256,192,36847,1,2,0:0:0:0:
256,192,37204,1,0,0:0:0:0:
256,192,37382,1,0,0:0:0:0:
256,192,37471,1,0,0:0:0:0:
256,192,37561,1,2,0:0:0:0:
256,192,37739,1,2,0:0:0:0:
256,192,37918,1,0,0:0:0:0:
256,192,38096,1,2,0:0:0:0:
256,192,38186,1,0,0:0:0:0:
256,192,38364,1,0,0:0:0:0:
256,192,38454,1,2,0:0:0:0:
256,192,38632,1,0,0:0:0:0:
256,192,38811,1,2,0:0:0:0:
256,192,38989,1,0,0:0:0:0:
256,192,39079,1,0,0:0:0:0:
256,192,39168,1,2,0:0:0:0:
256,192,39346,1,0,0:0:0:0:
256,192,39525,1,2,0:0:0:0:
256,192,39703,1,0,0:0:0:0:
256,192,40061,1,0,0:0:0:0:
256,192,40239,1,2,0:0:0:0:
256,192,40329,1,2,0:0:0:0:
256,192,40418,1,2,0:0:0:0:
256,192,40596,1,2,0:0:0:0:
256,192,40775,1,0,0:0:0:0:
256,192,40954,1,2,0:0:0:0:
256,192,41043,1,2,0:0:0:0:
256,192,41221,1,2,0:0:0:0:
256,192,41311,1,0,0:0:0:0:
256,192,41489,1,2,0:0:0:0:
256,192,41668,1,0,0:0:0:0:
256,192,41846,1,2,0:0:0:0:
256,192,41936,1,2,0:0:0:0:
256,192,42025,1,0,0:0:0:0:
256,192,42204,1,2,0:0:0:0:
256,192,42383,1,0,0:0:0:0:
256,192,42561,1,2,0:0:0:0:
256,192,42918,1,0,0:0:0:0:
256,192,43096,1,2,0:0:0:0:
256,192,43186,1,0,0:0:0:0:
256,192,43275,1,0,0:0:0:0:
256,192,43454,1,2,0:0:0:0:
256,192,43632,1,0,0:0:0:0:
256,192,43811,1,2,0:0:0:0:
256,192,43900,1,0,0:0:0:0:
256,192,44079,1,0,0:0:0:0:
256,192,44168,1,2,0:0:0:0:
256,192,44346,1,0,0:0:0:0:
256,192,44525,1,0,0:0:0:0:
256,192,44704,1,2,0:0:0:0:
256,192,44793,1,0,0:0:0:0:
256,192,44882,1,0,0:0:0:0:
256,192,45061,1,2,0:0:0:0:
256,192,45240,1,0,0:0:0:0:
256,192,45418,1,2,0:0:0:0:
256,192,45775,1,4,0:0:0:0:
256,192,46133,1,4,0:0:0:0:
256,192,46490,1,6,0:0:0:0:
256,192,46847,1,6,0:0:0:0:
256,192,47204,2,2,L|304:192,8,35
256,192,48633,1,4,0:0:0:0:
256,192,48901,1,4,0:0:0:0:
256,192,49168,1,4,0:0:0:0:
256,192,49347,1,4,0:0:0:0:
256,192,49704,1,6,0:0:0:0:
256,192,50061,1,6,0:0:0:0:
256,192,50240,1,0,0:0:0:0:
256,192,50329,1,0,0:0:0:0:
256,192,50418,1,2,0:0:0:0:
256,192,50597,1,2,0:0:0:0:
256,192,50776,1,0,0:0:0:0:
256,192,50953,1,2,0:0:0:0:
256,192,51043,1,2,0:0:0:0:
256,192,51133,1,0,0:0:0:0:
256,192,51311,1,2,0:0:0:0:
256,192,51490,1,0,0:0:0:0:
256,192,51668,1,0,0:0:0:0:
256,192,51757,1,0,0:0:0:0:
256,192,51846,1,2,0:0:0:0:
256,192,52025,1,0,0:0:0:0:
256,192,52204,1,2,0:0:0:0:
256,192,52561,1,0,0:0:0:0:
256,192,52740,1,0,0:0:0:0:
256,192,52829,1,0,0:0:0:0:
256,192,52918,1,2,0:0:0:0:
256,192,53097,1,0,0:0:0:0:
256,192,53276,1,2,0:0:0:0:
256,192,53454,1,2,0:0:0:0:
256,192,53543,1,2,0:0:0:0:
256,192,53633,1,0,0:0:0:0:
256,192,53811,1,0,0:0:0:0:
256,192,53990,1,2,0:0:0:0:
256,192,54168,1,0,0:0:0:0:
256,192,54347,1,0,0:0:0:0:
256,192,54704,1,2,0:0:0:0:
256,192,54883,1,0,0:0:0:0:
256,192,54971,1,0,0:0:0:0:
256,192,55061,1,0,0:0:0:0:
256,192,55418,1,2,0:0:0:0:
256,192,55597,1,0,0:0:0:0:
256,192,55776,1,0,0:0:0:0:
256,192,55954,1,0,0:0:0:0:
256,192,56043,1,0,0:0:0:0:
256,192,56133,1,0,0:0:0:0:
256,192,56311,1,2,0:0:0:0:
256,192,56490,1,0,0:0:0:0:
256,192,56579,1,0,0:0:0:0:
256,192,56668,1,2,0:0:0:0:
256,192,56847,1,2,0:0:0:0:
256,192,57204,1,0,0:0:0:0:
256,192,57383,1,0,0:0:0:0:
256,192,57472,1,0,0:0:0:0:
256,192,57561,1,0,0:0:0:0:
256,192,57739,1,2,0:0:0:0:
256,192,57918,1,2,0:0:0:0:
256,192,58008,1,0,0:0:0:0:
256,192,58097,1,2,0:0:0:0:
256,192,58276,1,0,0:0:0:0:
256,192,58633,1,2,0:0:0:0:
256,192,58810,1,0,0:0:0:0:
256,192,58900,1,0,0:0:0:0:
256,192,58989,1,2,0:0:0:0:
256,192,59168,1,0,0:0:0:0:
256,192,59346,1,2,0:0:0:0:
256,192,59435,1,2,0:0:0:0:
256,192,59525,1,0,0:0:0:0:
256,192,59703,1,2,0:0:0:0:
256,192,60061,1,6,0:0:0:0:
256,192,60329,1,6,0:0:0:0:
256,192,60597,1,6,0:0:0:0:
256,192,60776,1,4,0:0:0:0:
256,192,61133,1,2,0:0:0:0:
256,192,61490,1,4,0:0:0:0:
256,192,61668,1,0,0:0:0:0:
256,192,61758,1,0,0:0:0:0:
256,192,61847,1,0,0:0:0:0:
256,192,62026,1,0,0:0:0:0:
256,192,62204,1,2,0:0:0:0:
256,192,62383,1,0,0:0:0:0:
256,192,62472,1,0,0:0:0:0:
256,192,62561,1,2,0:0:0:0:
256,192,62740,1,2,0:0:0:0:
256,192,62918,1,0,0:0:0:0:
256,192,63096,1,0,0:0:0:0:
256,192,63185,1,0,0:0:0:0:
256,192,63276,1,2,0:0:0:0:
256,192,63453,1,0,0:0:0:0:
256,192,63632,1,2,0:0:0:0:
256,192,63990,1,0,0:0:0:0:
256,192,64169,1,0,0:0:0:0:
256,192,64258,1,0,0:0:0:0:
256,192,64347,1,2,0:0:0:0:
256,192,64526,1,0,0:0:0:0:
256,192,64703,1,2,0:0:0:0:
256,192,64882,1,2,0:0:0:0:
256,192,64971,1,2,0:0:0:0:
256,192,65060,1,0,0:0:0:0:
256,192,65240,1,0,0:0:0:0:
256,192,65419,1,2,0:0:0:0:
256,192,65597,1,0,0:0:0:0:
256,192,65776,1,2,0:0:0:0:
256,192,66132,1,2,0:0:0:0:
256,192,66310,1,0,0:0:0:0:
256,192,66400,1,0,0:0:0:0:
256,192,66490,1,0,0:0:0:0:
256,192,66847,1,2,0:0:0:0:
256,192,67026,1,0,0:0:0:0:
256,192,67203,1,0,0:0:0:0:
256,192,67383,1,0,0:0:0:0:
256,192,67472,1,0,0:0:0:0:
256,192,67560,1,0,0:0:0:0:
256,192,67740,1,2,0:0:0:0:
256,192,67919,1,0,0:0:0:0:
256,192,68008,1,0,0:0:0:0:
256,192,68097,1,2,0:0:0:0:
256,192,68276,1,2,0:0:0:0:
256,192,68633,1,0,0:0:0:0:
256,192,68810,1,0,0:0:0:0:
256,192,68901,1,0,0:0:0:0:
256,192,68990,1,0,0:0:0:0:
256,192,69168,1,2,0:0:0:0:
256,192,69347,1,2,0:0:0:0:
256,192,69435,1,0,0:0:0:0:
256,192,69526,1,2,0:0:0:0:
256,192,69703,1,0,0:0:0:0:
256,192,70060,1,2,0:0:0:0:
256,192,70239,1,0,0:0:0:0:
256,192,70328,1,0,0:0:0:0:
256,192,70419,1,2,0:0:0:0:
256,192,70597,1,0,0:0:0:0:
256,192,70775,1,2,0:0:0:0:
256,192,70864,1,2,0:0:0:0:
256,192,70953,1,0,0:0:0:0:
256,192,71043,1,0,0:0:0:0:
256,192,71132,1,2,0:0:0:0:
256,192,71490,1,6,0:0:0:0:
256,192,71758,1,6,0:0:0:0:
256,192,72026,1,6,0:0:0:0:
256,192,72203,1,4,0:0:0:0:
256,192,72383,1,0,0:0:0:0:
256,192,72472,1,0,0:0:0:0:
256,192,72561,1,2,0:0:0:0:
256,192,72918,1,0,0:0:0:0:
256,192,73007,1,0,0:0:0:0:
256,192,73096,1,0,0:0:0:0:
256,192,73275,1,2,0:0:0:0:
256,192,73364,1,2,0:0:0:0:
256,192,73453,1,2,0:0:0:0:
256,192,73632,1,0,0:0:0:0:
256,192,73810,1,2,0:0:0:0:
256,192,73989,1,0,0:0:0:0:
256,192,74347,1,2,0:0:0:0:
256,192,74436,1,2,0:0:0:0:
256,192,74525,1,0,0:0:0:0:
256,192,74704,1,2,0:0:0:0:
256,192,74793,1,0,0:0:0:0:
256,192,74882,1,2,0:0:0:0:
256,192,75061,1,0,0:0:0:0:
256,192,75239,1,2,0:0:0:0:
256,192,75418,1,0,0:0:0:0:
256,192,75776,1,0,0:0:0:0:
256,192,75865,1,0,0:0:0:0:
256,192,75954,1,2,0:0:0:0:
256,192,76133,1,0,0:0:0:0:
256,192,76222,1,2,0:0:0:0:
256,192,76311,1,2,0:0:0:0:
256,192,76490,1,0,0:0:0:0:
256,192,76668,1,2,0:0:0:0:
256,192,76847,1,0,0:0:0:0:
256,192,77204,1,2,0:0:0:0:
256,192,77294,1,0,0:0:0:0:
256,192,77383,1,0,0:0:0:0:
256,192,77561,1,2,0:0:0:0:
256,192,77650,1,0,0:0:0:0:
256,192,77740,1,2,0:0:0:0:
256,192,77918,1,0,0:0:0:0:
256,192,78097,1,2,0:0:0:0:
256,192,78276,1,0,0:0:0:0:
256,192,78633,1,2,0:0:0:0:
256,192,78722,1,0,0:0:0:0:
256,192,78811,1,0,0:0:0:0:
256,192,78990,1,2,0:0:0:0:
256,192,79079,1,0,0:0:0:0:
256,192,79168,1,2,0:0:0:0:
256,192,79347,1,0,0:0:0:0:
256,192,79525,1,0,0:0:0:0:
256,192,79704,1,0,0:0:0:0:
256,192,80061,1,2,0:0:0:0:
256,192,80151,1,0,0:0:0:0:
256,192,80240,1,0,0:0:0:0:
256,192,80418,1,2,0:0:0:0:
256,192,80508,1,2,0:0:0:0:
256,192,80597,1,2,0:0:0:0:
256,192,80775,1,0,0:0:0:0:
256,192,80953,1,2,0:0:0:0:
256,192,81132,1,0,0:0:0:0:
256,192,81489,1,0,0:0:0:0:
256,192,81668,1,0,0:0:0:0:
256,192,81757,1,0,0:0:0:0:
256,192,81847,1,2,0:0:0:0:
256,192,82025,1,0,0:0:0:0:
256,192,82204,1,0,0:0:0:0:
256,192,82293,1,0,0:0:0:0:
256,192,82383,1,2,0:0:0:0:
256,192,82561,1,0,0:0:0:0:
256,192,82918,1,6,0:0:0:0:
256,192,83186,1,6,0:0:0:0:
256,192,83454,1,6,0:0:0:0:
256,192,83633,1,4,0:0:0:0:
256,192,83990,1,2,0:0:0:0:
256,192,84346,1,6,0:0:0:0:
256,192,84524,1,2,0:0:0:0:
256,192,84614,1,2,0:0:0:0:
256,192,84703,1,2,0:0:0:0:
256,192,84882,1,2,0:0:0:0:
256,192,85060,1,0,0:0:0:0:
256,192,85239,1,2,0:0:0:0:
256,192,85328,1,2,0:0:0:0:
256,192,85417,1,0,0:0:0:0:
256,192,85596,1,0,0:0:0:0:
256,192,85774,1,2,0:0:0:0:
256,192,85953,1,2,0:0:0:0:
256,192,86043,1,2,0:0:0:0:
256,192,86132,1,0,0:0:0:0:
256,192,86309,1,2,0:0:0:0:
256,192,86488,1,0,0:0:0:0:
256,192,86846,1,2,0:0:0:0:
256,192,87025,1,2,0:0:0:0:
256,192,87114,1,2,0:0:0:0:
256,192,87203,1,0,0:0:0:0:
256,192,87382,1,2,0:0:0:0:
256,192,87559,1,0,0:0:0:0:
256,192,87739,1,0,0:0:0:0:
256,192,87828,1,0,0:0:0:0:
256,192,87918,1,2,0:0:0:0:
256,192,88096,1,2,0:0:0:0:
256,192,88275,1,0,0:0:0:0:
256,192,88453,1,2,0:0:0:0:
256,192,88632,1,0,0:0:0:0:
256,192,88988,1,0,0:0:0:0:
256,192,89168,1,2,0:0:0:0:
256,192,89257,1,2,0:0:0:0:
256,192,89346,1,2,0:0:0:0:
256,192,89703,1,0,0:0:0:0:
256,192,89882,1,2,0:0:0:0:
256,192,90059,1,2,0:0:0:0:
256,192,90239,1,2,0:0:0:0:
256,192,90328,1,2,0:0:0:0:
256,192,90418,1,2,0:0:0:0:
256,192,90596,1,0,0:0:0:0:
256,192,90775,1,2,0:0:0:0:
256,192,90864,1,2,0:0:0:0:
256,192,90953,1,0,0:0:0:0:
256,192,91132,1,0,0:0:0:0:
256,192,91489,1,2,0:0:0:0:
256,192,91668,1,2,0:0:0:0:
256,192,91757,1,2,0:0:0:0:
256,192,91846,1,2,0:0:0:0:
256,192,92024,1,0,0:0:0:0:
256,192,92203,1,0,0:0:0:0:
256,192,92293,1,2,0:0:0:0:
256,192,92382,1,0,0:0:0:0:
256,192,92559,1,2,0:0:0:0:
256,192,92918,1,0,0:0:0:0:
256,192,93095,1,2,0:0:0:0:
256,192,93184,1,2,0:0:0:0:
256,192,93275,1,0,0:0:0:0:
256,192,93453,1,2,0:0:0:0:
256,192,93631,1,0,0:0:0:0:
256,192,93720,1,0,0:0:0:0:
256,192,93809,1,2,0:0:0:0:
256,192,93899,1,2,0:0:0:0:
256,192,93988,1,0,0:0:0:0:
256,192,94346,1,6,0:0:0:0:
256,192,94614,1,6,0:0:0:0:
256,192,94882,1,6,0:0:0:0:
256,192,95061,1,4,0:0:0:0:
256,192,95597,1,2,0:0:0:0:
256,192,95686,1,2,0:0:0:0:
256,192,95776,1,2,0:0:0:0:
256,192,96311,1,2,0:0:0:0:
256,192,96400,1,2,0:0:0:0:
256,192,96489,1,0,0:0:0:0:
256,192,96668,1,2,0:0:0:0:
256,192,96847,1,2,0:0:0:0:
256,192,97025,1,0,0:0:0:0:
256,192,97204,1,0,0:0:0:0:
256,192,97383,1,2,0:0:0:0:
256,192,97561,1,0,0:0:0:0:
256,192,97740,1,0,0:0:0:0:
256,192,97919,1,2,0:0:0:0:
256,192,98186,1,2,0:0:0:0:
256,192,98454,1,0,0:0:0:0:
256,192,98633,1,2,0:0:0:0:
256,192,98722,1,2,0:0:0:0:
256,192,98811,1,2,0:0:0:0:
256,192,98990,1,0,0:0:0:0:
256,192,99168,1,2,0:0:0:0:
256,192,99257,1,2,0:0:0:0:
256,192,99346,1,2,0:0:0:0:
256,192,99526,1,0,0:0:0:0:
256,192,99704,1,2,0:0:0:0:
256,192,99793,1,2,0:0:0:0:
256,192,99882,1,2,0:0:0:0:
256,192,100061,1,0,0:0:0:0:
256,192,100240,1,2,0:0:0:0:
256,192,100329,1,2,0:0:0:0:
256,192,100418,1,2,0:0:0:0:
256,192,100776,1,6,0:0:0:0:
256,192,101043,1,6,0:0:0:0:
256,192,101311,1,6,0:0:0:0:
256,192,101490,1,4,0:0:0:0:
256,192,102025,1,2,0:0:0:0:
256,192,102114,1,2,0:0:0:0:
256,192,102203,1,0,0:0:0:0:
256,192,102382,1,2,0:0:0:0:
256,192,102560,1,2,0:0:0:0:
256,192,102740,1,0,0:0:0:0:
256,192,102918,1,0,0:0:0:0:
256,192,103097,1,2,0:0:0:0:
256,192,103275,1,0,0:0:0:0:
256,192,103454,1,0,0:0:0:0:
256,192,103632,1,2,0:0:0:0:
256,192,103900,1,2,0:0:0:0:
256,192,104168,1,0,0:0:0:0:
256,192,104347,1,0,0:0:0:0:
256,192,104436,1,2,0:0:0:0:
256,192,104525,1,2,0:0:0:0:
256,192,104704,1,0,0:0:0:0:
256,192,104882,1,0,0:0:0:0:
256,192,104971,1,2,0:0:0:0:
256,192,105060,1,2,0:0:0:0:
256,192,105240,1,0,0:0:0:0:
256,192,105418,1,0,0:0:0:0:
256,192,105507,1,2,0:0:0:0:
256,192,105596,1,2,0:0:0:0:
256,192,105776,1,0,0:0:0:0:
256,192,105954,1,0,0:0:0:0:
256,192,106043,1,2,0:0:0:0:
256,192,106132,1,2,0:0:0:0:
256,192,106489,1,6,0:0:0:0:
256,192,106757,1,6,0:0:0:0:
256,192,107025,1,6,0:0:0:0:
256,192,107561,1,4,0:0:0:0:
256,192,107740,12,0,110776,0:0:0:0:
