osu file format v14

[General]
AudioFilename: audio.mp3
AudioLeadIn: 0
PreviewTime: 50060
Countdown: 1
SampleSet: Normal
StackLeniency: 0.7
Mode: 1
LetterboxInBreaks: 0
WidescreenStoryboard: 1

[Editor]
DistanceSpacing: 0.8
BeatDivisor: 4
GridSize: 16
TimelineZoom: 2.2

[Metadata]
Title:Seishoujo Sacrifice
TitleUnicode:聖少女サクリファイス
Artist:Silver Forest
ArtistUnicode:Silver Forest
Creator:GOD82028
Version:Muzukashii
Source:東方地霊殿 ~ Subterranean Animism.
Tags:少女さとり~3rd eye 古明地さとり 東方Project th11 zun
BeatmapID:2083940
BeatmapSetID:996309

[Difficulty]
HPDrainRate:6
CircleSize:5
OverallDifficulty:5
ApproachRate:6
SliderMultiplier:1.4
SliderTickRate:1

[Events]
//Background and Video events
0,0,"thumb-1920-680594.jpg",0,0
//Break Periods
//Storyboard Layer 0 (Background)
//Storyboard Layer 1 (Fail)
//Storyboard Layer 2 (Pass)
//Storyboard Layer 3 (Foreground)
//Storyboard Layer 4 (Overlay)
//Storyboard Sound Samples

[TimingPoints]
61,357.142857142857,4,1,0,40,1,0
779,-100,4,1,0,45,0,0
1132,-100,4,1,0,50,0,0
1489,-100,4,1,0,55,0,0
2918,-100,4,1,0,60,0,0
11489,-100,4,1,0,70,0,0
14346,-100,4,1,0,60,0,0
48632,-100,4,1,0,80,0,0
50060,-100,4,1,0,75,0,1
72203,-100,4,1,0,75,0,0
72918,-100,4,1,0,85,0,1
84346,-100,4,1,0,75,0,1
95775,-100,4,1,0,75,0,0
98632,-100,4,1,0,80,0,0
101489,-100,4,1,0,75,0,0
104346,-100,4,1,0,80,0,0
107739,-100,4,1,0,60,0,0
108453,-100,4,1,0,55,0,0
109168,-100,4,1,0,50,0,0
109882,-100,4,1,0,45,0,0
110596,-100,4,1,0,40,0,0

[HitObjects]
256,192,418,12,0,1846,0:0:0:0:
256,192,2203,5,0,0:0:0:0:
256,192,2382,1,0,0:0:0:0:
256,192,2471,1,0,0:0:0:0:
256,192,2560,1,0,0:0:0:0:
256,192,2739,1,0,0:0:0:0:
256,192,2918,1,4,0:0:0:0:
256,192,3453,1,0,0:0:0:0:
256,192,3632,1,2,0:0:0:0:
256,192,3810,1,0,0:0:0:0:
256,192,3989,1,2,0:0:0:0:
256,192,4346,1,0,0:0:0:0:
256,192,4525,1,2,0:0:0:0:
256,192,4703,1,0,0:0:0:0:
256,192,5060,1,2,0:0:0:0:
256,192,5328,1,0,0:0:0:0:
256,192,5596,1,2,0:0:0:0:
256,192,5775,1,0,0:0:0:0:
256,192,5864,1,0,0:0:0:0:
256,192,5953,1,0,0:0:0:0:
256,192,6310,1,0,0:0:0:0:
256,192,6400,1,0,0:0:0:0:
256,192,6489,1,0,0:0:0:0:
256,192,6846,1,0,0:0:0:0:
256,192,6935,1,0,0:0:0:0:
256,192,7025,1,0,0:0:0:0:
256,192,7382,1,0,0:0:0:0:
256,192,7471,1,0,0:0:0:0:
256,192,7560,1,0,0:0:0:0:
256,192,7918,1,6,0:0:0:0:
256,192,8185,1,6,0:0:0:0:
256,192,8453,1,6,0:0:0:0:
256,192,8632,1,4,0:0:0:0:
256,192,9167,1,0,0:0:0:0:
256,192,9346,1,2,0:0:0:0:
256,192,9524,1,0,0:0:0:0:
256,192,9703,1,2,0:0:0:0:
256,192,10060,1,0,0:0:0:0:
256,192,10239,1,2,0:0:0:0:
256,192,10417,1,0,0:0:0:0:
256,192,10774,1,2,0:0:0:0:
256,192,11042,1,0,0:0:0:0:
256,192,11310,1,2,0:0:0:0:
256,192,11489,1,0,0:0:0:0:
256,192,11578,1,0,0:0:0:0:
256,192,11667,1,0,0:0:0:0:
256,192,12024,1,0,0:0:0:0:
256,192,12114,1,0,0:0:0:0:
256,192,12203,1,0,0:0:0:0:
256,192,12560,1,0,0:0:0:0:
256,192,12650,1,0,0:0:0:0:
256,192,12739,1,0,0:0:0:0:
256,192,13096,1,0,0:0:0:0:
256,192,13185,1,0,0:0:0:0:
256,192,13274,1,0,0:0:0:0:
256,192,13632,1,6,0:0:0:0:
256,192,13900,1,6,0:0:0:0:
256,192,14167,1,6,0:0:0:0:
256,192,14346,1,4,0:0:0:0:
256,192,14882,1,0,0:0:0:0:
256,192,14971,1,0,0:0:0:0:
256,192,15060,1,0,0:0:0:0:
256,192,15239,1,2,0:0:0:0:
256,192,15417,1,0,0:0:0:0:
256,192,15596,1,0,0:0:0:0:
256,192,15775,1,2,0:0:0:0:
256,192,15953,1,0,0:0:0:0:
256,192,16132,1,2,0:0:0:0:
256,192,16310,1,2,0:0:0:0:
256,192,16489,1,0,0:0:0:0:
256,192,17025,1,2,0:0:0:0:
256,192,17203,1,2,0:0:0:0:
256,192,17382,1,0,0:0:0:0:
256,192,17559,1,2,0:0:0:0:
256,192,17739,1,2,0:0:0:0:
256,192,17917,1,0,0:0:0:0:
256,192,18453,1,0,0:0:0:0:
256,192,18542,1,0,0:0:0:0:
256,192,18632,1,0,0:0:0:0:
256,192,19167,1,2,0:0:0:0:
256,192,19257,1,2,0:0:0:0:
256,192,19346,1,2,0:0:0:0:
256,192,20060,1,0,0:0:0:0:
256,192,20417,1,2,0:0:0:0:
256,192,20596,1,0,0:0:0:0:
256,192,20775,1,2,0:0:0:0:
256,192,21042,1,2,0:0:0:0:
256,192,21310,1,0,0:0:0:0:
256,192,21489,1,2,0:0:0:0:
256,192,21667,1,2,0:0:0:0:
256,192,21846,1,0,0:0:0:0:
256,192,22025,1,2,0:0:0:0:
256,192,22203,1,2,0:0:0:0:
256,192,22739,1,2,0:0:0:0:
256,192,22917,1,4,0:0:0:0:
256,192,23275,1,4,0:0:0:0:
256,192,23632,1,6,0:0:0:0:
256,192,23989,1,6,0:0:0:0:
256,192,24346,2,0,L|-1357:-1421|-3361:-3425|-4363:-4427|-4315:-4427,12,35
256,192,25775,1,0,0:0:0:0:
256,192,25953,1,2,0:0:0:0:
256,192,26042,1,2,0:0:0:0:
256,192,26132,1,2,0:0:0:0:
256,192,26489,1,2,0:0:0:0:
256,192,26757,1,0,0:0:0:0:
256,192,27025,1,2,0:0:0:0:
256,192,27203,2,2,L|-1293:-1357|-3245:-3309|-4222:-4286|-4174:-4286,8,35
256,192,28632,1,0,0:0:0:0:
256,192,28809,1,2,0:0:0:0:
256,192,28900,1,2,0:0:0:0:
256,192,28989,1,2,0:0:0:0:
256,192,29346,1,2,0:0:0:0:
256,192,29614,1,2,0:0:0:0:
256,192,29882,1,0,0:0:0:0:
256,192,30060,2,0,L|-1229:-1293|-3130:-3194|-4081:-4145|-4033:-4145,8,35
256,192,31489,1,0,0:0:0:0:
256,192,31667,1,2,0:0:0:0:
256,192,31757,1,2,0:0:0:0:
256,192,31846,1,2,0:0:0:0:
256,192,32203,1,2,0:0:0:0:
256,192,32471,1,0,0:0:0:0:
256,192,32739,1,0,0:0:0:0:
256,192,32917,2,0,L|-1165:-1229|-3015:-3079|-3940:-4004|-3892:-4004,8,35
256,192,33989,1,2,0:0:0:0:
256,192,34346,1,0,0:0:0:0:
256,192,34435,1,0,0:0:0:0:
256,192,34525,1,0,0:0:0:0:
256,192,34703,1,2,0:0:0:0:
256,192,34882,1,0,0:0:0:0:
256,192,35239,1,0,0:0:0:0:
256,192,35417,1,2,0:0:0:0:
256,192,35596,1,0,0:0:0:0:
256,192,35775,1,0,0:0:0:0:
256,192,36132,1,0,0:0:0:0:
256,192,36310,1,0,0:0:0:0:
256,192,36489,1,2,0:0:0:0:
256,192,36667,1,0,0:0:0:0:
256,192,36846,1,2,0:0:0:0:
256,192,37203,1,0,0:0:0:0:
256,192,37381,1,2,0:0:0:0:
256,192,37470,1,2,0:0:0:0:
256,192,37560,1,2,0:0:0:0:
256,192,37917,1,2,0:0:0:0:
256,192,38185,1,0,0:0:0:0:
256,192,38453,1,2,0:0:0:0:
256,192,38632,2,2,L|-1005:-1069|-2720:-2784|-3578:-3642|-3530:-3642,8,35
256,192,40060,1,0,0:0:0:0:
256,192,40239,1,2,0:0:0:0:
256,192,40328,1,2,0:0:0:0:
256,192,40417,1,2,0:0:0:0:
256,192,40774,1,2,0:0:0:0:
256,192,41042,1,2,0:0:0:0:
256,192,41310,1,0,0:0:0:0:
256,192,41489,2,0,L|-941:-1005|-2605:-2669|-3438:-3502|-3390:-3502,8,35
256,192,42917,1,0,0:0:0:0:
256,192,43095,1,0,0:0:0:0:
256,192,43185,1,0,0:0:0:0:
256,192,43274,1,0,0:0:0:0:
256,192,43631,1,0,0:0:0:0:
256,192,43899,1,0,0:0:0:0:
256,192,44167,1,2,0:0:0:0:
256,192,44346,2,0,L|-877:-941|-2490:-2554|-3297:-3361|-3249:-3361,8,35
256,192,45775,1,4,0:0:0:0:
256,192,46132,1,4,0:0:0:0:
256,192,46489,1,6,0:0:0:0:
256,192,46846,1,6,0:0:0:0:
256,192,47203,2,0,L|-845:-909|-2426:-2490|-3217:-3281|-3169:-3281,8,35
256,192,48632,1,4,0:0:0:0:
256,192,48900,1,4,0:0:0:0:
256,192,49167,1,4,0:0:0:0:
256,192,49346,1,4,0:0:0:0:
256,192,49703,1,6,0:0:0:0:
256,192,50060,1,6,0:0:0:0:
256,192,50238,1,2,0:0:0:0:
256,192,50327,1,2,0:0:0:0:
256,192,50417,1,2,0:0:0:0:
256,192,50596,1,2,0:0:0:0:
256,192,50775,1,0,0:0:0:0:
256,192,50953,1,0,0:0:0:0:
256,192,51132,1,2,0:0:0:0:
256,192,51310,1,0,0:0:0:0:
256,192,51489,2,0,L|-749:-813|-2247:-2311|-2996:-3060|-2948:-3060,8,35
256,192,52560,1,0,0:0:0:0:
256,192,52739,1,0,0:0:0:0:
256,192,52917,1,2,0:0:0:0:
256,192,53096,1,0,0:0:0:0:
256,192,53275,1,2,0:0:0:0:
256,192,53453,1,2,0:0:0:0:
256,192,53632,1,0,0:0:0:0:
256,192,53810,1,0,0:0:0:0:
256,192,53989,1,2,0:0:0:0:
256,192,54346,1,0,0:0:0:0:
256,192,54703,1,0,0:0:0:0:
256,192,54882,1,0,0:0:0:0:
256,192,54971,1,0,0:0:0:0:
256,192,55060,1,0,0:0:0:0:
256,192,55596,1,0,0:0:0:0:
256,192,55775,1,2,0:0:0:0:
256,192,56132,1,0,0:0:0:0:
256,192,56310,1,0,0:0:0:0:
256,192,56667,1,0,0:0:0:0:
256,192,56846,1,2,0:0:0:0:
256,192,57203,1,0,0:0:0:0:
256,192,57381,1,0,0:0:0:0:
256,192,57560,1,0,0:0:0:0:
256,192,57738,1,2,0:0:0:0:
256,192,58275,1,0,0:0:0:0:
256,192,58453,1,0,0:0:0:0:
256,192,58632,1,2,0:0:0:0:
256,192,58810,1,0,0:0:0:0:
256,192,58900,1,0,0:0:0:0:
256,192,58989,1,0,0:0:0:0:
256,192,59167,1,2,0:0:0:0:
256,192,59525,1,0,0:0:0:0:
256,192,59703,1,2,0:0:0:0:
256,192,59882,1,0,0:0:0:0:
256,192,60060,1,6,0:0:0:0:
256,192,60328,1,6,0:0:0:0:
256,192,60596,1,6,0:0:0:0:
256,192,60775,1,4,0:0:0:0:
256,192,61489,1,4,0:0:0:0:
256,192,61667,1,0,0:0:0:0:
256,192,61756,1,0,0:0:0:0:
256,192,61846,1,0,0:0:0:0:
256,192,62025,1,0,0:0:0:0:
256,192,62203,1,2,0:0:0:0:
256,192,62382,1,0,0:0:0:0:
256,192,62560,1,2,0:0:0:0:
256,192,62739,1,2,0:0:0:0:
256,192,62917,2,0,L|-435:-499|-1651:-1715|-2259:-2323|-2211:-2323,8,35
256,192,63989,1,0,0:0:0:0:
256,192,64168,1,0,0:0:0:0:
256,192,64346,1,2,0:0:0:0:
256,192,64525,1,0,0:0:0:0:
256,192,64702,1,2,0:0:0:0:
256,192,64882,1,2,0:0:0:0:
256,192,65059,1,0,0:0:0:0:
256,192,65239,1,0,0:0:0:0:
256,192,65418,1,2,0:0:0:0:
256,192,65775,1,0,0:0:0:0:
256,192,66132,1,0,0:0:0:0:
256,192,66309,1,0,0:0:0:0:
256,192,66400,1,0,0:0:0:0:
256,192,66489,1,0,0:0:0:0:
256,192,67025,1,0,0:0:0:0:
256,192,67202,1,2,0:0:0:0:
256,192,67560,1,0,0:0:0:0:
256,192,67739,1,0,0:0:0:0:
256,192,68096,1,0,0:0:0:0:
256,192,68275,1,2,0:0:0:0:
256,192,68632,1,0,0:0:0:0:
256,192,68810,1,0,0:0:0:0:
256,192,68989,1,0,0:0:0:0:
256,192,69167,1,2,0:0:0:0:
256,192,69703,1,0,0:0:0:0:
256,192,69882,1,0,0:0:0:0:
256,192,70059,1,2,0:0:0:0:
256,192,70239,1,0,0:0:0:0:
256,192,70327,1,0,0:0:0:0:
256,192,70418,1,0,0:0:0:0:
256,192,70596,1,2,0:0:0:0:
256,192,70952,1,0,0:0:0:0:
256,192,71132,1,2,0:0:0:0:
256,192,71309,1,0,0:0:0:0:
256,192,71489,1,6,0:0:0:0:
256,192,71757,1,6,0:0:0:0:
256,192,72025,1,6,0:0:0:0:
256,192,72202,1,4,0:0:0:0:
256,192,72917,1,0,0:0:0:0:
256,192,73095,1,0,0:0:0:0:
256,192,73184,1,0,0:0:0:0:
256,192,73274,1,0,0:0:0:0:
256,192,73452,1,2,0:0:0:0:
256,192,73631,1,0,0:0:0:0:
256,192,73809,1,2,0:0:0:0:
256,192,73988,1,0,0:0:0:0:
256,192,74346,1,2,0:0:0:0:
256,192,74524,1,2,0:0:0:0:
256,192,74614,1,2,0:0:0:0:
256,192,74703,1,2,0:0:0:0:
256,192,74881,1,2,0:0:0:0:
256,192,75060,1,0,0:0:0:0:
256,192,75238,1,2,0:0:0:0:
256,192,75417,1,0,0:0:0:0:
256,192,75775,1,0,0:0:0:0:
256,192,75953,1,2,0:0:0:0:
256,192,76043,1,2,0:0:0:0:
256,192,76132,1,2,0:0:0:0:
256,192,76310,1,2,0:0:0:0:
256,192,76489,1,0,0:0:0:0:
256,192,76667,1,2,0:0:0:0:
256,192,76846,1,0,0:0:0:0:
256,192,77203,1,2,0:0:0:0:
256,192,77382,1,0,0:0:0:0:
256,192,77471,1,0,0:0:0:0:
256,192,77560,1,0,0:0:0:0:
256,192,77739,1,2,0:0:0:0:
256,192,77917,1,0,0:0:0:0:
256,192,78096,1,2,0:0:0:0:
256,192,78275,1,0,0:0:0:0:
256,192,78632,1,2,0:0:0:0:
256,192,78810,1,0,0:0:0:0:
256,192,78900,1,0,0:0:0:0:
256,192,78989,1,0,0:0:0:0:
256,192,79167,1,2,0:0:0:0:
256,192,79346,1,0,0:0:0:0:
256,192,79524,1,0,0:0:0:0:
256,192,79703,1,0,0:0:0:0:
256,192,80059,1,2,0:0:0:0:
256,192,80238,1,2,0:0:0:0:
256,192,80327,1,2,0:0:0:0:
256,192,80417,1,2,0:0:0:0:
256,192,80595,1,2,0:0:0:0:
256,192,80774,1,0,0:0:0:0:
256,192,80952,1,2,0:0:0:0:
256,192,81131,1,0,0:0:0:0:
256,192,81489,1,2,0:0:0:0:
256,192,81667,1,0,0:0:0:0:
256,192,81845,1,2,0:0:0:0:
256,192,82024,1,2,0:0:0:0:
256,192,82203,1,0,0:0:0:0:
256,192,82382,1,0,0:0:0:0:
256,192,82560,1,2,0:0:0:0:
256,192,82917,1,6,0:0:0:0:
256,192,83185,1,6,0:0:0:0:
256,192,83453,1,6,0:0:0:0:
256,192,83632,1,4,0:0:0:0:
256,192,84346,1,6,0:0:0:0:
256,192,84524,1,2,0:0:0:0:
256,192,84613,1,2,0:0:0:0:
256,192,84703,1,2,0:0:0:0:
256,192,84882,1,2,0:0:0:0:
256,192,85060,1,0,0:0:0:0:
256,192,85239,1,0,0:0:0:0:
256,192,85417,1,2,0:0:0:0:
256,192,85596,1,0,0:0:0:0:
256,192,85775,2,0,L|-307:-371|-589:-653|-541:-653,8,35
256,192,86846,1,2,0:0:0:0:
256,192,87024,1,2,0:0:0:0:
256,192,87203,1,0,0:0:0:0:
256,192,87382,1,2,0:0:0:0:
256,192,87559,1,0,0:0:0:0:
256,192,87739,1,0,0:0:0:0:
256,192,87918,1,2,0:0:0:0:
256,192,88096,1,2,0:0:0:0:
256,192,88275,1,0,0:0:0:0:
256,192,88631,1,2,0:0:0:0:
256,192,88989,1,2,0:0:0:0:
256,192,89168,1,2,0:0:0:0:
256,192,89257,1,2,0:0:0:0:
256,192,89346,1,2,0:0:0:0:
256,192,89882,1,2,0:0:0:0:
256,192,90059,1,0,0:0:0:0:
256,192,90418,1,0,0:0:0:0:
256,192,90596,1,2,0:0:0:0:
256,192,90953,1,2,0:0:0:0:
256,192,91132,1,0,0:0:0:0:
256,192,91489,1,2,0:0:0:0:
256,192,91667,1,2,0:0:0:0:
256,192,91845,1,2,0:0:0:0:
256,192,92024,1,0,0:0:0:0:
256,192,92560,1,2,0:0:0:0:
256,192,92738,1,0,0:0:0:0:
256,192,92917,1,0,0:0:0:0:
256,192,93096,1,2,0:0:0:0:
256,192,93185,1,2,0:0:0:0:
256,192,93275,1,2,0:0:0:0:
256,192,93453,1,0,0:0:0:0:
256,192,93809,1,2,0:0:0:0:
256,192,93989,1,0,0:0:0:0:
256,192,94168,1,2,0:0:0:0:
256,192,94346,1,6,0:0:0:0:
256,192,94614,1,6,0:0:0:0:
256,192,94882,1,6,0:0:0:0:
256,192,95059,1,4,0:0:0:0:
272,192,95595,1,2,0:0:0:0:
272,192,95775,1,2,0:0:0:0:
256,192,96310,1,2,0:0:0:0:
256,192,96489,1,0,0:0:0:0:
256,192,96667,1,2,0:0:0:0:
256,192,96846,1,0,0:0:0:0:
256,192,97203,1,2,0:0:0:0:
256,192,97382,1,0,0:0:0:0:
256,192,97560,1,2,0:0:0:0:
256,192,97917,1,0,0:0:0:0:
256,192,98185,1,2,0:0:0:0:
256,192,98453,1,0,0:0:0:0:
256,192,98632,1,2,0:0:0:0:
256,192,98721,1,2,0:0:0:0:
256,192,98810,1,2,0:0:0:0:
256,192,99167,1,2,0:0:0:0:
256,192,99257,1,2,0:0:0:0:
256,192,99346,1,2,0:0:0:0:
256,192,99703,1,2,0:0:0:0:
256,192,99792,1,2,0:0:0:0:
256,192,99882,1,2,0:0:0:0:
256,192,100239,1,2,0:0:0:0:
256,192,100328,1,2,0:0:0:0:
256,192,100417,1,2,0:0:0:0:
256,192,100775,1,6,0:0:0:0:
256,192,101042,1,6,0:0:0:0:
256,192,101310,1,6,0:0:0:0:
256,192,101489,1,4,0:0:0:0:
256,192,102024,1,2,0:0:0:0:
256,192,102203,1,0,0:0:0:0:
256,192,102381,1,2,0:0:0:0:
256,192,102560,1,0,0:0:0:0:
256,192,102917,1,2,0:0:0:0:
256,192,103096,1,0,0:0:0:0:
256,192,103274,1,2,0:0:0:0:
256,192,103631,1,0,0:0:0:0:
256,192,103899,1,2,0:0:0:0:
256,192,104167,1,0,0:0:0:0:
256,192,104346,1,2,0:0:0:0:
256,192,104435,1,2,0:0:0:0:
256,192,104524,1,2,0:0:0:0:
256,192,104881,1,2,0:0:0:0:
256,192,104971,1,2,0:0:0:0:
256,192,105060,1,2,0:0:0:0:
256,192,105417,1,2,0:0:0:0:
256,192,105507,1,2,0:0:0:0:
256,192,105596,1,2,0:0:0:0:
256,192,105953,1,2,0:0:0:0:
256,192,106042,1,2,0:0:0:0:
256,192,106131,1,2,0:0:0:0:
256,192,106489,1,6,0:0:0:0:
256,192,106757,1,6,0:0:0:0:
256,192,107024,1,6,0:0:0:0:
256,192,107560,1,4,0:0:0:0:
256,192,107739,12,0,110775,0:0:0:0:
