osu file format v14

[General]
AudioFilename: audio.mp3
AudioLeadIn: 0
PreviewTime: 100465
Countdown: 0
SampleSet: Soft
StackLeniency: 0.5
Mode: 0
LetterboxInBreaks: 0
SkinPreference:Default
WidescreenStoryboard: 1

[Editor]
DistanceSpacing: 1
BeatDivisor: 4
GridSize: 4
TimelineZoom: 1

[Metadata]
Title:Kero (9) destiny
TitleUnicode:ケロ⑨destiny
Artist:Silver Forest
ArtistUnicode:Silver Forest
Creator:Bloxi
Version:Nice Boat!
Source:東方風神録 ~ Mountain of Faith.
Tags:japanese touhou 東方project 2hu video game vgm zun 風神録 mountain of faith mof th10 native ネイティブフェイス 洩矢諏訪子 もりやすわこ moriya suwako comiket c73 蒼天歌 チルノ always cirnos turn cirno chiruno nine revolution school days めらみぽっぷ meramipop 重音 テト kasane teto territory project_railgun project railgun kolikiscool kloster chanmann
BeatmapID:3423826
BeatmapSetID:1670776

[Difficulty]
HPDrainRate:6
CircleSize:5
OverallDifficulty:9
ApproachRate:8
SliderMultiplier:1.92
SliderTickRate:1

[Events]
//Background and Video events
Video,-861,"video.avi"
0,0,"bg.jpg",0,0
//Break Periods
2,67176,77089
2,122990,127622
2,128746,131459
//Storyboard Layer 0 (Background)
//Storyboard Layer 1 (Fail)
//Storyboard Layer 2 (Pass)
//Storyboard Layer 3 (Foreground)
Sprite,Foreground,Centre,"default-9.png",320,240 M,0,192194,,320,240 F,0,192194,192281,0
//Storyboard Layer 4 (Overlay)
//Storyboard Sound Samples

[TimingPoints]
0,348.837209302326,4,2,1,75,1,0
15,-100,4,2,1,55,0,0
5581,-100,4,2,1,65,0,0
43081,-90.9090909090909,4,2,1,65,0,0
43430,-76.9230769230769,4,2,1,50,0,0
43779,-66.6666666666667,4,2,1,60,0,0
44127,-50,4,2,1,70,0,0
44651,-80,4,2,1,75,0,1
55726,-80,4,2,1,75,0,0
55813,-80,4,2,1,75,0,1
66976,-100,4,2,1,75,0,0
100465,-80,4,2,1,75,0,1
111540,-80,4,2,1,75,0,0
111627,-80,4,2,1,75,0,1
122790,-100,4,2,1,65,0,0
128546,-100,4,2,1,5,0,0
132209,-125,4,2,1,65,0,0
135348,-100,4,2,1,65,0,0
136569,-90.9090909090909,4,2,1,65,0,0
136918,-76.9230769230769,4,2,1,50,0,0
137267,-66.6666666666667,4,2,1,60,0,0
137616,-50,4,2,1,70,0,0
138139,-80,4,2,1,75,0,1
149215,-80,4,2,1,75,0,0
149302,-80,4,2,1,75,0,1
160465,-100,4,2,1,55,0,0
161860,-100,4,2,1,75,0,0
163255,-100,4,2,1,5,0,0

[Colours]
Combo1 : 230,236,148
Combo2 : 131,161,87
Combo3 : 177,194,202
Combo4 : 219,123,83
Sliderborder : 255,255,255

[HitObjects]
512,192,0,5,4,0:0:0:0:
0,192,697,1,2,0:0:0:0:
256,0,1395,1,2,0:0:0:0:
256,384,2093,1,2,0:0:0:0:
256,0,2790,5,6,0:0:0:0:
512,0,3139,1,2,0:0:0:0:
256,0,3488,1,2,0:0:0:0:
0,0,3837,1,2,0:0:0:0:
48,0,3924,1,2,0:0:0:0:
96,0,4011,2,2,L|96:128,1,96,2|2,0:0|0:0,0:0:0:0:
96,192,4360,1,2,0:0:0:0:
144,192,4447,1,2,0:0:0:0:
192,192,4534,2,2,L|288:192,2,96,2|2|2,0:0|0:0|0:0,0:0:0:0:
496,384,5581,5,6,1:0:0:0:
448,384,5668,1,2,0:0:0:0:
400,384,5755,1,2,0:0:0:0:
352,384,5843,1,2,0:0:0:0:
304,384,5930,1,10,0:0:0:0:
256,384,6017,1,2,0:0:0:0:
256,336,6104,1,2,0:0:0:0:
256,288,6191,1,2,0:0:0:0:
256,240,6279,6,2,L|320:240,1,48,2|2,1:0|0:0,0:0:0:0:
256,192,6453,2,2,L|320:192,1,48,2|2,0:0|0:0,0:0:0:0:
256,144,6627,2,2,L|192:144,1,48,10|2,0:0|0:0,0:0:0:0:
256,96,6801,2,2,L|192:96,1,48,2|2,0:0|0:0,0:0:0:0:
160,96,6976,5,2,1:0:0:0:
112,96,7063,1,2,0:0:0:0:
64,96,7151,1,2,0:0:0:0:
64,144,7238,1,2,0:0:0:0:
64,192,7325,1,10,0:0:0:0:
112,192,7412,1,2,0:0:0:0:
160,192,7500,1,2,0:0:0:0:
160,240,7587,1,2,0:0:0:0:
160,288,7674,6,2,L|160:336,1,48,2|2,1:0|0:0,0:0:0:0:
208,336,7848,2,2,L|208:288,1,48,2|2,0:0|0:0,0:0:0:0:
256,288,8023,2,2,L|256:336,1,48,10|2,0:0|0:0,0:0:0:0:
304,336,8197,2,2,L|304:288,1,48,2|2,0:0|0:0,0:0:0:0:
352,288,8372,5,6,1:0:0:0:
400,288,8459,1,2,0:0:0:0:
448,288,8546,1,2,0:0:0:0:
448,240,8633,1,2,0:0:0:0:
448,192,8720,1,10,0:0:0:0:
400,192,8808,1,2,0:0:0:0:
352,192,8895,1,2,0:0:0:0:
352,144,8982,1,2,0:0:0:0:
352,96,9069,6,2,L|352:16,1,48,2|2,1:0|0:0,0:0:0:0:
352,0,9244,2,2,L|304:0,1,48,2|2,0:0|0:0,0:0:0:0:
256,0,9418,2,2,L|256:48,1,48,10|2,0:0|0:0,0:0:0:0:
208,0,9593,2,2,L|160:0,1,48,2|2,0:0|0:0,0:0:0:0:
160,48,9767,5,2,1:0:0:0:
160,96,9854,1,2,0:0:0:0:
160,144,9941,1,2,0:0:0:0:
160,192,10029,1,2,0:0:0:0:
112,192,10116,1,10,0:0:0:0:
64,192,10203,1,2,0:0:0:0:
64,240,10290,1,2,0:0:0:0:
64,288,10377,1,2,0:0:0:0:
112,288,10465,6,2,L|160:288,1,48,2|2,1:0|0:0,0:0:0:0:
256,288,10639,2,2,L|208:288,1,48,2|2,0:0|0:0,0:0:0:0:
304,288,10813,2,2,L|352:288,1,48,10|2,0:0|0:0,0:0:0:0:
448,288,10988,2,2,L|400:288,1,48,2|2,0:0|0:0,0:0:0:0:
448,240,11162,6,2,L|448:48,1,192,6|10,0:0|0:0,0:0:0:0:
352,48,11686,1,2,0:0:0:0:
256,48,11860,2,2,L|256:256,1,192,2|10,0:0|0:0,0:0:0:0:
256,336,12383,1,2,0:0:0:0:
160,336,12558,1,2,0:0:0:0:
160,48,12819,1,2,0:0:0:0:
160,192,13081,1,2,0:0:0:0:
256,48,13255,2,2,L|352:48,1,96,2|2,0:0|0:0,0:0:0:0:
448,48,13604,5,10,0:0:0:0:
448,144,13779,1,2,0:0:0:0:
352,144,13953,2,2,L|352:336,1,192,2|10,0:0|0:0,0:0:0:0:
448,336,14476,1,2,0:0:0:0:
448,48,14651,1,2,0:0:0:0:
448,240,14912,1,2,0:0:0:0:
448,144,15174,1,2,0:0:0:0:
352,144,15348,2,2,L|160:144,1,192,2|10,0:0|0:0,0:0:0:0:
64,144,15872,5,2,0:0:0:0:
64,240,16046,2,2,L|64:292,2,48
64,336,16395,1,10,0:0:0:0:
160,336,16569,1,2,0:0:0:0:
160,240,16744,6,2,L|160:48,1,192,6|10,0:0|0:0,0:0:0:0:
256,0,17267,1,2,0:0:0:0:
256,96,17441,2,2,L|256:240,2,144,2|2|2,0:0|0:0|0:0,0:0:0:0:
352,48,18139,2,2,L|352:192,2,144
256,0,18837,2,2,L|256:144,2,144
160,48,19534,1,6,0:0:0:0:
256,192,19883,1,10,0:0:0:0:
352,48,20232,1,6,0:0:0:0:
256,192,20494,1,2,0:0:0:0:
368,192,20755,5,2,0:0:0:0:
256,192,20930,1,6,0:0:0:0:
144,192,21104,1,2,0:0:0:0:
256,192,21279,1,14,0:0:0:0:
368,192,21453,1,2,0:0:0:0:
144,192,21627,2,2,B|124:184|124:184|124:200|124:200|108:184|108:184|108:200|108:200|88:192,1,96,6|2,0:0|0:0,0:0:0:0:
320,288,22325,6,2,L|512:288,1,192,6|10,0:0|0:0,0:0:0:0:
512,192,22848,1,2,0:0:0:0:
512,96,23023,2,2,L|320:96,1,192,2|10,0:0|0:0,0:0:0:0:
224,96,23546,1,2,0:0:0:0:
224,96,23720,1,2,0:0:0:0:
224,288,23982,1,2,0:0:0:0:
0,192,24244,1,2,0:0:0:0:
224,192,24418,1,2,0:0:0:0:
416,288,24767,5,10,0:0:0:0:
416,384,24941,1,2,0:0:0:0:
416,288,25116,2,2,L|416:96,1,192,2|10,0:0|0:0,0:0:0:0:
416,0,25639,1,2,0:0:0:0:
320,0,25813,2,2,L|176:0,2,144,2|2|2,0:0|0:0|0:0,0:0:0:0:
320,96,26511,2,2,L|320:304,1,192,2|10,0:0|0:0,0:0:0:0:
256,352,27034,5,2,0:0:0:0:
192,288,27209,2,2,L|192:224,2,48
192,191,27558,1,10,0:0:0:0:
192,191,27732,1,2,0:0:0:0:
192,191,27906,2,2,L|1:191,1,192,6|10,0:0|0:0,0:0:0:0:
7,101,28430,5,2,0:0:0:0:
55,101,28517,1,2,0:0:0:0:
102,101,28604,1,2,0:0:0:0:
198,101,28779,1,2,0:0:0:0:
29,192,29127,1,2,0:0:0:0:
125,192,29302,2,2,L|269:192,2,144,2|2|2,0:0|0:0|0:0,0:0:0:0:
101,285,30000,2,2,L|245:285,2,144,2|2|2,0:0|0:0|0:0,0:0:0:0:
125,192,30697,5,6,0:0:0:0:
387,192,31046,1,2,0:0:0:0:
256,80,31395,1,6,0:0:0:0:
56,192,31656,1,2,0:0:0:0:
456,192,31918,1,2,0:0:0:0:
256,384,32093,2,2,L|256:288,1,96,6|2,0:0|0:0,0:0:0:0:
176,240,32441,2,2,L|176:336,1,96,6|2,0:0|0:0,0:0:0:0:
336,336,32790,2,2,L|336:240,1,96,6|2,0:0|1:0,0:0:0:0:
256,96,33139,1,2,1:0:0:0:
256,0,33488,5,2,1:0:0:0:
208,0,33575,1,2,0:0:0:0:
208,48,33662,1,2,0:0:0:0:
160,48,33750,1,2,0:0:0:0:
160,96,33837,1,10,0:0:0:0:
112,96,33924,1,2,0:0:0:0:
112,144,34011,1,2,0:0:0:0:
64,144,34098,1,2,0:0:0:0:
32,192,34186,6,2,L|112:192,1,48,2|2,1:0|0:0,0:0:0:0:
64,240,34360,2,2,L|112:240,1,48,2|2,0:0|0:0,0:0:0:0:
112,288,34534,2,2,L|192:288,1,48,10|2,0:0|0:0,0:0:0:0:
160,336,34709,2,2,L|208:336,1,48,2|2,0:0|0:0,0:0:0:0:
304,336,34883,5,2,1:0:0:0:
352,336,34970,1,2,0:0:0:0:
352,288,35057,1,2,0:0:0:0:
400,288,35145,1,2,0:0:0:0:
400,240,35232,1,10,0:0:0:0:
448,240,35319,1,2,0:0:0:0:
432,192,35406,1,2,0:0:0:0:
480,192,35493,1,2,0:0:0:0:
448,144,35581,6,2,L|368:144,1,48,2|2,1:0|0:0,0:0:0:0:
400,96,35755,2,2,L|352:96,1,48,2|2,0:0|0:0,0:0:0:0:
352,48,35929,2,2,L|272:48,1,48,10|2,0:0|0:0,0:0:0:0:
304,0,36104,2,2,L|256:0,1,48,2|2,0:0|0:0,0:0:0:0:
256,52,36279,5,2,1:0:0:0:
256,103,36366,1,2,0:0:0:0:
256,154,36453,1,2,0:0:0:0:
256,205,36540,1,2,0:0:0:0:
256,256,36627,1,10,0:0:0:0:
256,308,36715,1,2,0:0:0:0:
256,256,36802,1,2,0:0:0:0:
256,205,36889,1,2,0:0:0:0:
256,154,36976,6,2,L|192:154,1,48,2|2,1:0|0:0,0:0:0:0:
256,102,37151,2,2,L|336:102,1,48
256,51,37325,2,2,L|176:51,1,48,10|2,0:0|0:0,0:0:0:0:
256,0,37500,2,2,L|304:0,1,48
256,0,37674,6,2,L|208:0,1,48,2|2,1:0|0:0,0:0:0:0:
256,51,37848,2,2,L|336:51,1,48,2|2,0:0|0:0,0:0:0:0:
256,102,38023,2,2,L|208:102,1,48,10|2,0:0|0:0,0:0:0:0:
256,154,38198,2,2,L|304:154,1,48
256,205,38372,2,2,L|256:353,1,144,2|2,1:0|0:0,0:0:0:0:
64,192,38895,1,2,0:0:0:0:
448,192,39069,5,2,1:0:0:0:
448,144,39156,1,2,0:0:0:0:
400,144,39243,1,2,0:0:0:0:
400,96,39331,1,2,0:0:0:0:
352,96,39418,1,10,0:0:0:0:
352,48,39505,1,2,0:0:0:0:
304,48,39592,1,2,0:0:0:0:
304,0,39679,1,2,0:0:0:0:
256,0,39767,6,2,L|304:0,1,48,2|2,1:0|0:0,0:0:0:0:
304,48,39941,2,2,L|304:128,1,48,2|2,0:0|0:0,0:0:0:0:
352,96,40116,2,2,L|400:96,1,48,10|2,0:0|0:0,0:0:0:0:
448,96,40290,2,2,L|448:176,1,48,2|2,0:0|0:0,0:0:0:0:
448,192,40465,5,2,1:0:0:0:
448,240,40552,1,2,0:0:0:0:
400,240,40639,1,2,0:0:0:0:
400,288,40727,1,2,0:0:0:0:
352,288,40814,1,10,0:0:0:0:
352,336,40901,1,2,0:0:0:0:
304,336,40988,1,2,0:0:0:0:
304,384,41075,1,2,0:0:0:0:
256,384,41162,6,2,L|208:384,1,48,2|2,1:0|0:0,0:0:0:0:
208,336,41336,2,2,L|208:256,1,48,2|2,0:0|0:0,0:0:0:0:
160,288,41511,2,2,L|112:288,1,48,10|2,0:0|0:0,0:0:0:0:
64,288,41685,2,2,L|64:208,1,48,2|2,0:0|0:0,0:0:0:0:
100,192,41860,5,2,1:0:0:0:
152,192,41947,1,2,0:0:0:0:
204,192,42034,1,2,0:0:0:0:
256,192,42121,1,2,0:0:0:0:
308,192,42208,1,10,0:0:0:0:
361,192,42296,1,2,0:0:0:0:
413,192,42383,1,2,0:0:0:0:
465,192,42470,1,2,0:0:0:0:
413,192,42557,6,2,L|413:128,1,48,2|2,1:0|0:0,0:0:0:0:
361,192,42732,2,2,L|361:272,1,48
308,192,42906,2,2,L|308:112,1,48,10|2,0:0|0:0,0:0:0:0:
256,192,43081,2,2,L|256:244,1,52.8000016113282
204,192,43255,6,2,L|204:128,1,52.8000016113282,2|2,1:0|0:0,0:0:0:0:
152,192,43430,2,2,L|152:256,1,62.3999971435548,2|2,1:0|0:0,0:0:0:0:
152,192,43604,2,2,L|152:96,1,62.3999971435548,10|2,1:0|0:0,0:0:0:0:
100,192,43779,2,2,L|100:288,1,72.0000027465821,2|2,1:0|0:0,0:0:0:0:
100,192,43953,2,2,L|100:96,1,72.0000027465821,2|2,1:0|0:0,0:0:0:0:
47,192,44127,2,2,L|47:296,1,96,2|2,1:0|0:0,0:0:0:0:
47,192,44302,2,2,L|47:64,1,96,10|2,1:0|0:0,0:0:0:0:
256,372,44651,6,2,L|256:192,1,180,6|2,1:0|0:0,0:0:0:0:
256,12,45174,1,2,0:0:0:0:
256,192,45348,1,2,1:0:0:0:
176,96,45523,1,10,0:0:0:0:
336,96,45697,1,10,0:0:0:0:
176,96,45872,1,2,0:0:0:0:
64,192,46046,6,2,L|184:192,1,120,2|2,1:0|0:0,0:0:0:0:
256,192,46308,1,2,0:0:0:0:
448,192,46569,2,2,L|328:192,1,120,2|2,0:0|1:0,0:0:0:0:
256,372,46918,1,10,0:0:0:0:
256,192,47093,1,10,0:0:0:0:
256,372,47267,1,2,0:0:0:0:
176,288,47441,5,2,1:0:0:0:
256,96,47703,1,2,0:0:0:0:
336,288,47965,1,2,0:0:0:0:
176,288,48139,1,2,1:0:0:0:
336,288,48401,1,2,0:0:0:0:
256,372,48662,1,2,0:0:0:0:
256,96,48837,2,2,L|256:336,2,240,2|10|2,1:0|0:0|1:0,0:0:0:0:
144,372,49709,1,10,0:0:0:0:
368,372,49883,1,10,0:0:0:0:
256,192,50232,6,2,L|256:12,1,180,6|2,1:0|0:0,0:0:0:0:
256,372,50755,1,2,0:0:0:0:
256,192,50929,1,2,1:0:0:0:
336,288,51104,1,10,0:0:0:0:
176,288,51278,1,10,0:0:0:0:
336,288,51453,1,2,0:0:0:0:
448,192,51627,6,2,L|328:192,1,120,2|2,1:0|0:0,0:0:0:0:
256,192,51889,1,2,0:0:0:0:
64,192,52150,2,2,L|184:192,1,120,2|2,0:0|1:0,0:0:0:0:
256,12,52499,1,10,0:0:0:0:
256,192,52674,1,2,0:0:0:0:
256,12,52848,1,10,0:0:0:0:
384,96,53023,5,6,1:0:0:0:
256,288,53284,1,2,0:0:0:0:
128,96,53546,1,2,0:0:0:0:
384,96,53720,1,6,1:0:0:0:
128,96,53982,1,2,0:0:0:0:
256,12,54243,1,2,0:0:0:0:
256,288,54418,2,2,L|256:48,2,240,6|6|6,1:0|0:0|1:0,0:0:0:0:
436,12,55290,5,2,1:0:0:0:
76,12,55464,1,2,1:0:0:0:
436,192,55813,6,2,L|256:192,1,180,6|2,1:0|0:0,0:0:0:0:
256,372,56336,1,2,0:0:0:0:
76,192,56510,1,2,1:0:0:0:
176,288,56685,1,10,0:0:0:0:
256,192,56859,1,10,0:0:0:0:
336,288,57034,1,2,0:0:0:0:
436,192,57208,6,2,L|436:51,1,120,2|2,1:0|0:0,0:0:0:0:
436,12,57470,1,2,0:0:0:0:
256,12,57731,2,2,L|376:12,1,120,2|2,0:0|1:0,0:0:0:0:
256,192,58080,1,10,0:0:0:0:
136,12,58255,1,10,0:0:0:0:
256,192,58429,1,2,0:0:0:0:
176,96,58603,5,2,1:0:0:0:
256,288,58865,1,2,0:0:0:0:
336,96,59127,1,2,0:0:0:0:
176,96,59301,1,2,1:0:0:0:
336,96,59563,1,2,0:0:0:0:
256,12,59824,1,2,0:0:0:0:
256,288,60000,2,2,L|256:48,2,240,2|10|2,1:0|0:0|1:0,0:0:0:0:
76,12,60872,5,2,1:0:0:0:
436,12,61046,1,2,1:0:0:0:
256,192,61395,6,2,L|64:192,1,180,6|2,1:0|0:0,0:0:0:0:
256,12,61918,1,2,0:0:0:0:
436,192,62092,1,2,1:0:0:0:
336,96,62267,1,10,0:0:0:0:
256,192,62441,1,10,0:0:0:0:
176,96,62616,1,2,0:0:0:0:
76,192,62790,6,2,L|76:333,1,120,2|2,1:0|0:0,0:0:0:0:
76,372,63052,1,2,0:0:0:0:
256,372,63313,2,2,L|136:372,1,120,2|2,0:0|1:0,0:0:0:0:
256,192,63662,1,10,0:0:0:0:
376,372,63837,1,2,0:0:0:0:
256,192,64011,1,10,0:0:0:0:
416,272,64185,5,6,1:0:0:0:
256,72,64447,1,2,0:0:0:0:
96,272,64709,1,2,0:0:0:0:
436,144,64883,1,6,1:0:0:0:
76,144,65145,1,2,0:0:0:0:
256,384,65406,1,2,0:0:0:0:
256,72,65581,2,2,L|256:312,2,240,6|6|6,1:0|0:0|1:0,0:0:0:0:
76,384,66453,5,2,1:0:0:0:
436,384,66627,1,2,1:0:0:0:
256,192,66976,5,6,0:0:0:0:
64,144,78139,6,2,L|64:336,1,192,6|10,0:0|0:0,0:0:0:0:
160,336,78663,1,2,0:0:0:0:
256,336,78837,2,2,L|448:336,1,192,2|10,0:0|0:0,0:0:0:0:
448,240,79360,1,2,0:0:0:0:
448,144,79535,1,2,0:0:0:0:
304,0,79796,1,2,0:0:0:0:
256,144,80058,1,2,0:0:0:0:
208,0,80232,2,2,L|112:0,1,96
16,0,80581,5,10,0:0:0:0:
16,96,80756,1,2,0:0:0:0:
16,192,80930,2,2,L|16:384,1,192,2|10,0:0|0:0,0:0:0:0:
112,384,81453,1,2,0:0:0:0:
112,288,81628,1,2,0:0:0:0:
400,288,81889,1,2,0:0:0:0:
256,192,82151,1,2,0:0:0:0:
496,192,82325,2,2,L|304:192,1,192,2|10,0:0|0:0,0:0:0:0:
208,192,82849,5,2,0:0:0:0:
256,112,83023,2,2,L|256:64,2,48,2|2|2,0:0|0:0|0:0,0:0:0:0:
256,16,83372,1,10,0:0:0:0:
352,16,83546,1,2,0:0:0:0:
448,16,83721,2,2,L|448:208,1,192,6|10,0:0|0:0,0:0:0:0:
352,304,84244,5,2,0:0:0:0:
304,304,84331,1,2,0:0:0:0:
256,304,84418,1,2,0:0:0:0:
256,208,84593,1,2,0:0:0:0:
64,208,84941,1,2,0:0:0:0:
160,208,85116,2,2,L|160:64,2,144,2|2|2,0:0|0:0|0:0,0:0:0:0:
63,208,85814,2,2,L|63:352,2,144,2|2|2,0:0|0:0|0:0,0:0:0:0:
64,112,86511,5,6,0:0:0:0:
448,112,86860,1,2,0:0:0:0:
256,112,87209,1,6,0:0:0:0:
448,112,87471,1,2,0:0:0:0:
256,192,87732,5,2,0:0:0:0:
256,192,87907,1,6,0:0:0:0:
416,192,88081,1,2,0:0:0:0:
256,192,88255,1,6,0:0:0:0:
96,192,88430,1,2,0:0:0:0:
416,192,88604,2,2,L|512:192,1,96,6|2,0:0|1:0,0:0:0:0:
256,288,88953,1,2,1:0:0:0:
208,96,89302,6,2,L|16:96,1,192,6|10,0:0|0:0,0:0:0:0:
16,192,89825,1,2,0:0:0:0:
16,288,90000,2,2,L|208:288,1,192,2|10,0:0|0:0,0:0:0:0:
304,288,90523,1,2,0:0:0:0:
304,384,90697,1,2,0:0:0:0:
304,0,90959,1,2,0:0:0:0:
304,192,91221,1,2,0:0:0:0:
304,96,91395,1,2,0:0:0:0:
112,96,91744,5,10,0:0:0:0:
112,0,91918,1,2,0:0:0:0:
112,96,92093,2,2,L|112:288,1,192,2|10,0:0|0:0,0:0:0:0:
112,384,92616,1,2,0:0:0:0:
208,384,92790,2,2,L|352:384,2,144,2|2|2,0:0|0:0|0:0,0:0:0:0:
208,288,93488,2,2,L|208:80,1,192,2|10,0:0|0:0,0:0:0:0:
256,16,94011,5,2,0:0:0:0:
304,96,94186,2,2,L|304:160,2,48
306,192,94535,1,10,0:0:0:0:
306,192,94709,1,2,0:0:0:0:
306,192,94883,2,2,L|497:192,1,192,6|10,0:0|0:0,0:0:0:0:
500,294,95407,5,2,0:0:0:0:
452,294,95494,1,2,0:0:0:0:
404,294,95581,2,2,L|260:294,2,144,2|2|2,0:0|0:0|0:0,0:0:0:0:
304,192,96279,2,2,L|160:192,2,144,2|2|2,0:0|0:0|0:0,0:0:0:0:
404,90,96977,2,2,L|260:90,2,144,2|2|2,0:0|0:0|0:0,0:0:0:0:
404,192,97674,5,6,0:0:0:0:
108,192,98023,1,2,0:0:0:0:
256,304,98372,1,6,0:0:0:0:
472,192,98633,1,2,0:0:0:0:
40,192,98895,1,2,0:0:0:0:
256,0,99070,2,2,L|256:96,1,96,6|2,0:0|0:0,0:0:0:0:
336,144,99418,2,2,L|336:48,1,96,6|2,0:0|0:0,0:0:0:0:
176,48,99767,2,2,L|176:144,1,96,6|2,0:0|0:0,0:0:0:0:
256,288,100116,1,2,1:0:0:0:
256,12,100465,6,2,L|256:192,1,180,6|2,1:0|0:0,0:0:0:0:
256,372,100988,1,2,0:0:0:0:
256,192,101162,1,2,1:0:0:0:
336,288,101337,1,10,0:0:0:0:
176,288,101511,1,10,0:0:0:0:
336,288,101686,1,2,0:0:0:0:
448,192,101860,6,2,L|328:192,1,120,2|2,1:0|0:0,0:0:0:0:
256,192,102122,1,2,0:0:0:0:
64,192,102383,2,2,L|184:192,1,120,2|2,0:0|1:0,0:0:0:0:
256,288,102732,1,10,0:0:0:0:
256,96,102907,1,10,0:0:0:0:
256,192,103081,1,2,0:0:0:0:
336,96,103255,5,2,1:0:0:0:
480,192,103517,1,2,0:0:0:0:
336,288,103779,1,2,0:0:0:0:
384,192,103953,1,2,1:0:0:0:
256,12,104215,1,2,0:0:0:0:
256,192,104476,1,2,0:0:0:0:
256,312,104651,2,2,L|256:72,2,240,2|10|2,1:0|0:0|1:0,0:0:0:0:
368,0,105523,1,10,0:0:0:0:
144,0,105697,1,10,0:0:0:0:
256,372,106046,6,2,L|256:192,1,180,6|2,1:0|0:0,0:0:0:0:
256,12,106569,1,2,0:0:0:0:
256,192,106743,1,2,1:0:0:0:
176,96,106918,1,10,0:0:0:0:
336,96,107092,1,10,0:0:0:0:
176,96,107267,1,2,0:0:0:0:
64,192,107441,6,2,L|184:192,1,120,2|2,1:0|0:0,0:0:0:0:
256,192,107703,1,2,0:0:0:0:
448,192,107964,2,2,L|328:192,1,120,2|2,0:0|1:0,0:0:0:0:
256,96,108313,1,10,0:0:0:0:
256,288,108488,1,2,0:0:0:0:
256,192,108662,1,10,0:0:0:0:
128,288,108836,5,6,1:0:0:0:
256,96,109098,1,2,0:0:0:0:
384,288,109360,1,2,0:0:0:0:
128,288,109534,1,6,1:0:0:0:
256,192,109796,1,2,0:0:0:0:
16,192,110057,1,2,0:0:0:0:
256,192,110232,2,2,L|496:192,2,240,6|6|6,1:0|0:0|1:0,0:0:0:0:
76,380,111104,5,2,1:0:0:0:
436,380,111278,1,2,1:0:0:0:
76,192,111627,6,2,L|256:192,1,180,6|2,1:0|0:0,0:0:0:0:
256,12,112150,1,2,0:0:0:0:
436,192,112324,1,2,1:0:0:0:
352,96,112499,1,10,0:0:0:0:
256,192,112673,1,10,0:0:0:0:
352,96,112848,1,2,0:0:0:0:
160,96,113022,6,2,L|160:237,1,120,2|2,1:0|0:0,0:0:0:0:
160,276,113284,1,2,0:0:0:0:
340,276,113545,2,2,L|212:276,1,120,2|2,0:0|1:0,0:0:0:0:
256,384,113894,1,10,0:0:0:0:
128,384,114069,1,2,0:0:0:0:
384,384,114243,1,10,0:0:0:0:
340,276,114417,5,2,1:0:0:0:
256,104,114679,1,2,0:0:0:0:
172,276,114941,1,2,0:0:0:0:
340,276,115115,1,2,1:0:0:0:
172,276,115377,1,2,0:0:0:0:
256,104,115638,1,2,0:0:0:0:
256,384,115813,2,2,L|256:144,2,240,2|10|2,1:0|0:0|1:0,0:0:0:0:
436,192,116685,5,2,1:0:0:0:
76,192,116859,1,2,1:0:0:0:
256,192,117209,6,2,L|64:192,1,180,6|2,1:0|0:0,0:0:0:0:
256,372,117732,1,2,0:0:0:0:
76,192,117906,1,2,1:0:0:0:
160,288,118081,1,10,0:0:0:0:
256,192,118255,1,10,0:0:0:0:
352,288,118430,1,2,0:0:0:0:
256,192,118604,6,2,L|256:51,1,120,2|2,1:0|0:0,0:0:0:0:
256,12,118866,1,2,0:0:0:0:
436,12,119127,2,2,L|316:12,1,120,2|2,0:0|1:0,0:0:0:0:
256,192,119476,1,10,0:0:0:0:
136,12,119651,1,2,0:0:0:0:
256,192,119825,1,10,0:0:0:0:
96,272,119999,5,6,1:0:0:0:
256,320,120261,1,2,0:0:0:0:
416,272,120523,1,2,0:0:0:0:
76,144,120697,1,6,1:0:0:0:
436,144,120959,1,2,0:0:0:0:
256,12,121220,1,2,0:0:0:0:
256,320,121395,2,2,L|256:80,2,240,6|6|6,1:0|0:0|1:0,0:0:0:0:
436,12,122267,5,2,1:0:0:0:
76,12,122441,1,2,1:0:0:0:
256,192,122790,5,6,0:0:0:0:
256,226,128372,6,0,B|244:192|244:192|268:192|268:192|256:158,1,96,6|0,0:0|0:0,0:0:0:0:
256,192,132209,5,2,0:0:0:0:
256,30,132558,5,0,0:0:0:0:
217,30,132645,1,0,0:0:0:0:
178,30,132732,1,0,0:0:0:0:
178,68,132820,1,0,0:0:0:0:
178,106,132907,1,2,0:0:0:0:
178,144,132994,1,0,0:0:0:0:
139,144,133081,1,0,0:0:0:0:
100,144,133168,1,0,0:0:0:0:
61,144,133256,6,0,L|61:185,3,38.4,0|0|0|0,0:0|0:0|0:0|0:0,0:0:0:0:
61,220,133604,2,0,L|107:220,3,38.4,2|0|0|0,0:0|0:0|0:0|0:0,0:0:0:0:
138,220,133953,5,2,0:0:0:0:
176,220,134040,1,0,0:0:0:0:
176,258,134127,1,0,0:0:0:0:
176,296,134215,1,0,0:0:0:0:
176,334,134302,1,2,0:0:0:0:
216,334,134389,1,0,0:0:0:0:
256,334,134476,1,0,0:0:0:0:
296,334,134563,1,0,0:0:0:0:
336,334,134651,6,0,L|336:292,1,38.4,2|0,0:0|0:0,0:0:0:0:
336,258,134825,2,0,L|374:258,1,38.4,0|0,0:0|0:0,0:0:0:0:
412,258,134999,2,0,L|450:258,1,38.4,2|0,0:0|0:0,0:0:0:0:
450,219,135174,2,0,L|450:181,1,38.4,0|0,0:0|0:0,0:0:0:0:
398,181,135348,5,6,1:0:0:0:
346,181,135435,1,2,0:0:0:0:
294,181,135522,1,2,0:0:0:0:
242,181,135609,1,2,0:0:0:0:
190,181,135696,1,10,0:0:0:0:
137,181,135784,1,2,0:0:0:0:
85,181,135871,1,2,0:0:0:0:
33,181,135958,1,2,0:0:0:0:
85,181,136045,6,2,L|85:117,1,48,2|2,1:0|0:0,0:0:0:0:
137,181,136220,2,2,L|137:261,1,48
190,181,136394,2,2,L|190:101,1,48,10|2,0:0|0:0,0:0:0:0:
242,181,136569,2,2,L|242:233,1,52.8000016113282
294,181,136743,6,2,L|294:117,1,52.8000016113282,2|2,1:0|0:0,0:0:0:0:
346,181,136918,2,2,L|346:245,1,62.3999971435548,2|2,1:0|0:0,0:0:0:0:
346,181,137092,2,2,L|346:85,1,62.3999971435548,10|2,1:0|0:0,0:0:0:0:
398,181,137267,2,2,L|398:277,1,72.0000027465821,2|2,1:0|0:0,0:0:0:0:
398,181,137441,2,2,L|398:85,1,72.0000027465821,2|2,1:0|0:0,0:0:0:0:
450,180,137616,2,2,L|450:285,1,96,2|2,1:0|0:0,0:0:0:0:
450,180,137790,2,2,L|450:57,1,96,10|2,1:0|0:0,0:0:0:0:
256,372,138139,6,2,L|256:192,1,180,6|2,1:0|0:0,0:0:0:0:
256,13,138662,1,2,0:0:0:0:
256,192,138836,1,2,1:0:0:0:
336,96,139011,1,10,0:0:0:0:
176,96,139185,1,10,0:0:0:0:
336,96,139360,1,2,0:0:0:0:
448,192,139534,6,2,L|328:192,1,120,2|2,1:0|0:0,0:0:0:0:
256,192,139796,1,2,0:0:0:0:
64,192,140057,2,2,L|184:192,1,120,2|2,0:0|1:0,0:0:0:0:
256,384,140406,1,10,0:0:0:0:
256,192,140581,1,2,0:0:0:0:
256,384,140755,1,10,0:0:0:0:
336,288,140929,5,2,1:0:0:0:
256,96,141191,1,2,0:0:0:0:
176,288,141453,1,2,0:0:0:0:
336,288,141627,1,2,1:0:0:0:
176,288,141889,1,2,0:0:0:0:
256,384,142150,1,2,0:0:0:0:
256,96,142325,2,2,L|256:336,2,240,2|10|2,1:0|0:0|1:0,0:0:0:0:
368,384,143197,1,10,0:0:0:0:
144,384,143371,1,10,0:0:0:0:
256,192,143720,6,2,L|256:12,1,180,6|2,1:0|0:0,0:0:0:0:
256,372,144243,1,2,0:0:0:0:
256,192,144417,1,2,1:0:0:0:
176,288,144592,1,10,0:0:0:0:
336,288,144766,1,10,0:0:0:0:
176,288,144941,1,2,0:0:0:0:
64,192,145115,6,2,L|184:192,1,120,2|2,1:0|0:0,0:0:0:0:
256,192,145377,1,2,0:0:0:0:
448,192,145638,2,2,L|328:192,1,120,2|2,0:0|1:0,0:0:0:0:
256,12,145987,1,10,0:0:0:0:
256,192,146162,1,2,0:0:0:0:
256,12,146336,1,10,0:0:0:0:
128,96,146510,5,6,1:0:0:0:
128,288,146772,1,2,0:0:0:0:
384,288,147034,1,2,0:0:0:0:
384,96,147209,1,6,1:0:0:0:
64,192,147470,1,2,0:0:0:0:
448,192,147731,1,2,0:0:0:0:
256,312,147906,2,2,L|256:72,2,240,6|6|6,1:0|0:0|1:0,0:0:0:0:
76,0,148778,5,2,1:0:0:0:
436,0,148952,1,2,1:0:0:0:
76,192,149302,6,2,L|256:192,1,180,6|2,1:0|0:0,0:0:0:0:
256,372,149825,1,2,0:0:0:0:
436,192,149999,1,2,1:0:0:0:
352,288,150174,1,10,0:0:0:0:
256,192,150348,1,10,0:0:0:0:
160,288,150523,1,2,0:0:0:0:
76,192,150697,6,2,L|76:51,1,120,2|2,1:0|0:0,0:0:0:0:
76,12,150958,1,2,0:0:0:0:
256,12,151220,2,2,L|136:12,1,120,2|2,0:0|1:0,0:0:0:0:
256,12,151568,1,10,0:0:0:0:
436,12,151743,1,2,0:0:0:0:
76,12,151917,1,10,0:0:0:0:
176,96,152093,5,2,1:0:0:0:
256,288,152353,1,2,0:0:0:0:
336,96,152615,1,2,0:0:0:0:
256,192,152789,1,2,1:0:0:0:
256,16,153051,1,2,0:0:0:0:
256,192,153312,1,2,0:0:0:0:
256,312,153488,2,2,L|256:24,2,240,2|10|2,1:0|0:0|1:0,0:0:0:0:
76,12,154360,5,2,1:0:0:0:
436,12,154534,1,2,1:0:0:0:
436,192,154883,6,2,L|256:192,1,180,6|2,1:0|0:0,0:0:0:0:
256,12,155406,1,2,0:0:0:0:
76,192,155580,1,2,1:0:0:0:
160,96,155755,1,10,0:0:0:0:
256,192,155929,1,10,0:0:0:0:
352,96,156104,1,2,0:0:0:0:
436,192,156278,6,2,L|436:333,1,120,2|2,1:0|0:0,0:0:0:0:
436,372,156540,1,2,0:0:0:0:
256,372,156801,2,2,L|376:372,1,120,2|2,0:0|1:0,0:0:0:0:
256,192,157150,1,10,0:0:0:0:
136,372,157325,1,2,0:0:0:0:
256,192,157499,1,10,0:0:0:0:
96,272,157673,5,6,1:0:0:0:
256,48,157935,1,2,0:0:0:0:
416,272,158197,1,2,0:0:0:0:
76,144,158371,1,6,1:0:0:0:
436,144,158633,1,2,0:0:0:0:
256,336,158895,1,2,0:0:0:0:
256,48,159069,2,6,L|256:288,2,240,6|6|6,1:0|0:0|1:0,0:0:0:0:
436,384,159941,5,2,1:0:0:0:
76,384,160115,1,2,1:0:0:0:
256,96,160465,6,2,L|400:96,2,144,2|2|2,0:0|0:0|0:0,0:0:0:0:
256,288,161162,6,2,L|112:288,2,144,2|2|2,0:0|0:0|0:0,0:0:0:0:
256,192,161860,5,6,1:0:0:0:
256,192,161947,12,2,163255,0:0:0:0:
