osu file format v14

[General]
AudioFilename: audio.mp3
AudioLeadIn: 0
PreviewTime: 100465
Countdown: 0
SampleSet: Soft
StackLeniency: 0.2
Mode: 0
LetterboxInBreaks: 0
SkinPreference:Default
WidescreenStoryboard: 1

[Editor]
DistanceSpacing: 1
BeatDivisor: 4
GridSize: 8
TimelineZoom: 2.599999

[Metadata]
Title:Kero (9) destiny
TitleUnicode:ケロ⑨destiny
Artist:Silver Forest
ArtistUnicode:Silver Forest
Creator:Bloxi
Version:Kloster's Lunatic
Source:東方風神録 ~ Mountain of Faith.
Tags:japanese touhou 東方project 2hu video game vgm zun 風神録 mountain of faith mof th10 native ネイティブフェイス 洩矢諏訪子 もりやすわこ moriya suwako comiket c73 蒼天歌 チルノ always cirnos turn cirno chiruno nine revolution school days めらみぽっぷ meramipop 重音 テト kasane teto territory project_railgun project railgun kolikiscool kloster chanmann
BeatmapID:3424391
BeatmapSetID:1670776

[Difficulty]
HPDrainRate:6
CircleSize:3.8
OverallDifficulty:8
ApproachRate:9
SliderMultiplier:1.72
SliderTickRate:1

[Events]
//Background and Video events
0,0,"bg.jpg",0,0
Video,-861,"video.avi"
//Break Periods
2,67176,77089
2,122990,127772
2,128659,131609
//Storyboard Layer 0 (Background)
//Storyboard Layer 1 (Fail)
//Storyboard Layer 2 (Pass)
//Storyboard Layer 3 (Foreground)
Sprite,Foreground,Centre,"default-9.png",320,240 M,0,192194,,320,240 F,0,192194,192281,0
//Storyboard Layer 4 (Overlay)
//Storyboard Sound Samples

[TimingPoints]
0,348.837209302326,4,2,1,75,1,0
0,-125,4,2,1,75,0,0
15,-125,4,2,1,55,0,0
697,-142.857142857143,4,2,1,55,0,0
1395,-166.666666666667,4,2,1,55,0,0
2093,-200,4,2,1,55,0,0
2790,-142.857142857143,4,2,1,55,0,0
5581,-111.111111111111,4,2,1,65,0,0
11162,-111.111111111111,4,2,1,65,0,0
13517,-111.111111111111,4,2,1,5,0,0
13604,-111.111111111111,4,2,1,65,0,0
17616,-111.111111111111,4,2,1,65,0,0
17703,-111.111111111111,4,2,1,65,0,0
17877,-111.111111111111,4,2,1,65,0,0
17965,-111.111111111111,4,2,1,65,0,0
19011,-111.111111111111,4,2,1,5,0,0
19098,-111.111111111111,4,2,1,65,0,0
19273,-111.111111111111,4,2,1,5,0,0
19360,-111.111111111111,4,2,1,65,0,0
19796,-111.111111111111,4,2,1,5,0,0
19883,-111.111111111111,4,2,1,65,0,0
21715,-111.111111111111,4,2,1,5,0,0
22151,-111.111111111111,4,2,1,65,0,0
24680,-111.111111111111,4,2,1,5,0,0
24767,-111.111111111111,4,2,1,65,0,0
30174,-111.111111111111,4,2,1,5,0,0
30261,-111.111111111111,4,2,1,65,0,0
30436,-111.111111111111,4,2,1,5,0,0
30523,-111.111111111111,4,2,1,65,0,0
30959,-111.111111111111,4,2,1,5,0,0
31046,-111.111111111111,4,2,1,65,0,0
32441,-100,4,2,1,65,0,0
32790,-90.9090909090909,4,2,1,65,0,0
33139,-125,4,2,1,65,0,0
33488,-111.111111111111,4,2,1,65,0,0
43255,-100,4,2,1,45,0,0
43430,-100,4,2,1,50,0,0
43517,-90.9090909090909,4,2,1,50,0,0
43604,-90.9090909090909,4,2,1,55,0,0
43779,-83.3333333333333,4,2,1,60,0,0
43953,-83.3333333333333,4,2,1,65,0,0
44040,-76.9230769230769,4,2,1,65,0,0
44127,-76.9230769230769,4,2,1,70,0,0
44302,-111.111111111111,4,2,1,75,0,0
44651,-100,4,2,1,75,0,1
44825,-100,4,2,1,5,0,1
44912,-100,4,2,1,75,0,1
45087,-100,4,2,1,5,0,1
45174,-100,4,2,1,75,0,1
46220,-100,4,2,1,5,0,1
46308,-100,4,2,1,75,0,1
46482,-100,4,2,1,5,0,1
46569,-100,4,2,1,75,0,1
50406,-100,4,2,1,5,0,1
50494,-100,4,2,1,75,0,1
50668,-100,4,2,1,5,0,1
50755,-100,4,2,1,75,0,1
51802,-100,4,2,1,5,0,1
51889,-100,4,2,1,75,0,1
52063,-100,4,2,1,5,0,1
52151,-100,4,2,1,75,0,1
55465,-100,4,2,1,75,0,0
55813,-100,4,2,1,75,0,1
55988,-100,4,2,1,5,0,1
56075,-100,4,2,1,75,0,1
56250,-100,4,2,1,5,0,1
56337,-100,4,2,1,75,0,1
57383,-100,4,2,1,5,0,1
57470,-100,4,2,1,75,0,1
57645,-100,4,2,1,5,0,1
57732,-100,4,2,1,75,0,1
61569,-100,4,2,1,5,0,1
61656,-100,4,2,1,75,0,1
61831,-100,4,2,1,5,0,1
61918,-100,4,2,1,75,0,1
62965,-100,4,2,1,5,0,1
63052,-100,4,2,1,75,0,1
63226,-100,4,2,1,5,0,1
63313,-100,4,2,1,75,0,1
66976,-111.111111111111,4,2,1,75,0,0
78139,-111.111111111111,4,2,1,75,0,0
80494,-111.111111111111,4,2,1,5,0,0
80581,-111.111111111111,4,2,1,75,0,0
85988,-111.111111111111,4,2,1,5,0,0
86075,-111.111111111111,4,2,1,75,0,0
86250,-111.111111111111,4,2,1,5,0,0
86337,-111.111111111111,4,2,1,75,0,0
86773,-111.111111111111,4,2,1,5,0,0
86860,-111.111111111111,4,2,1,75,0,0
88691,-111.111111111111,4,2,1,5,0,0
89127,-111.111111111111,4,2,1,75,0,0
91656,-111.111111111111,4,2,1,5,0,0
91744,-111.111111111111,4,2,1,75,0,0
97151,-111.111111111111,4,2,1,5,0,0
97238,-111.111111111111,4,2,1,75,0,0
97412,-111.111111111111,4,2,1,5,0,0
97500,-111.111111111111,4,2,1,75,0,0
97936,-111.111111111111,4,2,1,5,0,0
98023,-111.111111111111,4,2,1,75,0,0
99418,-100,4,2,1,75,0,0
99767,-90.9090909090909,4,2,1,75,0,0
100465,-100,4,2,1,75,0,1
100639,-100,4,2,1,5,0,1
100726,-100,4,2,1,75,0,1
100901,-100,4,2,1,5,0,1
100988,-100,4,2,1,75,0,1
102034,-100,4,2,1,5,0,1
102122,-100,4,2,1,75,0,1
102296,-100,4,2,1,5,0,1
102383,-100,4,2,1,75,0,1
106220,-100,4,2,1,5,0,1
106308,-100,4,2,1,75,0,1
106482,-100,4,2,1,5,0,1
106569,-100,4,2,1,75,0,1
107616,-100,4,2,1,5,0,1
107703,-100,4,2,1,75,0,1
107877,-100,4,2,1,5,0,1
107965,-100,4,2,1,75,0,1
111279,-100,4,2,1,75,0,0
111627,-100,4,2,1,75,0,1
111802,-100,4,2,1,5,0,1
111889,-100,4,2,1,75,0,1
112063,-100,4,2,1,5,0,1
112151,-100,4,2,1,75,0,1
113197,-100,4,2,1,5,0,1
113284,-100,4,2,1,75,0,1
113459,-100,4,2,1,5,0,1
113546,-100,4,2,1,75,0,1
117383,-100,4,2,1,5,0,1
117470,-100,4,2,1,75,0,1
117645,-100,4,2,1,5,0,1
117732,-100,4,2,1,75,0,1
118779,-100,4,2,1,5,0,1
118866,-100,4,2,1,75,0,1
119040,-100,4,2,1,5,0,1
119127,-100,4,2,1,75,0,1
122790,-111.111111111111,4,2,1,65,0,0
128372,-142.857142857143,4,2,1,65,0,0
128459,-125,4,2,1,5,0,0
132209,-142.857142857143,4,2,1,65,0,0
133953,-125,4,2,1,65,0,0
135348,-111.111111111111,4,2,1,65,0,0
136744,-100,4,2,1,45,0,0
136918,-100,4,2,1,50,0,0
137006,-90.9090909090909,4,2,1,50,0,0
137093,-90.9090909090909,4,2,1,55,0,0
137268,-83.3333333333333,4,2,1,60,0,0
137441,-83.3333333333333,4,2,1,65,0,0
137529,-76.9230769230769,4,2,1,65,0,0
137616,-76.9230769230769,4,2,1,70,0,0
137791,-111.111111111111,4,2,1,75,0,0
138139,-100,4,2,1,75,0,1
138313,-100,4,2,1,5,0,1
138401,-100,4,2,1,75,0,1
138575,-100,4,2,1,5,0,1
138662,-100,4,2,1,75,0,1
139709,-100,4,2,1,5,0,1
139796,-100,4,2,1,75,0,1
139970,-100,4,2,1,5,0,1
140058,-100,4,2,1,75,0,1
143895,-100,4,2,1,5,0,1
143982,-100,4,2,1,75,0,1
144156,-100,4,2,1,5,0,1
144244,-100,4,2,1,75,0,1
145290,-100,4,2,1,5,0,1
145377,-100,4,2,1,75,0,1
145552,-100,4,2,1,5,0,1
145639,-100,4,2,1,75,0,1
148953,-100,4,2,1,75,0,0
149302,-100,4,2,1,75,0,1
149476,-100,4,2,1,5,0,1
149563,-100,4,2,1,75,0,1
149738,-100,4,2,1,5,0,1
149825,-100,4,2,1,75,0,1
150872,-100,4,2,1,5,0,1
150959,-100,4,2,1,75,0,1
151133,-100,4,2,1,5,0,1
151220,-100,4,2,1,75,0,1
155058,-100,4,2,1,5,0,1
155145,-100,4,2,1,75,0,1
155319,-100,4,2,1,5,0,1
155406,-100,4,2,1,75,0,1
156453,-100,4,2,1,5,0,1
156540,-100,4,2,1,75,0,1
156715,-100,4,2,1,5,0,1
156802,-100,4,2,1,75,0,1
160465,-111.111111111111,4,2,1,55,0,0
161860,-111.111111111111,4,2,1,75,0,0
163255,-111.111111111111,4,2,1,5,0,0

[Colours]
Combo1 : 230,236,148
Combo2 : 131,161,87
Combo3 : 177,194,202
Combo4 : 219,123,83
Sliderborder : 255,255,255

[HitObjects]
213,55,0,6,0,P|220:94|227:133,1,68.8,4|0,0:0|0:0,0:0:0:0:
289,41,348,2,0,P|296:80|303:119,1,68.8,0|0,0:0|0:0,0:0:0:0:
471,109,697,2,0,P|465:138|460:168,1,60.1999981628418,2|0,0:0|0:0,0:0:0:0:
395,96,1046,2,0,P|389:125|384:155,1,60.1999981628418,0|0,0:0|0:0,0:0:0:0:
217,220,1395,6,0,P|221:245|225:270,1,51.599998425293,2|0,0:0|0:0,0:0:0:0:
293,206,1744,2,0,P|297:231|301:256,1,51.599998425293,0|0,0:0|0:0,0:0:0:0:
471,276,2093,2,0,P|467:297|463:318,1,43,2|0,0:0|0:0,0:0:0:0:
395,261,2442,2,0,P|391:282|387:303,1,43,0|0,0:0|0:0,0:0:0:0:
179,372,2790,5,6,0:0:0:0:
217,360,2964,1,0,0:0:0:0:
256,353,3138,1,2,0:0:0:0:
296,350,3313,1,0,0:0:0:0:
168,282,3488,1,2,0:0:0:0:
137,272,3662,1,0,0:0:0:0:
106,266,3836,1,2,0:0:0:0:
74,264,4011,1,0,0:0:0:0:
189,199,4186,5,2,0:0:0:0:
213,191,4360,1,0,0:0:0:0:
238,186,4534,1,2,0:0:0:0:
264,184,4709,1,0,0:0:0:0:
181,112,4883,1,2,0:0:0:0:
161,105,5057,1,0,0:0:0:0:
141,101,5231,1,2,0:0:0:0:
121,100,5406,1,0,0:0:0:0:
0,200,5581,5,6,1:0:0:0:
28,174,5668,1,2,0:0:0:0:
62,171,5755,1,2,0:0:0:0:
88,187,5842,1,2,0:0:0:0:
98,210,5930,2,0,P|92:237|88:262,3,38.6999988189698,10|2|2|2,0:0|0:0|0:0|0:0,0:0:0:0:
165,278,6279,2,0,P|171:305|175:330,3,38.6999988189698,2|2|2|2,1:0|0:0|0:0|0:0,0:0:0:0:
252,344,6627,2,0,P|246:371|242:396,3,38.6999988189698,10|2|2|2,0:0|0:0|0:0|0:0,0:0:0:0:
380,351,6976,5,2,1:0:0:0:
410,327,7063,1,2,0:0:0:0:
411,287,7151,1,2,0:0:0:0:
389,259,7238,1,2,0:0:0:0:
365,258,7325,2,0,P|340:263|304:270,3,38.6999988189698,10|2|2|2,0:0|0:0|0:0|0:0,0:0:0:0:
286,193,7674,2,0,P|261:188|225:181,3,38.6999988189698,2|2|2|2,1:0|0:0|0:0|0:0,0:0:0:0:
349,109,8023,2,0,P|330:112|311:116,3,38.6999988189698,10|2|2|2,0:0|0:0|0:0|0:0,0:0:0:0:
434,24,8372,5,6,1:0:0:0:
471,51,8459,1,2,0:0:0:0:
479,92,8546,1,2,0:0:0:0:
462,126,8633,1,2,0:0:0:0:
432,144,8720,1,10,0:0:0:0:
414,169,8808,1,2,0:0:0:0:
412,195,8895,1,2,0:0:0:0:
419,216,8982,1,2,0:0:0:0:
437,224,9069,2,0,P|471:216|488:183,3,38.6999988189698,2|2|2|2,1:0|0:0|0:0|0:0,0:0:0:0:
400,295,9418,2,0,P|417:304|437:305,3,38.6999988189698,10|2|2|2,0:0|0:0|0:0|0:0,0:0:0:0:
313,193,9767,5,2,1:0:0:0:
266,186,9854,1,2,0:0:0:0:
222,181,9941,1,2,0:0:0:0:
184,179,10029,1,2,0:0:0:0:
149,178,10116,1,10,0:0:0:0:
118,177,10203,1,2,0:0:0:0:
91,176,10290,1,2,0:0:0:0:
67,176,10377,1,2,0:0:0:0:
47,177,10465,2,0,P|26:196|1:221,3,38.6999988189698,2|2|2|2,1:0|0:0|0:0|0:0,0:0:0:0:
107,289,10813,2,0,P|86:270|61:245,3,38.6999988189698,10|2|2|2,0:0|0:0|0:0|0:0,0:0:0:0:
17,350,11162,6,0,P|108:324|193:305,1,154.799995275879,6|10,0:0|0:0,0:0:0:0:
231,363,11686,1,2,0:0:0:0:
330,281,11860,2,0,B|343:239|320:208|320:208|293:175|304:132,1,154.799995275879,2|10,0:0|0:0,0:0:0:0:
383,152,12383,1,2,0:0:0:0:
444,25,12558,2,0,P|388:41|331:54,2,116.099996456909,2|2|2,0:0|0:0|0:0,0:0:0:0:
459,112,13255,2,0,P|497:144|479:224,1,116.099996456909,2|0,0:0|0:0,0:0:0:0:
482,216,13604,5,10,0:0:0:0:
413,264,13779,1,2,0:0:0:0:
341,168,13953,2,0,P|244:178|160:192,1,154.799995275879,2|10,0:0|0:0,0:0:0:0:
151,257,14476,1,2,0:0:0:0:
221,345,14651,2,0,P|275:289|253:236,2,116.099996456909,2|2|2,0:0|0:0|0:0,0:0:0:0:
133,384,15348,6,2,P|97:371|24:354,1,77.3999976379395,2|2,0:0|0:0,0:0:0:0:
127,223,15697,2,0,P|133:261|143:298,1,77.3999976379395,10|2,0:0|0:0,0:0:0:0:
36,199,16046,1,2,0:0:0:0:
36,199,16133,1,2,0:0:0:0:
36,199,16220,1,2,0:0:0:0:
36,199,16308,1,0,0:0:0:0:
36,199,16395,2,0,P|40:180|44:161,1,38.6999988189698,10|0,0:0|0:0,0:0:0:0:
123,141,16569,2,0,P|119:122|115:103,1,38.6999988189698,2|0,0:0|0:0,0:0:0:0:
26,6,16744,6,0,P|91:-17|162:35,1,154.799995275879,6|10,0:0|0:0,0:0:0:0:
240,7,17267,1,2,0:0:0:0:
228,128,17441,2,0,P|169:112|93:101,2,116.099996456909,2|2|2,0:0|0:0|0:0,0:0:0:0:
206,223,18139,2,0,P|261:207|319:198,2,116.099996456909,2|2|2,0:0|0:0|0:0,0:0:0:0:
131,294,18837,2,0,P|169:300|206:310,1,77.3999976379395,2|0,0:0|0:0,0:0:0:0:
226,330,19098,2,0,P|263:319|301:313,1,77.3999976379395,2|0,0:0|0:0,0:0:0:0:
320,323,19360,1,2,0:0:0:0:
430,383,19534,6,0,P|422:333|403:247,1,116.099996456909,6|0,0:0|0:0,0:0:0:0:
396,254,19883,2,0,P|421:245|489:224,1,77.3999976379395,10|0,0:0|0:0,0:0:0:0:
326,185,20232,2,0,P|313:241|304:299,2,116.099996456909,6|2|2,0:0|0:0|0:0,0:0:0:0:
427,139,20930,5,6,0:0:0:0:
451,133,21104,1,2,0:0:0:0:
323,77,21279,1,14,0:0:0:0:
273,58,21453,1,2,0:0:0:0:
461,11,21627,2,0,L|516:-3,1,38.6999988189698,6|0,0:0|0:0,0:0:0:0:
512,15,22151,5,2,0:0:0:0:
512,15,22238,1,2,0:0:0:0:
512,15,22325,2,0,P|427:31|349:50,1,154.799995275879,6|10,0:0|0:0,0:0:0:0:
327,123,22848,1,2,0:0:0:0:
215,59,23023,2,0,P|171:1|94:13,1,154.799995275879,2|10,0:0|0:0,0:0:0:0:
134,87,23546,1,2,0:0:0:0:
56,193,23720,2,0,P|40:111|24:48,2,116.099996456909,2|2|2,0:0|0:0|0:0,0:0:0:0:
153,178,24418,2,0,P|139:234|129:291,1,116.099996456909,2|0,0:0|0:0,0:0:0:0:
137,311,24767,5,10,0:0:0:0:
68,363,24941,1,2,0:0:0:0:
206,370,25116,2,0,B|241:349|282:373|282:373|323:399|380:353,1,154.799995275879,2|10,0:0|0:0,0:0:0:0:
437,358,25639,1,2,0:0:0:0:
399,243,25813,2,0,P|352:245|317:328,2,116.099996456909,2|2|2,0:0|0:0|0:0,0:0:0:0:
498,288,26511,6,2,P|481:216|466:187,1,77.3999976379395,2|2,0:0|0:0,0:0:0:0:
394,155,26860,2,0,P|411:83|426:54,1,77.3999976379395,10|2,0:0|0:0,0:0:0:0:
507,0,27209,1,2,0:0:0:0:
507,0,27296,1,2,0:0:0:0:
507,0,27383,1,2,0:0:0:0:
507,0,27470,1,0,0:0:0:0:
507,0,27558,2,0,P|466:26|444:22,1,38.6999988189698,10|0,0:0|0:0,0:0:0:0:
412,80,27732,2,0,P|368:57|361:36,1,38.6999988189698,2|0,0:0|0:0,0:0:0:0:
251,0,27906,6,0,P|268:89|287:181,1,154.799995275879,6|10,0:0|0:0,0:0:0:0:
302,262,28430,1,2,0:0:0:0:
302,262,28517,1,2,0:0:0:0:
302,262,28604,2,0,P|351:214|415:223,2,116.099996456909,2|2|2,0:0|0:0|0:0,0:0:0:0:
219,329,29302,2,0,P|200:275|223:224,2,116.099996456909,2|2|2,0:0|0:0|0:0,0:0:0:0:
134,353,30000,2,0,P|93:346|35:337,1,77.3999976379395,2|0,0:0|0:0,0:0:0:0:
42,352,30261,2,0,P|18:315|26:264,1,77.3999976379395,2|0,0:0|0:0,0:0:0:0:
7,264,30523,1,2,0:0:0:0:
59,141,30697,6,0,P|116:131|173:122,1,116.099996456909,6|0,0:0|0:0,0:0:0:0:
192,136,31046,2,0,P|230:142|268:148,1,77.3999976379395,2|0,0:0|0:0,0:0:0:0:
360,222,31395,2,0,P|302:231|245:240,2,116.099996456909,6|2|2,0:0|0:0|0:0,0:0:0:0:
512,126,32093,6,0,P|502:168|495:201,1,77.3999976379395,6|2,0:0|0:0,0:0:0:0:
390,68,32441,2,0,P|401:109|408:151,1,86,6|2,0:0|0:0,0:0:0:0:
304,15,32790,2,0,P|291:60|283:107,1,94.600002886963,6|2,0:0|1:0,0:0:0:0:
185,8,33139,2,0,P|188:26|193:45,3,34.4,2|0|2|0,1:0|0:0|0:0|0:0,0:0:0:0:
190,146,33488,5,2,1:0:0:0:
149,172,33575,1,2,0:0:0:0:
106,172,33662,1,2,0:0:0:0:
76,148,33750,1,2,0:0:0:0:
60,117,33837,1,10,0:0:0:0:
63,87,33924,1,2,0:0:0:0:
75,64,34011,1,2,0:0:0:0:
94,51,34098,1,2,0:0:0:0:
111,50,34186,2,0,P|117:89|122:113,3,38.6999988189698,2|2|2|2,1:0|0:0|0:0|0:0,0:0:0:0:
190,146,34534,2,0,P|184:185|179:209,3,38.6999988189698,10|2|2|2,0:0|0:0|0:0|0:0,0:0:0:0:
310,211,34883,5,2,1:0:0:0:
291,252,34970,1,2,0:0:0:0:
253,273,35058,1,2,0:0:0:0:
214,270,35145,1,2,0:0:0:0:
188,246,35232,1,10,0:0:0:0:
171,220,35319,1,2,0:0:0:0:
147,206,35406,1,2,0:0:0:0:
123,209,35494,1,2,0:0:0:0:
109,222,35581,2,0,P|116:260|126:293,3,38.6999988189698,2|2|2|2,1:0|0:0|0:0|0:0,0:0:0:0:
5,298,35930,2,0,P|20:285|34:272,3,38.6999988189698,10|2|2|2,0:0|0:0|0:0|0:0,0:0:0:0:
95,384,36279,5,2,1:0:0:0:
140,374,36366,1,2,0:0:0:0:
181,364,36453,1,2,0:0:0:0:
218,354,36540,1,2,0:0:0:0:
251,344,36627,1,10,0:0:0:0:
281,335,36715,1,2,0:0:0:0:
307,328,36802,1,2,0:0:0:0:
329,321,36889,1,2,0:0:0:0:
347,315,36976,2,0,P|378:323|413:334,3,38.6999988189698,2|2|2|2,1:0|0:0|0:0|0:0,0:0:0:0:
466,308,37325,2,0,P|474:338|482:374,3,38.6999988189698,10|2|2|2,0:0|0:0|0:0|0:0,0:0:0:0:
369,234,37674,5,2,1:0:0:0:
332,204,37761,1,2,0:0:0:0:
324,162,37848,1,2,0:0:0:0:
343,128,37936,1,2,0:0:0:0:
376,117,38023,1,10,0:0:0:0:
405,124,38110,1,2,0:0:0:0:
420,136,38197,2,0,P|428:167|437:198,1,38.6999988189698,2|2,0:0|0:0,0:0:0:0:
503,92,38372,5,2,1:0:0:0:
503,92,38459,1,2,0:0:0:0:
503,92,38546,2,0,P|508:73|512:54,1,38.6999988189698,2|2,0:0|0:0,0:0:0:0:
417,0,38720,1,10,0:0:0:0:
417,0,38808,2,0,P|425:31|434:62,2,38.6999988189698,2|2|2,0:0|0:0|0:0,0:0:0:0:
342,124,39069,5,2,1:0:0:0:
307,154,39156,1,2,0:0:0:0:
264,153,39244,1,2,0:0:0:0:
231,132,39331,1,2,0:0:0:0:
220,98,39418,1,10,0:0:0:0:
209,68,39505,1,2,0:0:0:0:
188,49,39593,1,2,0:0:0:0:
165,44,39680,1,2,0:0:0:0:
144,52,39767,2,0,P|131:78|128:114,3,38.6999988189698,2|2|2|2,1:0|0:0|0:0|0:0,0:0:0:0:
44,84,40116,2,0,P|45:113|61:145,3,38.6999988189698,10|2|2|2,0:0|0:0|0:0|0:0,0:0:0:0:
0,235,40465,5,2,1:0:0:0:
36,206,40552,1,2,0:0:0:0:
79,213,40639,1,2,0:0:0:0:
107,239,40726,1,2,0:0:0:0:
110,275,40813,1,10,0:0:0:0:
98,304,40901,1,2,0:0:0:0:
75,320,40988,1,2,0:0:0:0:
53,324,41075,1,2,0:0:0:0:
31,317,41162,2,0,P|23:284|9:248,3,38.6999988189698,2|2|2|2,1:0|0:0|0:0|0:0,0:0:0:0:
79,213,41511,2,0,P|87:180|101:144,3,38.6999988189698,10|2|2|2,0:0|0:0|0:0|0:0,0:0:0:0:
4,66,41860,5,2,1:0:0:0:
49,73,41947,1,2,0:0:0:0:
90,81,42034,1,2,0:0:0:0:
128,87,42122,1,2,0:0:0:0:
162,91,42209,1,10,0:0:0:0:
192,95,42296,1,2,0:0:0:0:
218,97,42383,1,2,0:0:0:0:
240,100,42470,1,2,0:0:0:0:
259,100,42558,2,0,P|306:82|327:73,3,38.6999988189698,2|2|2|2,1:0|0:0|0:0|0:0,0:0:0:0:
357,140,42906,2,0,P|404:158|425:167,3,38.6999988189698,10|2|2|2,0:0|0:0|0:0|0:0,0:0:0:0:
477,62,43255,5,2,1:0:0:0:
483,58,43343,2,0,P|481:90|467:115,1,43,2|2,0:0|1:0,0:0:0:0:
486,188,43517,1,2,0:0:0:0:
498,193,43604,2,0,P|478:204|455:210,1,47.3000014434815,10|2,1:0|0:0,0:0:0:0:
372,239,43779,1,2,1:0:0:0:
375,257,43866,2,0,P|352:244|335:226,1,51.599998425293,2|2,0:0|1:0,0:0:0:0:
267,166,44040,1,2,0:0:0:0:
251,182,44127,2,0,P|250:154|259:128,1,55.8999974411012,2|2,1:0|0:0,0:0:0:0:
152,63,44302,1,10,1:0:0:0:
152,63,44651,6,0,P|195:56|236:47,1,86,6|0,1:0|0:0,0:0:0:0:
252,32,44912,2,0,P|294:41|337:48,1,86,2|0,0:0|0:0,0:0:0:0:
355,40,45174,1,2,0:0:0:0:
445,114,45348,2,0,P|451:156|461:198,1,86,2|10,1:0|0:0,0:0:0:0:
346,234,45697,2,0,P|355:192|363:149,1,86,10|2,0:0|0:0,0:0:0:0:
394,299,46046,6,0,P|348:319|312:306,1,86,2|2,1:0|0:0,0:0:0:0:
294,313,46308,2,0,P|249:290|235:254,1,86,2|0,0:0|0:0,0:0:0:0:
217,251,46569,1,2,0:0:0:0:
215,146,46744,2,0,P|180:172|148:200,1,86,2|10,1:0|0:0,0:0:0:0:
55,164,47093,2,0,P|63:206|69:248,1,86,10|2,0:0|0:0,0:0:0:0:
196,329,47441,6,0,B|235:347|260:323|259:321|291:294|339:327,2,129,2|2|2,1:0|0:0|0:0,0:0:0:0:
189,125,48139,2,0,P|207:205|223:280,2,129,2|2|2,1:0|0:0|0:0,0:0:0:0:
307,36,48837,2,2,P|297:77|288:119,1,86,2|2,1:0|0:0,0:0:0:0:
219,196,49186,2,2,P|209:154|200:112,1,86,10|2,0:0|0:0,0:0:0:0:
127,70,49534,1,2,1:0:0:0:
40,201,49709,1,10,0:0:0:0:
121,167,49883,1,10,0:0:0:0:
217,287,50058,5,2,0:0:0:0:
217,287,50145,1,0,0:0:0:0:
217,287,50232,2,0,P|275:272|329:265,1,86,6|0,1:0|0:0,0:0:0:0:
319,280,50494,2,0,P|375:294|431:302,1,86,2|0,0:0|0:0,0:0:0:0:
421,289,50755,1,2,0:0:0:0:
462,181,50930,2,0,P|407:192|375:231,1,86,2|10,1:0|0:0,0:0:0:0:
316,76,51279,2,0,P|349:101|392:106,1,86,10|2,0:0|0:0,0:0:0:0:
242,17,51627,6,0,P|226:84|217:109,1,86,2|2,1:0|0:0,0:0:0:0:
209,115,51889,2,0,P|221:156|230:198,1,86,2|0,0:0|0:0,0:0:0:0:
222,218,52151,1,2,0:0:0:0:
140,307,52325,2,0,P|83:289|29:285,1,86,2|10,1:0|0:0,0:0:0:0:
0,220,52674,2,0,P|40:205|82:198,1,86,2|10,0:0|0:0,0:0:0:0:
109,34,53023,6,0,P|101:98|168:133,2,129,6|2|2,1:0|0:0|0:0,0:0:0:0:
228,113,53720,2,0,B|243:151|222:177|220:176|193:208|226:256,2,129,6|2|2,1:0|0:0|0:0,0:0:0:0:
379,198,54418,2,2,P|321:211|285:218,1,86,6|2,1:0|0:0,0:0:0:0:
371,284,54767,2,2,P|412:293|455:302,1,86,6|2,0:0|0:0,0:0:0:0:
512,240,55116,1,6,1:0:0:0:
423,128,55290,1,2,1:0:0:0:
512,96,55465,5,2,1:0:0:0:
512,96,55552,1,0,0:0:0:0:
512,96,55639,1,2,0:0:0:0:
512,96,55726,1,0,0:0:0:0:
512,96,55813,2,0,P|499:32|477:16,1,86,6|0,1:0|0:0,0:0:0:0:
478,0,56075,2,0,P|421:7|391:8,1,86,2|0,0:0|0:0,0:0:0:0:
376,0,56337,1,2,0:0:0:0:
345,119,56511,2,0,P|318:67|287:12,1,86,2|10,1:0|0:0,0:0:0:0:
190,76,56860,2,0,P|209:37|230:0,1,86,10|2,0:0|0:0,0:0:0:0:
254,177,57209,6,0,P|211:175|168:173,1,86,2|2,1:0|0:0,0:0:0:0:
153,189,57470,2,0,P|110:190|67:192,1,86,2|0,0:0|0:0,0:0:0:0:
52,206,57732,1,2,0:0:0:0:
0,79,57906,2,0,P|42:103|94:92,1,86,2|10,1:0|0:0,0:0:0:0:
138,0,58255,2,0,P|95:-1|59:20,1,86,10|2,0:0|0:0,0:0:0:0:
0,178,58604,6,0,P|14:249|25:312,2,129,2|2|2,1:0|0:0|0:0,0:0:0:0:
186,218,59302,2,0,P|154:175|82:200,2,129,2|2|2,1:0|0:0|0:0,0:0:0:0:
134,316,60000,2,2,P|210:298|243:292,1,86,2|2,1:0|0:0,0:0:0:0:
359,254,60348,2,2,P|317:245|276:234,1,86,10|2,0:0|0:0,0:0:0:0:
430,208,60697,1,2,1:0:0:0:
512,323,60872,1,2,1:0:0:0:
431,346,61046,1,2,1:0:0:0:
512,177,61220,5,0,0:0:0:0:
512,177,61308,1,0,0:0:0:0:
512,177,61395,2,0,P|504:130|496:77,1,86,6|0,1:0|0:0,0:0:0:0:
507,75,61656,2,0,P|473:51|417:65,1,86,2|0,0:0|0:0,0:0:0:0:
414,49,61918,1,2,0:0:0:0:
330,141,62093,2,0,P|372:152|431:175,1,86,2|10,1:0|0:0,0:0:0:0:
313,40,62441,2,0,P|282:70|233:110,1,86,10|2,0:0|0:0,0:0:0:0:
89,149,62790,6,0,P|124:140|173:173,1,86,2|2,1:0|0:0,0:0:0:0:
188,160,63052,2,0,P|206:190|191:247,1,86,2|0,0:0|0:0,0:0:0:0:
209,253,63313,1,2,0:0:0:0:
309,304,63488,2,0,P|365:297|431:284,1,86,2|10,1:0|0:0,0:0:0:0:
253,365,63837,2,0,P|210:370|167:377,1,86,2|10,0:0|0:0,0:0:0:0:
44,167,64186,6,0,P|9:224|70:286,2,129,6|2|2,1:0|0:0|0:0,0:0:0:0:
89,384,64883,2,0,B|79:343|102:321|104:322|135:293|108:242,2,129,6|2|2,1:0|0:0|0:0,0:0:0:0:
201,263,65581,2,2,P|245:238|289:244,1,86,6|2,1:0|0:0,0:0:0:0:
207,134,65930,2,0,P|163:109|119:115,1,86,6|0,0:0|0:0,0:0:0:0:
147,190,66279,1,6,1:0:0:0:
276,85,66453,1,2,1:0:0:0:
363,141,66627,5,2,1:0:0:0:
363,141,66715,1,0,0:0:0:0:
363,141,66802,1,2,0:0:0:0:
363,141,66889,1,0,0:0:0:0:
363,141,66976,1,6,0:0:0:0:
469,222,78139,6,0,B|427:235|395:213|395:213|362:186|321:201,1,154.799995275879,6|10,0:0|0:0,0:0:0:0:
270,264,78662,1,2,0:0:0:0:
208,185,78837,2,0,P|228:269|242:356,1,154.799995275879,2|10,0:0|0:0,0:0:0:0:
170,384,79360,1,2,0:0:0:0:
58,333,79534,2,0,P|94:282|169:307,2,116.099996456909,2|2|2,0:0|0:0|0:0,0:0:0:0:
21,228,80232,2,0,P|35:164|47:98,1,116.099996456909,2|0,0:0|0:0,0:0:0:0:
59,102,80581,5,10,0:0:0:0:
16,27,80756,1,2,0:0:0:0:
124,0,80930,2,0,P|197:65|245:39,1,154.799995275879,2|10,0:0|0:0,0:0:0:0:
309,7,81453,1,2,0:0:0:0:
399,92,81627,2,0,P|333:104|264:122,2,116.099996456909,2|2|2,0:0|0:0|0:0,0:0:0:0:
493,156,82325,6,2,P|505:97|527:58,1,77.3999976379395,2|2,0:0|0:0,0:0:0:0:
409,174,82674,2,0,P|422:210|428:248,1,77.3999976379395,10|2,0:0|0:0,0:0:0:0:
512,309,83023,1,2,0:0:0:0:
512,309,83110,1,2,0:0:0:0:
512,309,83197,1,2,0:0:0:0:
512,309,83284,1,0,0:0:0:0:
512,309,83372,2,0,P|465:322|440:331,1,38.6999988189698,10|0,0:0|0:0,0:0:0:0:
418,379,83546,2,0,P|399:373|380:369,1,38.6999988189698,2|0,0:0|0:0,0:0:0:0:
237,321,83720,6,0,P|312:302|386:281,1,154.799995275879,6|10,0:0|0:0,0:0:0:0:
437,150,84244,1,2,0:0:0:0:
437,150,84331,1,0,0:0:0:0:
437,150,84418,2,0,P|393:194|330:182,2,116.099996456909,2|2|2,0:0|0:0|0:0,0:0:0:0:
306,264,85116,2,0,P|250:235|242:172,2,116.099996456909,2|2|2,0:0|0:0|0:0,0:0:0:0:
284,86,85813,2,0,P|234:98|180:108,1,77.3999976379395,2|0,0:0|0:0,0:0:0:0:
194,118,86075,2,0,P|144:106|90:96,1,77.3999976379395,2|0,0:0|0:0,0:0:0:0:
101,113,86337,1,2,0:0:0:0:
41,23,86511,6,0,P|1:68|18:144,1,116.099996456909,6|0,0:0|0:0,0:0:0:0:
20,130,86860,2,2,P|33:164|93:192,1,77.3999976379395,2|2,0:0|0:0,0:0:0:0:
147,260,87209,2,0,P|84:269|13:283,2,116.099996456909,6|2|2,0:0|0:0|0:0,0:0:0:0:
231,311,87907,5,6,0:0:0:0:
240,334,88081,1,2,0:0:0:0:
301,202,88255,1,6,0:0:0:0:
319,153,88429,1,2,0:0:0:0:
402,327,88604,2,0,L|422:394,1,38.6999988189698,6|0,0:0|0:0,0:0:0:0:
435,382,89127,5,2,0:0:0:0:
435,382,89215,1,2,0:0:0:0:
435,382,89302,2,0,P|412:294|394:218,1,154.799995275879,6|10,0:0|0:0,0:0:0:0:
448,164,89825,1,2,0:0:0:0:
351,106,90000,2,0,B|311:91|278:118|278:118|246:140|204:127,1,154.799995275879,2|10,0:0|0:0,0:0:0:0:
232,50,90523,1,2,0:0:0:0:
330,183,90697,2,0,P|342:251|353:301,2,116.099996456909,2|2|2,0:0|0:0|0:0,0:0:0:0:
418,205,91395,2,0,P|427:147|440:91,1,116.099996456909,2|0,0:0|0:0,0:0:0:0:
452,82,91744,5,10,0:0:0:0:
397,18,91918,1,2,0:0:0:0:
306,88,92093,2,0,P|233:70|179:140,1,154.799995275879,2|10,0:0|0:0,0:0:0:0:
256,158,92616,1,2,0:0:0:0:
145,219,92790,2,0,P|201:231|257:246,2,116.099996456909,2|2|2,0:0|0:0|0:0,0:0:0:0:
48,305,93488,6,2,P|54:266|59:228,1,77.3999976379395,2|2,0:0|0:0,0:0:0:0:
11,94,93837,2,0,P|5:132|0:170,1,77.3999976379395,10|2,0:0|0:0,0:0:0:0:
101,146,94186,1,2,0:0:0:0:
101,146,94273,1,2,0:0:0:0:
101,146,94360,1,2,0:0:0:0:
101,146,94447,1,0,0:0:0:0:
101,146,94534,2,0,P|133:134|165:144,1,38.6999988189698,10|0,0:0|0:0,0:0:0:0:
197,79,94709,2,0,P|223:100|230:133,1,38.6999988189698,2|0,0:0|0:0,0:0:0:0:
319,28,94883,6,0,P|306:128|300:207,1,154.799995275879,6|10,0:0|0:0,0:0:0:0:
407,245,95406,1,2,0:0:0:0:
407,245,95494,1,2,0:0:0:0:
407,245,95581,2,0,P|343:259|267:280,2,116.099996456909,2|2|2,0:0|0:0|0:0,0:0:0:0:
193,337,96279,2,0,P|257:351|333:372,2,116.099996456909,2|2|2,0:0|0:0|0:0,0:0:0:0:
97,384,96976,2,0,P|69:329|84:294,1,77.3999976379395,2|0,0:0|0:0,0:0:0:0:
59,298,97238,2,0,P|93:247|130:242,1,77.3999976379395,2|0,0:0|0:0,0:0:0:0:
110,225,97500,1,2,0:0:0:0:
241,261,97674,6,0,P|224:172|216:117,1,116.099996456909,6|0,0:0|0:0,0:0:0:0:
209,133,98023,2,0,P|170:128|129:124,1,77.3999976379395,2|0,0:0|0:0,0:0:0:0:
332,54,98372,2,0,P|321:111|312:169,2,116.099996456909,6|2|2,0:0|0:0|0:0,0:0:0:0:
416,128,99069,6,0,P|454:122|492:114,1,77.3999976379395,6|2,0:0|0:0,0:0:0:0:
462,235,99418,2,0,P|420:225|377:218,1,86,6|2,0:0|0:0,0:0:0:0:
419,347,99767,2,0,P|465:336|512:329,1,94.600002886963,6|2,0:0|0:0,0:0:0:0:
309,384,100116,5,2,1:0:0:0:
309,384,100203,1,0,0:0:0:0:
309,384,100290,1,2,0:0:0:0:
309,384,100377,1,0,0:0:0:0:
309,384,100465,2,0,P|298:320|290:275,1,86,6|0,1:0|0:0,0:0:0:0:
281,285,100726,2,0,P|292:221|300:176,1,86,2|0,0:0|0:0,0:0:0:0:
286,186,100988,1,2,0:0:0:0:
188,266,101162,2,0,P|144:274|87:290,1,86,2|10,1:0|0:0,0:0:0:0:
48,175,101511,2,0,P|89:185|131:193,1,86,10|2,0:0|0:0,0:0:0:0:
0,109,101860,6,0,P|9:73|55:46,1,86,2|2,1:0|0:0,0:0:0:0:
59,27,102122,2,0,P|96:24|135:59,1,86,2|0,0:0|0:0,0:0:0:0:
150,55,102383,1,2,0:0:0:0:
284,41,102558,2,0,P|255:66|216:106,1,86,2|10,1:0|0:0,0:0:0:0:
380,89,102906,2,0,P|372:51|357:-2,1,86,10|2,0:0|0:0,0:0:0:0:
368,168,103255,6,0,B|413:180|431:155|429:153|456:123|513:149,2,129,2|2|2,1:0|0:0|0:0,0:0:0:0:
480,221,103953,2,0,P|492:284|509:346,2,129,2|2|2,1:0|0:0|0:0,0:0:0:0:
426,354,104651,6,2,P|384:355|340:307,1,86,2|2,1:0|0:0,0:0:0:0:
256,266,105000,2,2,P|313:254|352:241,1,86,10|2,0:0|0:0,0:0:0:0:
379,171,105348,1,2,1:0:0:0:
256,88,105523,1,10,0:0:0:0:
287,164,105697,1,10,0:0:0:0:
148,194,105872,5,2,0:0:0:0:
148,194,105959,1,0,0:0:0:0:
148,194,106046,2,0,P|106:181|64:173,1,86,6|0,1:0|0:0,0:0:0:0:
54,161,106308,2,0,P|23:194|20:251,1,86,2|0,0:0|0:0,0:0:0:0:
2,245,106569,1,2,0:0:0:0:
119,351,106744,2,0,P|113:308|105:258,1,86,2|10,1:0|0:0,0:0:0:0:
212,298,107093,2,0,P|205:341|200:384,1,86,10|2,0:0|0:0,0:0:0:0:
274,241,107441,6,0,P|327:263|393:277,1,86,2|2,1:0|0:0,0:0:0:0:
369,258,107703,2,0,P|422:236|488:222,1,86,2|0,0:0|0:0,0:0:0:0:
466,243,107965,1,2,0:0:0:0:
509,117,108139,2,0,P|472:146|424:144,1,86,2|10,1:0|0:0,0:0:0:0:
372,38,108488,2,0,P|414:41|446:68,1,86,2|10,0:0|0:0,0:0:0:0:
300,127,108837,6,0,P|289:52|273:-26,2,129,6|2|2,1:0|0:0|0:0,0:0:0:0:
174,189,109534,2,0,P|241:184|267:263,2,129,6|2|2,1:0|0:0|0:0,0:0:0:0:
220,328,110232,2,2,P|269:317|332:305,1,86,6|2,1:0|0:0,0:0:0:0:
402,260,110581,2,2,P|443:269|486:277,1,86,6|2,0:0|0:0,0:0:0:0:
393,343,110930,1,6,1:0:0:0:
331,221,111104,1,2,1:0:0:0:
401,174,111279,5,2,1:0:0:0:
401,174,111366,1,0,0:0:0:0:
401,174,111453,1,0,0:0:0:0:
401,174,111540,1,0,0:0:0:0:
401,174,111627,2,0,P|408:118|419:70,1,86,6|0,1:0|0:0,0:0:0:0:
424,76,111889,2,0,P|396:38|334:40,1,86,2|0,0:0|0:0,0:0:0:0:
348,19,112151,1,2,0:0:0:0:
234,20,112325,2,0,P|192:30|151:43,1,86,2|10,1:0|0:0,0:0:0:0:
236,181,112674,2,0,P|247:139|257:97,1,86,10|2,0:0|0:0,0:0:0:0:
287,249,113023,6,0,P|235:266|190:249,1,86,2|2,1:0|0:0,0:0:0:0:
189,266,113284,2,0,P|148:230|140:182,1,86,2|0,0:0|0:0,0:0:0:0:
149,189,113546,1,2,0:0:0:0:
67,123,113720,2,0,P|121:108|184:90,1,86,2|10,1:0|0:0,0:0:0:0:
95,30,114069,2,0,P|40:15|-22:-2,1,86,2|10,0:0|0:0,0:0:0:0:
45,223,114418,6,0,P|35:159|23:95,2,129,2|2|2,1:0|0:0|0:0,0:0:0:0:
24,301,115116,2,0,B|66:316|88:294|86:292|112:264|172:292,2,129,2|2|2,1:0|0:0|0:0,0:0:0:0:
194,352,115813,2,2,P|222:318|226:265,1,86,2|2,1:0|0:0,0:0:0:0:
305,233,116162,2,2,P|311:274|339:307,1,86,10|2,0:0|0:0,0:0:0:0:
416,334,116511,1,2,1:0:0:0:
452,170,116686,1,2,1:0:0:0:
387,223,116860,1,2,1:0:0:0:
279,152,117034,5,2,0:0:0:0:
279,152,117122,1,0,0:0:0:0:
279,152,117209,2,0,P|199:139|176:133,1,86,6|0,1:0|0:0,0:0:0:0:
182,147,117470,2,0,P|102:160|79:166,1,86,2|0,0:0|0:0,0:0:0:0:
82,154,117732,1,2,0:0:0:0:
8,83,117906,2,0,P|2:125|0:168,1,86,2|10,1:0|0:0,0:0:0:0:
103,52,118255,2,0,P|68:25|33:2,1,86,10|2,0:0|0:0,0:0:0:0:
171,0,118604,6,0,P|226:0|255:47,1,86,2|2,1:0|0:0,0:0:0:0:
245,39,118866,2,0,P|308:23|366:8,1,86,2|0,0:0|0:0,0:0:0:0:
344,26,119127,1,2,0:0:0:0:
408,127,119302,2,0,P|366:116|324:105,1,86,2|10,1:0|0:0,0:0:0:0:
472,49,119651,2,0,P|483:90|495:131,1,86,2|10,0:0|0:0,0:0:0:0:
409,266,120000,6,0,P|473:213|523:236,2,129,6|2|2,1:0|0:0|0:0,0:0:0:0:
349,361,120697,2,0,P|412:349|476:340,2,129,6|2|2,1:0|0:0|0:0,0:0:0:0:
239,326,121395,2,2,P|215:295|214:233,1,86,6|2,1:0|0:0,0:0:0:0:
308,197,121744,2,2,P|333:162|337:120,1,86,6|2,0:0|0:0,0:0:0:0:
280,57,122093,1,6,1:0:0:0:
169,145,122267,1,2,1:0:0:0:
90,117,122441,5,2,1:0:0:0:
90,117,122529,1,0,0:0:0:0:
90,117,122616,1,2,0:0:0:0:
90,117,122703,1,0,0:0:0:0:
90,117,122790,1,6,0:0:0:0:
135,291,128372,6,0,P|131:271|128:253,1,30.0999990814209,6|0,0:0|0:0,0:0:0:0:
377,291,132209,5,2,0:0:0:0:
376,291,132558,2,0,P|380:271|384:253,3,30.0999990814209,0|0|0|0,0:0|0:0|0:0|0:0,0:0:0:0:
460,243,132906,2,0,P|456:223|452:204,3,30.0999990814209,2|0|0|0,0:0|0:0|0:0|0:0,0:0:0:0:
382,176,133255,2,0,P|385:156|389:137,3,30.0999990814209,0|0|0|0,0:0|0:0|0:0|0:0,0:0:0:0:
462,123,133604,2,0,P|458:103|454:84,3,30.0999990814209,2|0|0|0,0:0|0:0|0:0|0:0,0:0:0:0:
373,29,133953,6,0,P|349:33|311:54,3,34.4,2|0|0|0,0:0|0:0|0:0|0:0,0:0:0:0:
261,4,134302,2,0,P|253:26|253:69,3,34.4,2|0|0|0,0:0|0:0|0:0|0:0,0:0:0:0:
179,83,134651,2,0,P|194:100|231:122,3,34.4,2|0|0|0,0:0|0:0|0:0|0:0,0:0:0:0:
225,187,135000,2,0,P|248:181|285:160,3,34.4,2|0|0|0,0:0|0:0|0:0|0:0,0:0:0:0:
330,301,135348,5,6,1:0:0:0:
294,333,135436,1,2,0:0:0:0:
253,340,135523,1,2,0:0:0:0:
218,322,135610,1,2,0:0:0:0:
201,292,135697,1,10,0:0:0:0:
188,264,135784,1,2,0:0:0:0:
162,254,135872,1,2,0:0:0:0:
138,254,135959,1,2,0:0:0:0:
126,267,136046,2,0,P|134:301|141:339,3,38.6999988189698,2|2|2|2,1:0|0:0|0:0|0:0,0:0:0:0:
41,265,136395,2,0,P|49:230|56:192,3,38.6999988189698,10|2|2|2,0:0|0:0|0:0|0:0,0:0:0:0:
49,126,136744,5,2,1:0:0:0:
57,130,136831,2,0,P|87:122|119:118,1,43,2|2,0:0|1:0,0:0:0:0:
143,40,137005,1,2,0:0:0:0:
155,32,137093,2,0,P|177:38|200:42,1,47.3000014434815,10|2,1:0|0:0,0:0:0:0:
244,129,137267,1,2,1:0:0:0:
259,142,137354,2,0,P|284:134|309:130,1,51.599998425293,2|2,0:0|1:0,0:0:0:0:
353,49,137529,1,2,0:0:0:0:
371,35,137616,2,0,P|397:43|424:47,1,55.8999974411012,2|2,1:0|0:0,0:0:0:0:
500,166,137790,1,10,1:0:0:0:
500,166,138139,6,0,P|453:144|405:179,1,86,6|0,1:0|0:0,0:0:0:0:
414,169,138401,2,0,P|429:226|436:277,1,86,2|0,0:0|0:0,0:0:0:0:
425,267,138662,1,2,0:0:0:0:
345,344,138837,2,0,P|302:335|260:330,1,86,2|10,1:0|0:0,0:0:0:0:
253,231,139186,2,0,P|220:259|186:285,1,86,10|2,0:0|0:0,0:0:0:0:
330,258,139534,6,0,P|334:220|296:162,1,86,2|2,1:0|0:0,0:0:0:0:
321,166,139796,2,0,P|317:128|355:70,1,86,2|0,0:0|0:0,0:0:0:0:
331,71,140058,1,2,0:0:0:0:
209,95,140232,2,0,P|163:105|89:116,1,86,2|10,1:0|0:0,0:0:0:0:
182,3,140581,2,0,P|224:10|266:19,1,86,2|10,0:0|0:0,0:0:0:0:
47,132,140930,6,0,B|29:98|50:67|52:69|77:43|40:-16,2,129,2|2|2,1:0|0:0|0:0,0:0:0:0:
0,236,141627,2,0,P|50:217|93:278,2,129,2|2|2,1:0|0:0|0:0,0:0:0:0:
159,204,142325,2,2,P|202:191|240:177,1,86,2|2,1:0|0:0,0:0:0:0:
272,335,142674,2,2,P|240:305|208:277,1,86,10|2,0:0|0:0,0:0:0:0:
183,366,143023,1,2,1:0:0:0:
330,276,143197,1,10,0:0:0:0:
386,340,143372,1,10,0:0:0:0:
498,224,143546,5,2,0:0:0:0:
498,224,143633,1,0,0:0:0:0:
498,224,143720,2,0,P|421:240|387:246,1,86,6|0,1:0|0:0,0:0:0:0:
404,255,143982,2,0,P|327:239|293:233,1,86,2|0,0:0|0:0,0:0:0:0:
302,248,144244,1,2,0:0:0:0:
221,356,144418,2,0,P|281:330|324:348,1,86,2|10,1:0|0:0,0:0:0:0:
194,265,144767,2,0,P|151:265|116:242,1,86,10|2,0:0|0:0,0:0:0:0:
257,41,145116,6,0,P|277:103|295:149,1,86,2|2,1:0|0:0,0:0:0:0:
298,135,145377,2,0,P|278:197|260:243,1,86,2|0,0:0|0:0,0:0:0:0:
282,235,145639,1,2,0:0:0:0:
408,267,145813,2,0,P|469:248|528:235,1,86,2|10,1:0|0:0,0:0:0:0:
460,158,146162,2,0,P|419:171|377:182,1,86,2|10,0:0|0:0,0:0:0:0:
381,24,146511,6,0,P|442:44|504:61,2,129,6|2|2,1:0|0:0|0:0,0:0:0:0:
251,100,147209,2,0,P|294:67|253:-20,2,129,6|2|2,1:0|0:0|0:0,0:0:0:0:
96,76,147906,2,2,P|160:62|207:50,1,86,6|2,1:0|0:0,0:0:0:0:
182,168,148255,2,2,P|224:176|265:186,1,86,6|2,0:0|0:0,0:0:0:0:
317,250,148604,1,6,1:0:0:0:
430,135,148779,1,2,1:0:0:0:
504,206,148953,5,2,1:0:0:0:
504,206,149040,1,0,0:0:0:0:
504,206,149127,1,2,0:0:0:0:
504,206,149215,1,0,0:0:0:0:
504,206,149302,2,0,P|440:222|393:234,1,86,6|0,1:0|0:0,0:0:0:0:
404,220,149563,2,0,P|378:264|384:317,1,86,2|0,0:0|0:0,0:0:0:0:
393,311,149825,1,2,0:0:0:0:
293,368,150000,2,0,P|250:376|208:384,1,86,2|10,1:0|0:0,0:0:0:0:
236,219,150348,2,0,P|264:251|292:283,1,86,10|2,0:0|0:0,0:0:0:0:
109,340,150697,6,0,P|122:299|137:258,1,86,2|2,1:0|0:0,0:0:0:0:
152,243,150959,2,0,P|138:202|123:161,1,86,2|0,0:0|0:0,0:0:0:0:
136,149,151220,1,2,0:0:0:0:
145,29,151395,2,0,P|111:3|69:3,1,86,2|10,1:0|0:0,0:0:0:0:
8,108,151744,2,0,P|50:108|83:82,1,86,2|10,0:0|0:0,0:0:0:0:
227,0,152093,6,0,P|313:11|389:18,2,129,2|2|2,1:0|0:0|0:0,0:0:0:0:
342,131,152790,2,0,P|418:100|421:42,2,129,2|2|2,1:0|0:0|0:0,0:0:0:0:
245,175,153488,2,2,P|259:112|281:53,1,86,2|2,1:0|0:0,0:0:0:0:
177,256,153837,2,2,P|163:193|141:134,1,86,10|2,0:0|0:0,0:0:0:0:
82,130,154186,1,2,1:0:0:0:
0,259,154360,1,2,1:0:0:0:
74,223,154534,1,2,1:0:0:0:
150,338,154709,5,2,0:0:0:0:
150,338,154796,1,0,0:0:0:0:
150,338,154883,2,0,P|191:343|235:315,1,86,6|0,1:0|0:0,0:0:0:0:
250,325,155145,2,0,P|267:287|254:237,1,86,2|0,0:0|0:0,0:0:0:0:
271,229,155406,1,2,0:0:0:0:
190,142,155581,2,0,P|144:152|81:169,1,86,2|10,1:0|0:0,0:0:0:0:
205,60,155930,2,0,P|251:50|314:33,1,86,10|2,0:0|0:0,0:0:0:0:
437,14,156279,6,0,P|412:87|405:127,1,86,2|2,1:0|0:0,0:0:0:0:
421,112,156540,2,0,P|446:185|453:225,1,86,2|0,0:0|0:0,0:0:0:0:
440,209,156802,1,2,0:0:0:0:
476,308,156976,2,0,P|434:296|392:288,1,86,2|10,1:0|0:0,0:0:0:0:
357,201,157325,2,0,P|329:233|298:263,1,86,2|10,0:0|0:0,0:0:0:0:
183,384,157674,6,0,P|254:334|289:366,2,129,6|2|2,1:0|0:0|0:0,0:0:0:0:
133,206,158372,2,0,P|123:269|112:333,2,129,6|2|2,1:0|0:0|0:0,0:0:0:0:
179,81,159069,2,2,P|136:74|102:49,1,86,6|2,1:0|0:0,0:0:0:0:
6,172,159418,2,2,P|47:145|99:143,1,86,6|2,0:0|0:0,0:0:0:0:
133,206,159767,1,6,1:0:0:0:
272,128,159941,1,2,1:0:0:0:
356,187,160116,5,2,1:0:0:0:
356,187,160203,1,0,0:0:0:0:
356,187,160290,1,2,2:1:0:0:
356,187,160377,1,0,0:0:0:0:
356,187,160465,1,2,0:0:0:0:
200,302,161686,5,2,0:0:0:0:
200,302,161773,1,0,0:0:0:0:
200,302,161860,1,6,1:0:0:0:
256,192,161947,12,2,163255,0:0:0:0:
