osu file format v14

[General]
AudioFilename: audio.mp3
AudioLeadIn: 0
PreviewTime: 48069
Countdown: 0
SampleSet: None
StackLeniency: 0.7
Mode: 0
LetterboxInBreaks: 0
WidescreenStoryboard: 0

[Editor]
Bookmarks: 7569,13569,18069,30069,36069,48069,61569,73569,92319,107319,119319,126819,138819
DistanceSpacing: 0.5
BeatDivisor: 4
GridSize: 4
TimelineZoom: 1.8

[Metadata]
Title:Ishikitakaikei yandere doemushoujoJ
TitleUnicode:Ishikitakaikei yandere doemushoujoJ
Artist:Silver Forest
ArtistUnicode:Silver Forest
Creator:fufu-
Version:1212
Source:
Tags:music
BeatmapID:1586036
BeatmapSetID:753341

[Difficulty]
HPDrainRate:0
CircleSize:4.5
OverallDifficulty:8
ApproachRate:9
SliderMultiplier:1.4
SliderTickRate:1

[Events]
//Background and Video events
0,0,"H E L L O T H E R E.jpg",0,0
//Break Periods
2,79769,84969
//Storyboard Layer 0 (Background)
//Storyboard Layer 1 (Fail)
//Storyboard Layer 2 (Pass)
//Storyboard Layer 3 (Foreground)
//Storyboard Sound Samples

[TimingPoints]
69,375,4,2,0,50,1,0
13569,-66.6666666666667,4,2,0,50,0,0
48444,-66.6666666666667,4,2,0,50,0,1
48725,-66.6666666666667,4,2,0,50,0,0
49194,-66.6666666666667,4,2,0,50,0,1
49475,-66.6666666666667,4,2,0,50,0,0
49944,-66.6666666666667,4,2,0,50,0,1
50225,-66.6666666666667,4,2,0,50,0,0
51444,-66.6666666666667,4,2,0,50,0,1
51725,-66.6666666666667,4,2,0,50,0,0
52194,-66.6666666666667,4,2,0,50,0,1
52475,-66.6666666666667,4,2,0,50,0,0
54444,-66.6666666666667,4,2,0,50,0,1
54725,-66.6666666666667,4,2,0,50,0,0
55194,-66.6666666666667,4,2,0,50,0,1
55475,-66.6666666666667,4,2,0,50,0,0
55944,-66.6666666666667,4,2,0,50,0,1
56225,-66.6666666666667,4,2,0,50,0,0
57444,-66.6666666666667,4,2,0,50,0,1
57725,-66.6666666666667,4,2,0,50,0,0
58194,-66.6666666666667,4,2,0,50,0,1
58475,-66.6666666666667,4,2,0,50,0,0
61569,-50,4,2,0,50,0,1
73569,-66.6666666666667,4,2,0,50,0,0
92319,375,4,2,0,50,1,0
92319,-66.6666666666667,4,2,0,50,0,0
92694,-66.6666666666667,4,2,0,50,0,1
92975,-66.6666666666667,4,2,0,50,0,0
93444,-66.6666666666667,4,2,0,50,0,1
93725,-66.6666666666667,4,2,0,50,0,0
94194,-66.6666666666667,4,2,0,50,0,1
94475,-66.6666666666667,4,2,0,50,0,0
95694,-66.6666666666667,4,2,0,50,0,1
95975,-66.6666666666667,4,2,0,50,0,0
96444,-66.6666666666667,4,2,0,50,0,1
96725,-66.6666666666667,4,2,0,50,0,0
97194,-66.6666666666667,4,2,0,50,0,1
97475,-66.6666666666667,4,2,0,50,0,0
97569,-50,4,2,0,50,0,0
98319,-66.6666666666667,4,2,0,50,0,0
98694,-66.6666666666667,4,2,0,50,0,1
98975,-66.6666666666667,4,2,0,50,0,0
99444,-66.6666666666667,4,2,0,50,0,1
99725,-66.6666666666667,4,2,0,50,0,0
100194,-66.6666666666667,4,2,0,50,0,1
100475,-66.6666666666667,4,2,0,50,0,0
101694,-66.6666666666667,4,2,0,50,0,1
101975,-66.6666666666667,4,2,0,50,0,0
102444,-66.6666666666667,4,2,0,50,0,1
102725,-66.6666666666667,4,2,0,50,0,0
102819,-100,4,2,0,50,0,0
105819,-66.6666666666667,4,2,0,50,0,0
107319,-44.4444444444445,4,2,0,50,0,1
119319,-66.6666666666667,4,2,0,50,0,0

[Colours]
Combo1 : 0,128,255
Combo2 : 254,156,183
Combo3 : 255,255,132
Combo4 : 255,55,55

[HitObjects]
178,138,1569,6,0,L|169:192,1,35,2|0,0:0|0:0,0:0:0:0:
225,233,1756,2,0,L|216:287,1,35
178,138,2037,6,0,L|169:192,1,35
225,233,2225,2,0,L|216:287,1,35
178,138,2600,6,0,L|212:143,1,35
272,91,2787,2,0,L|306:96,1,35
340,236,3069,6,0,L|385:227,1,35,2|0,0:0|0:0,0:0:0:0:
358,159,3256,2,0,L|313:168,1,35
340,236,3537,6,0,L|385:227,1,35
358,159,3725,2,0,L|313:168,1,35
339,235,4100,6,0,L|374:229,1,35
390,299,4287,2,0,L|356:306,1,35
243,327,4569,6,0,L|199:321,1,35,2|0,0:0|0:0,0:0:0:0:
135,313,4756,2,0,L|91:307,1,35
243,327,5037,6,0,L|199:321,1,35
135,313,5225,2,0,L|91:307,1,35,0|2,0:0|0:0,0:0:0:0:
243,327,5600,6,0,L|208:322,1,35
135,313,5787,2,0,L|100:308,1,35
28,298,6069,6,0,P|16:259|31:209,1,70,2|0,0:0|0:0,0:0:0:0:
35,208,6350,2,0,L|109:220,1,70,2|0,0:0|0:0,0:0:0:0:
128,207,6631,2,0,P|142:172|140:124,1,70,2|0,0:0|0:0,0:0:0:0:
133,122,7194,6,2,L|106:119,6,17.5
46,98,7569,6,0,P|65:67|121:48,1,70,4|0,0:0|0:0,0:0:0:0:
111,51,7850,1,0,0:0:0:0:
128,53,7944,2,0,L|216:64,1,70,8|0,0:0|0:0,0:0:0:0:
259,169,8319,6,0,L|244:257,1,70
252,254,8600,1,0,0:0:0:0:
258,270,8694,2,0,L|243:358,1,70,8|0,0:0|0:0,0:0:0:0:
121,191,9069,6,0,L|132:121,1,70
279,82,9444,1,8,0:0:0:0:
155,202,9631,1,0,0:0:0:0:
138,196,9725,1,0,0:0:0:0:
121,191,9819,5,0,0:0:0:0:
176,46,10006,1,0,0:0:0:0:
237,257,10194,1,10,0:0:0:0:
237,257,10569,6,0,L|314:262,1,70
324,263,10850,1,0,0:0:0:0:
341,265,10944,2,0,P|359:222|361:193,1,70,8|0,0:0|0:0,0:0:0:0:
282,118,11319,6,0,P|264:74|245:52,1,70
232,53,11600,1,0,0:0:0:0:
215,47,11694,2,0,L|141:75,1,70,8|0,0:0|0:0,0:0:0:0:
62,179,12069,6,0,L|56:272,1,70
59,266,12350,1,0,0:0:0:0:
65,282,12444,5,8,0:0:0:0:
74,296,12537,1,0,0:0:0:0:
87,307,12631,1,0,0:0:0:0:
102,314,12725,1,0,0:0:0:0:
118,318,12819,6,0,L|198:310,1,70
318,262,13100,1,0,0:0:0:0:
318,262,13194,2,8,L|238:254,1,70,10|8,0:0|0:0,0:0:0:0:
136,198,13569,6,0,P|173:157|176:92,1,105.000004005432,6|0,0:0|0:0,0:0:0:0:
178,34,13850,2,0,L|211:148,1,105.000004005432,2|0,0:0|0:0,0:0:0:0:
229,204,14131,2,0,P|216:226|191:249,1,52.5000020027161,8|0,0:0|0:0,0:0:0:0:
45,204,14319,6,0,P|40:151|95:107,1,105.000004005432,2|0,0:0|0:0,0:0:0:0:
143,115,14600,2,0,P|177:75|247:82,1,105.000004005432,2|0,0:0|0:0,0:0:0:0:
260,134,14881,2,0,P|287:132|337:157,1,52.5000020027161,8|0,0:0|0:0,0:0:0:0:
329,211,15069,6,0,L|305:315,1,105.000004005432,2|0,0:0|0:0,0:0:0:0:
110,174,15444,1,8,0:0:0:0:
260,134,15631,2,0,L|317:139,1,52.5000020027161
388,146,15819,5,2,0:0:0:0:
193,198,16006,1,2,0:0:0:0:
397,266,16194,2,8,P|363:259|327:265,1,52.5000020027161
291,309,16381,2,8,P|270:321|242:356,1,52.5000020027161
171,352,16569,6,0,P|226:328|178:291,1,105.000004005432,2|0,0:0|0:0,0:0:0:0:
144,283,16850,2,0,P|103:276|59:227,1,105.000004005432,2|0,0:0|0:0,0:0:0:0:
108,179,17131,2,0,P|116:153|139:126,1,52.5000020027161,8|0,0:0|0:0,0:0:0:0:
203,128,17319,5,12,0:0:0:0:
203,128,18069,5,6,0:0:0:0:
309,146,18162,1,2,0:0:0:0:
213,142,18256,5,2,0:0:0:0:
293,155,18350,1,2,0:0:0:0:
223,158,18444,6,0,L|216:213,3,52.5000020027161,10|0|0|0,0:0|0:0|0:0|0:0,0:0:0:0:
222,288,18819,5,2,0:0:0:0:
222,288,18912,2,0,L|157:301,1,52.5000020027161,2|2,0:0|0:0,0:0:0:0:
121,354,19100,2,2,B|89:360|65:375|65:375|83:332|67:272,1,157.500006008148
68,279,19569,5,2,0:0:0:0:
41,213,19662,1,2,0:0:0:0:
80,267,19756,5,2,0:0:0:0:
70,195,19849,1,2,0:0:0:0:
104,257,19944,6,0,P|105:189|125:142,1,105.000004005432,10|2,0:0|0:0,0:0:0:0:
193,120,20225,1,0,0:0:0:0:
267,161,20319,6,0,L|380:147,1,105.000004005432,2|0,0:0|0:0,0:0:0:0:
430,213,20600,2,0,L|317:227,1,105.000004005432,2|0,0:0|0:0,0:0:0:0:
228,237,20881,1,8,0:0:0:0:
228,237,21069,5,2,0:0:0:0:
244,341,21162,1,2,0:0:0:0:
207,249,21256,5,2,0:0:0:0:
221,333,21350,1,2,0:0:0:0:
190,265,21444,6,0,L|138:256,3,52.5000020027161,10|0|0|0,0:0|0:0|0:0|0:0,0:0:0:0:
61,271,21819,5,2,0:0:0:0:
61,271,21912,2,0,L|-12:251,1,52.5000020027161,2|2,0:0|0:0,0:0:0:0:
1,153,22100,2,2,B|37:160|37:160|118:138,1,105.000004005432
210,97,22381,2,0,L|134:88,1,52.5000020027161,2|2,0:0|0:0,0:0:0:0:
72,24,22569,6,8,L|91:103,1,52.5000020027161,8|0,0:0|0:0,0:0:0:0:
121,211,22756,1,8,0:0:0:0:
118,226,22944,2,2,P|174:207|227:228,1,105.000004005432
218,293,23225,1,0,0:0:0:0:
184,362,23319,5,2,0:0:0:0:
235,144,23506,1,2,0:0:0:0:
316,363,23694,2,8,P|303:339|306:303,1,52.5000020027161,10|8,0:0|0:0,0:0:0:0:
363,281,23881,2,8,P|376:258|416:249,1,52.5000020027161
459,282,24069,5,6,0:0:0:0:
373,299,24162,1,2,0:0:0:0:
457,303,24256,5,2,0:0:0:0:
384,318,24350,1,2,0:0:0:0:
449,326,24444,6,0,L|384:336,3,52.5000020027161,10|0|0|0,0:0|0:0|0:0|0:0,0:0:0:0:
268,313,24819,6,0,L|142:295,1,105.000004005432,2|0,0:0|0:0,0:0:0:0:
88,286,25100,2,0,P|140:307|191:249,1,105.000004005432,2|0,0:0|0:0,0:0:0:0:
200,210,25381,1,8,0:0:0:0:
200,210,25569,5,2,0:0:0:0:
123,191,25662,1,2,0:0:0:0:
219,189,25756,5,2,0:0:0:0:
148,153,25850,1,2,0:0:0:0:
242,167,25944,6,0,P|196:129|189:73,1,105.000004005432,2|2,0:0|0:0,0:0:0:0:
259,48,26225,1,0,0:0:0:0:
333,83,26319,6,0,L|321:197,1,105.000004005432,2|0,0:0|0:0,0:0:0:0:
309,263,26600,2,0,L|176:238,1,105.000004005432,2|0,0:0|0:0,0:0:0:0:
134,227,26881,1,8,0:0:0:0:
134,227,27069,5,2,0:0:0:0:
118,248,27162,1,2,0:0:0:0:
128,272,27256,1,2,0:0:0:0:
154,275,27350,6,0,B|214:252|214:252|287:266,1,105.000004005432,2|0,0:0|0:0,0:0:0:0:
313,297,27631,2,0,L|379:310,1,52.5000020027161,2|2,0:0|0:0,0:0:0:0:
433,272,27819,6,4,L|408:112,2,157.500006008148
433,272,28569,5,2,0:0:0:0:
407,268,28662,1,2,0:0:0:0:
384,253,28756,1,2,0:0:0:0:
370,230,28850,1,2,0:0:0:0:
367,203,28944,2,2,P|376:157|441:121,1,105.000004005432
489,142,29225,1,0,0:0:0:0:
439,195,29319,6,0,L|366:182,1,52.5000020027161,2|0,0:0|0:0,0:0:0:0:
276,127,29506,2,0,L|215:142,1,52.5000020027161,2|0,0:0|0:0,0:0:0:0:
108,220,29694,6,2,L|79:217,3,26.2500010013581
24,151,29881,2,2,L|50:153,3,26.2500010013581
106,102,30069,6,0,P|149:107|201:153,1,105.000004005432,6|0,0:0|0:0,0:0:0:0:
209,217,30350,2,0,L|181:331,1,105.000004005432,2|0,0:0|0:0,0:0:0:0:
252,357,30631,2,0,P|260:322|279:297,1,52.5000020027161,8|0,0:0|0:0,0:0:0:0:
379,262,30819,6,0,P|416:302|361:350,1,105.000004005432,2|0,0:0|0:0,0:0:0:0:
327,352,31100,2,0,P|286:318|287:226,1,105.000004005432,2|0,0:0|0:0,0:0:0:0:
320,209,31381,2,0,L|313:148,1,52.5000020027161,8|0,0:0|0:0,0:0:0:0:
345,54,31569,6,0,B|296:30|296:30|240:73,1,105.000004005432,2|0,0:0|0:0,0:0:0:0:
323,232,31944,1,8,0:0:0:0:
367,69,32131,2,0,L|291:76,1,52.5000020027161
125,96,32319,5,2,0:0:0:0:
378,161,32506,1,2,0:0:0:0:
170,207,32694,2,8,L|182:268,1,52.5000020027161
98,219,32881,2,8,L|110:280,1,52.5000020027161
27,231,33069,6,0,L|51:345,1,105.000004005432,2|0,0:0|0:0,0:0:0:0:
115,357,33350,2,0,P|152:312|125:265,1,105.000004005432,2|0,0:0|0:0,0:0:0:0:
113,204,33631,2,0,P|103:183|108:140,1,52.5000020027161,8|0,0:0|0:0,0:0:0:0:
169,77,33819,6,0,B|229:87|229:87|305:63,1,105.000004005432,2|0,0:0|0:0,0:0:0:0:
344,44,34100,2,0,L|450:76,1,105.000004005432,2|0,0:0|0:0,0:0:0:0:
482,145,34381,2,0,L|459:221,1,52.5000020027161,8|0,0:0|0:0,0:0:0:0:
398,278,34569,6,0,P|357:244|353:341,1,210.000008010865,2|2,0:0|0:0,0:0:0:0:
359,317,35037,1,2,0:0:0:0:
351,291,35131,1,2,0:0:0:0:
330,274,35225,1,2,0:0:0:0:
303,270,35319,6,0,P|263:273|215:322,1,105.000004005432,2|0,0:0|0:0,0:0:0:0:
156,361,35600,1,0,0:0:0:0:
156,361,35694,2,0,L|144:224,1,105.000004005432,2|0,0:0|0:0,0:0:0:0:
91,177,36069,5,6,0:0:0:0:
182,163,36163,1,2,0:0:0:0:
91,153,36256,5,2,0:0:0:0:
171,142,36350,1,2,0:0:0:0:
92,127,36444,6,0,L|95:69,3,52.5000020027161,10|0|0|0,0:0|0:0|0:0|0:0,0:0:0:0:
124,7,36819,6,0,P|168:41|241:26,1,105.000004005432,2|0,0:0|0:0,0:0:0:0:
286,18,37100,2,0,P|341:20|388:62,1,105.000004005432,2|0,0:0|0:0,0:0:0:0:
406,119,37381,1,8,0:0:0:0:
406,119,37569,6,0,L|396:177,1,52.5000020027161,2|2,0:0|0:0,0:0:0:0:
374,316,37756,2,0,L|423:270,1,52.5000020027161,2|2,0:0|0:0,0:0:0:0:
512,199,37944,2,2,L|387:177,1,105.000004005432
346,229,38225,1,0,0:0:0:0:
270,213,38319,6,0,P|286:181|353:154,1,105.000004005432,2|0,0:0|0:0,0:0:0:0:
292,283,38600,2,0,B|261:291|261:291|182:252,1,105.000004005432,2|0,0:0|0:0,0:0:0:0:
133,223,38881,1,8,0:0:0:0:
133,223,39069,5,2,0:0:0:0:
152,321,39162,1,2,0:0:0:0:
111,240,39256,5,2,0:0:0:0:
127,315,39350,1,2,0:0:0:0:
91,257,39444,6,0,L|102:310,3,52.5000020027161,10|0|0|0,0:0|0:0|0:0|0:0,0:0:0:0:
11,196,39819,6,0,B|26:140|26:140|97:120,1,105.000004005432,2|0,0:0|0:0,0:0:0:0:
132,160,40100,2,0,B|189:145|189:145|212:94,1,105.000004005432,2|0,0:0|0:0,0:0:0:0:
156,47,40381,2,0,L|99:61,1,52.5000020027161,8|0,0:0|0:0,0:0:0:0:
152,239,40569,5,2,0:0:0:0:
231,31,40756,1,2,0:0:0:0:
33,77,40944,2,2,P|76:128|121:132,1,105.000004005432
174,85,41225,1,0,0:0:0:0:
231,31,41319,5,2,0:0:0:0:
125,23,41506,1,2,0:0:0:0:
226,148,41694,2,8,P|248:142|276:123,1,52.5000020027161,10|8,0:0|0:0,0:0:0:0:
343,140,41881,2,8,P|361:121|377:90,1,52.5000020027161
417,35,42069,5,2,0:0:0:0:
317,20,42162,1,2,0:0:0:0:
403,41,42256,5,2,0:0:0:0:
327,31,42350,1,2,0:0:0:0:
390,48,42444,6,0,L|334:41,3,52.5000020027161,10|0|0|0,0:0|0:0|0:0|0:0,0:0:0:0:
454,104,42819,6,0,B|466:169|466:169|446:236,1,105.000004005432,2|0,0:0|0:0,0:0:0:0:
420,271,43100,2,0,B|363:249|363:249|296:264,1,105.000004005432,2|0,0:0|0:0,0:0:0:0:
247,282,43381,2,0,L|178:264,1,52.5000020027161,8|0,0:0|0:0,0:0:0:0:
72,236,43569,5,2,0:0:0:0:
194,68,43756,1,2,0:0:0:0:
268,359,43944,2,2,B|257:348|253:344|220:300|230:246,1,105.000004005432
306,296,44225,1,0,0:0:0:0:
268,359,44319,6,0,P|226:340|164:340,1,105.000004005432,2|0,0:0|0:0,0:0:0:0:
97,349,44600,2,0,P|145:316|147:253,1,105.000004005432,2|0,0:0|0:0,0:0:0:0:
111,212,44881,1,8,0:0:0:0:
111,212,45069,6,0,P|98:158|129:116,1,105.000004005432,2|0,0:0|0:0,0:0:0:0:
147,108,45350,2,0,L|255:130,1,105.000004005432,2|0,0:0|0:0,0:0:0:0:
265,152,45631,2,0,L|324:141,1,52.5000020027161,8|0,0:0|0:0,0:0:0:0:
496,100,45819,5,12,0:0:0:0:
496,100,46569,5,14,0:0:0:0:
472,111,46662,1,0,0:0:0:0:
453,130,46756,1,0,0:0:0:0:
443,148,46850,1,0,0:0:0:0:
441,163,46944,1,8,0:0:0:0:
443,178,47037,1,0,0:0:0:0:
450,191,47131,1,0,0:0:0:0:
460,203,47225,1,0,0:0:0:0:
473,211,47319,5,8,0:0:0:0:
452,206,47412,1,0,0:0:0:0:
425,210,47506,1,8,0:0:0:0:
398,227,47600,1,0,0:0:0:0:
375,256,47694,2,0,L|356:287,3,26.2500010013581,8|0|8|0,0:0|0:0|0:0|0:0,0:0:0:0:
329,296,47881,2,0,L|290:290,3,26.2500010013581,8|0|8|0,0:0|0:0|0:0|0:0,0:0:0:0:
271,283,48069,5,2,0:0:0:0:
157,309,48162,1,2,0:0:0:0:
261,263,48256,5,2,0:0:0:0:
147,289,48349,1,2,0:0:0:0:
255,237,48444,6,0,L|276:179,3,52.5000020027161,12|0|0|0,0:0|0:0|0:0|0:0,0:0:0:0:
280,155,48819,5,2,0:0:0:0:
256,29,48912,1,2,0:0:0:0:
306,158,49006,5,2,0:0:0:0:
282,32,49099,1,2,0:0:0:0:
331,163,49194,6,0,L|391:172,3,52.5000020027161,12|0|0|0,0:0|0:0|0:0|0:0,0:0:0:0:
411,176,49569,5,2,0:0:0:0:
396,319,49662,1,2,0:0:0:0:
388,188,49756,5,2,0:0:0:0:
373,331,49849,1,2,0:0:0:0:
366,205,49944,6,0,L|305:197,3,52.5000020027161,12|0|0|0,0:0|0:0|0:0|0:0,0:0:0:0:
249,228,50319,5,2,0:0:0:0:
249,228,50412,2,0,L|181:216,1,52.5000020027161,2|0,0:0|0:0,0:0:0:0:
46,44,50600,1,2,0:0:0:0:
46,44,50694,2,0,L|120:54,3,52.5000020027161,2|0|2|0,0:0|0:0|0:0|0:0,0:0:0:0:
130,57,51069,5,2,0:0:0:0:
261,41,51162,1,2,0:0:0:0:
137,77,51256,5,2,0:0:0:0:
268,61,51349,1,2,0:0:0:0:
143,99,51444,6,0,L|134:152,3,52.5000020027161,12|0|0|0,0:0|0:0|0:0|0:0,0:0:0:0:
129,179,51819,5,2,0:0:0:0:
1,157,51912,1,2,0:0:0:0:
135,211,52006,5,2,0:0:0:0:
7,189,52099,1,2,0:0:0:0:
141,241,52194,6,0,L|132:300,3,52.5000020027161,12|0|0|0,0:0|0:0|0:0|0:0,0:0:0:0:
105,358,52569,5,2,0:0:0:0:
105,358,52662,2,0,P|137:364|161:359,1,52.5000020027161,2|0,0:0|0:0,0:0:0:0:
244,286,52850,1,2,0:0:0:0:
244,286,52944,2,0,P|271:279|305:280,1,52.5000020027161,2|0,0:0|0:0,0:0:0:0:
445,340,53131,2,0,P|418:347|384:346,1,52.5000020027161,2|2,0:0|0:0,0:0:0:0:
225,298,53319,6,0,L|205:227,1,52.5000020027161,2|0,0:0|0:0,0:0:0:0:
392,119,53506,2,0,L|412:190,1,52.5000020027161,2|0,0:0|0:0,0:0:0:0:
193,275,53694,2,0,L|173:204,3,52.5000020027161,2|0|2|0,0:0|0:0|0:0|0:0,0:0:0:0:
186,188,54069,5,2,0:0:0:0:
53,217,54162,1,2,0:0:0:0:
186,162,54256,5,2,0:0:0:0:
53,191,54349,1,2,0:0:0:0:
188,133,54444,6,0,L|177:71,3,52.5000020027161,12|0|0|0,0:0|0:0|0:0|0:0,0:0:0:0:
189,53,54819,5,2,0:0:0:0:
330,63,54912,1,2,0:0:0:0:
203,78,55006,5,2,0:0:0:0:
344,88,55099,1,2,0:0:0:0:
216,105,55194,6,0,L|232:158,3,52.5000020027161,12|0|0|0,0:0|0:0|0:0|0:0,0:0:0:0:
228,186,55569,5,2,0:0:0:0:
211,318,55662,1,2,0:0:0:0:
250,204,55756,5,2,0:0:0:0:
233,336,55849,1,2,0:0:0:0:
273,220,55944,6,0,L|335:198,3,52.5000020027161,12|0|0|0,0:0|0:0|0:0|0:0,0:0:0:0:
399,202,56319,5,2,0:0:0:0:
399,202,56412,2,0,L|455:184,1,52.5000020027161,2|0,0:0|0:0,0:0:0:0:
469,91,56600,1,2,0:0:0:0:
469,91,56693,2,0,L|413:109,3,52.5000020027161,2|0|2|0,0:0|0:0|0:0|0:0,0:0:0:0:
388,98,57069,5,2,0:0:0:0:
242,79,57162,1,2,0:0:0:0:
377,120,57256,5,2,0:0:0:0:
231,101,57349,1,2,0:0:0:0:
367,144,57444,6,0,L|311:162,3,52.5000020027161,12|0|0|0,0:0|0:0|0:0|0:0,0:0:0:0:
325,191,57819,5,2,0:0:0:0:
179,172,57912,1,2,0:0:0:0:
314,213,58006,5,2,0:0:0:0:
168,194,58099,1,2,0:0:0:0:
304,237,58194,6,0,L|248:255,3,52.5000020027161,12|0|0|0,0:0|0:0|0:0|0:0,0:0:0:0:
151,218,58569,5,2,0:0:0:0:
141,199,58662,1,2,0:0:0:0:
138,178,58756,1,2,0:0:0:0:
145,158,58850,1,2,0:0:0:0:
157,140,58944,6,12,P|167:120|166:83,1,52.5000020027161,14|0,0:0|0:0,0:0:0:0:
89,62,59131,2,0,P|68:69|35:106,1,52.5000020027161,2|0,0:0|0:0,0:0:0:0:
119,200,59319,2,0,P|145:210|188:203,1,52.5000020027161,2|0,0:0|0:0,0:0:0:0:
220,43,59506,2,0,P|197:27|161:23,1,52.5000020027161,2|0,0:0|0:0,0:0:0:0:
46,181,59694,2,0,P|43:207|58:244,1,52.5000020027161,2|0,0:0|0:0,0:0:0:0:
259,105,59881,2,0,P|279:86|291:46,1,52.5000020027161,2|0,0:0|0:0,0:0:0:0:
61,29,60069,6,2,P|58:50|126:108,1,105.000004005432,6|2,0:0|0:0,0:0:0:0:
179,61,60350,2,2,L|190:181,1,105.000004005432,6|2,0:0|0:0,0:0:0:0:
184,279,60631,6,2,P|228:231|257:236,1,52.5000020027161,6|2,0:0|0:0,0:0:0:0:
284,258,60819,2,2,L|403:234,1,105.000004005432,6|2,0:0|0:0,0:0:0:0:
454,267,61100,1,8,0:0:0:0:
500,328,61194,6,8,L|507:357,3,26.2500010013581
429,337,61381,2,8,L|436:366,3,26.2500010013581
353,303,61569,6,0,P|307:336|207:293,1,140,6|0,0:0|0:0,0:0:0:0:
175,269,61850,2,0,P|156:243|107:223,1,70,2|8,0:0|0:0,0:0:0:0:
50,253,62037,1,2,0:0:0:0:
50,253,62131,2,0,P|36:282|44:334,1,70,8|0,0:0|0:0,0:0:0:0:
96,369,62319,5,2,0:0:0:0:
96,369,62412,2,0,P|128:365|169:333,1,70,8|0,0:0|0:0,0:0:0:0:
310,324,62600,1,2,0:0:0:0:
310,324,62693,2,0,P|277:320|236:288,1,70,8|0,0:0|0:0,0:0:0:0:
104,201,62881,2,0,P|136:197|177:165,1,70,8|8,0:0|0:0,0:0:0:0:
294,88,63069,6,0,B|331:82|350:47|350:47|352:84|405:109,1,140,2|0,0:0|0:0,0:0:0:0:
285,15,63350,2,0,P|245:31|219:80,1,70,2|8,0:0|0:0,0:0:0:0:
230,129,63537,1,2,0:0:0:0:
230,129,63631,2,0,L|241:214,1,70,8|0,0:0|0:0,0:0:0:0:
438,160,63819,5,2,0:0:0:0:
438,160,63913,2,0,L|427:245,1,70,8|0,0:0|0:0,0:0:0:0:
291,261,64100,1,2,0:0:0:0:
291,261,64194,2,0,L|302:346,1,70,8|0,0:0|0:0,0:0:0:0:
389,308,64381,2,8,L|378:393,1,70
208,275,64569,6,0,B|196:227|231:192|231:192|203:175|195:129,1,140,2|0,0:0|0:0,0:0:0:0:
261,68,64850,2,0,B|278:98|278:98|264:149,1,70,2|8,0:0|0:0,0:0:0:0:
130,156,65037,1,2,0:0:0:0:
130,156,65131,2,0,B|113:126|113:126|127:75,1,70,8|0,0:0|0:0,0:0:0:0:
268,132,65319,5,2,0:0:0:0:
268,132,65412,2,0,B|258:165|258:165|212:191,1,70,8|0,0:0|0:0,0:0:0:0:
122,91,65599,1,2,0:0:0:0:
122,91,65693,2,0,B|131:57|131:57|177:31,1,70,8|0,0:0|0:0,0:0:0:0:
227,182,65881,2,8,B|197:199|197:199|146:185,1,70
242,52,66069,6,0,P|293:36|367:102,1,140,2|0,0:0|0:0,0:0:0:0:
414,136,66350,2,0,L|403:219,1,70,2|8,0:0|0:0,0:0:0:0:
290,114,66537,1,2,0:0:0:0:
290,114,66631,2,0,L|304:199,1,70,8|0,0:0|0:0,0:0:0:0:
444,129,66819,5,2,0:0:0:0:
444,129,66912,2,0,L|433:214,1,70,8|0,0:0|0:0,0:0:0:0:
259,110,67100,1,2,0:0:0:0:
259,110,67194,2,0,L|273:195,1,70,8|0,0:0|0:0,0:0:0:0:
470,126,67381,2,8,L|462:200,1,70
293,250,67569,6,0,B|255:261|226:236|226:236|192:203|138:220,1,140,2|0,0:0|0:0,0:0:0:0:
173,287,67850,2,0,L|191:359,1,70,2|8,0:0|0:0,0:0:0:0:
105,253,68037,1,2,0:0:0:0:
105,253,68131,2,0,L|33:232,1,70,8|0,0:0|0:0,0:0:0:0:
213,165,68319,5,2,0:0:0:0:
213,165,68412,2,0,L|163:214,1,70,8|0,0:0|0:0,0:0:0:0:
190,354,68600,1,2,0:0:0:0:
189,354,68693,2,0,L|172:286,1,70,8|0,0:0|0:0,0:0:0:0:
37,233,68881,2,8,L|105:253,1,70
260,303,69069,6,0,B|326:285|326:285|411:315,1,140,2|0,0:0|0:0,0:0:0:0:
461,339,69350,2,0,P|466:298|439:254,1,70,2|8,0:0|0:0,0:0:0:0:
480,185,69537,1,2,0:0:0:0:
480,185,69631,2,0,P|454:152|404:140,1,70,8|0,0:0|0:0,0:0:0:0:
190,308,69819,5,2,0:0:0:0:
190,308,69912,2,0,P|195:267|233:231,1,70,8|0,0:0|0:0,0:0:0:0:
211,154,70099,1,2,0:0:0:0:
211,154,70194,2,0,P|244:129|295:130,1,70,8|0,0:0|0:0,0:0:0:0:
311,46,70381,2,8,P|351:51|387:89,1,70
271,200,70569,6,0,B|244:229|206:232|206:232|125:217,1,140,2|0,0:0|0:0,0:0:0:0:
76,174,70850,2,0,L|172:192,1,70,2|8,0:0|0:0,0:0:0:0:
278,245,71037,1,2,0:0:0:0:
278,245,71131,2,0,L|182:227,1,70,8|0,0:0|0:0,0:0:0:0:
64,246,71319,5,2,0:0:0:0:
64,246,71412,2,0,L|160:264,1,70,8|0,0:0|0:0,0:0:0:0:
278,245,71600,1,2,0:0:0:0:
278,245,71694,2,0,L|182:227,1,70,8|0,0:0|0:0,0:0:0:0:
76,174,71881,2,8,L|172:192,1,70
370,230,72069,6,0,P|387:225|409:225,3,35,2|0|0|0,0:0|0:0|0:0|0:0,0:0:0:0:
309,299,72256,6,0,P|324:305|340:323,3,35,2|0|0|0,0:0|0:0|0:0|0:0,0:0:0:0:
218,306,72444,6,0,P|225:325|223:345,3,35,2|0|0|0,0:0|0:0|0:0|0:0,0:0:0:0:
148,245,72631,6,0,P|139:265|124:276,3,35,2|0|0|0,0:0|0:0|0:0|0:0,0:0:0:0:
107,158,72819,6,0,P|127:154|142:154,7,35,2|0|0|0|0|0|0|0,0:0|0:0|0:0|0:0|0:0|0:0|0:0|0:0,0:0:0:0:
174,63,73194,6,0,P|191:71|202:84,7,35,2|0|0|0|0|0|0|0,0:0|0:0|0:0|0:0|0:0|0:0|0:0|0:0,0:0:0:0:
226,102,73569,5,6,0:0:0:0:
267,35,73662,1,2,0:0:0:0:
254,114,73756,5,2,0:0:0:0:
276,38,73849,1,2,0:0:0:0:
282,116,73944,5,2,0:0:0:0:
284,37,74037,1,2,0:0:0:0:
312,112,74131,6,2,P|342:91|353:0,1,105.000004005432,2|10,0:0|0:0,0:0:0:0:
361,27,74694,5,2,0:0:0:0:
393,128,74788,1,2,0:0:0:0:
370,230,74882,1,2,0:0:0:0:
361,240,75069,5,2,0:0:0:0:
440,250,75162,1,2,0:0:0:0:
365,253,75256,5,2,0:0:0:0:
444,263,75349,1,2,0:0:0:0:
370,266,75444,5,2,0:0:0:0:
449,276,75537,1,2,0:0:0:0:
375,279,75631,6,2,B|453:286|453:286|470:334,1,105.000004005432,2|10,0:0|0:0,0:0:0:0:
461,311,76194,6,8,L|396:305,1,52.5000020027161
218,282,76381,1,8,0:0:0:0:
207,295,76569,5,2,0:0:0:0:
156,236,76662,1,2,0:0:0:0:
225,268,76756,5,2,0:0:0:0:
160,224,76849,1,2,0:0:0:0:
234,236,76944,5,2,0:0:0:0:
160,210,77037,1,2,0:0:0:0:
236,203,77131,6,2,P|216:156|138:136,1,105.000004005432,2|10,0:0|0:0,0:0:0:0:
169,132,77694,5,2,0:0:0:0:
264,179,77788,1,2,0:0:0:0:
366,156,77882,1,2,0:0:0:0:
366,156,78069,5,10,0:0:0:0:
336,255,78162,1,10,0:0:0:0:
264,179,78256,1,10,0:0:0:0:
194,100,78350,1,10,0:0:0:0:
206,82,78631,5,10,0:0:0:0:
172,289,78725,1,10,0:0:0:0:
165,302,79006,2,0,L|236:287,1,52.5000020027161
403,245,79194,6,2,P|386:241|365:241,3,26.2500010013581
300,229,79381,2,2,P|285:238|270:252,3,26.2500010013581
216,291,79569,5,6,0:0:0:0:
411,232,85569,6,0,P|360:204|301:247,1,105.000004005432,6|0,0:0|0:0,0:0:0:0:
319,296,85850,2,0,P|266:315|262:371,1,105.000004005432,2|0,0:0|0:0,0:0:0:0:
179,358,86131,2,0,P|176:330|141:293,1,52.5000020027161,8|0,0:0|0:0,0:0:0:0:
72,277,86319,6,0,B|43:226|43:226|51:172,1,105.000004005432,2|0,0:0|0:0,0:0:0:0:
109,128,86600,2,0,L|214:150,1,105.000004005432,2|0,0:0|0:0,0:0:0:0:
276,106,86881,2,0,L|287:44,1,52.5000020027161,8|0,0:0|0:0,0:0:0:0:
216,19,87069,6,0,P|187:71|200:132,1,105.000004005432,2|0,0:0|0:0,0:0:0:0:
355,207,87444,1,8,0:0:0:0:
285,54,87631,2,0,L|276:106,1,52.5000020027161
246,348,87819,5,2,0:0:0:0:
384,213,88006,1,2,0:0:0:0:
292,25,88194,2,8,P|265:20|211:36,1,52.5000020027161
193,82,88381,2,8,P|164:75|112:93,1,52.5000020027161
95,142,88569,6,0,L|84:247,1,105.000004005432,2|0,0:0|0:0,0:0:0:0:
97,267,88850,1,2,0:0:0:0:
261,337,89131,1,8,0:0:0:0:
240,354,89319,6,0,L|221:236,1,105.000004005432,2|0,0:0|0:0,0:0:0:0:
237,230,89600,1,2,0:0:0:0:
346,109,89881,1,8,0:0:0:0:
363,124,90069,6,0,L|357:236,1,105.000004005432,2|0,0:0|0:0,0:0:0:0:
466,348,90444,1,2,0:0:0:0:
442,337,90537,1,2,0:0:0:0:
430,313,90631,1,2,0:0:0:0:
431,286,90725,1,2,0:0:0:0:
445,264,90819,6,0,P|469:243|391:168,1,157.500006008148,2|0,0:0|0:0,0:0:0:0:
380,224,91194,2,0,B|354:208|346:186|346:186|308:235|242:211,1,157.500006008148,2|0,0:0|0:0,0:0:0:0:
281,147,91569,2,0,L|287:68,1,52.5000020027161,2|0,0:0|0:0,0:0:0:0:
321,30,91756,6,8,L|355:33,3,26.2500010013581
434,67,91944,6,8,L|400:70,3,26.2500010013581
318,103,92131,6,8,L|352:106,3,26.2500010013581
441,138,92319,5,6,0:0:0:0:
323,175,92412,1,2,0:0:0:0:
454,226,92506,5,2,0:0:0:0:
336,263,92599,1,2,0:0:0:0:
480,218,92694,6,0,L|490:274,1,52.5000020027161,12|0,0:0|0:0,0:0:0:0:
300,159,92881,2,0,L|290:215,1,52.5000020027161,12|0,0:0|0:0,0:0:0:0:
469,122,93069,5,2,0:0:0:0:
489,269,93162,1,2,0:0:0:0:
383,170,93256,5,2,0:0:0:0:
403,317,93349,1,2,0:0:0:0:
281,171,93444,6,0,L|289:222,1,52.5000020027161,12|0,0:0|0:0,0:0:0:0:
309,370,93631,2,0,L|298:308,1,52.5000020027161,12|0,0:0|0:0,0:0:0:0:
211,124,93819,5,2,0:0:0:0:
301,292,93912,1,2,0:0:0:0:
327,103,94006,5,2,0:0:0:0:
195,241,94100,1,2,0:0:0:0:
383,207,94194,6,0,L|441:198,1,52.5000020027161,12|0,0:0|0:0,0:0:0:0:
202,97,94381,2,0,L|144:106,1,52.5000020027161,12|0,0:0|0:0,0:0:0:0:
191,354,94569,5,2,0:0:0:0:
191,354,94662,2,0,L|249:345,1,52.5000020027161,8|0,0:0|0:0,0:0:0:0:
407,59,94850,1,2,0:0:0:0:
407,59,94943,2,0,L|349:68,1,52.5000020027161,8|0,0:0|0:0,0:0:0:0:
131,104,95131,2,0,L|207:115,1,52.5000020027161,8|0,0:0|0:0,0:0:0:0:
459,196,95319,5,2,0:0:0:0:
316,226,95412,1,2,0:0:0:0:
391,116,95506,5,2,0:0:0:0:
421,259,95599,1,2,0:0:0:0:
292,136,95694,6,0,L|281:84,1,52.5000020027161,12|0,0:0|0:0,0:0:0:0:
478,138,95881,2,0,L|489:190,1,52.5000020027161,12|0,0:0|0:0,0:0:0:0:
304,252,96069,5,2,0:0:0:0:
427,225,96162,1,2,0:0:0:0:
111,254,96256,5,2,0:0:0:0:
234,227,96349,1,2,0:0:0:0:
36,211,96444,6,0,L|29:267,1,52.5000020027161,12|0,0:0|0:0,0:0:0:0:
188,346,96631,2,0,L|181:293,1,52.5000020027161,12|0,0:0|0:0,0:0:0:0:
91,70,96819,5,2,0:0:0:0:
116,215,96912,1,2,0:0:0:0:
192,53,97006,5,2,0:0:0:0:
217,198,97099,1,2,0:0:0:0:
69,59,97194,6,0,L|59:2,1,52.5000020027161,12|0,0:0|0:0,0:0:0:0:
101,234,97381,2,0,L|111:291,1,52.5000020027161,12|0,0:0|0:0,0:0:0:0:
209,31,97569,6,0,P|258:37|287:58,1,70,2|0,0:0|0:0,0:0:0:0:
473,127,97756,2,0,P|424:133|395:154,1,70,2|0,0:0|0:0,0:0:0:0:
178,194,97944,2,0,P|227:200|256:221,1,70,2|0,0:0|0:0,0:0:0:0:
442,290,98131,2,0,P|393:296|364:317,1,70,2|0,0:0|0:0,0:0:0:0:
257,342,98319,5,2,0:0:0:0:
371,284,98412,1,2,0:0:0:0:
264,191,98506,5,2,0:0:0:0:
378,133,98599,1,2,0:0:0:0:
272,56,98694,6,0,L|333:69,1,52.5000020027161,12|0,0:0|0:0,0:0:0:0:
448,216,98881,2,0,L|395:204,1,52.5000020027161,12|0,0:0|0:0,0:0:0:0:
203,149,99069,5,2,0:0:0:0:
248,305,99162,1,2,0:0:0:0:
348,132,99256,5,2,0:0:0:0:
192,177,99349,1,2,0:0:0:0:
279,301,99444,6,0,L|297:241,1,52.5000020027161,12|0,0:0|0:0,0:0:0:0:
336,98,99631,2,0,L|281:83,1,52.5000020027161,12|0,0:0|0:0,0:0:0:0:
128,37,99819,5,2,0:0:0:0:
258,75,99912,1,2,0:0:0:0:
388,37,100006,5,2,0:0:0:0:
258,75,100099,1,2,0:0:0:0:
133,113,100194,6,0,L|69:127,1,52.5000020027161,12|0,0:0|0:0,0:0:0:0:
242,168,100381,2,0,L|299:187,1,52.5000020027161,12|0,0:0|0:0,0:0:0:0:
103,261,100569,5,2,0:0:0:0:
103,261,100662,2,0,L|39:275,1,52.5000020027161,8|0,0:0|0:0,0:0:0:0:
212,316,100850,1,2,0:0:0:0:
212,316,100944,2,0,L|269:335,1,52.5000020027161,8|0,0:0|0:0,0:0:0:0:
403,252,101131,2,0,L|339:266,1,52.5000020027161,8|0,0:0|0:0,0:0:0:0:
185,298,101319,5,2,0:0:0:0:
324,269,101412,1,2,0:0:0:0:
175,198,101506,5,2,0:0:0:0:
314,169,101599,1,2,0:0:0:0:
148,203,101694,6,0,L|96:195,1,52.5000020027161,12|0,0:0|0:0,0:0:0:0:
351,285,101881,2,0,L|414:295,1,52.5000020027161,12|0,0:0|0:0,0:0:0:0:
326,141,102069,5,2,0:0:0:0:
297,280,102162,1,2,0:0:0:0:
226,131,102256,5,2,0:0:0:0:
197,270,102349,1,2,0:0:0:0:
231,104,102444,6,0,L|223:52,1,52.5000020027161,12|0,0:0|0:0,0:0:0:0:
313,307,102631,2,0,L|323:370,1,52.5000020027161,12|0,0:0|0:0,0:0:0:0:
447,131,102819,6,0,P|456:106|457:87,1,35,2|0,0:0|0:0,0:0:0:0:
400,46,103006,2,0,P|400:84|415:115,1,70,4|2,0:0|0:0,0:0:0:0:
460,164,103287,1,2,0:0:0:0:
458,234,103381,2,0,P|456:257|451:275,1,35,2|0,0:0|0:0,0:0:0:0:
65,253,103569,6,0,P|56:278|55:297,1,35,2|0,0:0|0:0,0:0:0:0:
112,338,103756,2,0,P|112:300|97:269,1,70,4|2,0:0|0:0,0:0:0:0:
52,220,104037,1,2,0:0:0:0:
54,150,104131,2,0,P|56:127|61:109,1,35,2|0,0:0|0:0,0:0:0:0:
266,22,104319,6,0,L|256:63,1,35,2|0,0:0|0:0,0:0:0:0:
250,349,104506,2,0,L|263:274,1,70,4|2,0:0|0:0,0:0:0:0:
279,211,104787,1,2,0:0:0:0:
261,142,104881,2,0,L|226:134,1,35,2|0,0:0|0:0,0:0:0:0:
95,110,105069,5,2,0:0:0:0:
95,144,105162,1,2,0:0:0:0:
126,129,105256,1,2,0:0:0:0:
126,93,105350,1,2,0:0:0:0:
85,104,105444,5,2,0:0:0:0:
85,158,105537,1,2,0:0:0:0:
135,134,105631,1,2,0:0:0:0:
135,77,105725,1,2,0:0:0:0:
68,94,105819,6,0,P|56:122|86:198,1,105.000004005432,6|0,0:0|0:0,0:0:0:0:
240,55,106100,2,0,P|262:104|246:169,1,105.000004005432,6|0,0:0|0:0,0:0:0:0:
75,42,106381,2,0,P|53:75|49:105,1,52.5000020027161,6|0,0:0|0:0,0:0:0:0:
231,5,106569,2,0,P|250:25|265:56,1,52.5000020027161,6|0,0:0|0:0,0:0:0:0:
190,249,106756,2,0,P|169:217|164:184,1,52.5000020027161,2|0,0:0|0:0,0:0:0:0:
335,74,106944,5,8,0:0:0:0:
342,73,106990,1,8,0:0:0:0:
350,72,107037,1,8,0:0:0:0:
358,71,107084,1,8,0:0:0:0:
366,70,107131,5,8,0:0:0:0:
374,69,107178,1,8,0:0:0:0:
381,68,107225,1,8,0:0:0:0:
389,67,107272,1,8,0:0:0:0:
396,67,107319,6,0,P|410:117|373:218,1,157.500006008148,6|0,0:0|0:0,0:0:0:0:
241,289,107600,2,0,P|268:252|338:222,1,78.7500030040742,2|8,0:0|0:0,0:0:0:0:
472,234,107787,1,2,0:0:0:0:
472,234,107881,2,0,P|445:271|375:301,1,78.7500030040742,8|0,0:0|0:0,0:0:0:0:
244,159,108069,5,2,0:0:0:0:
244,159,108162,2,0,P|289:151|359:180,1,78.7500030040742,8|0,0:0|0:0,0:0:0:0:
462,364,108350,1,2,0:0:0:0:
462,364,108444,2,0,P|416:371|346:342,1,78.7500030040742,8|0,0:0|0:0,0:0:0:0:
343,60,108631,2,8,P|380:87|410:157,1,78.7500030040742
291,343,108819,6,0,P|260:358|183:274,1,157.500006008148,2|0,0:0|0:0,0:0:0:0:
256,210,109100,2,0,L|249:298,1,78.7500030040742,2|8,0:0|0:0,0:0:0:0:
98,176,109287,1,2,0:0:0:0:
98,176,109381,2,0,L|105:264,1,78.7500030040742,8|0,0:0|0:0,0:0:0:0:
338,140,109569,5,2,0:0:0:0:
338,140,109662,2,0,L|331:228,1,78.7500030040742,8|0,0:0|0:0,0:0:0:0:
16,96,109849,1,2,0:0:0:0:
16,96,109943,2,0,L|23:184,1,78.7500030040742,8|0,0:0|0:0,0:0:0:0:
418,66,110131,2,8,L|411:154,1,78.7500030040742
395,358,110319,6,0,B|407:328|393:299|393:299|415:282|415:282|388:247|404:197,1,157.500006008148,2|0,0:0|0:0,0:0:0:0:
331,333,110600,2,0,P|302:345|244:343,1,78.7500030040742,2|8,0:0|0:0,0:0:0:0:
468,235,110787,1,2,0:0:0:0:
468,235,110881,2,0,P|496:207|512:172,1,78.7500030040742,8|0,0:0|0:0,0:0:0:0:
282,271,111069,5,2,0:0:0:0:
282,271,111162,2,0,P|250:266|201:236,1,78.7500030040742,8|0,0:0|0:0,0:0:0:0:
434,163,111349,1,2,0:0:0:0:
434,163,111443,2,0,P|444:125|441:86,1,78.7500030040742,8|0,0:0|0:0,0:0:0:0:
270,193,111631,2,8,P|245:173|217:122,1,78.7500030040742
367,19,111819,6,0,L|348:192,1,157.500006008148,2|0,0:0|0:0,0:0:0:0:
244,207,112100,2,0,L|255:109,1,78.7500030040742,2|8,0:0|0:0,0:0:0:0:
468,69,112287,1,2,0:0:0:0:
468,69,112381,2,0,L|457:167,1,78.7500030040742,8|0,0:0|0:0,0:0:0:0:
255,298,112569,1,2,0:0:0:0:
255,298,112662,2,0,L|266:200,1,78.7500030040742,8|0,0:0|0:0,0:0:0:0:
511,201,112849,1,2,0:0:0:0:
511,201,112943,2,0,L|500:299,1,78.7500030040742,8|0,0:0|0:0,0:0:0:0:
269,384,113131,2,8,L|280:286,1,78.7500030040742
381,116,113319,6,0,P|356:76|235:52,1,157.500006008148,2|0,0:0|0:0,0:0:0:0:
361,219,113600,2,0,P|382:178|386:135,1,78.7500030040742,2|8,0:0|0:0,0:0:0:0:
229,60,113787,1,2,0:0:0:0:
229,60,113881,2,0,P|207:79|183:127,1,78.7500030040742,8|0,0:0|0:0,0:0:0:0:
381,116,114069,5,2,0:0:0:0:
381,116,114162,2,0,P|357:77|322:52,1,78.7500030040742,8|0,0:0|0:0,0:0:0:0:
184,156,114349,1,2,0:0:0:0:
184,156,114443,2,0,P|189:184|219:229,1,78.7500030040742,8|0,0:0|0:0,0:0:0:0:
304,46,114631,2,8,P|265:46|229:60,1,78.7500030040742
301,236,114819,6,0,B|313:298|313:298|290:353|290:353|276:300,1,157.500006008148,2|0,0:0|0:0,0:0:0:0:
371,222,115100,2,0,L|455:203,1,78.7500030040742,2|8,0:0|0:0,0:0:0:0:
231,266,115287,1,2,0:0:0:0:
231,266,115381,2,0,L|147:247,1,78.7500030040742,8|0,0:0|0:0,0:0:0:0:
460,126,115569,5,2,0:0:0:0:
460,126,115662,2,0,L|376:145,1,78.7500030040742,8|0,0:0|0:0,0:0:0:0:
113,103,115850,1,2,0:0:0:0:
113,103,115944,2,0,L|197:122,1,78.7500030040742,8|0,0:0|0:0,0:0:0:0:
472,47,116131,2,8,L|388:66,1,78.7500030040742
56,166,116319,6,0,B|36:242|36:242|120:264,1,157.500006008148,2|0,0:0|0:0,0:0:0:0:
150,113,116600,2,0,L|62:90,1,78.7500030040742,2|8,0:0|0:0,0:0:0:0:
185,279,116787,1,2,0:0:0:0:
185,279,116881,2,0,L|208:191,1,78.7500030040742,8|0,0:0|0:0,0:0:0:0:
93,16,117069,5,2,0:0:0:0:
93,16,117162,2,0,L|70:104,1,78.7500030040742,8|0,0:0|0:0,0:0:0:0:
185,279,117350,1,2,0:0:0:0:
185,279,117444,2,0,L|273:302,1,78.7500030040742,8|0,0:0|0:0,0:0:0:0:
448,187,117631,2,8,L|471:99,1,78.7500030040742
167,126,117819,6,2,B|186:129|206:147|206:147|252:127|281:137|320:153|320:153|372:171|418:137|446:113|446:113|470:182|402:256|402:256|388:207|334:177,1,551.25002102852,6|2,0:0|0:0,0:0:0:0:
267,169,118569,6,0,P|241:169|181:195,1,78.7500030040742,8|0,0:0|0:0,0:0:0:0:
153,122,118756,1,2,0:0:0:0:
153,122,118850,2,0,P|134:140|110:201,1,78.7500030040742,8|0,0:0|0:0,0:0:0:0:
41,169,119037,1,2,0:0:0:0:
41,169,119131,2,0,P|40:195|67:255,1,78.7500030040742,8|0,0:0|0:0,0:0:0:0:
155,353,119319,5,6,0:0:0:0:
173,279,119412,1,2,0:0:0:0:
165,354,119506,5,2,0:0:0:0:
183,280,119599,1,2,0:0:0:0:
175,356,119694,5,2,0:0:0:0:
193,282,119787,1,2,0:0:0:0:
187,358,119881,6,2,L|300:338,1,105.000004005432,2|10,0:0|0:0,0:0:0:0:
295,354,120444,5,2,0:0:0:0:
316,252,120537,1,2,0:0:0:0:
338,149,120631,1,2,0:0:0:0:
353,152,120819,5,2,0:0:0:0:
286,193,120912,1,2,0:0:0:0:
350,143,121006,5,2,0:0:0:0:
274,165,121099,1,2,0:0:0:0:
351,135,121194,5,2,0:0:0:0:
272,137,121287,1,2,0:0:0:0:
276,107,121381,6,2,P|297:77|388:66,1,105.000004005432,2|10,0:0|0:0,0:0:0:0:
387,60,121944,6,8,L|318:52,1,52.5000020027161
76,23,122131,1,8,0:0:0:0:
60,36,122319,5,2,0:0:0:0:
134,54,122412,1,2,0:0:0:0:
59,46,122506,5,2,0:0:0:0:
133,64,122599,1,2,0:0:0:0:
57,56,122694,5,2,0:0:0:0:
131,74,122787,1,2,0:0:0:0:
55,68,122881,6,2,L|75:181,1,105.000004005432,2|10,0:0|0:0,0:0:0:0:
54,179,123444,5,2,0:0:0:0:
156,196,123537,1,2,0:0:0:0:
259,214,123631,1,2,0:0:0:0:
250,230,123819,5,10,0:0:0:0:
208,134,123912,1,10,0:0:0:0:
146,219,124006,1,10,0:0:0:0:
90,129,124100,1,10,0:0:0:0:
66,109,124381,5,10,0:0:0:0:
322,76,124475,1,10,0:0:0:0:
340,84,124756,2,0,L|334:157,2,52.5000020027161
340,84,125319,5,10,0:0:0:0:
397,170,125412,1,10,0:0:0:0:
354,266,125506,1,10,0:0:0:0:
248,271,125600,1,10,0:0:0:0:
240,296,125881,5,10,0:0:0:0:
371,77,125975,1,10,0:0:0:0:
392,87,126256,2,0,L|324:83,1,52.5000020027161
68,35,126444,6,2,L|109:28,3,26.2500010013581
188,54,126631,6,2,L|162:58,3,26.2500010013581
106,102,126819,6,0,P|149:107|201:153,1,105.000004005432,6|0,0:0|0:0,0:0:0:0:
209,217,127100,2,0,L|181:331,1,105.000004005432,2|0,0:0|0:0,0:0:0:0:
252,357,127381,2,0,P|260:322|279:297,1,52.5000020027161,8|0,0:0|0:0,0:0:0:0:
379,262,127569,6,0,P|416:302|361:350,1,105.000004005432,2|0,0:0|0:0,0:0:0:0:
327,352,127850,2,0,P|286:318|287:226,1,105.000004005432,2|0,0:0|0:0,0:0:0:0:
320,209,128131,2,0,L|313:148,1,52.5000020027161,8|0,0:0|0:0,0:0:0:0:
345,54,128319,6,0,B|296:30|296:30|240:73,1,105.000004005432,2|0,0:0|0:0,0:0:0:0:
323,232,128694,1,8,0:0:0:0:
367,69,128881,2,0,L|291:76,1,52.5000020027161
125,96,129069,5,2,0:0:0:0:
378,161,129256,1,2,0:0:0:0:
170,207,129444,2,8,L|182:268,1,52.5000020027161
98,219,129631,2,8,L|110:280,1,52.5000020027161
27,231,129819,6,0,L|51:345,1,105.000004005432,2|0,0:0|0:0,0:0:0:0:
115,357,130100,2,0,P|152:312|125:265,1,105.000004005432,2|0,0:0|0:0,0:0:0:0:
113,204,130381,2,0,P|103:183|108:140,1,52.5000020027161,8|0,0:0|0:0,0:0:0:0:
169,77,130569,6,0,B|229:87|229:87|305:63,1,105.000004005432,2|0,0:0|0:0,0:0:0:0:
344,44,130850,2,0,L|450:76,1,105.000004005432,2|0,0:0|0:0,0:0:0:0:
482,145,131131,2,0,L|459:221,1,52.5000020027161,8|0,0:0|0:0,0:0:0:0:
398,278,131319,6,0,P|357:244|353:341,1,210.000008010865,2|2,0:0|0:0,0:0:0:0:
359,317,131787,1,2,0:0:0:0:
351,291,131881,1,2,0:0:0:0:
330,274,131975,1,2,0:0:0:0:
303,270,132069,6,0,P|263:273|215:322,1,105.000004005432,2|0,0:0|0:0,0:0:0:0:
156,361,132350,1,0,0:0:0:0:
156,361,132444,2,0,L|144:224,1,105.000004005432,2|0,0:0|0:0,0:0:0:0:
101,152,132819,6,0,P|152:180|211:137,1,105.000004005432,6|0,0:0|0:0,0:0:0:0:
193,88,133100,2,0,P|246:69|250:13,1,105.000004005432,2|0,0:0|0:0,0:0:0:0:
333,26,133381,2,0,P|336:54|371:91,1,52.5000020027161,8|0,0:0|0:0,0:0:0:0:
440,107,133569,6,0,B|469:158|469:158|461:212,1,105.000004005432,2|0,0:0|0:0,0:0:0:0:
403,256,133850,2,0,L|298:234,1,105.000004005432,2|0,0:0|0:0,0:0:0:0:
236,278,134131,2,0,L|225:340,1,52.5000020027161,8|0,0:0|0:0,0:0:0:0:
296,365,134319,6,0,P|325:313|312:252,1,105.000004005432,2|0,0:0|0:0,0:0:0:0:
157,177,134694,1,8,0:0:0:0:
227,330,134881,2,0,L|236:278,1,52.5000020027161,2|0,0:0|0:0,0:0:0:0:
266,36,135069,5,2,0:0:0:0:
128,171,135256,1,2,0:0:0:0:
220,359,135444,2,8,P|247:364|301:348,1,52.5000020027161
319,302,135631,2,8,P|348:309|400:291,1,52.5000020027161
422,248,135819,6,0,B|444:196|444:196|430:129,1,105.000004005432,2|0,0:0|0:0,0:0:0:0:
472,71,136100,2,0,L|366:92,1,105.000004005432,2|0,0:0|0:0,0:0:0:0:
293,77,136381,2,0,L|307:143,1,52.5000020027161,8|0,0:0|0:0,0:0:0:0:
327,248,136569,6,0,P|372:283|435:273,1,105.000004005432,2|0,0:0|0:0,0:0:0:0:
484,245,136850,2,0,P|462:222|378:217,1,105.000004005432,2|0,0:0|0:0,0:0:0:0:
298,241,137131,2,0,L|232:235,1,52.5000020027161,8|0,0:0|0:0,0:0:0:0:
87,276,137319,6,8,P|79:263|74:247,3,26.2500010013581
157,237,137506,6,8,P|165:224|170:208,3,26.2500010013581
78,164,137694,6,8,P|81:149|89:134,3,26.2500010013581
155,185,137881,6,8,P|169:181|184:173,3,26.2500010013581
153,80,138069,6,8,P|166:72|182:67,3,26.2500010013581
192,150,138256,6,8,P|205:158|221:163,3,26.2500010013581
261,67,138444,6,8,P|275:70|290:78,3,26.2500010013581
239,144,138631,6,8,P|242:158|250:173,3,26.2500010013581
355,120,138819,5,6,0:0:0:0:
380,116,138912,1,2,0:0:0:0:
406,113,139006,1,2,0:0:0:0:
432,110,139100,1,6,0:0:0:0:
360,146,139287,5,2,0:0:0:0:
385,142,139380,1,2,0:0:0:0:
411,139,139474,1,2,0:0:0:0:
437,136,139568,1,6,0:0:0:0:
441,163,139850,5,2,0:0:0:0:
415,166,139944,1,2,0:0:0:0:
389,169,140038,1,2,0:0:0:0:
364,173,140131,1,6,0:0:0:0:
159,159,140319,5,2,0:0:0:0:
150,134,140412,1,2,0:0:0:0:
167,114,140506,1,2,0:0:0:0:
175,138,140600,1,6,0:0:0:0:
151,204,140787,5,2,0:0:0:0:
141,177,140880,1,2,0:0:0:0:
159,159,140974,1,2,0:0:0:0:
166,182,141068,1,6,0:0:0:0:
142,248,141350,5,2,0:0:0:0:
159,228,141443,1,2,0:0:0:0:
151,204,141537,1,2,0:0:0:0:
133,223,141631,1,6,0:0:0:0:
