osu file format v14

[General]
AudioFilename: audio.mp3
AudioLeadIn: 0
PreviewTime: 57563
Countdown: 0
SampleSet: Soft
StackLeniency: 0.7
Mode: 0
LetterboxInBreaks: 0
WidescreenStoryboard: 1

[Editor]
Bookmarks: 13501,28501,43501,58501,73501,88501,103501,118501,133501,148501,167251,182251,197251,212251,227251,242251,263902
DistanceSpacing: 1
BeatDivisor: 4
GridSize: 8
TimelineZoom: 1.1

[Metadata]
Title:Addict
TitleUnicode:Addict
Artist:Silva Hound feat. Michael Kovach and Chi-Chi
ArtistUnicode:Silva Hound feat. Michael Kovach and Chi-Chi
Creator:Night Mare
Version:Normal
Source:HAZBIN HOTEL
Tags:luna im i'm addicted edm electronic dance music english VivziePop Vivienne Medrano Vivianne Helluva Boss AngelDust AngleDust Anthony Cherri Bomb nightmare chichi cherry animation happy
BeatmapID:2885284
BeatmapSetID:1396522

[Difficulty]
HPDrainRate:3
CircleSize:3
OverallDifficulty:4
ApproachRate:5.2
SliderMultiplier:1.49999990463257
SliderTickRate:1

[Events]
//Background and Video events
0,0,"image.jpg",0,0
//Break Periods
2,58501,72301
2,118501,121081
2,167251,181081
2,242451,246522
//Storyboard Layer 0 (Background)
//Storyboard Layer 1 (Fail)
//Storyboard Layer 2 (Pass)
//Storyboard Layer 3 (Foreground)
//Storyboard Layer 4 (Overlay)
//Storyboard Sound Samples

[TimingPoints]
4126,468.75,4,2,1,30,1,0
13501,-111.111111111111,4,2,1,50,0,0
28501,-111.111111111111,4,2,1,60,0,0
43501,-105.263157894737,4,2,1,70,0,0
53579,-105.263157894737,4,2,1,75,0,0
54516,-100,4,2,1,75,0,0
55688,-100,4,2,1,85,0,0
56684,-100,4,2,2,85,0,0
57563,-100,4,2,2,5,0,0
73501,-105.263157894737,4,2,2,75,0,0
81001,-100,4,2,2,75,0,0
84516,-100,4,2,2,80,0,0
85219,-100,4,2,2,85,0,0
85688,-100,4,2,2,90,0,0
86157,-100,4,2,2,95,0,0
88032,-100,4,2,3,80,0,0
88501,-95.2380952380952,4,2,3,85,0,1
91313,-95.2380952380952,4,2,3,85,0,0
92251,-95.2380952380952,4,2,2,85,0,1
95532,-95.2380952380952,4,2,2,85,0,0
96001,-95.2380952380952,4,2,4,85,0,1
96059,-95.2380952380952,4,2,3,85,0,1
99751,-95.2380952380952,4,2,4,85,0,1
99809,-95.2380952380952,4,2,3,85,0,1
103501,-95.2380952380952,4,2,3,90,0,0
103969,-95.2380952380952,4,2,3,90,0,1
104204,-90.9090909090909,4,2,3,90,0,1
107251,-90.9090909090909,4,2,4,90,0,1
107309,-90.9090909090909,4,2,3,90,0,1
110532,-90.9090909090909,4,2,3,90,0,0
111001,-90.9090909090909,4,2,4,90,0,1
111059,-90.9090909090909,4,2,3,90,0,1
114751,-90.9090909090909,4,2,4,90,0,1
114809,-90.9090909090909,4,2,3,90,0,1
117328,-90.9090909090909,4,2,3,80,0,1
117563,-90.9090909090909,4,2,3,70,0,1
118032,-90.9090909090909,4,2,3,50,0,0
122251,-111.111111111111,4,2,1,50,0,0
133501,-111.111111111111,4,2,1,55,0,0
141001,-111.111111111111,4,2,1,60,0,0
148501,-105.263157894737,4,2,5,70,0,0
158579,-105.263157894737,4,2,5,75,0,0
159516,-100,4,2,5,75,0,0
160688,-100,4,2,5,85,0,0
161684,-100,4,2,2,85,0,0
163501,-100,4,2,2,40,0,0
182251,-111.111111111111,4,2,2,65,0,0
197251,-105.263157894737,4,2,2,75,0,0
204751,-100,4,2,2,75,0,0
210376,-100,4,2,2,60,0,0
212251,-90.9090909090909,4,2,3,90,0,1
215532,-90.9090909090909,4,2,3,90,0,0
216001,-90.9090909090909,4,2,4,90,0,1
216059,-90.9090909090909,4,2,3,90,0,1
219282,-90.9090909090909,4,2,3,90,0,0
219751,-90.9090909090909,4,2,4,90,0,1
219809,-90.9090909090909,4,2,3,90,0,1
223501,-90.9090909090909,4,2,4,90,0,1
223559,-90.9090909090909,4,2,3,90,0,1
227016,-90.9090909090909,4,2,3,90,0,0
227719,-90.9090909090909,4,2,3,95,0,1
227954,-86.9565217391304,4,2,3,95,0,1
231001,-86.9565217391304,4,2,4,95,0,1
231059,-86.9565217391304,4,2,3,95,0,1
234751,-86.9565217391304,4,2,4,95,0,1
234809,-86.9565217391304,4,2,3,95,0,1
238501,-86.9565217391304,4,2,4,95,0,1
238559,-86.9565217391304,4,2,3,95,0,1
240376,-100,4,2,3,70,0,0
241782,-100,4,2,3,80,0,0
242251,-100,4,2,1,80,0,0
247451,967.741935483871,4,2,1,80,1,0
247692,-62.5,4,2,1,40,0,0
248418,967.741935483871,4,2,1,40,1,0
248418,-62.5,4,2,1,40,0,0

[Colours]
Combo1 : 242,24,57
Combo2 : 255,128,128
Combo3 : 255,128,192

[HitObjects]
149,306,13501,6,0,P|204:342|270:339,1,134.999991416931,2|2,2:0|2:0,2:0:0:0:
372,251,14438,1,2,2:0:0:0:
477,334,14907,1,2,2:0:0:0:
480,339,15141,2,0,P|475:228|490:125,1,202.499987125397,2|0,2:0|2:0,2:0:0:0:
308,33,16782,5,2,2:0:0:0:
214,129,17251,2,0,P|147:133|92:97,1,134.999991416931,2|2,2:0|2:0,2:0:0:0:
64,35,17954,1,2,2:0:0:0:
0,153,18422,1,2,2:0:0:0:
46,279,18891,2,0,P|135:237|233:263,1,202.499987125397,2|0,2:0|2:0,2:0:0:0:
421,384,21001,5,2,2:0:0:0:
512,285,21469,2,0,P|456:248|390:251,1,134.999991416931,2|2,2:0|2:0,2:0:0:0:
327,275,22172,1,2,2:0:0:0:
248,384,22641,2,0,P|187:305|203:205,1,202.499987125397,2|0,2:0|2:0,2:0:0:0:
183,26,24282,5,2,2:0:0:0:
292,104,24751,2,0,L|422:69,1,134.999991416931,2|2,2:0|2:0,2:0:0:0:
488,53,25454,1,2,2:0:0:0:
419,169,25922,1,2,2:0:0:0:
510,268,26391,2,0,P|454:304|388:301,1,134.999991416931,2|0,2:0|2:0,2:0:0:0:
339,254,27094,1,2,2:0:0:0:
289,379,27563,2,0,P|225:379|145:366,1,134.999991416931,2|2,2:0|2:0,2:0:0:0:
87,360,28266,1,2,2:0:0:0:
90,365,28501,6,0,P|126:309|123:243,1,134.999991416931,2|8,2:0|2:0,2:0:0:0:
0,187,29438,2,0,P|-3:120|32:64,1,134.999991416931,2|10,2:0|2:0,2:0:0:0:
166,86,30376,2,0,L|296:51,1,134.999991416931,2|8,2:0|2:0,2:0:0:0:
358,23,31079,1,2,2:0:0:0:
353,26,31313,6,0,P|349:92|385:148,1,134.999991416931,2|10,2:0|2:0,2:0:0:0:
442,183,32016,2,0,L|507:165,2,67.4999957084657,2|2|2,2:0|2:0|2:0,2:0:0:0:
416,315,32954,1,2,2:0:0:0:
419,320,33188,2,0,L|288:285,1,134.999991416931,2|10,2:0|2:0,2:0:0:0:
229,318,33891,2,0,L|211:383,2,67.4999957084657,2|2|2,2:0|2:0|2:0,2:0:0:0:
225,182,34829,2,0,B|189:172|124:196|169:258|92:289|31:251,1,202.499987125397,2|10,2:0|2:0,2:0:0:0:
4,218,35766,1,2,2:0:0:0:
1,223,36001,6,0,L|-22:90,1,134.999991416931,2|8,2:0|2:0,2:0:0:0:
93,19,36938,2,0,P|159:15|215:51,1,134.999991416931,2|10,2:0|2:0,2:0:0:0:
301,155,37876,2,0,P|367:159|423:123,1,134.999991416931,2|8,2:0|2:0,2:0:0:0:
472,76,38579,1,2,2:0:0:0:
467,79,38813,6,0,P|459:143|461:217,1,134.999991416931,2|10,2:0|2:0,2:0:0:0:
503,266,39516,2,0,P|508:300|508:333,2,67.4999957084657,2|2|2,2:0|2:0|2:0,2:0:0:0:
371,296,40454,1,2,2:0:0:0:
368,301,40688,2,0,P|301:304|246:267,1,134.999991416931,2|10,2:0|2:0,2:0:0:0:
189,230,41391,2,0,L|123:247,2,67.4999957084657,2|2|2,2:0|2:0|2:0,2:0:0:0:
363,126,42563,2,0,P|332:66|272:36,1,134.999991416931,2|10,2:0|2:0,2:0:0:0:
216,1,43266,1,2,2:0:0:0:
213,6,43501,6,0,L|75:42,1,142.499990940094,4|8,1:2|2:0,2:0:0:0:
0,163,44438,2,0,P|-6:232|33:289,1,142.499990940094,2|10,2:0|1:2,2:0:0:0:
104,282,45141,1,2,2:0:0:0:
107,277,45376,2,0,L|244:313,1,142.499990940094,2|8,1:2|2:0,2:0:0:0:
383,346,46313,2,0,P|342:289|348:219,1,142.499990940094,2|10,2:0|1:2,2:0:0:0:
401,170,47016,1,2,2:0:0:0:
398,165,47251,6,0,L|257:140,1,142.499990940094,0|10,1:0|2:0,2:0:0:0:
243,70,47954,1,2,1:2:0:0:
240,65,48188,2,0,L|99:89,1,142.499990940094,2|10,2:0|1:2,2:0:0:0:
35,58,48891,2,0,P|-5:115|1:184,1,142.499990940094,2|2,2:0|2:0,2:0:0:0:
29,324,49829,6,0,P|99:312|172:320,1,142.499990940094,2|2,1:2|2:0,2:0:0:0:
218,371,50532,1,10,1:2:0:0:
221,376,50766,2,0,L|248:218,1,142.499990940094,2|2,2:0|2:0,2:0:0:0:
103,219,51704,1,2,1:2:0:0:
100,224,51938,2,0,L|72:66,1,142.499990940094,2|10,2:0|1:2,2:0:0:0:
39,21,52641,6,0,P|99:55|168:43,1,142.499990940094,2|2,2:0|2:0,2:0:0:0:
303,8,53579,1,2,1:2:0:0:
306,3,53813,2,0,P|343:0|378:22,1,71.249995470047,2|2,2:0|2:0,2:0:0:0:
508,78,54516,6,0,L|481:225,1,149.999990463257,2|2,2:0|1:2,2:0:0:0:
482,301,55219,1,10,1:2:0:0:
479,306,55454,1,2,1:2:0:0:
476,311,55688,2,0,L|389:326,1,74.9999952316285,2|2,1:2|1:2,2:0:0:0:
354,382,56157,2,0,L|275:368,1,74.9999952316285,10|2,1:2|1:2,2:0:0:0:
205,379,56626,2,0,B|236:338|248:243|194:205|194:205|129:228|139:311,1,299.999980926514,2|0,1:2|2:0,2:0:0:0:
449,217,73501,6,0,P|456:286|416:342,2,142.499990940094,12|10|8,2:0|2:0|2:0,2:0:0:0:
400,165,74672,1,10,2:0:0:0:
359,28,75141,1,10,2:0:0:0:
362,23,75376,2,0,L|502:47,2,142.499990940094,8|10|8,2:0|2:0|2:0,2:0:0:0:
292,9,76547,1,10,2:0:0:0:
238,140,77016,5,10,2:0:0:0:
243,143,77251,2,0,P|254:213|250:284,2,142.499990940094,8|10|8,2:0|2:0|2:0,2:0:0:0:
192,93,78422,1,10,2:0:0:0:
91,194,78891,1,10,2:0:0:0:
88,199,79126,2,0,P|77:269|81:340,2,142.499990940094,8|10|8,2:0|2:0|2:0,2:0:0:0:
130,141,80297,1,10,2:0:0:0:
71,10,80766,1,10,2:0:0:0:
74,15,81001,6,0,L|147:28,1,74.9999952316285,8|10,2:0|2:0,2:0:0:0:
209,70,81469,2,0,L|356:43,1,149.999990463257,10|10,2:0|2:0,2:0:0:0:
431,49,82172,1,10,2:0:0:0:
436,52,82407,2,0,P|453:84|454:121,1,74.9999952316285,10|10,2:0|2:0,2:0:0:0:
403,176,82876,2,0,B|383:226|403:289|479:264|492:336|446:406,1,224.999985694885,10|10,2:0|2:0,2:0:0:0:
313,354,84047,2,0,L|240:373,1,74.9999952316285,10|10,2:0|2:0,2:0:0:0:
167,384,84516,6,0,P|203:320|189:248,1,149.999990463257,10|10,2:0|2:0,2:0:0:0:
143,188,85219,2,0,L|216:174,1,74.9999952316285,10|10,2:0|2:0,2:0:0:0:
267,118,85688,2,0,L|340:131,1,74.9999952316285,10|10,2:0|2:0,2:0:0:0:
384,192,86157,1,10,2:0:0:0:
387,197,86391,1,10,2:0:0:0:
390,202,86626,1,10,2:0:0:0:
393,207,88032,5,10,2:0:0:0:
484,335,88501,6,0,P|419:376|344:359,1,157.49998998642,6|0,1:2|1:0,2:0:0:0:
323,283,89204,1,2,2:0:0:0:
320,278,89438,2,0,L|164:305,1,157.49998998642,0|0,1:0|2:0,2:0:0:0:
19,366,90376,2,0,P|1:331|5:292,1,78.74999499321,2|2,1:2|2:0,2:0:0:0:
47,226,90844,2,0,P|64:191|60:152,1,78.74999499321,2|2,1:2|2:0,2:0:0:0:
7,94,91313,1,2,1:2:0:0:
133,0,91782,2,0,L|211:13,1,78.74999499321,2|2,1:2|2:0,2:0:0:0:
288,0,92251,6,0,P|246:64|263:139,1,157.49998998642,6|0,1:2|1:0,2:0:0:0:
326,185,92954,1,2,2:0:0:0:
331,188,93188,2,0,P|372:251|355:327,1,157.49998998642,0|0,1:0|1:0,2:0:0:0:
206,384,94126,2,0,L|128:370,1,78.74999499321,2|2,1:2|2:0,2:0:0:0:
77,310,94594,2,0,L|-34:327,2,78.74999499321,2|2|2,1:2|2:0|1:2,2:0:0:0:
224,253,95532,1,2,2:0:0:0:
312,384,96001,6,0,P|377:343|393:268,1,157.49998998642,14|0,1:2|1:0,2:0:0:0:
432,200,96704,1,2,3:2:0:0:
435,195,96938,2,0,L|512:208,2,78.74999499321,8|0|0,1:2|3:0|1:0,2:0:0:0:
383,45,97876,2,0,L|305:58,1,78.74999499321,10|2,1:2|2:0,2:0:0:0:
258,121,98344,2,0,L|180:107,1,78.74999499321,2|2,1:2|3:2,2:0:0:0:
142,38,98813,1,10,1:2:0:0:
11,126,99282,2,0,P|-6:160|-1:199,1,78.74999499321,2|2,1:2|3:2,2:0:0:0:
4,278,99751,6,0,P|68:236|143:254,1,157.49998998642,14|0,1:2|1:0,2:0:0:0:
203,304,100454,1,2,3:2:0:0:
208,307,100688,2,0,L|194:384,2,78.74999499321,8|0|0,1:2|3:0|1:0,2:0:0:0:
323,199,101626,6,0,P|356:183|396:187,1,78.74999499321,10|2,1:2|2:0,2:0:0:0:
449,246,102094,1,2,1:2:0:0:
454,243,102329,1,2,3:2:0:0:
512,190,102563,2,0,L|484:34,1,157.49998998642,10|10,1:2|1:2,2:0:0:0:
414,0,103266,1,2,3:2:0:0:
409,3,103501,1,2,2:0:0:0:
254,6,103969,5,12,1:2:0:0:
251,1,104204,2,0,P|169:-3|111:50,1,164.999989509583,2|0,2:0|2:0,2:0:0:0:
118,132,104907,1,8,1:2:0:0:
37,276,105376,2,0,L|118:290,1,82.4999947547913,2|2,1:2|2:0,2:0:0:0:
200,280,105844,1,10,1:2:0:0:
203,275,106079,1,2,2:0:0:0:
245,348,106313,1,2,1:2:0:0:
315,200,106782,2,0,P|320:159|302:123,1,82.4999947547913,10|2,1:2|2:0,2:0:0:0:
258,53,107251,6,0,L|423:82,1,164.999989509583,6|8,1:2|1:2,2:0:0:0:
501,64,107954,1,2,2:0:0:0:
497,67,108188,2,0,P|452:134|471:212,1,164.999989509583,0|8,1:0|1:2,2:0:0:0:
512,371,109126,2,0,L|430:356,1,82.4999947547914,2|2,1:2|2:0,2:0:0:0:
370,300,109594,2,0,L|288:314,1,82.4999947547914,10|2,1:2|2:0,2:0:0:0:
226,368,110063,1,2,1:2:0:0:
81,288,110532,1,2,1:2:0:0:
232,223,111001,6,0,P|296:174|305:95,1,164.999989509583,14|0,1:2|1:0,2:0:0:0:
284,15,111704,1,2,3:2:0:0:
289,12,111938,2,0,L|370:26,2,82.4999947547913,8|0|0,1:2|3:0|1:0,2:0:0:0:
124,0,112876,2,0,P|105:36|110:76,1,82.4999947547913,10|2,1:2|2:0,2:0:0:0:
164,138,113344,1,2,1:2:0:0:
167,143,113579,1,2,3:2:0:0:
113,205,113813,1,10,1:2:0:0:
177,356,114282,2,0,L|258:370,1,82.4999947547913,2|2,1:2|3:2,2:0:0:0:
340,384,114751,6,0,P|295:317|314:239,1,164.999989509583,14|0,1:2|1:0,2:0:0:0:
388,205,115454,1,2,3:2:0:0:
393,202,115688,2,0,L|474:216,2,82.4999947547913,8|0|0,1:2|3:0|1:0,2:0:0:0:
301,64,116626,5,2,2:0:0:0:
304,59,116860,1,2,2:0:0:0:
227,27,117094,2,0,P|196:54|187:94,1,82.4999947547913,2|2,2:0|2:0,2:0:0:0:
108,119,117563,2,0,P|115:197|180:246,1,164.999989509583,2|0,2:0|2:0,2:0:0:0:
448,96,122251,6,0,L|424:228,1,134.999991416931,2|2,2:0|2:0,2:0:0:0:
443,294,122954,1,2,2:0:0:0:
341,383,123422,1,2,2:0:0:0:
228,307,123891,2,0,P|131:286|48:338,1,202.499987125397,2|0,2:0|2:0,2:0:0:0:
0,160,125532,5,2,2:0:0:0:
132,133,126001,2,0,P|124:65|131:-1,2,134.999991416931,2|2|2,2:0|2:0|2:0,2:0:0:0:
141,267,127407,1,2,2:0:0:0:
136,264,127641,2,0,P|220:211|316:231,1,202.499987125397,2|0,2:0|2:0,2:0:0:0:
501,318,129047,6,0,L|512:384,2,67.4999957084657,2|2|2,2:0|2:0|2:0,2:0:0:0:
444,280,129751,2,0,L|467:147,1,134.999991416931,2|2,2:0|2:0,2:0:0:0:
512,96,130454,1,2,2:0:0:0:
417,0,130922,1,2,2:0:0:0:
328,101,131391,2,0,P|269:133|204:122,1,134.999991416931,2|0,2:0|2:0,2:0:0:0:
150,83,132094,2,0,L|163:4,2,67.4999936485293,2|2|2,0:0|0:0|0:0,0:0:0:0:
16,235,133266,1,2,2:0:0:0:
13,230,133501,6,0,P|77:217|134:251,1,134.999991416931,2|0,2:0|2:0,2:0:0:0:
198,370,134438,2,0,P|262:382|319:348,1,134.999991416931,2|2,2:0|2:0,2:0:0:0:
453,364,135376,2,0,L|429:230,1,134.999991416931,2|0,2:0|2:0,2:0:0:0:
364,211,136079,1,2,2:0:0:0:
359,208,136313,6,0,L|382:75,1,134.999991416931,2|2,2:0|2:0,2:0:0:0:
436,34,137016,2,0,P|469:32|500:45,2,67.4999957084657,2|2|2,2:0|2:0|2:0,2:0:0:0:
299,5,137954,1,2,2:0:0:0:
302,10,138188,2,0,P|245:44|180:32,1,134.999991416931,2|2,2:0|2:0,2:0:0:0:
127,0,138891,2,0,P|94:-2|63:11,2,67.4999957084657,2|2|2,2:0|2:0|2:0,2:0:0:0:
117,135,139829,2,0,B|127:171|103:236|41:191|10:268|48:329,1,202.499987125397,2|2,2:0|2:0,2:0:0:0:
57,368,140766,1,2,2:0:0:0:
60,373,141001,6,0,L|192:349,1,134.999991416931,2|0,2:0|2:0,2:0:0:0:
322,384,141938,2,0,P|356:327|344:262,1,134.999991416931,2|2,2:0|2:0,2:0:0:0:
216,216,142876,2,0,P|182:159|194:94,1,134.999991416931,2|0,2:0|2:0,2:0:0:0:
241,45,143579,1,2,2:0:0:0:
244,40,143813,6,0,L|376:63,1,134.999991416931,2|2,2:0|2:0,2:0:0:0:
427,18,144516,2,0,L|493:6,2,67.4999957084657,2|2|2,2:0|2:0|2:0,2:0:0:0:
400,150,145454,1,2,2:0:0:0:
395,153,145688,2,0,P|383:218|417:274,1,134.999991416931,2|2,2:0|2:0,2:0:0:0:
446,335,146391,2,0,L|512:346,2,67.4999957084657,2|2|2,2:0|2:0|2:0,2:0:0:0:
318,379,147329,5,2,2:0:0:0:
315,384,147563,2,0,L|157:356,1,134.999991416931,2|2,2:0|2:0,2:0:0:0:
119,384,148266,1,2,2:0:0:0:
124,381,148501,6,0,P|136:312|101:252,1,142.499990940094,12|8,1:2|2:0,2:0:0:0:
24,132,149438,2,0,P|84:96|152:109,1,142.499990940094,10|10,2:0|1:2,2:0:0:0:
219,83,150141,1,2,2:0:0:0:
214,86,150376,2,0,L|240:235,1,142.499990940094,10|8,1:2|2:0,2:0:0:0:
151,339,151313,2,0,P|211:375|279:362,1,142.499990940094,10|10,2:0|1:2,2:0:0:0:
347,383,152016,1,2,2:0:0:0:
342,380,152251,6,0,P|335:309|342:238,1,142.499990940094,8|10,1:2|2:0,2:0:0:0:
409,213,152954,1,2,1:2:0:0:
414,210,153188,2,0,P|420:139|413:68,1,142.499990940094,10|10,2:0|1:2,2:0:0:0:
456,12,153891,2,0,L|315:-12,1,142.499990940094,2|2,2:0|2:0,2:0:0:0:
226,99,154829,6,0,P|157:112|97:76,1,142.499990940094,2|2,1:2|2:0,2:0:0:0:
76,7,155532,1,10,1:2:0:0:
71,10,155766,2,0,L|46:150,1,142.499990940094,2|2,2:0|2:0,2:0:0:0:
0,286,156704,2,0,P|69:279|149:293,1,142.499990940094,2|2,1:2|2:0,2:0:0:0:
174,353,157407,1,10,1:2:0:0:
177,358,157641,6,0,P|246:365|326:351,1,142.499990940094,2|0,2:0|2:0,2:0:0:0:
295,212,158579,1,2,1:2:0:0:
292,207,158813,2,0,P|326:198|361:204,1,71.249995470047,10|2,2:0|2:0,2:0:0:0:
486,289,159516,6,0,L|512:141,1,149.999990463257,2|2,2:0|1:2,2:0:0:0:
509,66,160219,1,10,1:2:0:0:
506,61,160454,1,2,1:2:0:0:
503,56,160688,2,0,L|429:42,1,74.9999952316285,10|2,1:2|1:2,2:0:0:0:
367,0,161157,2,0,L|288:13,1,74.9999952316285,10|2,1:2|1:2,2:0:0:0:
218,6,161626,2,0,B|253:92|204:154|204:154|143:224|124:301|227:370|331:361|379:243|322:142|223:162,1,599.999961853028,10|0,1:2|2:0,2:0:0:0:
173,96,182251,6,0,P|107:85|49:117,1,134.999991416931,8|2,2:0|2:0,2:0:0:0:
22,178,182954,1,8,2:0:0:0:
135,250,183422,2,0,L|123:316,1,67.4999957084657,2|10,2:0|2:0,2:0:0:0:
93,377,183891,1,2,2:0:0:0:
90,372,184126,2,0,P|173:319|270:341,1,202.499987125397,8|8,2:0|2:0,2:0:0:0:
399,375,185297,5,2,2:0:0:0:
402,380,185532,2,0,P|435:380|464:364,1,67.4999957084657,10|10,2:0|2:0,2:0:0:0:
508,312,186001,2,0,P|487:192|489:96,1,202.499987125397,8|8,2:0|2:0,2:0:0:0:
411,0,187172,2,0,P|378:0|349:16,1,67.4999957084657,2|10,2:0|2:0,2:0:0:0:
280,14,187641,1,2,2:0:0:0:
285,11,187876,2,0,P|306:131|304:227,1,202.499987125397,8|8,2:0|2:0,2:0:0:0:
317,345,189047,6,0,L|246:357,1,67.4999957084657,10|10,2:0|2:0,2:0:0:0:
188,380,189516,1,10,2:0:0:0:
193,384,189751,2,0,P|218:289|162:208,2,202.499987125397,8|10|10,2:0|2:0|2:0,2:0:0:0:
75,318,191626,2,0,P|27:272|23:206,1,134.999991416931,10|2,2:0|2:0,2:0:0:0:
47,143,192329,1,10,2:0:0:0:
41,9,192797,5,2,2:0:0:0:
38,14,193032,2,0,L|104:25,1,67.4999957084657,10|10,2:0|2:0,2:0:0:0:
161,62,193501,2,0,L|360:26,2,202.499987125397,8|10|10,2:0|2:0|2:0,2:0:0:0:
50,138,195376,2,0,L|183:161,1,134.999991416931,10|2,2:0|2:0,2:0:0:0:
249,172,196079,1,10,2:0:0:0:
336,69,196547,2,0,P|337:35|325:4,2,67.4999957084657,8|8|8,2:0|2:0|2:0,2:0:0:0:
380,125,197251,6,0,P|366:193|402:253,1,142.499990940094,10|8,2:0|2:0,2:0:0:0:
457,298,197954,1,10,2:0:0:0:
460,303,198188,2,0,L|319:327,1,142.499990940094,8|8,2:0|2:0,2:0:0:0:
188,384,199126,2,0,L|175:313,1,71.249995470047,10|10,2:0|2:0,2:0:0:0:
116,273,199594,2,0,L|128:202,1,71.249995470047,10|10,2:0|2:0,2:0:0:0:
184,158,200063,1,10,2:0:0:0:
95,46,200532,1,10,2:0:0:0:
231,6,201001,6,0,P|299:-8|359:28,1,142.499990940094,10|8,2:0|2:0,2:0:0:0:
430,24,201704,1,10,2:0:0:0:
435,21,201938,2,0,L|459:161,1,142.499990940094,8|8,2:0|2:0,2:0:0:0:
380,280,202876,2,0,P|439:316|507:303,2,142.499990940094,10|10|10,2:0|2:0|2:0,2:0:0:0:
314,153,204282,2,0,L|243:165,1,71.249995470047,10|10,2:0|2:0,2:0:0:0:
177,129,204751,6,0,P|194:199|154:260,1,149.999990463257,10|8,2:0|2:0,2:0:0:0:
162,335,205454,2,0,L|14:308,2,149.999990463257,10|10|10,2:0|2:0|2:0,2:0:0:0:
212,384,206626,2,0,L|285:370,1,74.9999952316285,10|10,2:0|2:0,2:0:0:0:
324,306,207094,2,0,L|397:319,1,74.9999952316285,10|10,2:0|2:0,2:0:0:0:
447,375,207563,1,10,2:0:0:0:
512,240,208032,1,10,2:0:0:0:
509,235,208266,1,10,2:0:0:0:
256,192,208501,12,0,210376,1:2:0:0:
191,104,212251,6,0,P|260:62|339:77,1,164.999989509583,6|8,1:2|1:2,2:0:0:0:
410,34,212954,1,2,2:0:0:0:
415,37,213188,2,0,L|444:202,1,164.999989509583,0|8,1:0|1:2,2:0:0:0:
457,364,214126,2,0,P|421:383|381:377,1,82.4999947547913,2|2,1:2|2:0,2:0:0:0:
310,334,214594,1,10,1:2:0:0:
307,329,214829,1,2,2:0:0:0:
233,366,215063,1,2,1:2:0:0:
238,369,216001,6,0,P|247:287|236:205,1,164.999989509583,6|8,1:2|1:2,2:0:0:0:
194,134,216704,1,2,2:0:0:0:
191,139,216938,2,0,P|256:186|336:178,1,164.999989509583,0|8,1:0|1:2,2:0:0:0:
501,181,217876,2,0,P|501:140|480:105,1,82.4999947547914,2|2,1:2|2:0,2:0:0:0:
512,29,218344,2,0,P|476:8|436:8,1,82.4999947547914,10|2,1:2|2:0,2:0:0:0:
367,55,218813,1,2,1:2:0:0:
210,0,219282,1,2,2:0:0:0:
43,0,219751,6,0,P|29:81|28:163,1,164.999989509583,14|0,1:2|1:0,2:0:0:0:
68,235,220454,1,2,3:2:0:0:
71,240,220688,2,0,P|76:280|76:321,2,82.4999947547913,8|0|0,1:2|3:0|1:0,2:0:0:0:
164,103,221626,2,0,L|245:117,1,82.4999947547913,10|2,1:2|2:0,2:0:0:0:
296,181,222094,1,2,1:2:0:0:
299,186,222329,1,2,3:2:0:0:
371,147,222563,1,10,1:2:0:0:
512,233,223032,2,0,P|514:273|497:311,1,82.4999947547913,2|2,1:2|3:2,2:0:0:0:
458,384,223501,6,0,L|295:355,1,164.999989509583,14|0,1:2|1:0,2:0:0:0:
246,288,224204,1,2,3:2:0:0:
243,283,224438,2,0,L|161:297,2,82.4999947547913,8|0|0,1:2|3:0|1:0,2:0:0:0:
400,233,225376,6,0,P|402:192|385:154,1,82.4999947547913,10|2,1:2|2:0,2:0:0:0:
412,76,225844,1,2,1:2:0:0:
409,71,226079,1,2,3:2:0:0:
366,0,226313,2,0,L|284:14,1,82.4999947547913,2|0,1:2|2:0,2:0:0:0:
207,42,226782,1,8,3:2:0:0:
204,47,227016,1,0,1:0:0:0:
4,202,227719,5,4,1:2:0:0:
1,197,227954,2,0,P|72:152|154:169,1,172.499989032746,2|0,3:2|3:0,2:0:0:0:
208,236,228657,1,0,1:0:0:0:
306,377,229126,2,0,P|347:383|386:359,1,86.2499945163728,10|2,1:2|2:0,2:0:0:0:
468,376,229594,1,2,1:2:0:0:
512,302,229829,1,2,3:2:0:0:
464,230,230063,1,10,1:2:0:0:
512,65,230532,2,0,L|427:50,1,86.2499945163728,2|2,1:2|3:2,2:0:0:0:
356,0,231001,6,0,P|373:82|329:153,1,172.499989032746,14|0,1:2|1:0,2:0:0:0:
258,202,231704,1,2,3:2:0:0:
255,207,231938,2,0,L|269:291,2,86.2499945163728,8|0|0,1:2|3:0|1:0,2:0:0:0:
232,35,232876,2,0,P|189:33|153:56,1,86.2499945163728,10|2,1:2|2:0,2:0:0:0:
70,34,233344,2,0,P|47:70|49:112,1,86.2499945163728,2|2,1:2|2:0,2:0:0:0:
114,169,233813,1,2,1:2:0:0:
283,200,234282,2,0,L|265:303,1,86.2499945163728,8|0,3:2|1:0,2:0:0:0:
292,367,234751,6,0,P|220:322|138:340,1,172.499989032746,6|8,1:2|1:2,2:0:0:0:
60,379,235454,1,2,2:0:0:0:
55,382,235688,2,0,P|58:298|126:249,1,172.499989032746,0|8,1:0|1:2,2:0:0:0:
294,283,236626,6,0,L|378:297,1,86.2499945163728,2|2,1:2|2:0,2:0:0:0:
454,338,237094,1,10,1:2:0:0:
512,274,237329,1,2,2:0:0:0:
485,191,237563,1,2,1:2:0:0:
512,21,238032,2,0,P|474:1|431:8,1,86.2499945163728,10|2,1:2|2:0,2:0:0:0:
375,63,238501,6,0,P|288:64|181:41,1,172.499989032746,6|8,1:2|1:2,2:0:0:0:
126,10,239204,1,2,2:0:0:0:
131,7,239438,2,0,P|175:78|157:160,1,172.499989032746,0|10,1:0|1:2,2:0:0:0:
81,203,240141,1,2,2:0:0:0:
76,206,240376,6,0,P|69:261|93:311,2,112.499992847443,2|0|0,1:2|3:0|3:0,2:0:0:0:
146,163,241313,1,0,1:0:0:0:
255,265,241782,5,8,3:2:0:0:
258,270,242016,1,0,3:0:0:0:
340,233,242251,1,4,1:2:0:0:
98,254,247692,6,0,P|125:201|117:143,1,119.999992370606,2|0,2:0|2:0,2:0:0:0:
76,99,248418,2,0,P|168:113|265:110,1,179.999988555908,2|2,2:0|2:0,2:0:0:0:
333,20,249627,2,0,P|365:18|398:28,1,59.9999961853028,2|2,2:0|2:0,2:0:0:0:
451,16,250111,1,2,2:0:0:0:
446,13,250353,2,0,P|398:86|418:172,1,179.999988555908,2|2,2:0|2:0,2:0:0:0:
508,251,251563,2,0,P|509:280|498:308,1,59.9999961853028,2|2,2:0|2:0,2:0:0:0:
503,368,252047,1,2,2:0:0:0:
506,373,252288,6,0,L|328:341,1,179.999988555908,2|2,2:0|2:0,2:0:0:0:
211,313,253498,2,0,L|151:323,1,59.9999961853028,2|2,2:0|2:0,2:0:0:0:
98,350,253982,1,2,2:0:0:0:
103,353,254224,2,0,P|137:271|102:191,1,179.999988555908,2|2,2:0|2:0,2:0:0:0:
1,128,255434,2,0,L|11:68,1,59.9999961853028,2|2,2:0|2:0,2:0:0:0:
2,9,255918,6,0,P|52:39|110:27,1,119.999992370606,2|0,0:2|0:0,0:0:0:0:
163,0,256643,1,2,2:0:0:0:
223,103,257127,1,2,2:0:0:0:
163,206,257611,1,2,2:0:0:0:
203,318,258095,2,0,P|253:349|311:346,1,119.999992370606,2|0,2:0|2:0,2:0:0:0:
368,323,258821,1,2,2:0:0:0:
479,368,259305,2,0,P|489:340|486:310,1,59.9999961853028,2|2,2:0|2:0,2:0:0:0:
460,256,259788,6,0,P|445:196|473:142,1,119.999992370606,2|0,2:0|2:0,2:0:0:0:
512,101,260514,1,2,2:0:0:0:
407,41,260998,1,2,2:0:0:0:
322,127,261482,1,2,2:0:0:0:
223,58,261966,2,0,L|234:-5,2,59.9999961853028,2|2|2,2:0|2:0|2:0,2:0:0:0:
175,94,262692,2,0,L|194:212,1,119.999992370606,2|2,2:0|2:0,2:0:0:0:
301,267,263659,1,2,2:0:0:0:
304,272,263901,6,0,P|271:321|217:343,1,119.999992370606,2|0,2:0|2:0,2:0:0:0:
159,321,264627,1,2,2:0:0:0:
58,384,265111,2,0,L|47:324,1,59.9999961853028,2|2,2:0|2:0,2:0:0:0:
5,282,265595,1,2,2:0:0:0:
0,285,265837,2,0,L|31:103,1,179.999988555908,2|2,2:0|2:0,2:0:0:0:
111,19,267047,2,0,P|140:15|169:25,1,59.9999961853028,2|2,2:0|2:0,2:0:0:0:
228,22,267530,1,2,2:0:0:0:
225,16,267772,6,0,P|202:101|251:173,1,179.999988555908,2|2,2:0|2:0,2:0:0:0:
358,120,268982,2,0,L|452:136,1,59.9999961853028,2|2,2:0|2:0,2:0:0:0:
470,102,269466,1,2,2:0:0:0:
465,98,269708,2,0,P|464:188|481:277,1,179.999988555908,2|2,2:0|2:0,2:0:0:0:
424,378,270918,2,0,P|395:383|365:383,1,59.9999961853028,2|2,2:0|2:0,2:0:0:0:
304,382,271401,6,0,P|275:330|284:272,1,119.999992370606,2|0,2:0|2:0,2:0:0:0:
335,240,272127,1,2,2:0:0:0:
277,134,272611,1,2,2:0:0:0:
164,177,273095,1,2,2:0:0:0:
97,77,273579,2,0,P|54:117|42:174,1,119.999992370606,2|0,2:0|2:0,2:0:0:0:
76,224,274305,1,2,2:0:0:0:
54,341,274788,2,0,L|114:351,1,59.9999961853028,2|2,2:0|2:0,2:0:0:0:
164,384,275272,6,0,L|296:361,1,119.999992370606,2|0,2:0|2:0,2:0:0:0:
341,353,275998,1,2,2:0:0:0:
399,248,276482,1,2,2:0:0:0:
315,161,276966,1,2,2:0:0:0:
371,55,277450,6,0,P|400:51|429:61,1,59.9999961853028,2|2,2:0|2:0,2:0:0:0:
488,54,277934,2,0,P|505:77|511:107,1,59.9999961853028,2|2,2:0|2:0,2:0:0:0:
484,160,278418,1,2,2:0:0:0:
