osu file format v14

[General]
AudioFilename: audio.mp3
AudioLeadIn: 0
PreviewTime: 57563
Countdown: 0
SampleSet: Soft
StackLeniency: 0.7
Mode: 0
LetterboxInBreaks: 0
WidescreenStoryboard: 1

[Editor]
Bookmarks: 13501,28501,43501,58501,73501,88501,103501,118501,133501,148501,167251,182251,197251,212251,227251,242251,263902,278418
DistanceSpacing: 1
BeatDivisor: 8
GridSize: 8
TimelineZoom: 2.2

[Metadata]
Title:Addict
TitleUnicode:Addict
Artist:Silva Hound feat. Michael Kovach and Chi-Chi
ArtistUnicode:Silva Hound feat. Michael Kovach and Chi-Chi
Creator:Night Mare
Version:Insane
Source:HAZBIN HOTEL
Tags:luna im i'm addicted edm electronic dance music english VivziePop Vivienne Medrano Vivianne Helluva Boss AngelDust AngleDust Anthony Cherri Bomb nightmare chichi cherry animation happy
BeatmapID:2896253
BeatmapSetID:1396522

[Difficulty]
HPDrainRate:5
CircleSize:3.5
OverallDifficulty:8
ApproachRate:9
SliderMultiplier:2.79999990463257
SliderTickRate:1

[Events]
//Background and Video events
0,0,"image.jpg",0,0
//Break Periods
2,58501,72563
2,118501,121313
2,167251,181313
2,246201,247092
//Storyboard Layer 0 (Background)
//Storyboard Layer 1 (Fail)
//Storyboard Layer 2 (Pass)
//Storyboard Layer 3 (Foreground)
//Storyboard Layer 4 (Overlay)
//Storyboard Sound Samples

[TimingPoints]
4126,468.75,4,2,1,30,1,0
5883,-100,4,2,1,5,0,0
6001,-100,4,2,1,30,0,0
7876,-333.333333333333,4,2,1,30,0,0
13501,-250,4,2,1,50,0,0
28501,-166.666666666667,4,2,1,60,0,0
43501,-133.333333333333,4,2,1,70,0,0
53579,-117.647058823529,4,2,1,75,0,0
54751,-100,4,2,1,75,0,0
55688,-100,4,2,1,85,0,0
56684,-100,4,2,2,85,0,0
57563,-100,4,2,2,5,0,0
73501,-111.111111111111,4,2,2,75,0,0
81469,-100,4,2,2,75,0,0
84516,-100,4,2,2,80,0,0
85219,-100,4,2,2,85,0,0
85688,-100,4,2,2,90,0,0
86157,-100,4,2,2,95,0,0
86626,-100,4,2,2,80,0,0
88032,-100,4,2,3,80,0,0
88501,-86.9565217391304,4,2,3,85,0,1
91313,-86.9565217391304,4,2,3,85,0,0
92251,-86.9565217391304,4,2,2,85,0,1
95532,-500,4,2,2,85,0,0
96001,-86.9565217391304,4,2,4,85,0,1
96059,-86.9565217391304,4,2,3,85,0,1
99751,-86.9565217391304,4,2,4,85,0,1
99809,-86.9565217391304,4,2,3,85,0,1
101157,-1000,4,2,3,85,0,0
101626,-86.9565217391304,4,2,3,85,0,1
103501,-500,4,2,3,90,0,0
103969,-500,4,2,3,90,0,1
104204,-76.9230769230769,4,2,3,90,0,1
107251,-76.9230769230769,4,2,4,90,0,1
107309,-76.9230769230769,4,2,3,90,0,1
110063,-76.9230769230769,4,2,3,90,0,0
110532,-500,4,2,3,90,0,0
111001,-76.9230769230769,4,2,4,90,0,1
111059,-76.9230769230769,4,2,3,90,0,1
114751,-76.9230769230769,4,2,4,90,0,1
114809,-76.9230769230769,4,2,3,90,0,1
116157,-1000,4,2,3,90,0,0
116626,-71.4285714285714,4,2,3,90,0,1
117329,-100,4,2,3,80,0,1
117563,-250,4,2,3,70,0,1
118032,-250,4,2,3,70,0,0
122251,-250,4,2,1,50,0,0
133501,-166.666666666667,4,2,1,50,0,0
134204,-166.666666666667,4,2,1,55,0,0
141704,-166.666666666667,4,2,1,60,0,0
148501,-133.333333333333,4,2,5,70,0,0
158579,-117.647058823529,4,2,5,75,0,0
159751,-100,4,2,5,75,0,0
160688,-100,4,2,5,85,0,0
161626,-117.647058823529,4,2,5,85,0,0
161684,-117.647058823529,4,2,2,85,0,0
182251,-142.857142857143,4,2,2,65,0,0
197251,-117.647058823529,4,2,2,75,0,0
205219,-100,4,2,2,75,0,0
208501,-100,4,2,2,85,0,0
209907,-100,4,2,2,90,0,0
210141,-100,4,2,2,95,0,0
210376,-100,4,2,2,60,0,0
210610,-100,4,2,3,60,0,0
212251,-76.9230769230769,4,2,3,90,0,1
215532,-166.666666666667,4,2,3,20,0,0
215590,-166.666666666667,4,2,3,5,0,0
215649,-100,4,2,3,40,0,0
215708,-100,4,2,3,5,0,0
215766,-71.4285714285714,4,2,3,60,0,0
215825,-71.4285714285714,4,2,3,5,0,0
215883,-55.5555555555556,4,2,3,80,0,0
215942,-55.5555555555556,4,2,3,5,0,0
216001,-76.9230769230769,4,2,4,90,0,1
216059,-76.9230769230769,4,2,3,90,0,1
219282,-500,4,2,3,90,0,0
219751,-76.9230769230769,4,2,4,90,0,1
219809,-76.9230769230769,4,2,3,90,0,1
223501,-76.9230769230769,4,2,4,90,0,1
223559,-76.9230769230769,4,2,3,90,0,1
224907,-1000,4,2,3,90,0,0
225376,-76.9230769230769,4,2,3,90,0,1
227251,-500,4,2,3,90,0,0
227719,-500,4,2,3,95,0,1
227954,-68.9655172413793,4,2,3,95,0,1
231001,-68.9655172413793,4,2,4,95,0,1
231059,-68.9655172413793,4,2,3,95,0,1
234751,-68.9655172413793,4,2,4,95,0,1
234809,-68.9655172413793,4,2,3,95,0,1
238501,-68.9655172413793,4,2,4,95,0,1
238559,-68.9655172413793,4,2,3,95,0,1
240024,-83.3333333333333,4,2,3,95,0,1
240376,-83.3333333333333,4,2,3,70,0,0
241665,-83.3333333333333,4,2,3,80,0,0
242251,-83.3333333333333,4,2,1,80,0,0
246001,-83.3333333333333,4,2,1,5,0,0
247451,967.741935483871,4,2,1,5,1,0
247692,-142.857142857143,4,2,1,40,0,0
248418,967.741935483871,4,2,1,40,1,0
248418,-142.857142857143,4,2,1,40,0,0

[Colours]
Combo1 : 242,24,57
Combo2 : 255,128,128
Combo3 : 255,128,192

[HitObjects]
256,192,4126,12,0,5883,2:0:0:0:
423,110,6001,5,4,1:2:0:0:
421,117,6469,1,0,2:0:0:0:
420,125,6938,1,0,2:0:0:0:
418,133,7407,5,0,2:0:0:0:
483,187,7641,1,0,2:0:0:0:
422,249,7876,2,0,P|416:284|433:315,1,62.9999978542329,0|0,2:0|2:0,2:0:0:0:
444,323,8344,1,0,2:0:0:0:
373,384,8579,2,0,L|290:369,2,83.9999971389772,0|0|0,2:0|2:0|2:0,2:0:0:0:
233,299,9751,5,0,2:0:0:0:
226,301,10219,1,0,2:0:0:0:
218,302,10688,1,0,2:0:0:0:
210,304,11157,5,0,2:0:0:0:
160,384,11391,1,0,2:0:0:0:
81,332,11626,2,0,L|18:342,1,62.9999978542329,0|0,2:0|2:0,2:0:0:0:
0,346,12094,1,0,2:0:0:0:
68,239,12329,2,0,L|154:254,2,83.9999971389772,0|0|0,2:0|2:0|2:0,2:0:0:0:
0,133,13501,6,0,P|-4:91|14:55,1,83.9999971389771,2|0,2:0|2:0,2:0:0:0:
112,77,13969,2,0,P|116:35|97:0,1,83.9999971389771,2|0,2:0|2:0,2:0:0:0:
90,167,14438,2,0,P|132:171|167:152,1,83.9999971389771,2|0,2:0|2:0,2:0:0:0:
207,44,14907,1,2,2:0:0:0:
282,191,15141,2,0,L|311:25,1,167.999994277954,2|0,2:0|2:0,2:0:0:0:
315,12,16079,1,0,2:0:0:0:
318,0,16547,1,0,2:0:0:0:
426,107,16782,2,0,L|421:134,1,27.9999990463257,2|0,2:0|2:0,2:0:0:0:
512,96,17016,2,0,L|507:123,1,27.9999990463257,2|0,2:0|2:0,2:0:0:0:
452,228,17251,6,0,P|477:216|505:218,2,55.9999980926514,2|2|2,2:0|2:0|2:0,2:0:0:0:
386,380,17954,2,0,P|344:385|308:366,1,83.9999971389771,2|0,2:0|2:0,2:0:0:0:
161,333,18422,2,0,P|203:338|239:319,1,83.9999971389771,2|0,2:0|2:0,2:0:0:0:
366,263,18891,2,0,P|297:218|218:237,1,167.999994277954,2|0,2:0|2:0,2:0:0:0:
192,247,19829,1,0,2:0:0:0:
189,253,20297,1,0,2:0:0:0:
188,261,20766,1,0,2:0:0:0:
67,384,21001,6,0,L|52:301,1,83.9999971389771,2|0,2:0|2:0,2:0:0:0:
4,205,21469,2,0,L|0:232,1,27.9999990463257,2|0,2:0|2:0,2:0:0:0:
93,195,21704,2,0,L|88:222,1,27.9999990463257,2|0,2:0|2:0,2:0:0:0:
191,266,21938,1,2,2:0:0:0:
86,186,22172,2,0,P|87:144|98:103,1,83.9999971389771,2|0,2:0|2:0,2:0:0:0:
0,18,22641,2,0,P|67:64|146:43,1,167.999994277954,2|0,2:0|2:0,2:0:0:0:
150,33,23579,1,0,2:0:0:0:
149,25,24047,1,0,2:0:0:0:
299,65,24282,2,0,L|294:37,1,27.9999990463257,2|0,2:0|2:0,2:0:0:0:
206,115,24516,2,0,L|210:87,1,27.9999990463257,2|0,2:0|2:0,2:0:0:0:
296,206,24751,6,0,L|286:150,2,55.9999980926514,2|2|2,2:0|2:0|2:0,2:0:0:0:
220,258,25454,2,0,P|246:289|286:296,1,83.9999971389771,2|0,2:0|2:0,2:0:0:0:
293,384,25922,2,0,P|333:377|359:345,1,83.9999971389771,2|0,2:0|2:0,2:0:0:0:
448,384,26391,2,0,P|451:315|407:262,1,139.999995231629,2|0,2:0|2:0,2:0:0:0:
389,260,27094,5,2,2:0:0:0:
360,233,27329,1,2,2:0:0:0:
368,183,27563,1,2,2:0:0:0:
442,146,27797,1,2,2:0:0:0:
458,53,28032,1,2,2:0:0:0:
364,0,28266,1,2,2:0:0:0:
96,62,28501,6,0,B|141:56|176:85|147:117|208:147|250:127,1,167.999994277954,2|8,2:0|2:0,2:0:0:0:
369,89,29204,1,2,2:0:0:0:
176,62,29438,2,0,P|162:123|165:186,1,125.999995708465,2|0,2:0|2:0,2:0:0:0:
70,236,29907,1,10,2:0:0:0:
57,217,30024,1,2,2:0:0:0:
57,195,30141,1,2,2:0:0:0:
0,324,30376,2,0,P|66:277|144:299,1,167.999994277954,2|8,2:0|2:0,2:0:0:0:
264,384,31079,5,2,2:0:0:0:
366,322,31313,1,2,2:0:0:0:
512,384,31547,2,0,L|504:342,1,41.9999985694885,2|0,2:0|2:0,2:0:0:0:
415,246,31782,2,0,L|422:204,1,41.9999985694885,10|0,2:0|2:0,2:0:0:0:
498,108,32016,2,0,L|512:190,2,83.9999971389769,2|2|2,2:0|2:0|2:0,2:0:0:0:
493,84,32719,1,8,2:0:0:0:
356,0,32954,5,2,2:0:0:0:
304,118,33188,2,0,P|321:128|342:131,1,41.9999985694885,2|0,2:0|2:0,2:0:0:0:
203,123,33422,2,0,P|202:143|211:163,1,41.9999985694885,2|0,2:0|2:0,2:0:0:0:
148,38,33657,2,0,P|130:47|117:65,1,41.9999985694885,10|0,2:0|2:0,2:0:0:0:
39,155,33891,2,0,P|9:126|0:85,2,83.9999971389769,2|2|2,2:0|2:0|2:0,2:0:0:0:
54,153,34594,1,8,2:0:0:0:
0,279,34829,5,2,2:0:0:0:
23,254,35063,1,2,2:0:0:0:
119,233,35297,1,2,2:0:0:0:
213,274,35532,1,10,2:0:0:0:
257,384,35766,1,2,2:0:0:0:
0,384,36001,6,0,P|68:337|146:357,1,167.999994277954,2|8,2:0|2:0,2:0:0:0:
292,201,36704,1,2,2:0:0:0:
290,384,36938,2,0,P|241:346|233:282,1,125.999995708465,2|0,2:0|2:0,2:0:0:0:
325,298,37407,1,10,2:0:0:0:
364,289,37524,1,2,2:0:0:0:
389,255,37641,1,2,2:0:0:0:
511,384,37876,2,0,P|497:301|497:217,1,167.999994277954,2|8,2:0|2:0,2:0:0:0:
512,67,38579,5,2,2:0:0:0:
370,124,38813,2,0,L|411:116,1,41.9999985694885,2|0,2:0|2:0,2:0:0:0:
321,0,39047,2,0,L|362:7,1,41.9999985694885,2|0,2:0|2:0,2:0:0:0:
212,96,39282,2,0,L|253:88,1,41.9999985694885,10|0,2:0|2:0,2:0:0:0:
153,14,39516,2,0,P|122:42|113:82,2,83.9999971389769,2|2|2,2:0|2:0|2:0,2:0:0:0:
178,5,40219,1,8,2:0:0:0:
245,186,40454,5,2,2:0:0:0:
380,289,40688,2,0,P|362:300|340:303,1,41.9999985694885,2|0,2:0|2:0,2:0:0:0:
291,384,40922,2,0,P|272:375|258:356,1,41.9999985694885,2|0,2:0|2:0,2:0:0:0:
164,354,41157,2,0,P|162:333|171:312,1,41.9999985694885,10|0,2:0|2:0,2:0:0:0:
253,190,41391,2,0,P|265:229|253:268,2,83.9999971389769,2|2|2,2:0|2:0|2:0,2:0:0:0:
146,148,42094,2,0,P|133:108|145:69,1,83.9999971389769,8|0,2:0|2:0,2:0:0:0:
274,11,42563,5,2,2:0:0:0:
301,0,42797,1,2,2:0:0:0:
388,12,43032,1,10,2:0:0:0:
428,114,43266,1,2,2:0:0:0:
380,337,43501,6,0,P|367:286|368:233,2,104.999996423722,4|2|8,1:2|2:0|2:0,2:0:0:0:
392,354,44204,1,0,1:0:0:0:
479,352,44438,1,2,2:0:0:0:
512,241,44672,1,2,2:0:0:0:
421,122,44907,1,10,1:2:0:0:
289,199,45141,2,0,L|237:191,1,52.4999982118608,2|0,2:0|2:0,2:0:0:0:
76,201,45376,2,0,P|183:203|299:181,1,209.999992847443,2|8,1:2|2:0,2:0:0:0:
416,129,46079,5,2,1:2:0:0:
432,231,46313,1,2,2:0:0:0:
352,317,46547,1,2,2:0:0:0:
220,309,46782,1,10,1:2:0:0:
152,169,47016,2,0,L|161:224,1,52.4999982118608,2|0,2:0|2:0,2:0:0:0:
167,0,47251,6,0,L|139:157,1,157.499994635582,0|0,1:0|2:0,2:0:0:0:
0,209,47719,1,10,2:0:0:0:
16,310,47954,1,2,1:2:0:0:
123,340,48188,1,2,2:0:0:0:
96,233,48422,1,2,2:0:0:0:
5,320,48657,1,10,1:2:0:0:
130,355,48891,2,0,P|155:358|178:345,1,52.4999982118608,2|0,2:0|2:0,2:0:0:0:
340,280,49126,2,0,P|294:255|243:262,2,104.999996423722,0|2|8,1:0|2:0|2:0,2:0:0:0:
372,380,49829,5,2,1:2:0:0:
406,383,50063,1,2,2:0:0:0:
492,344,50297,1,2,2:0:0:0:
512,226,50532,1,10,1:2:0:0:
352,164,50766,2,0,L|403:154,1,52.4999982118608,2|0,2:0|2:0,2:0:0:0:
512,77,51001,2,0,L|408:58,2,104.999996423722,0|2|8,1:0|2:0|2:0,2:0:0:0:
310,0,51704,5,2,1:2:0:0:
247,68,51938,1,2,2:0:0:0:
312,165,52172,1,2,2:0:0:0:
226,267,52407,1,10,1:2:0:0:
336,376,52641,2,0,P|345:352|343:313,1,52.4999982118608,2|0,2:0|2:0,2:0:0:0:
306,159,52876,2,0,P|306:265|330:376,1,209.999992847443,0|8,1:0|2:0,2:0:0:0:
199,348,53579,6,0,P|189:324|192:271,1,59.4999979734423,2|0,1:2|2:0,2:0:0:0:
204,163,53813,2,0,P|206:222|196:280,2,118.999995946885,2|2|10,2:0|2:0|1:2,2:0:0:0:
125,22,54516,1,2,2:0:0:0:
7,191,54751,6,0,L|20:123,1,69.9999976158143,2|0,1:2|2:0,2:0:0:0:
96,277,54985,2,0,L|109:346,1,69.9999976158143,2|0,1:2|2:0,2:0:0:0:
12,114,55219,2,0,L|-5:208,1,69.9999976158143,10|0,1:2|2:0,2:0:0:0:
119,354,55454,2,0,L|102:259,1,69.9999976158143,2|0,1:2|2:0,2:0:0:0:
133,13,55688,5,2,1:2:0:0:
168,0,55805,1,0,1:0:0:0:
202,5,55922,2,0,P|235:14|259:38,1,69.9999976158143,2|0,1:2|1:0,2:0:0:0:
331,330,56157,5,10,1:2:0:0:
379,288,56274,1,0,1:0:0:0:
389,225,56391,1,2,1:2:0:0:
364,165,56508,1,0,1:0:0:0:
458,87,56626,6,0,B|408:176|394:332|472:385|472:385|541:323|513:215|513:215|501:242|522:330,1,559.999980926514,2|0,1:2|2:0,2:0:0:0:
293,75,73501,6,0,B|240:38|240:38|180:54,1,125.999995708466,12|8,2:0|2:0,2:0:0:0:
0,131,73969,2,0,B|52:167|52:167|112:151,2,125.999995708466,10|8|8,2:0|2:0|2:0,2:0:0:0:
224,142,74672,5,10,2:0:0:0:
203,278,74907,1,10,2:0:0:0:
74,333,75141,2,0,B|99:370|99:370|179:384,2,125.999995708466,10|8|8,2:0|2:0|2:0,2:0:0:0:
322,324,75844,2,0,B|296:286|296:286|216:272,2,125.999995708466,10|8|8,2:0|2:0|2:0,2:0:0:0:
475,376,76547,5,10,2:0:0:0:
402,252,76782,1,10,2:0:0:0:
473,164,77016,2,0,B|517:208|517:208|512:270,2,125.999995708466,10|8|8,2:0|2:0|2:0,2:0:0:0:
356,36,77719,2,0,B|311:80|311:80|316:142,2,125.999995708466,10|8|8,2:0|2:0|2:0,2:0:0:0:
495,30,78422,5,10,2:0:0:0:
459,144,78657,1,10,2:0:0:0:
319,165,78891,2,0,B|239:179|239:179|202:153,2,125.999995708466,10|8|8,2:0|2:0|2:0,2:0:0:0:
114,39,79594,2,0,B|193:53|193:53|230:27,2,125.999995708466,10|8|8,2:0|2:0|2:0,2:0:0:0:
0,87,80297,5,10,2:0:0:0:
76,172,80532,1,10,2:0:0:0:
21,279,80766,1,10,2:0:0:0:
151,384,81001,5,8,2:0:0:0:
156,381,81118,1,8,2:0:0:0:
161,378,81235,1,8,2:0:0:0:
166,375,81352,1,8,2:0:0:0:
171,372,81469,2,0,L|184:293,1,69.9999976158143,10|8,2:0|2:0,2:0:0:0:
301,321,81704,2,0,L|287:242,1,69.9999976158143,10|8,2:0|2:0,2:0:0:0:
121,230,81938,2,0,L|134:151,1,69.9999976158143,10|8,2:0|2:0,2:0:0:0:
324,167,82172,2,0,L|310:88,1,69.9999976158143,10|8,2:0|2:0,2:0:0:0:
196,0,82407,1,10,2:0:0:0:
191,3,82524,1,8,2:0:0:0:
186,6,82641,2,0,L|172:84,1,69.9999976158143,10|8,2:0|2:0,2:0:0:0:
383,0,82876,5,10,2:0:0:0:
388,3,82993,1,8,2:0:0:0:
393,6,83110,1,8,2:0:0:0:
398,9,83227,1,8,2:0:0:0:
403,12,83344,2,0,L|415:80,1,69.9999976158143,10|8,2:0|2:0,2:0:0:0:
500,223,83579,2,0,L|512:154,3,69.9999976158143,10|8|8|8,2:0|2:0|2:0|2:0,2:0:0:0:
512,355,84047,6,0,B|478:362|478:362|448:342,1,69.9999976158143,10|8,2:0|2:0,2:0:0:0:
346,384,84282,2,0,B|322:358|322:358|324:322,1,69.9999976158143,10|8,2:0|2:0,2:0:0:0:
237,254,84516,2,0,B|247:220|247:220|279:203,1,69.9999976158143,10|8,2:0|2:0,2:0:0:0:
191,368,84751,5,10,2:0:0:0:
188,373,84868,1,8,2:0:0:0:
185,378,84985,2,0,B|151:385|151:385|121:365,1,69.9999976158143,10|8,2:0|2:0,2:0:0:0:
140,178,85219,1,10,2:0:0:0:
145,181,85336,1,8,2:0:0:0:
150,184,85454,2,0,B|173:209|173:209|170:245,1,69.9999976158143,10|8,2:0|2:0,2:0:0:0:
6,322,85688,1,10,2:0:0:0:
3,317,85805,1,8,2:0:0:0:
0,312,85922,2,0,B|10:279|10:279|43:263,1,69.9999976158143,10|8,2:0|2:0,2:0:0:0:
313,133,86157,5,10,2:0:0:0:
375,102,86274,1,8,2:0:0:0:
443,116,86391,1,10,2:0:0:0:
483,172,86508,1,8,2:0:0:0:
389,201,86626,5,10,2:0:0:0:
393,207,88032,5,10,2:0:0:0:
0,262,88501,6,0,B|59:227|185:282|89:379|217:408|283:369,1,321.999989032746,6|0,1:2|1:0,2:0:0:0:
475,338,89086,1,0,2:0:0:0:
478,333,89204,2,0,P|444:312|404:312,1,80.4999972581864,2|0,2:0|2:0,2:0:0:0:
126,384,89438,2,0,B|87:323|90:190|183:141|183:141|258:187|232:276,1,402.499986290932,0|0,1:0|2:0,2:0:0:0:
354,369,90141,1,2,2:0:0:0:
351,374,90219,1,2,2:0:0:0:
348,379,90297,1,2,2:0:0:0:
345,384,90376,6,0,P|310:336|316:277,1,120.74999588728,2|0,1:2|2:0,2:0:0:0:
335,218,90610,2,0,P|369:265|363:324,1,120.74999588728,2|0,2:0|2:0,2:0:0:0:
474,301,90844,6,0,P|508:253|502:194,1,120.74999588728,2|0,1:2|2:0,2:0:0:0:
484,135,91079,2,0,P|450:182|456:241,1,120.74999588728,2|0,2:0|2:0,2:0:0:0:
505,375,91313,5,2,1:2:0:0:
499,384,91782,2,0,P|470:356|459:317,1,80.4999972581864,2|0,1:2|2:0,2:0:0:0:
350,200,92016,2,0,P|348:159|368:125,1,80.4999972581864,2|0,2:0|2:0,2:0:0:0:
512,0,92251,6,0,P|420:118|280:63,1,321.999989032746,6|0,1:2|1:0,2:0:0:0:
66,26,92836,1,0,2:0:0:0:
63,21,92954,2,0,P|97:0|137:0,1,80.4999972581864,2|0,2:0|2:0,2:0:0:0:
239,229,93188,2,0,B|261:117|231:-11|231:-11|235:44|190:84,1,321.999989032746,0|0,1:0|1:0,2:0:0:0:
49,212,93891,1,2,2:0:0:0:
44,215,93969,1,2,2:0:0:0:
39,218,94047,1,2,2:0:0:0:
34,221,94126,6,0,L|61:145,1,80.4999972581864,2|0,1:2|2:0,2:0:0:0:
258,312,94360,2,0,L|230:236,1,80.4999972581864,2|0,2:0|2:0,2:0:0:0:
0,277,94594,6,0,L|27:201,1,80.4999972581864,2|0,1:2|2:0,2:0:0:0:
254,368,94829,2,0,L|226:292,1,80.4999972581864,2|0,2:0|2:0,2:0:0:0:
58,384,95063,5,2,1:2:0:0:
56,375,95532,2,0,L|28:367,1,27.9999990463257,2|2,2:0|2:0,2:0:0:0:
0,380,96001,6,0,P|165:358|336:380,1,321.999989032746,14|0,1:2|1:0,2:0:0:0:
507,359,96586,1,0,2:0:0:0:
512,362,96704,2,0,P|436:377|351:365,2,160.999994516373,2|8|0,3:2|1:2|3:0,2:0:0:0:
241,269,97407,2,0,P|280:262|320:264,1,80.4999972581864,0|0,1:0|2:0,2:0:0:0:
497,162,97641,1,2,2:0:0:0:
502,165,97719,1,2,2:0:0:0:
507,168,97797,1,2,2:0:0:0:
512,171,97876,6,0,P|464:206|405:200,1,120.74999588728,10|0,1:2|2:0,2:0:0:0:
346,181,98110,2,0,P|393:147|452:153,1,120.74999588728,2|0,2:0|2:0,2:0:0:0:
422,48,98344,6,0,P|364:64|311:38,1,120.74999588728,2|0,1:2|2:0,2:0:0:0:
262,0,98579,2,0,P|317:-15|371:9,1,120.74999588728,2|0,3:2|2:0,2:0:0:0:
512,71,98813,5,10,1:2:0:0:
176,113,99165,1,0,3:0:0:0:
183,216,99282,2,0,P|170:175|167:129,1,80.4999972581864,2|0,1:2|2:0,2:0:0:0:
296,322,99516,2,0,P|308:281|312:235,1,80.4999972581864,2|0,3:2|2:0,2:0:0:0:
99,384,99751,6,0,P|52:230|41:69,1,321.999989032746,14|0,1:2|1:0,2:0:0:0:
262,0,100336,1,0,2:0:0:0:
267,3,100454,2,0,P|268:92|239:195,2,160.999994516373,2|8|0,3:2|1:2|3:0,2:0:0:0:
461,135,101157,6,0,L|465:111,1,24.499999165535,0|0,1:0|2:0,2:0:0:0:
457,89,101626,6,0,L|476:199,1,80.4999972581864,10|0,1:2|2:0,2:0:0:0:
495,323,101860,1,2,2:0:0:0:
500,326,101977,1,0,3:0:0:0:
414,384,102094,2,0,P|393:349|394:310,1,80.4999972581864,2|0,1:2|2:0,2:0:0:0:
292,262,102329,2,0,P|311:227|346:208,1,80.4999972581864,2|0,3:2|2:0,2:0:0:0:
232,137,102563,2,0,P|299:94|378:100,1,160.999994516373,10|0,1:2|2:0,2:0:0:0:
495,308,102915,5,8,3:2:0:0:
474,193,103032,1,10,1:2:0:0:
294,363,103266,1,2,3:2:0:0:
114,319,103501,6,0,L|169:308,1,55.9999980926514,2|12,2:0|1:2,2:0:0:0:
19,384,104086,1,0,2:0:0:0:
14,381,104204,6,0,P|-6:340|0:296,1,90.9999969005585,2|0,2:0|2:0,2:0:0:0:
98,139,104438,2,0,B|102:81|42:45|42:45|-27:107|-14:225|53:302,1,363.999987602234,0|8,1:0|1:2,2:0:0:0:
249,375,105141,1,2,2:0:0:0:
244,378,105219,1,2,2:0:0:0:
239,381,105297,1,2,2:0:0:0:
234,384,105376,6,0,P|198:327|212:262,1,136.499995350838,2|0,1:2|2:0,2:0:0:0:
314,217,105610,2,0,P|282:275|219:296,1,136.499995350838,2|0,2:0|2:0,2:0:0:0:
282,117,105844,6,0,P|349:114|398:158,1,136.499995350838,10|0,1:2|2:0,2:0:0:0:
386,269,106079,2,0,P|351:212|365:147,1,136.499995350838,2|0,2:0|2:0,2:0:0:0:
455,51,106313,5,2,1:2:0:0:
458,46,106782,2,0,P|417:26|372:31,1,90.9999969005585,10|0,1:2|2:0,2:0:0:0:
288,116,107016,2,0,P|243:121|202:103,1,90.9999969005585,2|0,2:0|2:0,2:0:0:0:
0,17,107251,6,0,B|60:-24|207:29|97:127|239:190|328:113,1,363.999987602234,6|8,1:2|1:2,2:0:0:0:
42,119,107836,1,0,2:0:0:0:
37,122,107954,2,0,P|17:162|22:207,1,90.9999969005585,2|0,2:0|2:0,2:0:0:0:
0,384,108188,2,0,P|177:338|375:365,1,363.999987602234,0|8,1:0|1:2,2:0:0:0:
496,222,108891,1,2,2:0:0:0:
501,225,108969,1,2,2:0:0:0:
507,228,109047,1,2,2:0:0:0:
512,231,109126,6,0,P|469:246|421:241,1,90.9999969005585,2|0,1:2|2:0,2:0:0:0:
366,351,109360,2,0,P|321:342|281:315,1,90.9999969005585,2|0,2:0|2:0,2:0:0:0:
369,138,109594,6,0,P|326:122|278:127,1,90.9999969005585,10|0,1:2|2:0,2:0:0:0:
223,18,109829,2,0,P|178:26|138:53,1,90.9999969005585,2|0,2:0|2:0,2:0:0:0:
168,327,110063,5,2,1:2:0:0:
163,324,110532,2,0,L|167:351,1,27.9999990463257,2|2,1:2|2:0,2:0:0:0:
174,384,111001,6,0,B|225:320|230:192|155:149|155:149|102:187|112:268,1,363.999987602234,14|0,1:2|1:0,2:0:0:0:
78,3,111586,1,0,2:0:0:0:
82,0,111704,2,0,P|114:83|93:170,2,181.999993801117,2|8|0,3:2|1:2|3:0,2:0:0:0:
14,284,112407,2,0,P|-3:242|0:197,1,90.9999969005585,0|0,1:0|2:0,2:0:0:0:
139,84,112641,1,2,2:0:0:0:
142,79,112719,1,2,2:0:0:0:
145,74,112797,1,2,2:0:0:0:
148,69,112876,6,0,P|205:33|270:47,1,136.499995350838,10|0,1:2|2:0,2:0:0:0:
315,149,113110,2,0,P|257:117|236:54,1,136.499995350838,2|0,2:0|2:0,2:0:0:0:
415,117,113344,6,0,P|418:184|374:233,1,136.499995350838,2|0,1:2|2:0,2:0:0:0:
263,221,113579,2,0,P|320:186|385:200,1,136.499995350838,2|0,3:2|2:0,2:0:0:0:
487,273,113813,5,10,1:2:0:0:
175,185,114165,1,0,3:0:0:0:
178,283,114282,2,0,P|157:242|162:198,1,90.9999969005585,2|0,1:2|2:0,2:0:0:0:
342,294,114516,2,0,P|347:338|327:379,1,90.9999969005585,2|0,3:2|2:0,2:0:0:0:
34,332,114751,6,0,P|23:155|147:29,1,363.999987602234,14|0,1:2|1:0,2:0:0:0:
386,136,115336,1,0,2:0:0:0:
389,140,115454,2,0,P|301:157|226:110,2,181.999993801117,2|8|0,3:2|1:2|3:0,2:0:0:0:
512,16,116157,6,0,L|488:11,1,24.499999165535,0|0,1:0|2:0,2:0:0:0:
512,38,116626,6,0,L|367:12,1,146.99999499321,2|0,2:0|2:0,1:0:0:0:
491,46,116860,2,0,L|347:21,1,146.99999499321,2|0,2:0|2:0,1:0:0:0:
245,76,117094,6,0,P|254:145|320:169,1,146.99999499321,2|0,2:0|2:0,1:0:0:0:
222,69,117329,2,0,P|181:100|161:151,1,104.999996423721,2|0,2:0|2:0,1:0:0:0:
219,46,117563,2,0,P|191:52|163:53,1,55.9999980926514,2|0,2:0|2:0,1:0:0:0:
99,294,122251,6,0,L|89:349,2,55.9999980926514,2|2|2,2:0|2:0|2:0,2:0:0:0:
65,114,122954,2,0,P|106:115|138:140,1,83.9999971389771,2|0,2:0|2:0,2:0:0:0:
12,255,123422,2,0,P|34:219|73:204,1,83.9999971389771,2|0,2:0|2:0,2:0:0:0:
275,217,123891,2,0,P|193:214|138:153,1,167.999994277954,2|0,2:0|2:0,2:0:0:0:
141,144,124829,1,0,2:0:0:0:
146,141,125297,1,0,2:0:0:0:
227,20,125532,2,0,P|267:13|303:33,1,83.9999971389771,2|0,2:0|2:0,2:0:0:0:
325,140,126001,6,0,P|318:98|317:56,1,83.9999971389771,2|0,2:0|2:0,2:0:0:0:
445,200,126469,2,0,P|451:158|452:116,1,83.9999971389771,2|0,2:0|2:0,2:0:0:0:
317,245,126938,2,0,P|299:206|287:166,1,83.9999971389771,2|0,2:0|2:0,2:0:0:0:
431,294,127407,1,2,2:0:0:0:
246,314,127641,2,0,P|291:345|345:340,2,111.999996185303,2|0|0,2:0|2:0|2:0,2:0:0:0:
84,384,129047,1,2,2:0:0:0:
4,332,129282,2,0,L|0:304,1,27.9999990463257,2|0,2:0|2:0,2:0:0:0:
82,294,129516,2,0,L|77:266,1,27.9999990463257,2|0,2:0|2:0,2:0:0:0:
152,179,129751,6,0,L|161:234,2,55.9999980926514,2|2|2,2:0|2:0|2:0,2:0:0:0:
117,14,130454,2,0,P|92:47|96:88,1,83.9999971389771,2|0,2:0|2:0,2:0:0:0:
0,124,130922,2,0,P|16:161|54:178,1,83.9999971389771,2|0,2:0|2:0,2:0:0:0:
230,161,131391,2,0,P|183:160|147:168,1,83.9999971389771,2|0,2:0|2:0,2:0:0:0:
331,53,132094,5,2,2:0:0:0:
297,16,132329,1,2,2:0:0:0:
217,10,132563,1,2,2:0:0:0:
402,0,133266,1,2,2:0:0:0:
241,111,133501,6,0,P|288:176|370:184,1,167.999994277954,2|0,2:0|2:0,2:0:0:0:
505,123,134204,1,2,2:0:0:0:
335,94,134438,2,0,P|328:156|336:218,1,125.999995708465,2|0,2:0|2:0,2:0:0:0:
423,261,134907,1,2,2:0:0:0:
431,241,135024,1,2,2:0:0:0:
428,220,135141,1,2,2:0:0:0:
512,331,135376,2,0,P|441:373|361:356,1,167.999994277954,2|0,2:0|2:0,2:0:0:0:
237,261,136079,5,2,2:0:0:0:
154,384,136313,2,0,L|161:342,1,41.9999985694885,2|0,2:0|2:0,2:0:0:0:
59,325,136547,2,0,L|51:283,1,41.9999985694885,2|0,2:0|2:0,2:0:0:0:
134,222,136782,2,0,L|141:180,1,41.9999985694885,2|0,2:0|2:0,2:0:0:0:
9,95,137016,2,0,L|23:177,2,83.9999971389769,2|2|2,2:0|2:0|2:0,2:0:0:0:
209,0,137954,5,2,2:0:0:0:
305,86,138188,2,0,P|306:65|298:45,1,41.9999985694885,2|0,2:0|2:0,2:0:0:0:
353,174,138422,2,0,P|371:164|384:148,1,41.9999985694885,2|0,2:0|2:0,2:0:0:0:
300,259,138657,2,0,P|317:270|338:273,1,41.9999985694885,2|0,2:0|2:0,2:0:0:0:
171,184,138891,2,0,P|207:165|248:170,2,83.9999971389769,2|2|2,2:0|2:0|2:0,2:0:0:0:
259,342,139829,5,2,2:0:0:0:
289,375,140063,1,2,2:0:0:0:
370,383,140297,1,2,2:0:0:0:
444,315,140532,1,2,2:0:0:0:
407,197,140766,1,2,2:0:0:0:
512,24,141001,6,0,P|491:105|496:188,1,167.999994277954,2|0,2:0|2:0,2:0:0:0:
512,360,141704,1,2,2:0:0:0:
324,323,141938,2,0,P|377:291|437:303,1,125.999995708465,2|0,2:0|2:0,2:0:0:0:
251,384,142407,1,2,2:0:0:0:
228,348,142524,1,2,2:0:0:0:
231,306,142641,1,2,2:0:0:0:
267,88,142876,2,0,P|312:155|293:234,1,167.999994277954,2|0,2:0|2:0,2:0:0:0:
150,273,143579,1,2,2:0:0:0:
174,162,143813,6,0,L|215:169,1,41.9999985694885,2|0,2:0|2:0,2:0:0:0:
91,58,144047,2,0,L|132:50,1,41.9999985694885,2|0,2:0|2:0,2:0:0:0:
18,189,144282,2,0,L|59:196,1,41.9999985694885,2|0,2:0|2:0,2:0:0:0:
0,56,144516,2,0,L|82:41,2,83.9999971389769,2|2|2,2:0|2:0|2:0,2:0:0:0:
254,11,145454,1,2,2:0:0:0:
288,108,145688,6,0,P|276:124|258:135,1,41.9999985694885,2|0,2:0|2:0,2:0:0:0:
389,94,145922,2,0,P|410:99|431:95,1,41.9999985694885,2|0,2:0|2:0,2:0:0:0:
298,218,146157,2,0,P|278:226|258:227,1,41.9999985694885,2|0,2:0|2:0,2:0:0:0:
442,192,146391,2,0,P|482:182|511:152,2,83.9999971389769,2|2|2,2:0|2:0|2:0,2:0:0:0:
435,191,147094,1,0,2:0:0:0:
509,285,147329,5,2,2:0:0:0:
502,321,147563,1,2,2:0:0:0:
434,384,147797,1,2,2:0:0:0:
342,317,148032,1,2,2:0:0:0:
223,384,148266,1,2,2:0:0:0:
24,325,148501,6,0,P|73:309|130:312,2,104.999996423722,12|2|8,1:2|2:0|2:0,2:0:0:0:
17,335,149204,1,0,1:0:0:0:
210,384,149438,1,10,2:0:0:0:
235,299,149672,1,2,2:0:0:0:
185,214,149907,1,10,1:2:0:0:
50,205,150141,2,0,P|55:174|54:152,1,52.4999982118608,2|0,2:0|2:0,2:0:0:0:
41,7,150376,2,0,P|32:111|41:215,1,209.999992847443,10|8,1:2|2:0,2:0:0:0:
191,225,151079,5,2,1:2:0:0:
280,259,151313,1,10,2:0:0:0:
359,189,151547,1,2,2:0:0:0:
345,79,151782,1,10,1:2:0:0:
195,34,152016,2,0,P|218:21|244:21,1,52.4999982118608,2|0,2:0|2:0,2:0:0:0:
410,0,152251,6,0,P|348:45|271:37,1,157.499994635582,8|0,1:2|2:0,2:0:0:0:
108,0,152719,1,10,2:0:0:0:
0,84,152954,1,2,1:2:0:0:
28,212,153188,1,10,2:0:0:0:
125,123,153422,1,2,2:0:0:0:
8,73,153657,1,10,1:2:0:0:
36,224,153891,2,0,P|63:236|97:233,1,52.4999982118608,2|0,2:0|2:0,2:0:0:0:
266,218,154126,2,0,P|220:193|169:200,2,104.999996423722,8|2|8,1:2|2:0|2:0,2:0:0:0:
346,347,154829,5,2,1:2:0:0:
392,372,155063,1,10,2:0:0:0:
470,346,155297,1,2,2:0:0:0:
481,253,155532,1,10,1:2:0:0:
413,171,155766,2,0,P|407:145|408:119,1,52.4999982118608,2|0,2:0|2:0,2:0:0:0:
479,0,156001,2,0,P|490:51|487:103,2,104.999996423722,8|2|8,1:2|2:0|2:0,2:0:0:0:
303,120,156704,5,2,1:2:0:0:
231,150,156938,1,10,2:0:0:0:
155,98,157172,1,2,2:0:0:0:
149,0,157407,1,10,1:2:0:0:
310,126,157641,2,0,P|313:151|310:178,1,52.4999982118608,2|0,2:0|2:0,2:0:0:0:
340,333,157876,2,0,P|323:229|333:125,1,209.999992847443,10|8,1:2|2:0,2:0:0:0:
254,0,158579,6,0,L|243:58,1,59.4999979734423,2|0,1:2|2:0,2:0:0:0:
136,194,158813,2,0,L|115:76,2,118.999995946885,10|2|10,2:0|2:0|1:2,2:0:0:0:
279,332,159516,1,2,2:0:0:0:
86,359,159751,6,0,P|51:353|25:330,1,69.9999976158143,10|0,1:2|2:0,2:0:0:0:
207,282,159985,2,0,P|241:287|267:310,1,69.9999976158143,2|0,1:2|2:0,2:0:0:0:
0,327,160219,2,0,P|21:353|54:365,1,69.9999976158143,10|0,1:2|2:0,2:0:0:0:
293,314,160454,2,0,P|271:287|238:275,1,69.9999976158143,2|0,1:2|2:0,2:0:0:0:
512,319,160688,5,10,1:2:0:0:
503,351,160805,1,0,1:0:0:0:
494,384,160922,2,0,L|477:289,1,69.9999976158143,2|0,1:2|1:0,2:0:0:0:
450,93,161157,5,10,1:2:0:0:
407,141,161274,1,0,1:0:0:0:
346,155,161391,1,2,1:2:0:0:
286,138,161508,1,0,1:0:0:0:
223,36,161626,6,0,B|311:132|386:136|427:48|427:48|377:0|283:7|263:102|288:169|343:220|343:220|429:302|356:399|251:407|183:319|240:227,1,951.999967575077,10|0,1:2|2:0,2:0:0:0:
412,316,182251,6,0,P|460:317|499:290,2,97.9999966621398,8|0|2,2:0|2:0|2:0,2:0:0:0:
285,384,182954,2,0,L|265:273,1,97.9999966621398,8|0,2:0|2:0,2:0:0:0:
319,177,183422,1,2,2:0:0:0:
434,225,183657,1,10,2:0:0:0:
431,230,183891,1,2,2:0:0:0:
512,96,184126,6,0,P|416:75|318:78,1,195.99999332428,8|2,2:0|2:0,2:0:0:0:
147,149,184829,2,0,P|194:158|243:157,1,97.9999966621398,8|0,2:0|2:0,2:0:0:0:
316,85,185297,1,2,2:0:0:0:
219,0,185532,1,10,2:0:0:0:
98,57,185766,1,10,2:0:0:0:
101,235,186001,6,0,P|117:141|55:69,1,195.99999332428,8|2,2:0|2:0,2:0:0:0:
11,301,186704,2,0,P|43:336|90:347,1,97.9999966621398,8|0,2:0|2:0,2:0:0:0:
195,283,187172,1,2,2:0:0:0:
311,346,187407,1,10,2:0:0:0:
314,341,187641,1,2,2:0:0:0:
336,191,187876,6,0,P|332:288|352:384,1,195.99999332428,8|2,2:0|2:0,2:0:0:0:
493,205,188579,2,0,P|498:151|493:85,1,97.9999966621398,8|0,2:0|2:0,2:0:0:0:
396,0,189047,1,10,2:0:0:0:
308,104,189282,1,10,2:0:0:0:
195,0,189516,2,0,L|186:48,1,48.9999983310699,10|0,2:0|2:0,2:0:0:0:
130,190,189751,6,0,L|110:79,1,97.9999966621398,8|2,2:0|2:0,2:0:0:0:
11,0,190219,1,2,2:0:0:0:
37,149,190454,1,10,2:0:0:0:
41,146,190688,2,0,L|22:248,1,97.9999966621398,2|2,2:0|2:0,2:0:0:0:
3,384,191157,1,10,2:0:0:0:
0,379,191391,1,2,2:0:0:0:
204,293,191626,6,0,P|210:341|187:384,2,97.9999966621398,10|2|2,2:0|2:0|2:0,2:0:0:0:
134,130,192329,2,0,P|111:172|118:220,1,97.9999966621398,10|0,2:0|2:0,2:0:0:0:
198,289,192797,1,2,2:0:0:0:
272,186,193032,1,10,2:0:0:0:
222,0,193266,2,0,P|213:21|213:48,1,48.9999983310699,10|0,2:0|2:0,2:0:0:0:
283,194,193501,6,0,P|305:151|298:103,1,97.9999966621398,8|2,2:0|2:0,2:0:0:0:
400,18,193969,1,2,2:0:0:0:
459,163,194204,1,10,2:0:0:0:
454,160,194438,2,0,P|431:202|438:250,1,97.9999966621398,2|2,2:0|2:0,2:0:0:0:
512,357,194907,1,10,2:0:0:0:
509,362,195141,1,2,2:0:0:0:
362,320,195376,6,0,L|265:337,1,97.9999966621398,10|2,2:0|2:0,2:0:0:0:
178,384,195844,1,2,2:0:0:0:
81,271,196079,2,0,L|177:288,1,97.9999966621398,10|0,2:0|2:0,2:0:0:0:
314,235,196547,1,8,2:0:0:0:
238,126,196782,1,8,2:0:0:0:
298,8,197016,1,8,2:0:0:0:
415,275,197251,6,0,B|431:218|431:218|397:169,2,118.999995946885,10|8|8,2:0|2:0|2:0,2:0:0:0:
452,14,197954,2,0,B|435:70|435:70|469:119,2,118.999995946885,10|8|8,2:0|2:0|2:0,2:0:0:0:
386,171,198657,1,8,2:0:0:0:
512,288,198891,2,0,L|450:304,1,59.4999979734423,10|0,2:0|2:0,2:0:0:0:
326,384,199126,5,10,2:0:0:0:
200,311,199360,1,10,2:0:0:0:
16,302,199594,5,10,2:0:0:0:
142,229,199829,1,10,2:0:0:0:
350,282,200063,6,0,B|273:238|273:238|304:232,1,118.999995946885,10|8,2:0|2:0,2:0:0:0:
310,222,200532,2,0,L|246:233,1,59.4999979734423,10|0,2:0|2:0,2:0:0:0:
159,130,200766,2,0,L|222:141,1,59.4999979734423,10|0,2:0|2:0,2:0:0:0:
371,47,201001,6,0,B|292:60|292:60|260:38,2,118.999995946885,10|8|8,2:0|2:0|2:0,2:0:0:0:
65,9,201704,2,0,B|144:22|144:22|176:0,2,118.999995946885,10|8|8,2:0|2:0|2:0,2:0:0:0:
0,136,202407,1,8,2:0:0:0:
43,292,202641,2,0,L|55:221,1,59.4999979734423,10|0,2:0|2:0,2:0:0:0:
152,126,202876,5,10,2:0:0:0:
208,222,203110,1,10,2:0:0:0:
212,384,203344,5,10,2:0:0:0:
268,288,203579,1,10,2:0:0:0:
269,99,203813,6,0,B|307:144|307:144|296:203,1,118.999995946885,10|8,2:0|2:0,2:0:0:0:
289,208,204282,1,10,2:0:0:0:
409,228,204516,1,10,2:0:0:0:
488,79,204751,5,10,2:0:0:0:
491,74,204868,1,8,2:0:0:0:
494,69,204985,1,8,2:0:0:0:
497,64,205102,1,8,2:0:0:0:
500,59,205219,2,0,L|512:127,1,69.9999976158143,8|8,2:0|2:0,2:0:0:0:
512,305,205454,5,10,2:0:0:0:
497,344,205571,1,8,2:0:0:0:
467,373,205688,1,8,2:0:0:0:
426,384,205805,1,8,2:0:0:0:
385,374,205922,1,8,2:0:0:0:
353,347,206040,1,8,2:0:0:0:
337,308,206157,1,8,2:0:0:0:
341,266,206274,1,8,2:0:0:0:
365,231,206391,1,8,2:0:0:0:
401,211,206508,1,8,2:0:0:0:
443,210,206626,6,0,L|430:278,1,69.9999976158143,10|8,2:0|2:0,2:0:0:0:
263,384,206860,2,0,L|250:316,1,69.9999976158143,10|8,2:0|2:0,2:0:0:0:
430,203,207094,2,0,L|417:271,1,69.9999976158143,10|8,2:0|2:0,2:0:0:0:
250,377,207329,2,0,L|237:309,1,69.9999976158143,10|8,2:0|2:0,2:0:0:0:
307,98,207563,2,0,L|293:176,3,69.9999976158143,10|8|8|8,2:0|2:0|2:0|2:0,2:0:0:0:
219,299,208032,2,0,L|206:230,1,69.9999976158143,10|8,2:0|2:0,2:0:0:0:
139,75,208266,2,0,L|126:143,1,69.9999976158143,10|8,2:0|2:0,2:0:0:0:
148,353,208501,6,0,L|165:388,7,34.9999988079071,10|8|8|8|8|8|8|8,2:0|2:0|2:0|2:0|2:0|2:0|2:0|2:0,2:0:0:0:
44,335,208969,2,0,L|14:362,7,34.9999988079071,10|8|8|8|8|8|8|8,2:0|2:0|2:0|2:0|2:0|2:0|2:0|2:0,2:0:0:0:
198,261,209438,6,0,L|237:254,3,34.9999988079071,10|8|8|8,2:0|2:0|2:0|2:0,2:0:0:0:
30,231,209672,2,0,L|-6:211,3,34.9999988079071,10|8|8|8,2:0|2:0|2:0|2:0,2:0:0:0:
120,205,209907,5,10,2:0:0:0:
121,200,209965,1,8,2:0:0:0:
122,195,210024,1,8,2:0:0:0:
123,190,210083,1,8,2:0:0:0:
124,185,210141,2,0,L|131:144,3,34.9999988079071,10|8|8|8,2:0|2:0|2:0|2:0,2:0:0:0:
133,137,210376,5,0,1:2:0:0:
154,15,210610,1,0,3:0:0:0:
237,179,210844,1,0,1:0:0:0:
258,57,211079,1,0,3:0:0:0:
366,108,211313,5,0,1:0:0:0:
380,27,211430,1,0,3:0:0:0:
348,192,211665,5,0,3:0:0:0:
361,111,211782,1,8,3:2:0:0:
335,273,212016,5,0,1:0:0:0:
0,253,212251,6,0,B|78:222|181:272|121:388|253:423|336:357,1,363.999987602234,6|8,1:2|1:2,2:0:0:0:
512,379,212836,1,0,2:0:0:0:
507,384,212954,2,0,P|491:343|493:294,1,90.9999969005585,2|0,2:0|2:0,2:0:0:0:
476,54,213188,2,0,B|552:117|549:257|492:297|492:297|443:279|438:221,1,363.999987602234,0|8,1:0|1:2,2:0:0:0:
310,47,213891,1,2,2:0:0:0:
313,42,213969,1,2,2:0:0:0:
316,37,214047,1,2,2:0:0:0:
319,32,214126,6,0,P|368:77|371:144,1,136.499995350838,2|0,1:2|2:0,2:0:0:0:
284,214,214360,2,0,P|299:149|355:113,1,136.499995350838,2|0,2:0|2:0,2:0:0:0:
339,299,214594,6,0,P|275:319|216:289,1,136.499995350838,10|0,1:2|2:0,2:0:0:0:
199,179,214829,2,0,P|247:224|250:291,1,136.499995350838,2|0,2:0|2:0,2:0:0:0:
122,283,215063,5,2,1:2:0:0:
114,281,215532,6,0,L|110:260,1,20.9999992847442,2|0,2:0|2:0,1:0:0:0:
107,290,215649,6,0,L|100:255,1,34.9999988079071,2|0,2:0|2:0,1:0:0:0:
101,299,215766,6,0,L|92:250,1,48.99999833107,2|0,2:0|2:0,1:0:0:0:
94,308,215883,6,0,L|81:237,1,62.9999978542328,2|0,2:0|2:0,1:0:0:0:
63,163,216001,6,0,P|21:306|165:263,1,363.999987602234,6|8,1:2|1:2,2:0:0:0:
129,44,216586,1,0,2:0:0:0:
132,39,216704,2,0,P|156:76|153:121,1,90.9999969005585,2|0,2:0|2:0,2:0:0:0:
82,246,216938,2,0,B|160:277|263:227|203:111|335:76|418:142,1,363.999987602234,0|8,1:0|1:2,2:0:0:0:
469,353,217641,1,2,2:0:0:0:
472,358,217719,1,2,2:0:0:0:
475,363,217797,1,2,2:0:0:0:
478,368,217876,6,0,P|502:330|499:285,1,90.9999969005585,2|0,1:2|2:0,2:0:0:0:
360,289,218110,2,0,P|335:251|338:206,1,90.9999969005585,2|0,2:0|2:0,2:0:0:0:
491,160,218344,6,0,P|515:122|512:77,1,90.9999969005585,10|0,1:2|2:0,2:0:0:0:
373,81,218579,2,0,P|348:43|351:-2,1,90.9999969005585,2|0,2:0|2:0,2:0:0:0:
143,131,218813,5,2,1:2:0:0:
140,136,219282,2,0,L|145:104,1,27.9999990463257,2|2,2:0|2:0,2:0:0:0:
132,98,219751,6,0,B|187:171|185:277|113:338|113:338|46:298|69:229,1,363.999987602234,14|0,1:2|1:0,2:0:0:0:
55,44,220336,1,0,2:0:0:0:
50,41,220454,2,0,P|79:7|123:0,1,90.9999969005585,2|0,3:2|2:0,2:0:0:0:
372,0,220688,2,0,P|302:55|215:41,2,181.999993801117,8|0|0,1:2|3:0|1:0,2:0:0:0:
503,231,221391,1,2,2:0:0:0:
506,236,221469,1,2,2:0:0:0:
509,241,221547,1,2,2:0:0:0:
512,246,221626,6,0,P|467:295|400:298,1,136.499995350838,10|0,1:2|2:0,2:0:0:0:
330,211,221860,2,0,P|395:226|431:282,1,136.499995350838,2|0,2:0|2:0,2:0:0:0:
245,266,222094,6,0,P|225:202|255:143,1,136.499995350838,2|0,1:2|2:0,2:0:0:0:
365,126,222329,2,0,P|320:174|253:177,1,136.499995350838,2|0,3:2|2:0,2:0:0:0:
175,76,222563,5,10,1:2:0:0:
207,355,222915,1,0,3:0:0:0:
306,347,223032,2,0,P|270:374|226:368,1,90.9999969005585,2|0,1:2|2:0,2:0:0:0:
84,201,223266,2,0,P|125:217|141:258,1,90.9999969005585,2|0,3:2|2:0,2:0:0:0:
0,384,223501,6,0,B|-46:314|-19:203|106:237|113:101|31:33,1,363.999987602234,14|0,1:2|1:0,2:0:0:0:
267,3,224086,1,0,2:0:0:0:
262,0,224204,2,0,P|215:75|232:162,2,181.999993801117,2|8|0,3:2|1:2|3:0,2:0:0:0:
484,8,224907,6,0,L|460:3,1,24.499999165535,0|0,1:0|2:0,2:0:0:0:
512,0,225376,6,0,L|422:15,1,90.9999969005585,10|0,1:2|2:0,2:0:0:0:
245,164,225610,1,2,2:0:0:0:
242,169,225727,1,0,3:0:0:0:
301,80,225844,2,0,P|333:110|343:154,1,90.9999969005585,2|0,1:2|2:0,2:0:0:0:
444,160,226079,2,0,P|433:203|400:234,1,90.9999969005585,2|0,3:2|2:0,2:0:0:0:
495,296,226313,2,0,P|420:344|332:320,1,181.999993801117,2|0,1:2|2:0,2:0:0:0:
239,174,226665,5,8,3:2:0:0:
216,300,226782,1,8,3:2:0:0:
142,92,227016,1,0,1:0:0:0:
265,0,227251,6,0,L|255:55,1,55.9999980926514,2|4,2:0|1:2,2:0:0:0:
66,26,227836,1,0,2:0:0:0:
63,21,227954,6,0,P|35:62|38:112,1,101.499996542931,2|0,3:2|2:0,2:0:0:0:
72,368,228188,2,0,B|121:289|115:160|39:111|39:111|-27:163|0:251,1,405.999986171723,8|0,1:2|1:0,2:0:0:0:
216,306,228891,1,2,2:0:0:0:
213,311,228969,1,2,2:0:0:0:
210,316,229047,1,2,2:0:0:0:
207,321,229126,6,0,P|270:359|343:344,1,152.249994814396,10|0,1:2|2:0,2:0:0:0:
435,384,229360,2,0,P|436:309|387:254,1,152.249994814396,2|0,2:0|2:0,2:0:0:0:
375,155,229594,6,0,P|309:190|286:261,1,152.249994814396,2|0,1:2|2:0,2:0:0:0:
471,192,229829,2,0,P|472:117|423:62,1,152.249994814396,2|0,3:2|2:0,2:0:0:0:
259,0,230063,5,10,1:2:0:0:
45,25,230415,1,0,3:0:0:0:
66,145,230532,2,0,L|48:45,1,101.499996542931,2|0,1:2|2:0,2:0:0:0:
203,200,230766,2,0,L|220:100,1,101.499996542931,2|0,3:2|2:0,2:0:0:0:
1,345,231001,6,0,B|96:383|229:314|126:195|276:152|364:218,1,405.999986171723,14|0,1:2|1:0,2:0:0:0:
316,381,231586,1,0,2:0:0:0:
311,384,231704,2,0,P|283:342|286:292,1,101.499996542931,2|0,3:2|2:0,2:0:0:0:
418,116,231938,2,0,P|457:205|415:294,2,202.999993085861,8|0|0,1:2|3:0|1:0,2:0:0:0:
187,0,232641,1,2,2:0:0:0:
184,5,232719,1,2,2:0:0:0:
181,10,232797,1,2,2:0:0:0:
177,15,232876,6,0,P|214:47|264:46,1,101.499996542931,10|0,1:2|2:0,2:0:0:0:
235,172,233110,2,0,P|283:181|326:155,1,101.499996542931,2|0,2:0|3:0,2:0:0:0:
149,384,233344,6,0,P|111:351|61:352,1,101.499996542931,2|0,1:2|2:0,2:0:0:0:
91,227,233579,2,0,P|42:217|0:243,1,101.499996542931,2|0,3:2|2:0,2:0:0:0:
314,384,233813,5,2,1:2:0:0:
388,194,234165,1,0,3:0:0:0:
270,214,234282,2,0,L|369:196,1,101.499996542931,8|0,3:2|2:0,2:0:0:0:
512,321,234516,2,0,L|412:303,1,101.499996542931,0|0,1:0|2:0,2:0:0:0:
148,308,234751,6,0,B|58:207|148:76|255:93|255:93|187:109|188:187,1,405.999986171723,6|8,1:2|1:2,2:0:0:0:
463,53,235336,1,0,2:0:0:0:
466,48,235454,2,0,P|426:19|377:24,1,101.499996542931,2|0,2:0|2:0,2:0:0:0:
92,18,235688,2,0,P|156:92|254:93,2,202.999993085861,0|0|8,1:0|3:0|1:2,2:0:0:0:
9,205,236391,1,2,2:0:0:0:
6,210,236469,1,2,2:0:0:0:
3,215,236547,1,2,2:0:0:0:
0,220,236626,6,0,P|51:273|126:277,1,152.249994814396,2|0,1:2|2:0,2:0:0:0:
116,384,236860,2,0,P|188:365|228:303,1,152.249994814396,2|0,2:0|2:0,2:0:0:0:
313,121,237094,6,0,P|240:139|200:201,1,152.249994814396,10|0,1:2|2:0,2:0:0:0:
316,365,237329,2,0,P|336:293|302:227,1,152.249994814396,2|0,2:0|2:0,2:0:0:0:
96,175,237563,5,2,1:2:0:0:
266,35,237915,1,0,3:0:0:0:
382,50,238032,2,0,P|340:22|288:25,1,101.499996542931,10|0,1:2|2:0,2:0:0:0:
445,200,238266,2,0,P|489:178|512:134,1,101.499996542931,2|0,2:0|2:0,2:0:0:0:
483,376,238501,6,0,B|388:414|255:345|358:226|208:183|120:249,1,405.999986171723,6|8,1:2|1:2,2:0:0:0:
3,132,239086,1,0,2:0:0:0:
0,137,239204,2,0,P|77:197|175:183,2,202.999993085861,2|0|0,2:0|1:0|2:0,2:0:0:0:
301,117,239907,5,10,1:2:0:0:
298,122,239965,1,2,2:0:0:0:
295,127,240024,2,0,L|253:119,5,41.9999985694886,2|2|2|2|2|2,2:0|2:0|2:0|2:0|2:0|2:0,2:0:0:0:
222,113,240376,5,2,1:2:0:0:
367,43,240610,5,0,1:0:0:0:
288,29,240727,1,0,3:0:0:0:
512,181,241079,5,0,3:0:0:0:
322,214,241313,1,0,1:0:0:0:
476,354,241665,5,8,3:2:0:0:
343,331,241782,1,8,3:2:0:0:
509,176,242016,5,0,3:0:0:0:
75,252,242251,1,4,1:2:0:0:
256,192,242368,12,0,246001,2:0:0:0:
322,82,247692,6,0,P|346:81|367:69,2,48.9999983310699,0|0|0,2:0|2:0|2:0,2:0:0:0:
244,0,248418,2,0,L|147:17,1,97.9999966621398,2|0,2:0|2:0,2:0:0:0:
57,33,249143,1,2,2:0:0:0:
29,184,249627,2,0,P|18:162|15:137,1,48.9999983310699,0|0,2:0|2:0,2:0:0:0:
19,122,250111,1,0,2:0:0:0:
135,183,250353,6,0,P|127:230|95:267,1,97.9999966621398,2|0,2:0|2:0,2:0:0:0:
0,296,251079,1,2,2:0:0:0:
96,384,251563,2,0,L|144:375,1,48.9999983310699,0|0,2:0|2:0,2:0:0:0:
161,374,252047,1,0,2:0:0:0:
269,292,252288,6,0,P|248:335|252:384,1,97.9999966621398,2|0,2:0|2:0,2:0:0:0:
340,352,253014,1,2,2:0:0:0:
503,293,253619,2,0,L|512:245,2,48.9999983310699,0|0|0,2:0|2:0|2:0,2:0:0:0:
509,223,254224,5,2,2:0:0:0:
512,218,254466,1,2,2:0:0:0:
478,132,254708,1,2,2:0:0:0:
390,158,254950,1,2,2:0:0:0:
276,60,255434,5,2,2:0:0:0:
348,1,255676,1,2,2:0:0:0:
411,68,255918,1,2,2:0:0:0:
293,152,256159,6,0,P|268:154|245:147,2,48.9999983310699,2|0|0,2:0|2:0|2:0,2:0:0:0:
172,207,256885,2,0,P|157:187|151:163,2,48.9999983310699,2|0|0,2:0|2:0|2:0,2:0:0:0:
63,129,257611,2,0,P|72:106|90:89,1,48.9999983310699,0|0,2:0|2:0,2:0:0:0:
164,29,258095,6,0,P|178:48|184:72,2,48.9999983310699,2|0|0,2:0|2:0|2:0,2:0:0:0:
74,87,258821,2,0,P|50:113|41:160,1,81.6666613928479,2|0,2:0|2:0,2:0:0:0:
104,248,259385,2,0,L|68:252,2,32.6666645571392,0|0|0,2:0|2:0|2:0,2:0:0:0:
83,346,259869,1,0,2:0:0:0:
86,351,260030,6,0,L|134:359,2,48.9999983310699,2|0|0,2:0|2:0|2:0,2:0:0:0:
190,277,260756,2,0,L|238:268,2,48.9999983310699,2|0|0,2:0|2:0|2:0,2:0:0:0:
254,362,261482,2,0,L|302:370,1,48.9999983310699,0|0,2:0|2:0,2:0:0:0:
401,384,261966,5,2,2:0:0:0:
398,379,262208,1,2,2:0:0:0:
357,292,262450,1,2,2:0:0:0:
427,226,262692,1,2,2:0:0:0:
511,272,262934,1,2,2:0:0:0:
506,280,263418,1,2,2:0:0:0:
422,234,263659,1,2,2:0:0:0:
484,146,263901,6,0,P|441:123|393:130,1,97.9999966621398,2|0,2:0|2:0,2:0:0:0:
322,200,264627,1,2,2:0:0:0:
322,62,265111,2,0,P|306:79|299:103,1,48.9999983310699,0|0,2:0|2:0,2:0:0:0:
300,117,265595,1,0,2:0:0:0:
172,167,265837,6,0,L|189:263,1,97.9999966621398,2|0,2:0|2:0,2:0:0:0:
204,351,266563,1,2,2:0:0:0:
82,286,267047,2,0,L|70:349,1,48.9999983310699,0|0,2:0|2:0,2:0:0:0:
71,350,267530,1,0,2:0:0:0:
0,235,267772,6,0,P|33:199|80:188,1,97.9999966621398,2|0,2:0|2:0,2:0:0:0:
160,232,268498,1,2,2:0:0:0:
123,79,269103,2,0,P|120:54|129:31,2,48.9999983310699,0|0|0,2:0|2:0|2:0,2:0:0:0:
140,5,269708,5,2,2:0:0:0:
143,0,269950,1,2,2:0:0:0:
214,68,270192,1,2,2:0:0:0:
305,25,270434,1,2,2:0:0:0:
462,135,270918,5,2,2:0:0:0:
370,180,271159,1,2,2:0:0:0:
293,115,271401,1,2,2:0:0:0:
288,259,271643,6,0,L|280:211,2,48.9999983310699,2|0|0,2:0|2:0|2:0,2:0:0:0:
361,336,272369,2,0,L|352:384,2,48.9999983310699,2|0|0,2:0|2:0|2:0,2:0:0:0:
451,270,273095,2,0,L|442:221,1,48.9999983310699,0|0,2:0|2:0,2:0:0:0:
376,126,273579,6,0,L|367:174,2,48.9999983310699,2|0|0,2:0|2:0|2:0,2:0:0:0:
453,228,274305,2,0,L|468:318,1,81.6666613928479,2|0,2:0|2:0,2:0:0:0:
364,352,274869,2,0,L|358:384,2,32.6666645571392
293,262,275353,1,0,2:0:0:0:
290,257,275514,6,0,P|265:254|243:264,2,48.9999983310699,2|0|0,2:0|2:0|2:0,2:0:0:0:
265,384,276240,2,0,P|279:364|281:340,2,48.9999983310699,2|0|0,2:0|2:0|2:0,2:0:0:0:
167,298,276966,2,0,P|177:320|196:334,1,48.9999983310699,0|0,2:0|2:0,2:0:0:0:
174,209,277450,1,2,2:0:0:0:
171,204,277692,1,2,2:0:0:0:
85,250,277934,1,2,2:0:0:0:
91,347,278176,1,2,2:0:0:0:
0,384,278418,1,2,2:0:0:0:
