osu file format v14

[General]
AudioFilename: audio.mp3
AudioLeadIn: 0
PreviewTime: 57563
Countdown: 0
SampleSet: Soft
StackLeniency: 0.7
Mode: 0
LetterboxInBreaks: 0
WidescreenStoryboard: 1

[Editor]
Bookmarks: 13501,28501,43501,58501,73501,88501,103501,118501,133501,148501,167251,182251,197251,212251,227251,242251,263902
DistanceSpacing: 1.1
BeatDivisor: 4
GridSize: 8
TimelineZoom: 2.2

[Metadata]
Title:Addict
TitleUnicode:Addict
Artist:Silva Hound feat. Michael Kovach and Chi-Chi
ArtistUnicode:Silva Hound feat. Michael Kovach and Chi-Chi
Creator:Night Mare
Version:Hard
Source:HAZBIN HOTEL
Tags:luna im i'm addicted edm electronic dance music english VivziePop Vivienne Medrano Vivianne Helluva Boss AngelDust AngleDust Anthony Cherri Bomb nightmare chichi cherry animation happy
BeatmapID:2889300
BeatmapSetID:1396522

[Difficulty]
HPDrainRate:5
CircleSize:3.5
OverallDifficulty:6
ApproachRate:8
SliderMultiplier:1.79999990463257
SliderTickRate:1

[Events]
//Background and Video events
0,0,"image.jpg",0,0
//Break Periods
2,58501,72563
2,118501,121313
2,167251,181313
2,242451,246942
//Storyboard Layer 0 (Background)
//Storyboard Layer 1 (Fail)
//Storyboard Layer 2 (Pass)
//Storyboard Layer 3 (Foreground)
//Storyboard Layer 4 (Overlay)
//Storyboard Sound Samples

[TimingPoints]
4126,468.75,4,2,1,30,1,0
13501,-125,4,2,1,50,0,0
28501,-111.111111111111,4,2,1,60,0,0
43501,-105.263157894737,4,2,1,70,0,0
53579,-105.263157894737,4,2,1,75,0,0
55219,-100,4,2,1,75,0,0
55688,-100,4,2,1,85,0,0
56508,-100,4,2,2,85,0,0
57562,-100,4,2,2,5,0,0
73501,-100,4,2,2,75,0,0
84516,-100,4,2,2,80,0,0
85219,-100,4,2,2,85,0,0
85688,-100,4,2,2,90,0,0
86157,-100,4,2,2,95,0,0
86626,-100,4,2,2,80,0,0
88032,-100,4,2,3,80,0,0
88501,-90.9090909090909,4,2,3,85,0,1
90551,-90.9090909090909,4,2,1,85,0,1
91313,-90.9090909090909,4,2,1,85,0,0
92251,-90.9090909090909,4,2,2,85,0,1
95532,-90.9090909090909,4,2,2,85,0,0
96001,-90.9090909090909,4,2,4,85,0,1
96059,-90.9090909090909,4,2,3,85,0,1
99751,-90.9090909090909,4,2,4,85,0,1
99809,-90.9090909090909,4,2,3,85,0,1
101157,-90.9090909090909,4,2,3,85,0,0
101626,-90.9090909090909,4,2,3,85,0,1
103501,-90.9090909090909,4,2,3,90,0,0
103969,-90.9090909090909,4,2,3,90,0,1
104438,-86.9565217391304,4,2,3,90,0,1
107251,-86.9565217391304,4,2,4,90,0,1
107309,-86.9565217391304,4,2,3,90,0,1
110532,-86.9565217391304,4,2,3,90,0,0
111001,-86.9565217391304,4,2,4,90,0,1
111059,-86.9565217391304,4,2,3,90,0,1
114751,-86.9565217391304,4,2,4,90,0,1
114809,-86.9565217391304,4,2,3,90,0,1
116157,-86.9565217391304,4,2,3,90,0,0
116626,-86.9565217391304,4,2,3,90,0,1
117329,-86.9565217391304,4,2,3,80,0,1
117563,-86.9565217391304,4,2,3,70,0,1
118032,-86.9565217391304,4,2,3,50,0,0
122251,-125,4,2,1,50,0,0
133501,-111.111111111111,4,2,1,55,0,0
141001,-111.111111111111,4,2,1,60,0,0
148501,-105.263157894737,4,2,5,70,0,0
158579,-105.263157894737,4,2,5,75,0,0
160219,-100,4,2,5,75,0,0
160688,-100,4,2,5,85,0,0
161508,-100,4,2,2,85,0,0
163500,-100,4,2,2,40,0,0
182251,-105.263157894737,4,2,2,65,0,0
197251,-100,4,2,2,75,0,0
204751,-95.2380952380952,4,2,2,75,0,0
208501,-95.2380952380952,4,2,2,85,0,0
210376,-95.2380952380952,4,2,2,60,0,0
212251,-86.9565217391304,4,2,3,90,0,1
215532,-125,4,2,3,20,0,0
215649,-125,4,2,3,40,0,0
215766,-125,4,2,3,60,0,0
215883,-125,4,2,3,80,0,0
216001,-86.9565217391304,4,2,4,90,0,1
216059,-86.9565217391304,4,2,3,90,0,1
219282,-86.9565217391304,4,2,3,90,0,0
219751,-86.9565217391304,4,2,4,90,0,1
219809,-86.9565217391304,4,2,3,90,0,1
223501,-86.9565217391304,4,2,4,90,0,1
223559,-86.9565217391304,4,2,3,90,0,1
224907,-86.9565217391304,4,2,3,90,0,0
225376,-86.9565217391304,4,2,3,90,0,1
227251,-86.9565217391304,4,2,3,90,0,0
227719,-86.9565217391304,4,2,3,95,0,1
228188,-83.3333333333333,4,2,3,95,0,1
231001,-83.3333333333333,4,2,4,95,0,1
231059,-83.3333333333333,4,2,3,95,0,1
234751,-83.3333333333333,4,2,4,95,0,1
234809,-83.3333333333333,4,2,3,95,0,1
238501,-83.3333333333333,4,2,4,95,0,1
238559,-83.3333333333333,4,2,3,95,0,1
240376,-83.3333333333333,4,2,3,70,0,0
240727,-100,4,2,3,70,0,0
241665,-100,4,2,3,80,0,0
242251,-100,4,2,1,80,0,0
247451,967.741935483871,4,2,1,80,1,0
247692,-100,4,2,1,40,0,0
247934,-71.4285714285714,4,2,1,40,0,0
248418,967.741935483871,4,2,1,40,1,0
248418,-71.4285714285714,4,2,1,40,0,0

[Colours]
Combo1 : 242,24,57
Combo2 : 255,128,128
Combo3 : 255,128,192

[HitObjects]
80,88,13501,6,0,P|116:148|103:217,1,143.999992370606,2|2,2:0|2:0,2:0:0:0:
17,332,14438,2,0,P|44:354|79:360,1,71.9999961853028,2|0,2:0|2:0,2:0:0:0:
147,305,14907,1,2,2:0:0:0:
150,300,15141,2,0,P|221:301|291:317,1,143.999992370606,0|0,2:0|2:0,2:0:0:0:
358,378,15844,1,0,2:0:0:0:
361,383,16079,1,0,2:0:0:0:
336,244,16547,1,0,2:0:0:0:
414,199,16782,5,2,2:0:0:0:
417,204,17016,1,2,2:0:0:0:
442,121,17251,2,0,L|512:133,2,71.9999961853028,2|2|2,2:0|2:0|2:0,2:0:0:0:
388,50,17954,2,0,P|352:52|323:73,1,71.9999961853028,2|0,2:0|2:0,2:0:0:0:
257,28,18422,2,0,P|241:60|244:95,1,71.9999961853028,2|0,2:0|2:0,2:0:0:0:
264,173,18891,2,0,B|211:194|159:157|190:113|118:81|60:117,1,215.999988555908,2|0,2:0|2:0,2:0:0:0:
12,165,19829,1,0,2:0:0:0:
17,177,20297,1,0,2:0:0:0:
16,189,20766,1,0,2:0:0:0:
106,187,21001,5,2,2:0:0:0:
21,303,21469,2,0,L|99:316,1,71.9999961853028,2|2,2:0|2:0,2:0:0:0:
139,379,21938,1,2,2:0:0:0:
142,384,22172,2,0,L|220:370,1,71.9999961853028,2|0,2:0|2:0,2:0:0:0:
289,384,22641,2,0,P|247:327|255:257,1,143.999992370606,2|0,2:0|2:0,2:0:0:0:
317,202,23344,1,0,2:0:0:0:
314,207,23579,1,0,2:0:0:0:
227,92,24047,1,0,2:0:0:0:
280,28,24282,5,2,2:0:0:0:
283,33,24516,1,2,2:0:0:0:
364,54,24751,2,0,L|376:-16,2,71.9999961853028,2|2|2,2:0|2:0|2:0,2:0:0:0:
320,120,25454,2,0,P|351:136|386:132,1,71.9999961853028,2|0,2:0|2:0,2:0:0:0:
420,202,25922,2,0,P|449:183|463:150,1,71.9999961853028,2|0,2:0|2:0,2:0:0:0:
487,76,26391,2,0,L|512:217,1,143.999992370606,2|0,2:0|2:0,2:0:0:0:
461,285,27094,2,0,L|473:355,2,71.9999961853028,2|2|2,2:0|2:0|2:0,2:0:0:0:
393,228,27797,2,0,L|405:157,2,71.9999961853028,2|2|2,2:0|2:0|2:0,2:0:0:0:
366,340,28501,6,0,P|287:359|206:358,1,161.999991416931,2|8,2:0|2:0,2:0:0:0:
125,379,29204,1,2,2:0:0:0:
128,384,29438,2,0,P|171:318|153:241,1,161.999991416931,2|10,2:0|2:0,2:0:0:0:
93,183,30141,1,2,2:0:0:0:
149,117,30376,1,2,2:0:0:0:
25,0,30844,1,8,2:0:0:0:
0,81,31079,6,0,P|39:86|74:67,1,80.9999957084657,2|2,2:0|2:0,2:0:0:0:
135,5,31547,2,0,P|174:0|209:18,1,80.9999957084657,2|10,2:0|2:0,2:0:0:0:
258,95,32016,1,2,2:0:0:0:
261,100,32251,1,2,2:0:0:0:
264,105,32485,1,2,2:0:0:0:
159,232,32954,1,2,2:0:0:0:
215,305,33188,6,0,L|200:384,2,80.9999957084657,2|2|10,2:0|2:0|2:0,2:0:0:0:
287,252,33891,1,2,2:0:0:0:
290,247,34126,1,2,2:0:0:0:
293,242,34360,1,2,2:0:0:0:
381,379,34829,1,2,2:0:0:0:
384,384,35063,2,0,P|447:338|455:259,1,161.999991416931,2|10,2:0|2:0,2:0:0:0:
509,189,35766,1,2,2:0:0:0:
512,194,36001,6,0,L|338:163,1,161.999991416931,2|8,2:0|2:0,2:0:0:0:
313,248,36704,1,2,2:0:0:0:
310,253,36938,2,0,P|260:192|271:114,1,161.999991416931,2|10,2:0|2:0,2:0:0:0:
353,80,37641,1,2,2:0:0:0:
319,0,37876,1,2,2:0:0:0:
156,21,38344,1,8,2:0:0:0:
235,0,38579,6,0,P|240:39|221:74,1,80.9999957084657,2|2,2:0|2:0,2:0:0:0:
142,108,39047,2,0,P|137:147|156:182,1,80.9999957084657,2|10,2:0|2:0,2:0:0:0:
234,224,39516,1,2,2:0:0:0:
237,219,39751,1,2,2:0:0:0:
240,214,39985,1,2,2:0:0:0:
335,373,40454,5,2,2:0:0:0:
393,313,40688,2,0,P|416:344|417:384,2,80.9999957084657,2|2|10,2:0|2:0|2:0,2:0:0:0:
316,268,41391,1,2,2:0:0:0:
313,273,41626,1,2,2:0:0:0:
310,278,41860,1,2,2:0:0:0:
82,384,42563,6,0,L|67:304,1,80.9999957084657,2|2,2:0|2:0,2:0:0:0:
53,222,43032,1,10,2:0:0:0:
50,227,43266,1,2,2:0:0:0:
134,141,43501,6,0,B|177:129|227:156|188:197|258:227|306:187,1,170.999990940094,4|8,1:2|2:0,2:0:0:0:
420,316,44438,2,0,P|450:287|459:246,1,85.499995470047,2|2,2:0|2:0,2:0:0:0:
419,160,44907,1,10,1:2:0:0:
416,165,45141,1,2,2:0:0:0:
502,110,45376,2,0,P|432:64|351:83,1,170.999990940094,2|8,1:2|2:0,2:0:0:0:
295,169,46079,2,0,L|309:253,2,85.499995470047,2|2|2,1:2|2:0|2:0,2:0:0:0:
249,85,46782,1,10,1:2:0:0:
140,13,47016,6,0,P|60:36|23:111,1,170.999990940094,2|0,2:0|2:0,2:0:0:0:
127,116,47719,2,0,L|112:200,1,85.499995470047,10|2,2:0|1:2,2:0:0:0:
39,265,48188,1,2,2:0:0:0:
36,260,48422,1,2,2:0:0:0:
76,348,48657,1,10,1:2:0:0:
174,322,48891,2,0,B|217:310|267:337|228:378|298:408|346:368,1,170.999990940094,2|2,2:0|2:0,2:0:0:0:
481,300,49829,6,0,L|495:384,2,85.499995470047,2|2|2,1:2|2:0|2:0,2:0:0:0:
507,217,50532,1,10,1:2:0:0:
512,220,50766,2,0,P|442:266|361:247,1,170.999990940094,2|2,2:0|2:0,2:0:0:0:
357,60,51704,5,2,1:2:0:0:
442,85,51938,2,0,L|427:169,1,85.499995470047,2|2,2:0|2:0,2:0:0:0:
359,240,52407,1,10,1:2:0:0:
362,235,52641,1,2,2:0:0:0:
348,347,52876,2,0,P|273:309|249:229,1,170.999990940094,0|8,1:0|2:0,2:0:0:0:
300,147,53579,1,2,1:2:0:0:
325,54,53813,2,0,P|283:48|245:67,1,85.499995470047,2|2,2:0|2:0,2:0:0:0:
182,0,54282,2,0,P|156:33|153:75,1,85.499995470047,10|2,1:2|2:0,2:0:0:0:
206,151,54751,5,2,1:2:0:0:
111,160,54985,1,2,1:2:0:0:
34,103,55219,2,0,P|14:140|19:189,1,89.9999952316285,10|2,1:2|1:2,2:0:0:0:
94,259,55688,1,2,1:2:0:0:
97,264,55805,1,0,1:0:0:0:
100,269,55922,1,2,1:2:0:0:
83,384,56157,1,10,1:2:0:0:
0,296,56391,2,0,B|83:340|234:261|126:152|344:116|405:195,1,449.999976158143,2|0,1:2|2:0,2:0:0:0:
437,267,73501,6,0,L|453:356,1,89.9999952316285,12|8,2:0|2:0,2:0:0:0:
353,234,73969,2,0,L|368:145,1,89.9999952316285,10|8,2:0|2:0,2:0:0:0:
481,36,74672,1,10,2:0:0:0:
484,31,74907,1,10,2:0:0:0:
421,96,75141,2,0,P|376:101|337:81,2,89.9999952316285,10|8|8,2:0|2:0|2:0,2:0:0:0:
300,0,75844,2,0,P|262:24|245:64,1,89.9999952316285,10|8,2:0|2:0,2:0:0:0:
283,231,76547,5,10,2:0:0:0:
286,226,76782,1,10,2:0:0:0:
338,297,77016,2,0,P|298:317|254:311,1,89.9999952316285,10|8,2:0|2:0,2:0:0:0:
194,244,77485,1,8,2:0:0:0:
189,241,77719,2,0,L|173:329,1,89.9999952316285,10|8,2:0|2:0,2:0:0:0:
3,379,78422,5,10,2:0:0:0:
0,384,78657,1,10,2:0:0:0:
88,355,78891,2,0,L|176:370,2,89.9999952316285,10|8|8,2:0|2:0|2:0,2:0:0:0:
20,294,79594,2,0,P|14:249|35:210,1,89.9999952316285,10|8,2:0|2:0,2:0:0:0:
0,46,80297,2,0,L|88:30,1,89.9999952316285,10|10,2:0|2:0,2:0:0:0:
177,17,80766,1,10,2:0:0:0:
174,125,81001,6,0,P|213:145|257:139,1,89.9999952316285,8|8,2:0|2:0,2:0:0:0:
302,61,81469,1,10,2:0:0:0:
299,56,81704,1,8,2:0:0:0:
390,31,81938,2,0,P|434:25|473:45,1,89.9999952316285,10|8,2:0|2:0,2:0:0:0:
495,166,82407,1,10,2:0:0:0:
512,262,82641,1,10,2:0:0:0:
420,295,82876,1,10,2:0:0:0:
417,300,82993,1,8,2:0:0:0:
414,305,83110,2,0,L|398:216,1,89.9999952316285,10|10,2:0|2:0,2:0:0:0:
418,121,83579,1,10,2:0:0:0:
297,221,84047,6,0,P|257:241|213:235,1,89.9999952316285,10|8,2:0|2:0,2:0:0:0:
108,217,84516,1,10,2:0:0:0:
105,222,84633,1,8,2:0:0:0:
102,227,84751,2,0,L|118:321,1,89.9999952316285,8|8,2:0|2:0,2:0:0:0:
192,382,85219,1,10,2:0:0:0:
264,309,85454,1,8,2:0:0:0:
267,304,85571,1,8,2:0:0:0:
270,299,85688,2,0,P|313:293|353:314,1,89.9999952316285,10|8,2:0|2:0,2:0:0:0:
435,384,86157,5,10,2:0:0:0:
438,379,86274,1,8,2:0:0:0:
441,374,86391,1,8,2:0:0:0:
444,369,86508,1,8,2:0:0:0:
447,364,86626,1,10,2:0:0:0:
393,207,88032,5,10,2:0:0:0:
390,201,88501,6,0,B|347:193|291:216|322:270|266:307|205:274,1,197.999989509583,6|0,1:2|1:0,2:0:0:0:
130,257,89204,1,2,2:0:0:0:
85,344,89438,2,0,P|99:240|86:134,1,197.999989509583,0|0,1:0|2:0,2:0:0:0:
0,0,90376,6,0,P|47:53|109:51,1,98.9999947547913,2|2,1:2|2:0,2:0:0:0:
158,0,90844,1,2,1:2:0:0:
238,68,91079,1,2,2:0:0:0:
325,0,91313,2,0,L|342:97,1,98.9999947547914,2|0,1:2|2:0,2:0:0:0:
357,197,91782,1,2,1:2:0:0:
354,192,92016,1,2,2:0:0:0:
258,243,92251,6,0,P|335:299|427:272,1,197.999989509583,6|0,1:2|1:0,2:0:0:0:
512,205,92954,1,2,2:0:0:0:
476,103,93188,2,0,P|466:201|476:299,1,197.999989509583,0|0,1:0|1:0,2:0:0:0:
310,384,94126,6,0,P|286:341|293:293,1,98.9999947547914,2|2,1:2|2:0,2:0:0:0:
216,231,94594,2,0,P|239:188|232:140,1,98.9999947547914,2|2,1:2|2:0,2:0:0:0:
308,76,95063,1,2,1:2:0:0:
130,5,95532,1,2,2:0:0:0:
132,0,96001,6,0,P|146:97|139:196,1,197.999989509583,14|0,1:2|1:0,2:0:0:0:
80,276,96704,1,2,3:2:0:0:
42,184,96938,1,8,1:2:0:0:
104,107,97172,1,0,3:0:0:0:
201,124,97407,2,0,P|231:162|232:210,1,98.9999947547914,0|2,1:0|2:0,2:0:0:0:
148,309,97876,6,0,P|207:348|271:332,1,98.9999947547913,10|2,1:2|2:0,2:0:0:0:
329,293,98344,1,2,1:2:0:0:
396,384,98579,1,2,3:2:0:0:
496,338,98813,2,0,P|510:265|512:190,1,148.499992132187,10|0,1:2|3:0,2:0:0:0:
498,161,99282,1,2,1:2:0:0:
512,54,99516,1,2,3:2:0:0:
406,4,99751,6,0,B|363:-4|307:19|338:73|282:110|221:77,1,197.999989509583,14|0,1:2|1:0,2:0:0:0:
175,0,100454,1,2,3:2:0:0:
75,44,100688,1,8,1:2:0:0:
119,143,100922,1,0,3:0:0:0:
19,187,101157,1,0,1:0:0:0:
0,356,101626,6,0,L|146:381,1,148.499992132187,10|0,1:2|3:0,2:0:0:0:
174,384,102094,1,2,1:2:0:0:
262,332,102329,1,2,3:2:0:0:
201,237,102563,2,0,P|243:214|291:221,1,98.9999947547914,10|0,1:2|2:0,2:0:0:0:
318,251,102915,5,8,3:2:0:0:
321,256,103032,1,10,1:2:0:0:
372,384,103266,1,2,3:2:0:0:
481,342,103501,1,2,2:0:0:0:
484,347,103969,5,12,1:2:0:0:
422,250,104204,1,2,2:0:0:0:
510,177,104438,2,0,P|536:80|478:0,1,206.999989032746,0|8,1:0|1:2,2:0:0:0:
268,123,105376,6,0,P|304:158|354:162,1,103.499994516373,2|2,1:2|2:0,2:0:0:0:
438,101,105844,1,10,1:2:0:0:
351,59,106079,1,2,2:0:0:0:
263,16,106313,2,0,P|213:22|178:58,1,103.499994516373,2|0,1:2|2:0,2:0:0:0:
96,140,106782,1,10,1:2:0:0:
0,102,107016,1,2,2:0:0:0:
52,5,107251,6,0,P|63:107|50:210,1,206.999989032746,6|8,1:2|1:2,2:0:0:0:
103,323,107954,1,2,2:0:0:0:
6,287,108188,2,0,P|85:221|183:260,1,206.999989032746,0|8,1:0|1:2,2:0:0:0:
343,372,109126,2,0,P|392:382|438:357,1,103.499994516373,2|2,1:2|2:0,2:0:0:0:
276,294,109594,2,0,P|242:331|241:383,1,103.499994516373,10|2,1:2|2:0,2:0:0:0:
376,275,110063,1,2,1:2:0:0:
309,54,110532,1,2,1:2:0:0:
306,49,111001,6,0,P|388:-7|485:17,1,206.999989032746,14|0,1:2|1:0,2:0:0:0:
512,131,111704,1,2,3:2:0:0:
409,114,111938,1,8,1:2:0:0:
446,212,112172,1,0,3:0:0:0:
483,310,112407,2,0,P|432:321|387:298,1,103.499994516373,0|2,1:0|2:0,2:0:0:0:
304,132,112876,6,0,P|252:124|198:129,1,103.499994516373,10|2,1:2|2:0,2:0:0:0:
111,216,113344,1,2,1:2:0:0:
88,125,113579,1,2,3:2:0:0:
165,53,113813,2,0,P|192:96|191:147,1,103.499994516373,10|0,1:2|2:0,2:0:0:0:
180,160,114165,1,0,3:0:0:0:
177,165,114282,1,2,1:2:0:0:
211,275,114516,1,2,3:2:0:0:
252,384,114751,6,0,P|187:307|87:306,1,206.999989032746,14|0,1:2|1:0,2:0:0:0:
0,384,115454,1,2,3:2:0:0:
83,316,115688,1,8,1:2:0:0:
16,217,115922,1,0,3:0:0:0:
81,116,116157,2,0,P|84:65|55:22,1,103.499994516373,0|0,1:0|2:0,2:0:0:0:
142,206,116626,5,2,2:0:0:0:
261,174,116860,1,2,2:0:0:0:
317,284,117094,1,2,2:0:0:0:
436,252,117329,1,2,2:0:0:0:
509,384,117563,2,0,P|422:335|421:236,1,206.999989032746,2|0,2:0|2:0,2:0:0:0:
95,313,122251,6,0,L|82:383,2,71.9999961853028,2|2|2,2:0|2:0|2:0,2:0:0:0:
176,269,122954,2,0,L|163:198,1,71.9999961853028,2|0,2:0|2:0,2:0:0:0:
88,159,123422,2,0,L|100:88,1,71.9999961853028,2|0,2:0|2:0,2:0:0:0:
79,8,123891,2,0,P|147:85|250:69,1,215.999988555908,2|0,2:0|2:0,2:0:0:0:
305,5,124829,1,0,2:0:0:0:
302,0,125297,1,0,2:0:0:0:
386,38,125532,2,0,L|404:148,1,107.999994277954,2|0,2:0|2:0,2:0:0:0:
407,159,126001,6,0,P|423:127|454:109,1,71.9999961853028,2|0,2:0|2:0,2:0:0:0:
340,214,126469,2,0,P|320:183|321:147,1,71.9999961853028,2|0,2:0|2:0,2:0:0:0:
354,299,126938,2,0,P|318:300|286:282,1,71.9999961853028,2|0,2:0|2:0,2:0:0:0:
426,247,127407,1,2,2:0:0:0:
460,327,127641,2,0,P|508:276|503:207,2,143.999992370606,2|0|0,2:0|2:0|2:0,2:0:0:0:
309,384,129047,1,2,2:0:0:0:
249,310,129282,2,0,L|178:322,1,71.9999961853028,2|2,2:0|2:0,2:0:0:0:
99,384,129751,6,0,L|28:371,2,71.9999961853028,2|2|2,2:0|2:0|2:0,2:0:0:0:
76,274,130454,2,0,P|90:241|87:206,1,71.9999961853028,2|0,2:0|2:0,2:0:0:0:
10,164,130922,2,0,P|-4:131|-1:96,1,71.9999961853028,2|0,2:0|2:0,2:0:0:0:
80,68,131391,2,0,P|94:35|91:1,1,71.9999961853028,2|0,2:0|2:0,2:0:0:0:
251,27,132094,2,0,P|249:64|258:106,2,71.9999961853028,2|2|2,2:0|2:0|2:0,2:0:0:0:
275,384,133501,6,0,P|282:303|275:222,1,161.999991416931,2|0,2:0|2:0,2:0:0:0:
220,150,134204,1,2,2:0:0:0:
217,155,134438,2,0,P|282:198|359:180,1,161.999991416931,2|2,2:0|2:0,2:0:0:0:
440,131,135141,1,2,2:0:0:0:
502,201,135376,2,0,L|487:280,1,80.9999957084657,2|0,2:0|2:0,2:0:0:0:
507,63,136079,5,2,2:0:0:0:
448,0,136313,2,0,P|408:-5|373:12,2,80.9999957084657,2|2|2,2:0|2:0|2:0,2:0:0:0:
385,99,137016,1,2,2:0:0:0:
377,102,137251,1,2,2:0:0:0:
366,101,137485,1,2,2:0:0:0:
228,0,137954,5,2,2:0:0:0:
175,73,138188,2,0,P|210:91|249:87,2,80.9999957084657,2|2|2,2:0|2:0|2:0,2:0:0:0:
110,0,138891,1,2,2:0:0:0:
102,1,139126,1,2,2:0:0:0:
94,2,139360,1,2,2:0:0:0:
3,157,139829,1,2,2:0:0:0:
0,162,140063,2,0,P|85:158|171:175,1,161.999991416931,2|2,2:0|2:0,2:0:0:0:
235,123,140766,1,2,2:0:0:0:
230,120,141001,6,0,P|187:185|211:262,1,161.999991416931,2|0,2:0|2:0,2:0:0:0:
114,267,141704,1,2,2:0:0:0:
111,272,141938,2,0,P|146:342|222:359,1,161.999991416931,2|2,2:0|2:0,2:0:0:0:
302,306,142641,1,2,2:0:0:0:
357,384,142876,2,0,L|436:369,1,80.9999957084657,2|0,2:0|2:0,2:0:0:0:
512,193,143579,5,2,2:0:0:0:
457,271,143813,2,0,L|378:256,2,80.9999957084657,2|2|2,2:0|2:0|2:0,2:0:0:0:
346,168,144516,1,2,2:0:0:0:
349,163,144751,1,2,2:0:0:0:
284,236,144985,1,2,2:0:0:0:
444,167,145454,5,2,2:0:0:0:
402,89,145688,2,0,P|366:70|327:74,2,80.9999957084657,2|2|2,2:0|2:0|2:0,2:0:0:0:
490,88,146391,1,2,2:0:0:0:
493,93,146626,1,2,2:0:0:0:
448,9,146860,1,2,2:0:0:0:
274,0,147329,5,2,2:0:0:0:
231,81,147563,2,0,P|236:120|262:150,1,80.9999957084657,2|2,2:0|2:0,2:0:0:0:
351,163,148032,1,2,2:0:0:0:
354,158,148266,1,2,2:0:0:0:
258,243,148501,6,0,B|215:255|165:228|204:187|134:157|86:197,1,170.999990940094,12|8,1:2|2:0,2:0:0:0:
38,347,149438,2,0,L|23:262,1,85.499995470047,10|2,2:0|2:0,2:0:0:0:
3,171,149907,1,10,1:2:0:0:
0,176,150141,1,2,2:0:0:0:
77,119,150376,2,0,P|147:163|229:146,1,170.999990940094,10|8,1:2|2:0,2:0:0:0:
248,40,151079,2,0,P|206:36|168:55,2,85.499995470047,2|10|2,1:2|2:0|2:0,2:0:0:0:
322,106,151782,1,10,1:2:0:0:
374,23,152016,6,0,P|364:108|373:193,1,170.999990940094,2|0,2:0|2:0,2:0:0:0:
472,233,152719,2,0,P|478:283|472:337,1,85.499995470047,10|2,2:0|1:2,2:0:0:0:
393,379,153188,1,10,2:0:0:0:
396,384,153422,1,2,2:0:0:0:
328,310,153657,1,10,1:2:0:0:
255,376,153891,2,0,P|213:383|177:361,2,85.499995470047,2|0|2,2:0|1:0|2:0,2:0:0:0:
248,204,154829,6,0,L|232:290,2,85.499995470047,2|10|2,1:2|2:0|2:0,2:0:0:0:
337,168,155532,1,10,1:2:0:0:
342,171,155766,2,0,L|312:2,1,170.999990940094,2|2,2:0|2:0,2:0:0:0:
130,57,156704,5,2,1:2:0:0:
201,0,156938,2,0,P|221:37|215:82,1,85.499995470047,10|2,2:0|2:0,2:0:0:0:
150,151,157407,1,10,1:2:0:0:
147,146,157641,1,2,2:0:0:0:
63,200,157876,2,0,P|144:181|214:226,1,170.999990940094,10|8,1:2|2:0,2:0:0:0:
250,318,158579,1,2,1:2:0:0:
157,357,158813,2,0,P|131:324|128:282,1,85.499995470047,10|2,2:0|2:0,2:0:0:0:
33,264,159282,2,0,P|48:224|83:201,1,85.499995470047,10|2,1:2|2:0,2:0:0:0:
211,232,159751,5,10,1:2:0:0:
311,228,159985,1,2,1:2:0:0:
354,323,160219,2,0,P|393:343|437:337,1,89.9999952316285,10|2,1:2|1:2,2:0:0:0:
506,268,160688,1,10,1:2:0:0:
509,263,160805,1,0,1:0:0:0:
512,258,160922,1,2,1:2:0:0:
412,226,161157,1,10,1:2:0:0:
511,141,161391,2,0,B|432:160|351:66|411:-15|411:-15|455:57|373:132|373:132|298:199|221:194|135:108|179:-27|308:-34|340:47|282:94,1,809.999957084656,2|0,1:2|2:0,2:0:0:0:
422,129,182251,6,0,P|352:174|271:155,1,170.999990940094,8|2,2:0|2:0,2:0:0:0:
240,72,182954,1,8,2:0:0:0:
136,189,183422,1,2,2:0:0:0:
133,194,183657,1,10,2:0:0:0:
72,114,183891,2,0,L|86:30,2,85.499995470047,2|8|0,2:0|2:0|2:0,2:0:0:0:
0,177,184594,2,0,L|14:261,1,85.499995470047,2|8,2:0|2:0,2:0:0:0:
186,341,185297,5,2,2:0:0:0:
189,346,185532,1,10,2:0:0:0:
87,384,185766,1,10,2:0:0:0:
99,283,186001,2,0,P|169:238|250:257,1,170.999990940094,8|2,2:0|2:0,2:0:0:0:
291,358,186704,1,8,2:0:0:0:
423,277,187172,5,2,2:0:0:0:
493,340,187407,2,0,P|514:303|511:261,1,85.499995470047,10|2,2:0|2:0,2:0:0:0:
494,171,187876,2,0,P|412:189|343:143,1,170.999990940094,8|2,2:0|2:0,2:0:0:0:
373,60,188579,1,8,2:0:0:0:
194,42,189047,1,10,2:0:0:0:
243,112,189282,1,10,2:0:0:0:
196,183,189516,1,10,2:0:0:0:
282,216,189751,6,0,P|260:252|222:271,1,85.499995470047,8|0,2:0|2:0,2:0:0:0:
241,352,190219,2,0,P|198:351|163:328,1,85.499995470047,2|10,2:0|2:0,2:0:0:0:
102,384,190688,2,0,P|81:347|86:303,1,85.499995470047,2|2,2:0|2:0,2:0:0:0:
138,232,191157,1,10,2:0:0:0:
143,235,191391,1,2,2:0:0:0:
39,217,191626,2,0,P|84:146|165:130,1,170.999990940094,10|2,2:0|2:0,2:0:0:0:
235,200,192329,1,10,2:0:0:0:
325,33,192797,1,2,2:0:0:0:
322,38,193032,1,10,2:0:0:0:
403,83,193266,1,10,2:0:0:0:
475,25,193501,6,0,P|496:62|493:104,1,85.499995470047,8|0,2:0|2:0,2:0:0:0:
430,169,193969,2,0,P|409:206|412:248,1,85.499995470047,2|10,2:0|2:0,2:0:0:0:
489,295,194438,2,0,P|510:332|507:374,1,85.499995470047,2|2,2:0|2:0,2:0:0:0:
417,353,194907,1,10,2:0:0:0:
420,358,195141,1,2,2:0:0:0:
339,302,195376,2,0,L|254:316,1,85.499995470047,10|2,2:0|2:0,2:0:0:0:
189,384,195844,1,2,2:0:0:0:
159,289,196079,1,10,2:0:0:0:
44,105,196547,1,8,2:0:0:0:
118,155,196782,1,8,2:0:0:0:
85,240,197016,1,8,2:0:0:0:
0,276,197251,6,0,P|84:267|181:287,1,179.999990463257,10|8,2:0|2:0,2:0:0:0:
266,348,197954,2,0,P|285:308|281:263,1,89.9999952316285,10|8,2:0|2:0,2:0:0:0:
378,218,198422,2,0,P|353:181|312:162,1,89.9999952316285,8|8,2:0|2:0,2:0:0:0:
124,163,199126,2,0,L|139:74,1,89.9999952316285,10|10,2:0|2:0,2:0:0:0:
192,0,199594,1,10,2:0:0:0:
265,58,199829,1,10,2:0:0:0:
354,0,200063,1,10,2:0:0:0:
504,122,200532,1,10,2:0:0:0:
507,127,200766,1,10,2:0:0:0:
429,61,201001,6,0,P|406:145|456:216,1,179.999990463257,10|8,2:0|2:0,2:0:0:0:
512,300,201704,2,0,P|472:319|428:313,1,89.9999952316285,10|8,2:0|2:0,2:0:0:0:
355,384,202172,2,0,P|328:348|326:304,1,89.9999952316285,8|8,2:0|2:0,2:0:0:0:
375,122,202876,2,0,L|286:137,1,89.9999952316285,10|10,2:0|2:0,2:0:0:0:
243,230,203344,2,0,L|154:214,1,89.9999952316285,10|10,2:0|2:0,2:0:0:0:
97,143,203813,1,10,2:0:0:0:
5,307,204282,1,10,2:0:0:0:
0,310,204516,1,10,2:0:0:0:
79,378,204751,6,0,P|103:338|101:291,1,94.49999499321,10|8,2:0|2:0,2:0:0:0:
32,215,205219,1,8,2:0:0:0:
100,138,205454,1,10,2:0:0:0:
103,133,205571,1,8,2:0:0:0:
106,128,205688,2,0,L|89:34,2,94.49999499321,8|8|8,2:0|2:0|2:0,2:0:0:0:
225,0,206391,1,8,2:0:0:0:
228,5,206508,1,8,2:0:0:0:
231,10,206626,6,0,L|214:103,1,94.49999499321,10|10,2:0|2:0,2:0:0:0:
242,207,207094,1,10,2:0:0:0:
354,223,207329,1,10,2:0:0:0:
359,226,207446,1,8,2:0:0:0:
364,229,207563,2,0,P|388:267|387:314,1,94.49999499321,10|8,2:0|2:0,2:0:0:0:
294,384,208032,1,10,2:0:0:0:
291,379,208149,1,8,2:0:0:0:
288,374,208266,1,10,2:0:0:0:
285,369,208383,1,8,2:0:0:0:
282,364,208501,1,10,2:0:0:0:
256,192,208618,12,0,210376,1:2:0:0:
428,151,212251,6,0,B|466:198|450:275|398:301|398:301|371:246,1,206.999989032746,6|8,1:2|1:2,2:0:0:0:
271,250,212954,1,2,2:0:0:0:
229,354,213188,2,0,P|134:383|55:322,1,206.999989032746,0|8,1:0|1:2,2:0:0:0:
155,112,214126,6,0,P|144:162|104:193,1,103.499994516373,2|2,1:2|2:0,2:0:0:0:
0,194,214594,1,10,1:2:0:0:
52,103,214829,1,2,2:0:0:0:
104,12,215063,2,0,P|151:-5|199:10,1,103.499994516373,2|0,1:2|2:0,2:0:0:0:
279,96,215532,6,0,B|276:80|276:80|270:73|270:73|266:49,3,35.9999980926514,2|2|2|2,2:0|2:0|2:0|2:0,2:0:0:0:
287,24,216001,6,0,P|275:140|295:254,1,206.999989032746,6|8,1:2|1:2,2:0:0:0:
306,355,216704,1,2,2:0:0:0:
204,317,216938,2,0,P|281:252|378:275,1,206.999989032746,0|8,1:0|1:2,2:0:0:0:
512,107,217876,6,0,P|473:139|422:140,1,103.499994516373,2|2,1:2|2:0,2:0:0:0:
356,45,218344,2,0,P|317:12|266:11,1,103.499994516373,10|2,1:2|2:0,2:0:0:0:
193,91,218813,1,2,1:2:0:0:
9,5,219282,1,2,2:0:0:0:
12,0,219751,6,0,P|83:69|74:169,1,206.999989032746,14|0,1:2|1:0,2:0:0:0:
6,266,220454,1,2,3:2:0:0:
79,363,220688,1,8,1:2:0:0:
190,323,220922,1,0,3:0:0:0:
189,204,221157,2,0,P|160:245|163:296,1,103.499994516373,0|2,1:0|2:0,2:0:0:0:
274,275,221626,6,0,P|325:274|368:302,1,103.499994516373,10|2,1:2|2:0,2:0:0:0:
450,384,222094,1,2,1:2:0:0:
512,298,222329,1,2,3:2:0:0:
446,205,222563,2,0,P|445:154|473:111,1,103.499994516373,10|0,1:2|2:0,2:0:0:0:
489,109,222915,1,0,3:0:0:0:
494,112,223032,1,2,1:2:0:0:
457,10,223266,1,2,3:2:0:0:
343,93,223501,6,0,B|286:108|237:77|270:28|202:-1|154:19,1,206.999989032746,14|0,1:2|1:0,2:0:0:0:
49,40,224204,1,2,3:2:0:0:
90,145,224438,1,8,1:2:0:0:
3,232,224672,1,0,3:0:0:0:
44,337,224907,1,0,1:0:0:0:
238,384,225376,6,0,P|245:306|232:230,1,155.249991774559,10|0,1:2|3:0,2:0:0:0:
208,219,225844,1,2,1:2:0:0:
302,116,226079,1,2,3:2:0:0:
195,16,226313,2,0,P|238:-9|292:0,1,103.499994516373,10|0,1:2|2:0,2:0:0:0:
302,12,226665,1,8,3:2:0:0:
305,17,226782,1,8,3:2:0:0:
397,68,227016,1,0,1:0:0:0:
478,0,227251,1,2,2:0:0:0:
481,5,227719,5,4,1:2:0:0:
512,119,227954,1,2,3:2:0:0:
407,175,228188,2,0,P|375:274|438:356,1,215.999988555909,8|0,1:2|1:0,2:0:0:0:
488,254,228891,1,2,2:0:0:0:
457,369,229126,6,0,P|405:383|351:381,1,107.999994277954,10|2,1:2|2:0,2:0:0:0:
248,308,229594,1,2,1:2:0:0:
143,374,229829,1,2,3:2:0:0:
148,251,230063,2,0,P|183:211|235:199,1,107.999994277954,10|0,1:2|2:0,2:0:0:0:
249,209,230415,1,0,3:0:0:0:
252,214,230532,1,2,1:2:0:0:
365,182,230766,1,2,3:2:0:0:
316,42,231001,6,0,P|239:111|137:89,1,215.999988555909,14|0,1:2|1:0,2:0:0:0:
82,0,231704,1,2,3:2:0:0:
208,0,231938,2,0,P|230:101|159:178,1,215.999988555909,8|0,1:2|1:0,2:0:0:0:
53,129,232641,1,2,2:0:0:0:
0,229,232876,2,0,L|18:335,1,107.999994277954,10|2,1:2|2:0,2:0:0:0:
129,384,233344,2,0,L|147:277,1,107.999994277954,2|2,1:2|3:2,2:0:0:0:
262,237,233813,2,0,L|280:343,1,107.999994277954,10|0,1:2|2:0,2:0:0:0:
283,371,234165,1,0,3:0:0:0:
280,376,234282,1,8,3:2:0:0:
379,317,234516,1,0,1:0:0:0:
480,384,234751,6,0,P|411:305|431:203,1,215.999988555909,6|8,1:2|1:2,2:0:0:0:
512,110,235454,1,2,3:2:0:0:
425,28,235688,1,0,1:0:0:0:
327,96,235922,1,0,3:0:0:0:
260,0,236157,2,0,L|141:20,1,107.999994277954,8|2,1:2|2:0,2:0:0:0:
0,6,236626,6,0,P|47:29|69:77,1,107.999994277954,2|2,1:2|2:0,2:0:0:0:
0,173,237094,1,10,1:2:0:0:
65,266,237329,1,2,2:0:0:0:
24,384,237563,2,0,L|132:355,1,107.999994277954,2|0,1:2|3:0,2:0:0:0:
164,346,237915,1,0,3:0:0:0:
169,349,238032,1,10,1:2:0:0:
258,273,238266,1,2,2:0:0:0:
313,384,238501,6,0,P|301:277|303:168,1,215.999988555909,6|8,1:2|1:2,2:0:0:0:
293,39,239204,1,2,3:2:0:0:
183,80,239438,2,0,P|253:156|356:143,1,215.999988555909,0|10,1:0|1:2,2:0:0:0:
499,0,240376,5,2,1:2:0:0:
440,80,240610,1,0,1:0:0:0:
437,85,240727,2,0,L|460:217,1,134.999992847443,0|0,3:0|3:0,2:0:0:0:
512,327,241313,2,0,P|472:306|428:311,1,89.9999952316285,0|0,1:0|2:0,2:0:0:0:
407,325,241665,5,8,3:2:0:0:
410,330,241782,1,8,3:2:0:0:
325,383,242016,1,0,3:0:0:0:
247,278,242251,1,4,1:2:0:0:
173,103,247692,5,0,2:0:0:0:
176,108,247934,2,0,L|113:97,1,62.99999666214,0|0,2:0|2:0,2:0:0:0:
63,31,248418,2,0,P|31:84|42:145,1,125.99999332428,2|0,2:0|2:0,2:0:0:0:
116,181,249143,1,2,2:0:0:0:
0,282,249627,5,0,2:0:0:0:
0,277,249869,2,0,L|62:287,1,62.99999666214,0|0,2:0|2:0,2:0:0:0:
88,365,250353,2,0,L|212:343,1,125.99999332428,2|0,2:0|2:0,2:0:0:0:
292,328,251079,1,2,2:0:0:0:
450,374,251563,6,0,L|512:384,2,62.99999666214,0|0|0,2:0|2:0|2:0,2:0:0:0:
378,333,252288,2,0,P|367:272|398:218,1,125.99999332428,2|0,2:0|2:0,2:0:0:0:
479,195,253014,1,2,2:0:0:0:
393,62,253498,6,0,L|403:0,2,62.99999666214,0|0|0,2:0|2:0|2:0,2:0:0:0:
437,129,254224,2,0,P|409:143|378:139,1,62.99999666214,2|2,2:0|2:0,2:0:0:0:
345,206,254708,2,0,P|318:189|306:160,1,62.99999666214,2|2,2:0|2:0,2:0:0:0:
229,0,255434,1,2,2:0:0:0:
232,5,255676,1,2,2:0:0:0:
235,10,255918,1,2,2:0:0:0:
161,46,256159,6,0,P|156:76|170:104,1,62.99999666214,2|0,2:0|2:0,2:0:0:0:
245,138,256643,2,0,P|249:168|235:196,1,62.99999666214,0|2,2:0|2:0,2:0:0:0:
158,226,257127,2,0,P|153:256|167:284,1,62.99999666214,0|0,2:0|2:0,2:0:0:0:
236,329,257611,1,0,2:0:0:0:
239,334,257853,1,0,2:0:0:0:
167,374,258095,2,0,L|104:384,2,62.99999666214,2|0|0,2:0|2:0|2:0,2:0:0:0:
37,339,258821,1,2,2:0:0:0:
73,187,259305,1,0,2:0:0:0:
70,192,259547,2,0,L|57:121,1,62.99999666214,0|0,2:0|2:0,2:0:0:0:
44,53,260030,6,0,P|74:49|102:63,1,62.99999666214,2|0,2:0|2:0,2:0:0:0:
163,8,260514,2,0,P|181:32|183:63,1,62.99999666214,0|2,2:0|2:0,2:0:0:0:
261,88,260998,2,0,P|248:116|222:133,1,62.99999666214,0|0,2:0|2:0,2:0:0:0:
140,134,261482,1,0,2:0:0:0:
137,139,261724,1,0,2:0:0:0:
101,212,261966,6,0,P|97:242|111:270,1,62.99999666214,2|2,2:0|2:0,2:0:0:0:
197,283,262450,1,2,2:0:0:0:
200,288,262692,1,2,2:0:0:0:
203,293,262934,1,2,2:0:0:0:
333,378,263418,1,2,2:0:0:0:
328,381,263659,1,2,2:0:0:0:
323,384,263901,6,0,P|291:331|303:271,1,125.99999332428,2|0,2:0|2:0,2:0:0:0:
365,217,264627,1,2,2:0:0:0:
507,326,265111,5,0,2:0:0:0:
512,329,265353,2,0,L|501:266,1,62.99999666214,0|0,2:0|2:0,2:0:0:0:
449,202,265837,2,0,L|472:68,1,125.99999332428,2|0,2:0|2:0,2:0:0:0:
466,0,266563,1,2,2:0:0:0:
313,64,267047,6,0,L|242:51,2,62.99999666214,0|0|0,2:0|2:0|2:0,2:0:0:0:
364,0,267772,2,0,P|396:52|382:112,1,125.99999332428,2|0,2:0|2:0,2:0:0:0:
307,144,268498,1,2,2:0:0:0:
330,294,268982,6,0,L|392:304,2,62.99999666214,0|0|0,2:0|2:0|2:0,2:0:0:0:
261,338,269708,2,0,P|247:309|249:278,1,62.99999666214,2|2,2:0|2:0,2:0:0:0:
302,215,270192,2,0,P|315:186|313:155,1,62.99999666214,2|2,2:0|2:0,2:0:0:0:
258,10,270918,1,2,2:0:0:0:
255,5,271159,1,2,2:0:0:0:
252,0,271401,1,2,2:0:0:0:
177,33,271643,6,0,L|166:95,1,62.99999666214,2|0,2:0|2:0,2:0:0:0:
99,142,272127,2,0,L|109:204,1,62.99999666214,0|2,2:0|2:0,2:0:0:0:
185,236,272611,2,0,L|174:298,1,62.99999666214,0|0,2:0|2:0,2:0:0:0:
124,363,273095,1,0,2:0:0:0:
127,368,273337,1,0,2:0:0:0:
61,318,273579,2,0,L|-1:328,2,62.99999666214,2|0|0,2:0|2:0|2:0,2:0:0:0:
101,245,274305,1,2,2:0:0:0:
211,370,274788,2,0,P|241:373|269:360,2,62.99999666214,0|0|0,2:0|2:0|2:0,2:0:0:0:
253,281,275514,6,0,P|283:277|311:290,1,62.99999666214,2|0,2:0|2:0,2:0:0:0:
374,238,275998,2,0,P|392:263|394:294,1,62.99999666214,0|2,2:0|2:0,2:0:0:0:
471,322,276482,2,0,P|458:350|432:368,2,62.99999666214,0|0|0,2:0|2:0|2:0,2:0:0:0:
469,232,277208,1,0,2:0:0:0:
512,162,277450,2,0,L|501:99,1,62.99999666214,2|2,2:0|2:0,2:0:0:0:
482,20,277934,1,2,2:0:0:0:
487,17,278176,1,2,2:0:0:0:
400,0,278418,1,2,2:0:0:0:
