osu file format v14

[General]
AudioFilename: audio.mp3
AudioLeadIn: 0
PreviewTime: 20060
Countdown: 0
SampleSet: Normal
StackLeniency: 0.7
Mode: 3
LetterboxInBreaks: 0
SpecialStyle: 0
WidescreenStoryboard: 0

[Editor]
DistanceSpacing: 0.9
BeatDivisor: 8
GridSize: 8
TimelineZoom: 2.2

[Metadata]
Title:Implexrough
TitleUnicode:Implexrough
Artist:Silentroom x mommy
ArtistUnicode:Silentroom x mommy
Creator:AlexDunk
Version:Egoism
Source:BMS
Tags:BOFU2017 MUSYNX - LEGENDA EST A MYTH -
BeatmapID:2027685
BeatmapSetID:969131

[Difficulty]
HPDrainRate:8
CircleSize:4
OverallDifficulty:8
ApproachRate:5
SliderMultiplier:1.4
SliderTickRate:1

[Events]
//Background and Video events
0,0,"maxresdefault.jpg",0,0
Video,25,"implexrough.mp4"
//Break Periods
//Storyboard Layer 0 (Background)
//Storyboard Layer 1 (Fail)
//Storyboard Layer 2 (Pass)
//Storyboard Layer 3 (Foreground)
//Storyboard Sound Samples

[TimingPoints]
70,400,4,1,0,40,1,0
20870,-100,4,1,0,40,0,1
26470,-100,4,1,0,40,0,0
36770,-100,4,1,0,40,0,1
49670,-100,4,1,0,40,0,0
88070,-100,4,1,0,40,0,1
88120,-100,4,1,0,40,0,0
89670,-100,4,1,0,40,0,1
89720,-100,4,1,0,40,0,0
91270,-100,4,1,0,40,0,1
91320,-100,4,1,0,40,0,0
94470,-100,4,1,0,40,0,1
94520,-100,4,1,0,40,0,0
96070,-100,4,1,0,40,0,1
96120,-100,4,1,0,40,0,0
97670,-100,4,1,0,40,0,1
97720,-100,4,1,0,40,0,0
100870,-100,4,1,0,40,0,1
113270,-100,4,1,0,40,0,0

[HitObjects]
192,192,1670,128,0,1720:0:0:0:0:
64,192,1670,128,0,1870:0:0:0:0:
448,192,1670,128,0,1870:0:0:0:0:
320,192,1770,1,0,0:0:0:0:
192,192,1870,1,0,0:0:0:0:
64,192,1970,128,0,2020:0:0:0:0:
320,192,1970,128,0,2020:0:0:0:0:
448,192,1970,128,0,2020:0:0:0:0:
192,192,2070,1,0,0:0:0:0:
448,192,2170,1,0,0:0:0:0:
64,192,2270,1,0,0:0:0:0:
320,192,2370,1,0,0:0:0:0:
192,192,2470,1,0,0:0:0:0:
64,192,2570,1,0,0:0:0:0:
192,192,2670,1,0,0:0:0:0:
320,192,2770,1,0,0:0:0:0:
448,192,2870,1,0,0:0:0:0:
64,192,2970,1,0,0:0:0:0:
320,192,3070,1,0,0:0:0:0:
192,192,3170,1,0,0:0:0:0:
448,192,3270,1,0,0:0:0:0:
64,192,3370,1,0,0:0:0:0:
192,192,3470,1,0,0:0:0:0:
320,192,3570,1,0,0:0:0:0:
192,192,3670,1,0,0:0:0:0:
448,192,3770,1,0,0:0:0:0:
64,192,3870,1,0,0:0:0:0:
448,192,3970,128,0,4170:0:0:0:0:
320,192,3970,128,0,4020:0:0:0:0:
192,192,3970,128,0,4170:0:0:0:0:
64,192,4070,1,0,0:0:0:0:
320,192,4170,1,0,0:0:0:0:
192,192,4270,128,0,4320:0:0:0:0:
64,192,4270,128,0,4320:0:0:0:0:
448,192,4270,128,0,4320:0:0:0:0:
320,192,4370,1,0,0:0:0:0:
192,192,4470,1,0,0:0:0:0:
64,192,4570,128,0,4770:0:0:0:0:
448,192,4570,128,0,4620:0:0:0:0:
320,192,4570,128,0,4670:0:0:0:0:
192,192,4670,1,0,0:0:0:0:
448,192,4770,1,0,0:0:0:0:
64,192,4870,128,0,4920:0:0:0:0:
320,192,4870,128,0,4920:0:0:0:0:
192,192,4870,128,0,4920:0:0:0:0:
448,192,4970,1,0,0:0:0:0:
192,192,5070,1,0,0:0:0:0:
64,192,5170,128,0,5220:0:0:0:0:
320,192,5170,128,0,5220:0:0:0:0:
448,192,5170,128,0,5220:0:0:0:0:
192,192,5270,1,0,0:0:0:0:
448,192,5370,1,0,0:0:0:0:
64,192,5470,1,0,0:0:0:0:
320,192,5570,1,0,0:0:0:0:
448,192,5670,1,0,0:0:0:0:
64,192,5770,1,0,0:0:0:0:
320,192,5870,1,0,0:0:0:0:
192,192,5970,1,0,0:0:0:0:
320,192,6070,1,0,0:0:0:0:
448,192,6170,1,0,0:0:0:0:
192,192,6270,1,0,0:0:0:0:
320,192,6370,1,0,0:0:0:0:
64,192,6470,1,0,0:0:0:0:
448,192,6570,1,0,0:0:0:0:
192,192,6670,1,0,0:0:0:0:
320,192,6770,1,0,0:0:0:0:
448,192,6870,1,0,0:0:0:0:
192,192,6970,1,0,0:0:0:0:
64,192,7070,1,0,0:0:0:0:
192,192,7170,128,0,7220:0:0:0:0:
320,192,7170,128,0,7220:0:0:0:0:
448,192,7170,128,0,7220:0:0:0:0:
192,192,7370,1,0,0:0:0:0:
448,192,7370,1,0,0:0:0:0:
320,192,7470,1,0,0:0:0:0:
64,192,7470,1,0,0:0:0:0:
320,192,7570,1,0,0:0:0:0:
192,192,7570,1,0,0:0:0:0:
64,192,7670,1,0,0:0:0:0:
448,192,7670,1,0,0:0:0:0:
320,192,7770,1,0,0:0:0:0:
192,192,7770,1,0,0:0:0:0:
320,192,7870,1,0,0:0:0:0:
448,192,7870,1,0,0:0:0:0:
192,192,7970,1,0,0:0:0:0:
64,192,7970,1,0,0:0:0:0:
448,192,8070,1,0,0:0:0:0:
320,192,8070,1,0,0:0:0:0:
64,192,8070,1,0,0:0:0:0:
192,192,8170,1,0,0:0:0:0:
448,192,8270,1,0,0:0:0:0:
192,192,8370,1,0,0:0:0:0:
448,192,8470,1,0,0:0:0:0:
320,192,8470,1,0,0:0:0:0:
64,192,8570,1,0,0:0:0:0:
320,192,8670,1,0,0:0:0:0:
192,192,8770,1,0,0:0:0:0:
320,192,8870,1,0,0:0:0:0:
64,192,8870,1,0,0:0:0:0:
448,192,8970,1,0,0:0:0:0:
192,192,9070,1,0,0:0:0:0:
320,192,9170,1,0,0:0:0:0:
64,192,9270,1,0,0:0:0:0:
192,192,9270,1,0,0:0:0:0:
448,192,9370,1,0,0:0:0:0:
320,192,9470,1,0,0:0:0:0:
192,192,9570,1,0,0:0:0:0:
320,192,9670,1,0,0:0:0:0:
448,192,9670,1,0,0:0:0:0:
64,192,9670,1,0,0:0:0:0:
192,192,9770,1,0,0:0:0:0:
448,192,9870,1,0,0:0:0:0:
64,192,9970,1,0,0:0:0:0:
320,192,10070,1,0,0:0:0:0:
448,192,10070,1,0,0:0:0:0:
192,192,10170,1,0,0:0:0:0:
320,192,10270,1,0,0:0:0:0:
64,192,10370,1,0,0:0:0:0:
448,192,10470,1,0,0:0:0:0:
192,192,10470,128,0,10670:0:0:0:0:
320,192,10470,128,0,10670:0:0:0:0:
448,192,10670,1,0,0:0:0:0:
192,192,10770,1,0,0:0:0:0:
320,192,10770,128,0,10970:0:0:0:0:
64,192,10770,128,0,10970:0:0:0:0:
192,192,10970,1,0,0:0:0:0:
64,192,11070,128,0,11270:0:0:0:0:
320,192,11070,128,0,11470:0:0:0:0:
448,192,11070,128,0,11670:0:0:0:0:
192,192,11270,1,0,0:0:0:0:
192,192,11370,1,0,0:0:0:0:
64,192,11470,1,0,0:0:0:0:
64,192,11570,1,0,0:0:0:0:
320,192,11670,1,0,0:0:0:0:
320,192,11770,1,0,0:0:0:0:
192,192,11870,1,0,0:0:0:0:
448,192,11970,1,0,0:0:0:0:
64,192,11970,1,0,0:0:0:0:
192,192,11970,1,0,0:0:0:0:
320,192,12070,1,0,0:0:0:0:
320,192,12170,1,0,0:0:0:0:
64,192,12270,1,0,0:0:0:0:
448,192,12270,1,0,0:0:0:0:
448,192,12370,1,0,0:0:0:0:
192,192,12370,1,0,0:0:0:0:
320,192,12470,1,0,0:0:0:0:
192,192,12470,1,0,0:0:0:0:
448,192,12570,1,0,0:0:0:0:
64,192,12570,1,0,0:0:0:0:
448,192,12670,1,0,0:0:0:0:
320,192,12670,1,0,0:0:0:0:
192,192,12770,1,0,0:0:0:0:
64,192,12770,1,0,0:0:0:0:
320,192,12870,1,0,0:0:0:0:
64,192,12870,128,0,13070:0:0:0:0:
448,192,12870,128,0,13070:0:0:0:0:
192,192,12970,1,0,0:0:0:0:
320,192,13070,1,0,0:0:0:0:
64,192,13170,128,0,13270:0:0:0:0:
448,192,13170,128,0,13270:0:0:0:0:
192,192,13270,1,0,0:0:0:0:
320,192,13370,1,0,0:0:0:0:
448,192,13470,128,0,13520:0:0:0:0:
64,192,13470,128,0,13520:0:0:0:0:
320,192,13570,1,0,0:0:0:0:
64,192,13803,1,0,0:0:0:0:
192,192,13803,1,0,0:0:0:0:
448,192,13803,1,0,0:0:0:0:
192,192,13936,1,0,0:0:0:0:
448,192,13936,1,0,0:0:0:0:
64,192,14203,1,0,0:0:0:0:
320,192,14203,1,0,0:0:0:0:
448,192,14203,1,0,0:0:0:0:
64,192,14336,1,0,0:0:0:0:
448,192,14336,1,0,0:0:0:0:
320,192,14470,128,0,14770:0:0:0:0:
192,192,14470,128,0,14770:0:0:0:0:
320,192,14870,1,0,0:0:0:0:
448,192,14870,1,0,0:0:0:0:
64,192,14870,128,0,15070:0:0:0:0:
192,192,14970,128,0,15070:0:0:0:0:
320,192,15070,128,0,15170:0:0:0:0:
64,192,15170,1,0,0:0:0:0:
448,192,15270,1,0,0:0:0:0:
192,192,15270,128,0,15470:0:0:0:0:
320,192,15370,128,0,15470:0:0:0:0:
64,192,15470,128,0,15570:0:0:0:0:
192,192,15570,1,0,0:0:0:0:
320,192,15670,1,0,0:0:0:0:
448,192,15670,128,0,15770:0:0:0:0:
192,192,15770,1,0,0:0:0:0:
320,192,15870,128,0,15970:0:0:0:0:
64,192,15970,1,0,0:0:0:0:
192,192,16070,1,0,0:0:0:0:
448,192,16070,1,0,0:0:0:0:
64,192,16170,128,0,16270:0:0:0:0:
320,192,16270,128,0,16370:0:0:0:0:
448,192,16370,128,0,16470:0:0:0:0:
64,192,16470,1,0,0:0:0:0:
192,192,16470,128,0,16570:0:0:0:0:
320,192,16570,128,0,16770:0:0:0:0:
64,192,16670,1,0,0:0:0:0:
192,192,16770,1,0,0:0:0:0:
64,192,16870,128,0,17070:0:0:0:0:
448,192,16870,128,0,17070:0:0:0:0:
192,192,17170,1,0,0:0:0:0:
320,192,17170,1,0,0:0:0:0:
64,192,17336,128,0,17670:0:0:0:0:
320,192,17336,128,0,17670:0:0:0:0:
192,192,17670,1,0,0:0:0:0:
448,192,17670,128,0,17870:0:0:0:0:
320,192,17770,128,0,17870:0:0:0:0:
64,192,17870,128,0,17970:0:0:0:0:
448,192,17970,128,0,18070:0:0:0:0:
192,192,18070,1,0,0:0:0:0:
320,192,18070,1,0,0:0:0:0:
64,192,18270,128,0,18370:0:0:0:0:
448,192,18470,1,0,0:0:0:0:
192,192,18470,128,0,18670:0:0:0:0:
64,192,18570,128,0,18670:0:0:0:0:
320,192,18670,128,0,18870:0:0:0:0:
448,192,18770,128,0,18870:0:0:0:0:
192,192,18870,1,0,0:0:0:0:
64,192,18870,1,0,0:0:0:0:
320,192,18970,128,0,19070:0:0:0:0:
64,192,19070,1,0,0:0:0:0:
192,192,19170,1,0,0:0:0:0:
320,192,19270,1,0,0:0:0:0:
448,192,19270,1,0,0:0:0:0:
192,192,19370,128,0,19470:0:0:0:0:
448,192,19470,128,0,19570:0:0:0:0:
192,192,19570,128,0,19670:0:0:0:0:
64,192,19670,1,0,0:0:0:0:
320,192,19670,128,0,19770:0:0:0:0:
448,192,19770,128,0,19870:0:0:0:0:
192,192,19870,128,0,19970:0:0:0:0:
320,192,19970,1,0,0:0:0:0:
448,192,19970,1,0,0:0:0:0:
64,192,20170,1,0,0:0:0:0:
192,192,20170,1,0,0:0:0:0:
320,192,20270,1,0,0:0:0:0:
448,192,20270,1,0,0:0:0:0:
192,192,20370,1,0,0:0:0:0:
64,192,20370,1,0,0:0:0:0:
64,192,20470,1,0,0:0:0:0:
448,192,20470,1,0,0:0:0:0:
320,192,20470,1,0,0:0:0:0:
192,192,20570,1,0,0:0:0:0:
448,192,20570,1,0,0:0:0:0:
320,192,20670,1,0,0:0:0:0:
64,192,20670,1,0,0:0:0:0:
192,192,20770,1,0,0:0:0:0:
64,192,20770,1,0,0:0:0:0:
448,192,20870,1,0,0:0:0:0:
320,192,20870,128,0,21170:0:0:0:0:
64,192,20970,1,0,0:0:0:0:
448,192,21070,128,0,21170:0:0:0:0:
192,192,21170,128,0,21270:0:0:0:0:
64,192,21270,128,0,21570:0:0:0:0:
320,192,21270,1,0,0:0:0:0:
448,192,21270,128,0,21370:0:0:0:0:
192,192,21370,1,0,0:0:0:0:
320,192,21470,1,0,0:0:0:0:
192,192,21570,1,0,0:0:0:0:
448,192,21670,128,0,21970:0:0:0:0:
64,192,21670,128,0,21770:0:0:0:0:
320,192,21770,128,0,21870:0:0:0:0:
64,192,21870,128,0,21970:0:0:0:0:
192,192,21970,128,0,22070:0:0:0:0:
64,192,22070,1,0,0:0:0:0:
320,192,22070,128,0,22370:0:0:0:0:
448,192,22070,128,0,22170:0:0:0:0:
192,192,22170,1,0,0:0:0:0:
64,192,22270,128,0,22370:0:0:0:0:
192,192,22370,1,0,0:0:0:0:
320,192,22470,1,0,0:0:0:0:
448,192,22470,128,0,22770:0:0:0:0:
64,192,22570,1,0,0:0:0:0:
192,192,22670,128,0,22770:0:0:0:0:
64,192,22770,128,0,22870:0:0:0:0:
320,192,22870,1,0,0:0:0:0:
192,192,22870,128,0,23170:0:0:0:0:
448,192,22870,128,0,22970:0:0:0:0:
64,192,22970,1,0,0:0:0:0:
320,192,23070,1,0,0:0:0:0:
448,192,23170,1,0,0:0:0:0:
64,192,23270,128,0,23470:0:0:0:0:
192,192,23270,128,0,23470:0:0:0:0:
320,192,23270,128,0,23470:0:0:0:0:
64,192,23570,1,0,0:0:0:0:
320,192,23570,1,0,0:0:0:0:
448,192,23570,1,0,0:0:0:0:
448,192,23870,128,0,24370:0:0:0:0:
320,192,23870,128,0,24270:0:0:0:0:
192,192,23870,128,0,24170:0:0:0:0:
64,192,24270,1,0,0:0:0:0:
192,192,24370,1,0,0:0:0:0:
64,192,24470,1,0,0:0:0:0:
320,192,24470,1,0,0:0:0:0:
448,192,24470,1,0,0:0:0:0:
192,192,24570,1,0,0:0:0:0:
320,192,24670,1,0,0:0:0:0:
448,192,24670,1,0,0:0:0:0:
64,192,24770,1,0,0:0:0:0:
192,192,24770,1,0,0:0:0:0:
448,192,24770,1,0,0:0:0:0:
192,192,24970,1,0,0:0:0:0:
320,192,25070,1,0,0:0:0:0:
64,192,25170,1,0,0:0:0:0:
192,192,25270,1,0,0:0:0:0:
320,192,25270,1,0,0:0:0:0:
448,192,25270,128,0,25570:0:0:0:0:
64,192,25370,128,0,25570:0:0:0:0:
192,192,25470,128,0,25570:0:0:0:0:
320,192,25570,1,0,0:0:0:0:
448,192,25670,1,0,0:0:0:0:
192,192,25670,1,0,0:0:0:0:
64,192,25670,1,0,0:0:0:0:
320,192,25770,128,0,25970:0:0:0:0:
448,192,25870,128,0,25970:0:0:0:0:
192,192,25970,128,0,26070:0:0:0:0:
320,192,26070,1,0,0:0:0:0:
448,192,26070,1,0,0:0:0:0:
64,192,26070,128,0,26270:0:0:0:0:
192,192,26170,128,0,26270:0:0:0:0:
448,192,26270,128,0,26370:0:0:0:0:
192,192,26370,1,0,0:0:0:0:
320,192,26370,1,0,0:0:0:0:
64,192,26370,128,0,26770:0:0:0:0:
320,192,26570,1,0,0:0:0:0:
448,192,26670,1,0,0:0:0:0:
192,192,26770,1,0,0:0:0:0:
448,192,26870,1,0,0:0:0:0:
320,192,26970,128,0,27270:0:0:0:0:
64,192,27270,1,0,0:0:0:0:
448,192,27270,128,0,28070:0:0:0:0:
64,192,27670,1,0,0:0:0:0:
64,192,28070,1,0,0:0:0:0:
320,192,28070,128,0,28170:0:0:0:0:
192,192,28170,128,0,28270:0:0:0:0:
448,192,28270,128,0,28370:0:0:0:0:
64,192,28370,128,0,28470:0:0:0:0:
192,192,28470,1,0,0:0:0:0:
320,192,28470,128,0,28570:0:0:0:0:
448,192,28570,128,0,28670:0:0:0:0:
64,192,28670,128,0,28770:0:0:0:0:
192,192,28770,128,0,29270:0:0:0:0:
448,192,28870,1,0,0:0:0:0:
448,192,29270,1,0,0:0:0:0:
448,192,29670,1,0,0:0:0:0:
320,192,29870,128,0,29920:0:0:0:0:
192,192,30070,128,0,30170:0:0:0:0:
64,192,30070,1,0,0:0:0:0:
320,192,30370,128,0,31170:0:0:0:0:
64,192,30470,1,0,0:0:0:0:
64,192,30870,1,0,0:0:0:0:
448,192,31170,128,0,31270:0:0:0:0:
192,192,31270,128,0,31370:0:0:0:0:
64,192,31270,1,0,0:0:0:0:
320,192,31370,128,0,31470:0:0:0:0:
192,192,31470,128,0,31570:0:0:0:0:
64,192,31570,128,0,31670:0:0:0:0:
448,192,31670,1,0,0:0:0:0:
320,192,31670,128,0,31770:0:0:0:0:
64,192,31770,128,0,31870:0:0:0:0:
448,192,31870,128,0,31970:0:0:0:0:
192,192,31970,128,0,32070:0:0:0:0:
64,192,32070,1,0,0:0:0:0:
320,192,32070,128,0,32270:0:0:0:0:
448,192,32470,1,0,0:0:0:0:
192,192,32470,128,0,32670:0:0:0:0:
448,192,32870,1,0,0:0:0:0:
64,192,32870,128,0,33070:0:0:0:0:
448,192,33270,1,0,0:0:0:0:
192,192,33270,128,0,33470:0:0:0:0:
320,192,33570,128,0,33770:0:0:0:0:
64,192,33670,1,0,0:0:0:0:
448,192,33870,128,0,34070:0:0:0:0:
192,192,33970,128,0,34070:0:0:0:0:
64,192,34070,1,0,0:0:0:0:
320,192,34070,128,0,34170:0:0:0:0:
192,192,34170,128,0,34270:0:0:0:0:
448,192,34270,128,0,34370:0:0:0:0:
320,192,34370,128,0,34470:0:0:0:0:
192,192,34370,128,0,34570:0:0:0:0:
448,192,34470,1,0,0:0:0:0:
64,192,34470,128,0,34670:0:0:0:0:
192,192,34670,128,0,34720:0:0:0:0:
320,192,34720,128,0,34770:0:0:0:0:
448,192,34770,128,0,34870:0:0:0:0:
64,192,34870,1,0,0:0:0:0:
320,192,34970,1,0,0:0:0:0:
192,192,35070,1,0,0:0:0:0:
448,192,35070,1,0,0:0:0:0:
192,192,35170,1,0,0:0:0:0:
448,192,35170,1,0,0:0:0:0:
320,192,35270,1,0,0:0:0:0:
448,192,35270,1,0,0:0:0:0:
64,192,35270,128,0,35470:0:0:0:0:
192,192,35370,128,0,35470:0:0:0:0:
320,192,35470,128,0,35570:0:0:0:0:
64,192,35570,1,0,0:0:0:0:
192,192,35570,1,0,0:0:0:0:
448,192,35570,128,0,35770:0:0:0:0:
320,192,35670,128,0,35770:0:0:0:0:
192,192,35770,128,0,35870:0:0:0:0:
320,192,35870,1,0,0:0:0:0:
448,192,35870,1,0,0:0:0:0:
64,192,35870,128,0,36070:0:0:0:0:
192,192,35970,128,0,36070:0:0:0:0:
320,192,36070,128,0,36170:0:0:0:0:
64,192,36170,1,0,0:0:0:0:
192,192,36170,1,0,0:0:0:0:
448,192,36170,128,0,36370:0:0:0:0:
320,192,36270,128,0,36370:0:0:0:0:
192,192,36370,128,0,36470:0:0:0:0:
320,192,36470,1,0,0:0:0:0:
448,192,36470,1,0,0:0:0:0:
64,192,36470,128,0,36670:0:0:0:0:
192,192,36570,128,0,36670:0:0:0:0:
320,192,36670,128,0,36770:0:0:0:0:
448,192,36770,128,0,37170:0:0:0:0:
192,192,36770,128,0,37570:0:0:0:0:
64,192,36770,128,0,37570:0:0:0:0:
320,192,37270,1,0,0:0:0:0:
448,192,37270,1,0,0:0:0:0:
64,192,37670,1,0,0:0:0:0:
448,192,37670,128,0,37870:0:0:0:0:
192,192,37770,128,0,37970:0:0:0:0:
320,192,37870,128,0,37970:0:0:0:0:
448,192,37970,128,0,38070:0:0:0:0:
64,192,38070,128,0,38370:0:0:0:0:
192,192,38070,1,0,0:0:0:0:
320,192,38070,128,0,38170:0:0:0:0:
448,192,38170,128,0,38370:0:0:0:0:
320,192,38270,128,0,38370:0:0:0:0:
192,192,38370,128,0,38470:0:0:0:0:
64,192,38470,1,0,0:0:0:0:
448,192,38470,128,0,38870:0:0:0:0:
64,192,38870,1,0,0:0:0:0:
320,192,38870,1,0,0:0:0:0:
192,192,38870,128,0,39270:0:0:0:0:
448,192,39270,1,0,0:0:0:0:
64,192,39270,128,0,39670:0:0:0:0:
192,192,39670,1,0,0:0:0:0:
448,192,39670,1,0,0:0:0:0:
320,192,39670,128,0,39870:0:0:0:0:
448,192,39970,128,0,40070:0:0:0:0:
64,192,40070,1,0,0:0:0:0:
192,192,40070,128,0,40670:0:0:0:0:
64,192,40470,1,0,0:0:0:0:
320,192,40470,1,0,0:0:0:0:
448,192,40470,1,0,0:0:0:0:
64,192,40870,1,0,0:0:0:0:
448,192,40870,1,0,0:0:0:0:
320,192,40970,128,0,41170:0:0:0:0:
64,192,41070,128,0,41170:0:0:0:0:
192,192,41170,128,0,41270:0:0:0:0:
448,192,41270,1,0,0:0:0:0:
320,192,41270,1,0,0:0:0:0:
64,192,41270,128,0,41470:0:0:0:0:
192,192,41370,128,0,41570:0:0:0:0:
320,192,41470,128,0,41670:0:0:0:0:
448,192,41570,128,0,41670:0:0:0:0:
192,192,41670,128,0,42070:0:0:0:0:
64,192,41670,128,0,41970:0:0:0:0:
64,192,42070,1,0,0:0:0:0:
448,192,42070,1,0,0:0:0:0:
320,192,42070,128,0,42270:0:0:0:0:
192,192,42170,128,0,42370:0:0:0:0:
64,192,42270,128,0,42370:0:0:0:0:
448,192,42370,128,0,42770:0:0:0:0:
64,192,42470,1,0,0:0:0:0:
320,192,42470,128,0,43170:0:0:0:0:
192,192,42870,1,0,0:0:0:0:
64,192,42870,128,0,43170:0:0:0:0:
448,192,42870,1,0,0:0:0:0:
448,192,43170,128,0,43470:0:0:0:0:
64,192,43270,1,0,0:0:0:0:
320,192,43270,1,0,0:0:0:0:
192,192,43270,1,0,0:0:0:0:
320,192,43470,128,0,43570:0:0:0:0:
64,192,43570,128,0,43670:0:0:0:0:
448,192,43670,1,0,0:0:0:0:
192,192,43670,1,0,0:0:0:0:
320,192,43670,1,0,0:0:0:0:
64,192,43770,128,0,43870:0:0:0:0:
192,192,43870,128,0,43970:0:0:0:0:
448,192,43970,128,0,44070:0:0:0:0:
64,192,44070,1,0,0:0:0:0:
320,192,44070,128,0,44370:0:0:0:0:
64,192,44370,128,0,44470:0:0:0:0:
192,192,44470,1,0,0:0:0:0:
448,192,44470,1,0,0:0:0:0:
320,192,44470,1,0,0:0:0:0:
64,192,44570,128,0,44670:0:0:0:0:
192,192,44670,128,0,44770:0:0:0:0:
320,192,44770,128,0,44870:0:0:0:0:
448,192,44870,1,0,0:0:0:0:
64,192,44870,128,0,45070:0:0:0:0:
192,192,44870,1,0,0:0:0:0:
320,192,44970,128,0,45170:0:0:0:0:
192,192,45070,128,0,45170:0:0:0:0:
448,192,45170,128,0,45270:0:0:0:0:
64,192,45270,1,0,0:0:0:0:
320,192,45270,1,0,0:0:0:0:
192,192,45270,1,0,0:0:0:0:
448,192,45370,128,0,45470:0:0:0:0:
192,192,45470,128,0,45670:0:0:0:0:
64,192,45570,128,0,45670:0:0:0:0:
320,192,45670,1,0,0:0:0:0:
448,192,45670,128,0,45970:0:0:0:0:
320,192,45970,128,0,46170:0:0:0:0:
64,192,46070,1,0,0:0:0:0:
192,192,46070,1,0,0:0:0:0:
448,192,46170,128,0,46370:0:0:0:0:
64,192,46270,128,0,46370:0:0:0:0:
192,192,46370,128,0,46470:0:0:0:0:
448,192,46470,1,0,0:0:0:0:
64,192,46470,1,0,0:0:0:0:
320,192,46470,128,0,47270:0:0:0:0:
64,192,46870,1,0,0:0:0:0:
448,192,46870,1,0,0:0:0:0:
192,192,46870,1,0,0:0:0:0:
64,192,47270,1,0,0:0:0:0:
192,192,47270,1,0,0:0:0:0:
448,192,47270,1,0,0:0:0:0:
320,192,47370,128,0,47420:0:0:0:0:
192,192,47420,128,0,47470:0:0:0:0:
64,192,47470,128,0,47570:0:0:0:0:
448,192,47570,128,0,47670:0:0:0:0:
64,192,47670,1,0,0:0:0:0:
320,192,47670,1,0,0:0:0:0:
192,192,47670,128,0,47870:0:0:0:0:
448,192,47770,128,0,47970:0:0:0:0:
320,192,47870,128,0,47970:0:0:0:0:
64,192,47970,128,0,48070:0:0:0:0:
192,192,48070,128,0,48270:0:0:0:0:
448,192,48070,128,0,48270:0:0:0:0:
320,192,48070,128,0,48270:0:0:0:0:
192,192,48370,1,0,0:0:0:0:
320,192,48370,1,0,0:0:0:0:
448,192,48370,1,0,0:0:0:0:
320,192,48670,128,0,48970:0:0:0:0:
64,192,48670,128,0,48970:0:0:0:0:
192,192,48670,128,0,48970:0:0:0:0:
320,192,49070,128,0,49570:0:0:0:0:
448,192,49070,128,0,49570:0:0:0:0:
448,192,49670,1,0,0:0:0:0:
64,192,49670,128,0,50470:0:0:0:0:
192,192,50470,128,0,50920:0:0:0:0:
320,192,50920,1,0,0:0:0:0:
64,192,50970,1,0,0:0:0:0:
192,192,51020,1,0,0:0:0:0:
448,192,51070,128,0,52570:0:0:0:0:
64,192,52670,128,0,52870:0:0:0:0:
320,192,52870,128,0,53470:0:0:0:0:
64,192,53470,128,0,53670:0:0:0:0:
192,192,53670,128,0,53970:0:0:0:0:
448,192,53970,128,0,54270:0:0:0:0:
320,192,54270,128,0,54670:0:0:0:0:
64,192,54670,128,0,54970:0:0:0:0:
448,192,54970,128,0,55270:0:0:0:0:
192,192,55270,128,0,55570:0:0:0:0:
320,192,55570,128,0,55870:0:0:0:0:
64,192,55870,128,0,56070:0:0:0:0:
192,192,56070,1,0,0:0:0:0:
448,192,56070,1,0,0:0:0:0:
320,192,56070,128,0,56470:0:0:0:0:
448,192,56470,128,0,56670:0:0:0:0:
64,192,56470,1,0,0:0:0:0:
448,192,56770,128,0,56970:0:0:0:0:
64,192,56870,1,0,0:0:0:0:
192,192,56970,128,0,57270:0:0:0:0:
64,192,57270,128,0,57570:0:0:0:0:
448,192,57270,1,0,0:0:0:0:
320,192,57570,128,0,57720:0:0:0:0:
64,192,57670,1,0,0:0:0:0:
320,192,57803,128,0,57870:0:0:0:0:
192,192,57936,128,0,58203:0:0:0:0:
448,192,58070,1,0,0:0:0:0:
320,192,58270,128,0,58320:0:0:0:0:
192,192,58320,128,0,58370:0:0:0:0:
64,192,58370,128,0,58570:0:0:0:0:
448,192,58470,1,0,0:0:0:0:
320,192,58570,128,0,58720:0:0:0:0:
448,192,58720,128,0,58870:0:0:0:0:
192,192,58870,128,0,59170:0:0:0:0:
64,192,58870,1,0,0:0:0:0:
448,192,59170,128,0,59420:0:0:0:0:
64,192,59270,1,0,0:0:0:0:
320,192,59420,128,0,59570:0:0:0:0:
192,192,59570,128,0,59770:0:0:0:0:
448,192,59670,1,0,0:0:0:0:
64,192,59770,128,0,59970:0:0:0:0:
192,192,60020,1,0,0:0:0:0:
448,192,60070,128,0,60170:0:0:0:0:
64,192,60070,1,0,0:0:0:0:
320,192,60170,128,0,60370:0:0:0:0:
192,192,60370,128,0,60520:0:0:0:0:
448,192,60470,1,0,0:0:0:0:
64,192,60520,128,0,60720:0:0:0:0:
448,192,60720,128,0,60770:0:0:0:0:
320,192,60770,128,0,60870:0:0:0:0:
192,192,60870,128,0,61070:0:0:0:0:
448,192,60870,1,0,0:0:0:0:
64,192,61070,128,0,61270:0:0:0:0:
448,192,61270,1,0,0:0:0:0:
320,192,61420,128,0,61570:0:0:0:0:
192,192,61470,1,0,0:0:0:0:
64,192,61470,1,0,0:0:0:0:
448,192,61670,1,0,0:0:0:0:
192,192,61770,1,0,0:0:0:0:
64,192,61770,1,0,0:0:0:0:
448,192,61870,1,0,0:0:0:0:
320,192,61870,1,0,0:0:0:0:
320,192,61970,1,0,0:0:0:0:
448,192,61970,1,0,0:0:0:0:
64,192,62070,1,0,0:0:0:0:
192,192,62070,1,0,0:0:0:0:
64,192,62170,1,0,0:0:0:0:
192,192,62270,1,0,0:0:0:0:
448,192,62270,1,0,0:0:0:0:
192,192,62370,1,0,0:0:0:0:
64,192,62470,1,0,0:0:0:0:
320,192,62470,1,0,0:0:0:0:
448,192,62520,1,0,0:0:0:0:
192,192,62570,1,0,0:0:0:0:
64,192,62620,1,0,0:0:0:0:
320,192,62670,1,0,0:0:0:0:
448,192,62670,1,0,0:0:0:0:
192,192,62770,1,0,0:0:0:0:
320,192,62870,1,0,0:0:0:0:
448,192,62870,1,0,0:0:0:0:
64,192,62870,128,0,63470:0:0:0:0:
192,192,62970,1,0,0:0:0:0:
448,192,63070,1,0,0:0:0:0:
320,192,63170,1,0,0:0:0:0:
448,192,63270,1,0,0:0:0:0:
192,192,63270,1,0,0:0:0:0:
320,192,63370,1,0,0:0:0:0:
192,192,63470,1,0,0:0:0:0:
320,192,63570,1,0,0:0:0:0:
64,192,63670,1,0,0:0:0:0:
448,192,63670,1,0,0:0:0:0:
192,192,63670,1,0,0:0:0:0:
320,192,63770,1,0,0:0:0:0:
192,192,63870,1,0,0:0:0:0:
64,192,63970,1,0,0:0:0:0:
320,192,63970,1,0,0:0:0:0:
448,192,63970,1,0,0:0:0:0:
192,192,64070,1,0,0:0:0:0:
320,192,64170,1,0,0:0:0:0:
64,192,64270,1,0,0:0:0:0:
192,192,64370,1,0,0:0:0:0:
64,192,64470,1,0,0:0:0:0:
320,192,64470,1,0,0:0:0:0:
448,192,64470,128,0,64570:0:0:0:0:
192,192,64570,128,0,64670:0:0:0:0:
320,192,64670,128,0,64770:0:0:0:0:
64,192,64770,128,0,64870:0:0:0:0:
192,192,64870,1,0,0:0:0:0:
448,192,64870,128,0,64970:0:0:0:0:
64,192,64970,128,0,65070:0:0:0:0:
320,192,65070,128,0,65170:0:0:0:0:
192,192,65170,128,0,65270:0:0:0:0:
320,192,65270,1,0,0:0:0:0:
64,192,65270,1,0,0:0:0:0:
448,192,65270,128,0,65370:0:0:0:0:
192,192,65370,128,0,65470:0:0:0:0:
320,192,65470,128,0,65570:0:0:0:0:
64,192,65570,128,0,65670:0:0:0:0:
192,192,65670,1,0,0:0:0:0:
320,192,65670,1,0,0:0:0:0:
448,192,65670,128,0,65770:0:0:0:0:
64,192,65770,128,0,65970:0:0:0:0:
192,192,65870,1,0,0:0:0:0:
320,192,65970,1,0,0:0:0:0:
64,192,66070,1,0,0:0:0:0:
192,192,66070,1,0,0:0:0:0:
448,192,66070,128,0,66170:0:0:0:0:
320,192,66170,128,0,66270:0:0:0:0:
64,192,66270,128,0,66370:0:0:0:0:
320,192,66370,128,0,66470:0:0:0:0:
448,192,66470,1,0,0:0:0:0:
192,192,66470,128,0,66570:0:0:0:0:
64,192,66570,128,0,66670:0:0:0:0:
320,192,66670,128,0,66770:0:0:0:0:
192,192,66770,128,0,66870:0:0:0:0:
320,192,66870,1,0,0:0:0:0:
64,192,66870,1,0,0:0:0:0:
448,192,66870,128,0,66970:0:0:0:0:
192,192,66970,128,0,67070:0:0:0:0:
320,192,67070,128,0,67170:0:0:0:0:
64,192,67170,128,0,67270:0:0:0:0:
448,192,67270,1,0,0:0:0:0:
192,192,67270,128,0,67370:0:0:0:0:
320,192,67270,128,0,67470:0:0:0:0:
64,192,67370,128,0,67570:0:0:0:0:
192,192,67470,128,0,67670:0:0:0:0:
320,192,67570,128,0,67770:0:0:0:0:
64,192,67670,128,0,67770:0:0:0:0:
448,192,67670,128,0,67870:0:0:0:0:
192,192,67770,128,0,67870:0:0:0:0:
320,192,67870,128,0,67970:0:0:0:0:
64,192,67970,1,0,0:0:0:0:
448,192,67970,1,0,0:0:0:0:
192,192,67970,128,0,68270:0:0:0:0:
320,192,68070,128,0,68170:0:0:0:0:
64,192,68170,1,0,0:0:0:0:
448,192,68170,1,0,0:0:0:0:
320,192,68270,128,0,68770:0:0:0:0:
448,192,68370,1,0,0:0:0:0:
64,192,68370,1,0,0:0:0:0:
192,192,68370,128,0,68770:0:0:0:0:
64,192,68570,1,0,0:0:0:0:
448,192,68570,1,0,0:0:0:0:
64,192,68770,1,0,0:0:0:0:
448,192,68770,1,0,0:0:0:0:
192,192,68870,1,0,0:0:0:0:
320,192,68870,1,0,0:0:0:0:
64,192,68970,1,0,0:0:0:0:
448,192,68970,1,0,0:0:0:0:
192,192,69070,1,0,0:0:0:0:
320,192,69070,1,0,0:0:0:0:
64,192,69170,1,0,0:0:0:0:
448,192,69170,1,0,0:0:0:0:
192,192,69270,1,0,0:0:0:0:
320,192,69270,1,0,0:0:0:0:
448,192,69270,1,0,0:0:0:0:
64,192,69370,1,0,0:0:0:0:
192,192,69470,1,0,0:0:0:0:
320,192,69570,1,0,0:0:0:0:
64,192,69670,1,0,0:0:0:0:
448,192,69670,1,0,0:0:0:0:
320,192,69770,1,0,0:0:0:0:
192,192,69870,1,0,0:0:0:0:
320,192,69970,128,0,70070:0:0:0:0:
192,192,70070,1,0,0:0:0:0:
64,192,70070,1,0,0:0:0:0:
448,192,70070,128,0,70170:0:0:0:0:
320,192,70170,128,0,70270:0:0:0:0:
64,192,70270,128,0,70370:0:0:0:0:
192,192,70370,128,0,70470:0:0:0:0:
448,192,70470,1,0,0:0:0:0:
64,192,70470,1,0,0:0:0:0:
320,192,70470,128,0,70570:0:0:0:0:
192,192,70570,128,0,70670:0:0:0:0:
448,192,70670,128,0,70770:0:0:0:0:
320,192,70770,128,0,70870:0:0:0:0:
192,192,70870,1,0,0:0:0:0:
64,192,70870,128,0,70970:0:0:0:0:
448,192,70970,128,0,71070:0:0:0:0:
320,192,71070,128,0,71170:0:0:0:0:
192,192,71170,128,0,71270:0:0:0:0:
448,192,71270,128,0,71470:0:0:0:0:
64,192,71270,128,0,71470:0:0:0:0:
320,192,71270,128,0,71470:0:0:0:0:
192,192,71570,1,0,0:0:0:0:
320,192,71570,1,0,0:0:0:0:
448,192,71570,1,0,0:0:0:0:
64,192,71670,1,0,0:0:0:0:
320,192,71770,1,0,0:0:0:0:
448,192,71870,128,0,72570:0:0:0:0:
64,192,71870,128,0,72570:0:0:0:0:
192,192,71870,1,0,0:0:0:0:
320,192,71970,1,0,0:0:0:0:
192,192,72070,1,0,0:0:0:0:
320,192,72170,1,0,0:0:0:0:
192,192,72270,1,0,0:0:0:0:
320,192,72370,1,0,0:0:0:0:
192,192,72470,1,0,0:0:0:0:
320,192,72570,1,0,0:0:0:0:
192,192,72670,1,0,0:0:0:0:
320,192,72770,1,0,0:0:0:0:
448,192,72770,1,0,0:0:0:0:
64,192,72770,1,0,0:0:0:0:
192,192,72870,1,0,0:0:0:0:
448,192,72970,1,0,0:0:0:0:
320,192,73070,1,0,0:0:0:0:
64,192,73170,1,0,0:0:0:0:
192,192,73270,1,0,0:0:0:0:
320,192,73370,1,0,0:0:0:0:
320,192,73470,1,0,0:0:0:0:
448,192,73470,128,0,74070:0:0:0:0:
64,192,73470,128,0,74070:0:0:0:0:
192,192,73770,1,0,0:0:0:0:
320,192,73870,1,0,0:0:0:0:
192,192,73970,1,0,0:0:0:0:
320,192,74070,1,0,0:0:0:0:
448,192,74170,1,0,0:0:0:0:
320,192,74270,128,0,74470:0:0:0:0:
192,192,74270,128,0,74570:0:0:0:0:
64,192,74270,128,0,74570:0:0:0:0:
448,192,74570,1,0,0:0:0:0:
320,192,74570,1,0,0:0:0:0:
448,192,74670,1,0,0:0:0:0:
320,192,74670,1,0,0:0:0:0:
192,192,74770,1,0,0:0:0:0:
64,192,74770,1,0,0:0:0:0:
192,192,74870,1,0,0:0:0:0:
64,192,74870,1,0,0:0:0:0:
320,192,74970,1,0,0:0:0:0:
448,192,74970,1,0,0:0:0:0:
320,192,75070,1,0,0:0:0:0:
448,192,75070,1,0,0:0:0:0:
64,192,75170,1,0,0:0:0:0:
192,192,75170,1,0,0:0:0:0:
64,192,75270,1,0,0:0:0:0:
448,192,75270,1,0,0:0:0:0:
320,192,75270,1,0,0:0:0:0:
64,192,75670,1,0,0:0:0:0:
320,192,75870,1,0,0:0:0:0:
64,192,75970,1,0,0:0:0:0:
192,192,76170,1,0,0:0:0:0:
448,192,76270,1,0,0:0:0:0:
320,192,76470,1,0,0:0:0:0:
64,192,76670,1,0,0:0:0:0:
448,192,76870,1,0,0:0:0:0:
320,192,77070,1,0,0:0:0:0:
192,192,77170,1,0,0:0:0:0:
448,192,77270,1,0,0:0:0:0:
448,192,77470,1,0,0:0:0:0:
192,192,77570,1,0,0:0:0:0:
320,192,77770,1,0,0:0:0:0:
64,192,77870,1,0,0:0:0:0:
192,192,78070,1,0,0:0:0:0:
448,192,78270,1,0,0:0:0:0:
64,192,78470,1,0,0:0:0:0:
320,192,78670,1,0,0:0:0:0:
448,192,78770,1,0,0:0:0:0:
64,192,78870,1,0,0:0:0:0:
192,192,79070,1,0,0:0:0:0:
320,192,79170,1,0,0:0:0:0:
64,192,79370,1,0,0:0:0:0:
320,192,79470,1,0,0:0:0:0:
192,192,79670,1,0,0:0:0:0:
448,192,79870,1,0,0:0:0:0:
64,192,80070,1,0,0:0:0:0:
320,192,80170,1,0,0:0:0:0:
192,192,80270,1,0,0:0:0:0:
320,192,80370,128,0,80670:0:0:0:0:
64,192,80670,1,0,0:0:0:0:
192,192,80770,1,0,0:0:0:0:
448,192,80870,1,0,0:0:0:0:
192,192,80970,128,0,81270:0:0:0:0:
320,192,81270,1,0,0:0:0:0:
64,192,81370,1,0,0:0:0:0:
448,192,81470,1,0,0:0:0:0:
192,192,81570,1,0,0:0:0:0:
320,192,81670,1,0,0:0:0:0:
320,192,82070,1,0,0:0:0:0:
64,192,82270,1,0,0:0:0:0:
192,192,82370,1,0,0:0:0:0:
448,192,82570,1,0,0:0:0:0:
320,192,82670,1,0,0:0:0:0:
192,192,82870,1,0,0:0:0:0:
64,192,83070,1,0,0:0:0:0:
448,192,83270,1,0,0:0:0:0:
320,192,83470,1,0,0:0:0:0:
192,192,83570,1,0,0:0:0:0:
448,192,83670,1,0,0:0:0:0:
64,192,83870,1,0,0:0:0:0:
192,192,83970,1,0,0:0:0:0:
320,192,84170,1,0,0:0:0:0:
448,192,84270,1,0,0:0:0:0:
320,192,84470,1,0,0:0:0:0:
192,192,84670,1,0,0:0:0:0:
64,192,84870,128,0,86470:0:0:0:0:
448,192,84870,1,0,0:0:0:0:
192,192,85070,1,0,0:0:0:0:
320,192,85170,1,0,0:0:0:0:
448,192,85270,1,0,0:0:0:0:
192,192,85470,1,0,0:0:0:0:
320,192,85570,1,0,0:0:0:0:
192,192,85770,1,0,0:0:0:0:
448,192,85870,1,0,0:0:0:0:
320,192,85970,1,0,0:0:0:0:
448,192,86070,1,0,0:0:0:0:
192,192,86170,1,0,0:0:0:0:
320,192,86270,1,0,0:0:0:0:
192,192,86370,1,0,0:0:0:0:
448,192,86470,128,0,87370:0:0:0:0:
192,192,86570,1,0,0:0:0:0:
320,192,86670,1,0,0:0:0:0:
64,192,86770,1,0,0:0:0:0:
192,192,86870,1,0,0:0:0:0:
320,192,86970,1,0,0:0:0:0:
64,192,87070,1,0,0:0:0:0:
192,192,87170,1,0,0:0:0:0:
320,192,87270,1,0,0:0:0:0:
64,192,87370,1,0,0:0:0:0:
192,192,87370,1,0,0:0:0:0:
320,192,87370,1,0,0:0:0:0:
448,192,87470,1,0,0:0:0:0:
192,192,87570,1,0,0:0:0:0:
64,192,87670,1,0,0:0:0:0:
320,192,87670,1,0,0:0:0:0:
448,192,87670,1,0,0:0:0:0:
192,192,87770,1,0,0:0:0:0:
320,192,87870,1,0,0:0:0:0:
448,192,87870,1,0,0:0:0:0:
64,192,87870,1,0,0:0:0:0:
192,192,87970,1,0,0:0:0:0:
320,192,88070,128,0,88270:0:0:0:0:
448,192,88070,128,0,88370:0:0:0:0:
64,192,88070,128,0,88170:0:0:0:0:
192,192,88170,128,0,88370:0:0:0:0:
64,192,88270,128,0,88370:0:0:0:0:
320,192,88370,128,0,88470:0:0:0:0:
64,192,88470,1,0,0:0:0:0:
192,192,88470,1,0,0:0:0:0:
448,192,88470,1,0,0:0:0:0:
192,192,88670,1,0,0:0:0:0:
320,192,88670,1,0,0:0:0:0:
64,192,88770,1,0,0:0:0:0:
320,192,88770,1,0,0:0:0:0:
448,192,88770,1,0,0:0:0:0:
320,192,88970,1,0,0:0:0:0:
192,192,88970,1,0,0:0:0:0:
64,192,89070,1,0,0:0:0:0:
192,192,89070,1,0,0:0:0:0:
448,192,89070,1,0,0:0:0:0:
64,192,89270,1,0,0:0:0:0:
192,192,89270,1,0,0:0:0:0:
320,192,89270,1,0,0:0:0:0:
192,192,89470,1,0,0:0:0:0:
320,192,89470,1,0,0:0:0:0:
448,192,89470,1,0,0:0:0:0:
64,192,89670,128,0,89770:0:0:0:0:
192,192,89670,128,0,89870:0:0:0:0:
448,192,89670,128,0,89970:0:0:0:0:
320,192,89770,128,0,89970:0:0:0:0:
64,192,89870,128,0,89970:0:0:0:0:
192,192,89970,128,0,90070:0:0:0:0:
64,192,90070,1,0,0:0:0:0:
320,192,90070,1,0,0:0:0:0:
448,192,90070,1,0,0:0:0:0:
192,192,90270,1,0,0:0:0:0:
448,192,90270,1,0,0:0:0:0:
64,192,90370,1,0,0:0:0:0:
320,192,90370,1,0,0:0:0:0:
448,192,90370,1,0,0:0:0:0:
64,192,90570,1,0,0:0:0:0:
320,192,90570,1,0,0:0:0:0:
64,192,90670,1,0,0:0:0:0:
192,192,90670,1,0,0:0:0:0:
448,192,90670,1,0,0:0:0:0:
192,192,90870,1,0,0:0:0:0:
320,192,90870,1,0,0:0:0:0:
448,192,90870,1,0,0:0:0:0:
64,192,91070,1,0,0:0:0:0:
192,192,91070,1,0,0:0:0:0:
320,192,91070,1,0,0:0:0:0:
64,192,91270,128,0,91470:0:0:0:0:
448,192,91270,128,0,91570:0:0:0:0:
192,192,91270,128,0,91370:0:0:0:0:
320,192,91370,128,0,91570:0:0:0:0:
192,192,91470,128,0,91570:0:0:0:0:
64,192,91570,128,0,91670:0:0:0:0:
192,192,91670,1,0,0:0:0:0:
320,192,91670,1,0,0:0:0:0:
448,192,91670,1,0,0:0:0:0:
64,192,91870,1,0,0:0:0:0:
192,192,91870,1,0,0:0:0:0:
64,192,91970,1,0,0:0:0:0:
320,192,91970,1,0,0:0:0:0:
448,192,91970,1,0,0:0:0:0:
320,192,92170,1,0,0:0:0:0:
448,192,92170,1,0,0:0:0:0:
64,192,92270,1,0,0:0:0:0:
192,192,92270,1,0,0:0:0:0:
448,192,92270,1,0,0:0:0:0:
192,192,92470,1,0,0:0:0:0:
320,192,92470,1,0,0:0:0:0:
448,192,92470,1,0,0:0:0:0:
320,192,92670,1,0,0:0:0:0:
192,192,92670,1,0,0:0:0:0:
64,192,92670,1,0,0:0:0:0:
64,192,92870,1,0,0:0:0:0:
192,192,92870,1,0,0:0:0:0:
448,192,92870,1,0,0:0:0:0:
320,192,92970,128,0,93070:0:0:0:0:
192,192,93070,128,0,93170:0:0:0:0:
448,192,93170,128,0,93370:0:0:0:0:
64,192,93170,128,0,93370:0:0:0:0:
320,192,93170,1,0,0:0:0:0:
192,192,93470,128,0,93570:0:0:0:0:
320,192,93470,1,0,0:0:0:0:
64,192,93470,1,0,0:0:0:0:
448,192,93570,128,0,93670:0:0:0:0:
192,192,93670,128,0,93770:0:0:0:0:
320,192,93770,128,0,93970:0:0:0:0:
64,192,93770,128,0,93970:0:0:0:0:
192,192,94070,1,0,0:0:0:0:
448,192,94070,1,0,0:0:0:0:
320,192,94070,128,0,94170:0:0:0:0:
64,192,94170,128,0,94270:0:0:0:0:
448,192,94270,1,0,0:0:0:0:
192,192,94270,128,0,94370:0:0:0:0:
320,192,94370,128,0,94470:0:0:0:0:
64,192,94470,128,0,94770:0:0:0:0:
448,192,94470,128,0,94570:0:0:0:0:
192,192,94470,128,0,94670:0:0:0:0:
320,192,94570,128,0,94770:0:0:0:0:
448,192,94670,128,0,94770:0:0:0:0:
192,192,94770,128,0,94870:0:0:0:0:
320,192,94870,1,0,0:0:0:0:
64,192,94870,1,0,0:0:0:0:
448,192,94870,1,0,0:0:0:0:
192,192,95070,1,0,0:0:0:0:
320,192,95070,1,0,0:0:0:0:
448,192,95170,1,0,0:0:0:0:
192,192,95170,1,0,0:0:0:0:
64,192,95170,1,0,0:0:0:0:
320,192,95370,1,0,0:0:0:0:
448,192,95370,1,0,0:0:0:0:
64,192,95470,1,0,0:0:0:0:
192,192,95470,1,0,0:0:0:0:
448,192,95470,1,0,0:0:0:0:
448,192,95670,1,0,0:0:0:0:
320,192,95670,1,0,0:0:0:0:
64,192,95670,1,0,0:0:0:0:
320,192,95870,1,0,0:0:0:0:
192,192,95870,1,0,0:0:0:0:
448,192,95870,1,0,0:0:0:0:
64,192,96070,128,0,96370:0:0:0:0:
320,192,96070,128,0,96170:0:0:0:0:
192,192,96070,128,0,96270:0:0:0:0:
448,192,96170,128,0,96370:0:0:0:0:
320,192,96270,128,0,96370:0:0:0:0:
192,192,96370,128,0,96470:0:0:0:0:
448,192,96470,1,0,0:0:0:0:
64,192,96470,1,0,0:0:0:0:
320,192,96470,1,0,0:0:0:0:
192,192,96670,1,0,0:0:0:0:
448,192,96670,1,0,0:0:0:0:
64,192,96770,1,0,0:0:0:0:
192,192,96770,1,0,0:0:0:0:
320,192,96770,1,0,0:0:0:0:
64,192,96970,1,0,0:0:0:0:
448,192,96970,1,0,0:0:0:0:
192,192,97070,1,0,0:0:0:0:
320,192,97070,1,0,0:0:0:0:
448,192,97070,1,0,0:0:0:0:
448,192,97270,1,0,0:0:0:0:
64,192,97270,1,0,0:0:0:0:
192,192,97270,1,0,0:0:0:0:
64,192,97470,1,0,0:0:0:0:
192,192,97470,1,0,0:0:0:0:
320,192,97470,1,0,0:0:0:0:
448,192,97670,128,0,97970:0:0:0:0:
64,192,97670,128,0,97770:0:0:0:0:
320,192,97670,128,0,97870:0:0:0:0:
192,192,97770,128,0,97970:0:0:0:0:
64,192,97870,128,0,97970:0:0:0:0:
320,192,97970,128,0,98070:0:0:0:0:
192,192,98070,1,0,0:0:0:0:
64,192,98070,1,0,0:0:0:0:
448,192,98070,1,0,0:0:0:0:
192,192,98270,1,0,0:0:0:0:
320,192,98270,1,0,0:0:0:0:
448,192,98370,1,0,0:0:0:0:
320,192,98370,1,0,0:0:0:0:
64,192,98370,1,0,0:0:0:0:
192,192,98570,1,0,0:0:0:0:
448,192,98570,1,0,0:0:0:0:
320,192,98670,1,0,0:0:0:0:
192,192,98670,1,0,0:0:0:0:
64,192,98670,1,0,0:0:0:0:
320,192,98870,1,0,0:0:0:0:
64,192,98870,1,0,0:0:0:0:
448,192,98870,1,0,0:0:0:0:
192,192,99070,1,0,0:0:0:0:
320,192,99070,1,0,0:0:0:0:
448,192,99070,1,0,0:0:0:0:
64,192,99270,128,0,99370:0:0:0:0:
320,192,99270,1,0,0:0:0:0:
448,192,99270,1,0,0:0:0:0:
192,192,99370,128,0,99470:0:0:0:0:
320,192,99470,128,0,99570:0:0:0:0:
448,192,99570,128,0,99770:0:0:0:0:
64,192,99570,128,0,99770:0:0:0:0:
192,192,99570,1,0,0:0:0:0:
192,192,99870,128,0,99970:0:0:0:0:
320,192,99870,1,0,0:0:0:0:
448,192,99870,1,0,0:0:0:0:
64,192,99970,128,0,100070:0:0:0:0:
320,192,100070,128,0,100170:0:0:0:0:
64,192,100170,128,0,100270:0:0:0:0:
448,192,100170,128,0,100270:0:0:0:0:
192,192,100170,128,0,100270:0:0:0:0:
192,192,100370,128,0,100470:0:0:0:0:
448,192,100370,128,0,100470:0:0:0:0:
320,192,100370,128,0,100470:0:0:0:0:
64,192,100570,128,0,100770:0:0:0:0:
192,192,100570,128,0,100770:0:0:0:0:
448,192,100570,128,0,100770:0:0:0:0:
320,192,100870,128,0,102070:0:0:0:0:
448,192,101070,1,0,0:0:0:0:
192,192,101070,1,0,0:0:0:0:
64,192,101270,1,0,0:0:0:0:
192,192,101270,1,0,0:0:0:0:
448,192,101270,1,0,0:0:0:0:
64,192,101370,1,0,0:0:0:0:
192,192,101470,1,0,0:0:0:0:
448,192,101570,1,0,0:0:0:0:
448,192,101670,1,0,0:0:0:0:
64,192,101670,1,0,0:0:0:0:
192,192,101770,1,0,0:0:0:0:
64,192,101870,1,0,0:0:0:0:
448,192,101970,1,0,0:0:0:0:
64,192,102070,1,0,0:0:0:0:
448,192,102070,1,0,0:0:0:0:
192,192,102070,1,0,0:0:0:0:
192,192,102170,1,0,0:0:0:0:
320,192,102170,1,0,0:0:0:0:
64,192,102270,1,0,0:0:0:0:
448,192,102270,1,0,0:0:0:0:
320,192,102370,1,0,0:0:0:0:
448,192,102370,1,0,0:0:0:0:
192,192,102470,1,0,0:0:0:0:
64,192,102470,128,0,102770:0:0:0:0:
320,192,102570,1,0,0:0:0:0:
448,192,102670,1,0,0:0:0:0:
320,192,102770,1,0,0:0:0:0:
192,192,102870,1,0,0:0:0:0:
64,192,102870,1,0,0:0:0:0:
448,192,102870,128,0,103170:0:0:0:0:
320,192,102970,1,0,0:0:0:0:
64,192,103070,1,0,0:0:0:0:
192,192,103170,1,0,0:0:0:0:
320,192,103270,1,0,0:0:0:0:
64,192,103270,128,0,103570:0:0:0:0:
320,192,103370,1,0,0:0:0:0:
192,192,103470,1,0,0:0:0:0:
320,192,103570,1,0,0:0:0:0:
448,192,103570,1,0,0:0:0:0:
192,192,103670,1,0,0:0:0:0:
448,192,103670,1,0,0:0:0:0:
64,192,103670,1,0,0:0:0:0:
64,192,103770,1,0,0:0:0:0:
320,192,103870,1,0,0:0:0:0:
192,192,103870,128,0,104470:0:0:0:0:
448,192,103970,1,0,0:0:0:0:
320,192,104070,1,0,0:0:0:0:
64,192,104070,1,0,0:0:0:0:
64,192,104170,1,0,0:0:0:0:
448,192,104270,1,0,0:0:0:0:
320,192,104370,1,0,0:0:0:0:
64,192,104470,1,0,0:0:0:0:
320,192,104470,1,0,0:0:0:0:
448,192,104470,1,0,0:0:0:0:
192,192,104570,1,0,0:0:0:0:
320,192,104670,1,0,0:0:0:0:
448,192,104670,1,0,0:0:0:0:
64,192,104770,1,0,0:0:0:0:
320,192,104770,1,0,0:0:0:0:
64,192,104870,1,0,0:0:0:0:
192,192,104870,128,0,105070:0:0:0:0:
448,192,104970,1,0,0:0:0:0:
320,192,105070,1,0,0:0:0:0:
64,192,105070,1,0,0:0:0:0:
192,192,105170,1,0,0:0:0:0:
192,192,105270,1,0,0:0:0:0:
320,192,105270,1,0,0:0:0:0:
448,192,105270,1,0,0:0:0:0:
320,192,105370,1,0,0:0:0:0:
64,192,105470,1,0,0:0:0:0:
448,192,105470,128,0,105870:0:0:0:0:
64,192,105570,1,0,0:0:0:0:
192,192,105670,1,0,0:0:0:0:
320,192,105670,1,0,0:0:0:0:
192,192,105770,1,0,0:0:0:0:
64,192,105870,1,0,0:0:0:0:
320,192,105870,1,0,0:0:0:0:
448,192,105970,1,0,0:0:0:0:
320,192,106070,1,0,0:0:0:0:
448,192,106070,1,0,0:0:0:0:
64,192,106070,128,0,106370:0:0:0:0:
192,192,106170,1,0,0:0:0:0:
320,192,106270,1,0,0:0:0:0:
448,192,106370,1,0,0:0:0:0:
192,192,106370,1,0,0:0:0:0:
64,192,106470,1,0,0:0:0:0:
320,192,106470,1,0,0:0:0:0:
64,192,106570,1,0,0:0:0:0:
192,192,106670,1,0,0:0:0:0:
448,192,106670,1,0,0:0:0:0:
192,192,106770,1,0,0:0:0:0:
64,192,106870,1,0,0:0:0:0:
320,192,106870,1,0,0:0:0:0:
448,192,106870,1,0,0:0:0:0:
320,192,106970,1,0,0:0:0:0:
192,192,107070,1,0,0:0:0:0:
64,192,107070,1,0,0:0:0:0:
192,192,107170,1,0,0:0:0:0:
320,192,107170,1,0,0:0:0:0:
320,192,107270,1,0,0:0:0:0:
448,192,107270,128,0,107970:0:0:0:0:
64,192,107370,1,0,0:0:0:0:
320,192,107470,1,0,0:0:0:0:
192,192,107570,1,0,0:0:0:0:
64,192,107670,1,0,0:0:0:0:
320,192,107670,1,0,0:0:0:0:
192,192,107670,1,0,0:0:0:0:
320,192,107770,1,0,0:0:0:0:
192,192,107870,1,0,0:0:0:0:
64,192,107970,1,0,0:0:0:0:
192,192,108070,1,0,0:0:0:0:
448,192,108070,1,0,0:0:0:0:
192,192,108170,1,0,0:0:0:0:
320,192,108270,1,0,0:0:0:0:
64,192,108270,1,0,0:0:0:0:
448,192,108370,1,0,0:0:0:0:
64,192,108470,1,0,0:0:0:0:
192,192,108470,1,0,0:0:0:0:
320,192,108470,1,0,0:0:0:0:
64,192,108570,1,0,0:0:0:0:
448,192,108670,1,0,0:0:0:0:
320,192,108670,1,0,0:0:0:0:
320,192,108770,1,0,0:0:0:0:
192,192,108870,1,0,0:0:0:0:
64,192,108870,128,0,109170:0:0:0:0:
192,192,108970,1,0,0:0:0:0:
448,192,109070,1,0,0:0:0:0:
320,192,109170,1,0,0:0:0:0:
64,192,109270,1,0,0:0:0:0:
448,192,109270,1,0,0:0:0:0:
192,192,109270,128,0,109570:0:0:0:0:
448,192,109370,1,0,0:0:0:0:
64,192,109470,1,0,0:0:0:0:
320,192,109570,1,0,0:0:0:0:
448,192,109670,128,0,109970:0:0:0:0:
192,192,109670,1,0,0:0:0:0:
320,192,109770,1,0,0:0:0:0:
64,192,109870,1,0,0:0:0:0:
192,192,109970,1,0,0:0:0:0:
320,192,109970,1,0,0:0:0:0:
64,192,110070,1,0,0:0:0:0:
320,192,110070,1,0,0:0:0:0:
448,192,110070,1,0,0:0:0:0:
192,192,110170,1,0,0:0:0:0:
320,192,110270,1,0,0:0:0:0:
64,192,110270,128,0,112070:0:0:0:0:
320,192,110370,1,0,0:0:0:0:
448,192,110470,1,0,0:0:0:0:
192,192,110470,1,0,0:0:0:0:
320,192,110570,1,0,0:0:0:0:
192,192,110670,1,0,0:0:0:0:
448,192,110770,1,0,0:0:0:0:
192,192,110870,1,0,0:0:0:0:
320,192,110870,1,0,0:0:0:0:
448,192,110870,1,0,0:0:0:0:
192,192,110970,1,0,0:0:0:0:
448,192,111070,1,0,0:0:0:0:
192,192,111170,1,0,0:0:0:0:
320,192,111270,1,0,0:0:0:0:
448,192,111270,1,0,0:0:0:0:
192,192,111370,1,0,0:0:0:0:
320,192,111470,1,0,0:0:0:0:
448,192,111570,1,0,0:0:0:0:
320,192,111670,1,0,0:0:0:0:
448,192,111670,1,0,0:0:0:0:
192,192,111670,1,0,0:0:0:0:
192,192,111770,1,0,0:0:0:0:
320,192,111870,1,0,0:0:0:0:
192,192,111970,1,0,0:0:0:0:
320,192,112070,1,0,0:0:0:0:
448,192,112070,128,0,113270:0:0:0:0:
192,192,112170,1,0,0:0:0:0:
64,192,112270,1,0,0:0:0:0:
320,192,112370,1,0,0:0:0:0:
192,192,112470,1,0,0:0:0:0:
64,192,112470,1,0,0:0:0:0:
320,192,112570,128,0,112670:0:0:0:0:
64,192,112670,128,0,113270:0:0:0:0:
192,192,113070,128,0,113170:0:0:0:0:
320,192,113170,128,0,113270:0:0:0:0:
192,192,113270,1,0,0:0:0:0:
320,192,113370,1,0,0:0:0:0:
64,192,113470,1,0,0:0:0:0:
448,192,113470,1,0,0:0:0:0:
192,192,113670,128,0,113720:0:0:0:0:
64,192,113670,128,0,113870:0:0:0:0:
448,192,113670,128,0,113870:0:0:0:0:
320,192,113770,1,0,0:0:0:0:
192,192,113870,1,0,0:0:0:0:
64,192,113970,128,0,114020:0:0:0:0:
320,192,113970,128,0,114020:0:0:0:0:
448,192,113970,128,0,114020:0:0:0:0:
192,192,114070,1,0,0:0:0:0:
448,192,114170,1,0,0:0:0:0:
64,192,114270,1,0,0:0:0:0:
320,192,114370,1,0,0:0:0:0:
192,192,114470,1,0,0:0:0:0:
64,192,114570,1,0,0:0:0:0:
192,192,114670,1,0,0:0:0:0:
320,192,114770,1,0,0:0:0:0:
448,192,114870,1,0,0:0:0:0:
64,192,114970,1,0,0:0:0:0:
320,192,115070,1,0,0:0:0:0:
192,192,115170,1,0,0:0:0:0:
448,192,115270,1,0,0:0:0:0:
64,192,115370,1,0,0:0:0:0:
192,192,115470,1,0,0:0:0:0:
320,192,115570,1,0,0:0:0:0:
192,192,115670,1,0,0:0:0:0:
448,192,115770,1,0,0:0:0:0:
64,192,115870,1,0,0:0:0:0:
448,192,115970,128,0,116170:0:0:0:0:
320,192,115970,128,0,116020:0:0:0:0:
192,192,115970,128,0,116170:0:0:0:0:
64,192,116070,1,0,0:0:0:0:
320,192,116170,1,0,0:0:0:0:
192,192,116270,128,0,116320:0:0:0:0:
64,192,116270,128,0,116320:0:0:0:0:
448,192,116270,128,0,116320:0:0:0:0:
320,192,116370,1,0,0:0:0:0:
192,192,116470,1,0,0:0:0:0:
64,192,116570,128,0,116770:0:0:0:0:
448,192,116570,128,0,116620:0:0:0:0:
320,192,116570,128,0,116670:0:0:0:0:
192,192,116670,1,0,0:0:0:0:
448,192,116770,1,0,0:0:0:0:
64,192,116870,128,0,116920:0:0:0:0:
320,192,116870,128,0,116920:0:0:0:0:
192,192,116870,128,0,116920:0:0:0:0:
448,192,116970,1,0,0:0:0:0:
192,192,117070,1,0,0:0:0:0:
64,192,117170,128,0,117220:0:0:0:0:
320,192,117170,128,0,117220:0:0:0:0:
448,192,117170,128,0,117220:0:0:0:0:
192,192,117270,1,0,0:0:0:0:
448,192,117370,1,0,0:0:0:0:
64,192,117470,1,0,0:0:0:0:
320,192,117570,1,0,0:0:0:0:
448,192,117670,1,0,0:0:0:0:
64,192,117770,1,0,0:0:0:0:
320,192,117870,1,0,0:0:0:0:
192,192,117970,1,0,0:0:0:0:
320,192,118070,1,0,0:0:0:0:
448,192,118170,1,0,0:0:0:0:
192,192,118270,1,0,0:0:0:0:
320,192,118370,1,0,0:0:0:0:
64,192,118470,1,0,0:0:0:0:
448,192,118570,1,0,0:0:0:0:
192,192,118670,1,0,0:0:0:0:
320,192,118770,1,0,0:0:0:0:
448,192,118870,1,0,0:0:0:0:
192,192,118970,1,0,0:0:0:0:
64,192,119070,1,0,0:0:0:0:
192,192,119170,128,0,119220:0:0:0:0:
320,192,119170,128,0,119220:0:0:0:0:
448,192,119170,128,0,119220:0:0:0:0:
192,192,119370,1,0,0:0:0:0:
448,192,119370,1,0,0:0:0:0:
320,192,119470,1,0,0:0:0:0:
64,192,119470,1,0,0:0:0:0:
320,192,119570,1,0,0:0:0:0:
192,192,119570,1,0,0:0:0:0:
64,192,119670,1,0,0:0:0:0:
448,192,119670,1,0,0:0:0:0:
320,192,119770,1,0,0:0:0:0:
192,192,119770,1,0,0:0:0:0:
320,192,119870,1,0,0:0:0:0:
448,192,119870,1,0,0:0:0:0:
192,192,119970,1,0,0:0:0:0:
64,192,119970,1,0,0:0:0:0:
448,192,120070,1,0,0:0:0:0:
320,192,120070,1,0,0:0:0:0:
64,192,120070,1,0,0:0:0:0:
192,192,120170,1,0,0:0:0:0:
448,192,120270,1,0,0:0:0:0:
192,192,120370,1,0,0:0:0:0:
448,192,120470,1,0,0:0:0:0:
320,192,120470,1,0,0:0:0:0:
64,192,120570,1,0,0:0:0:0:
320,192,120670,1,0,0:0:0:0:
192,192,120770,1,0,0:0:0:0:
320,192,120870,1,0,0:0:0:0:
64,192,120870,1,0,0:0:0:0:
448,192,120970,1,0,0:0:0:0:
192,192,121070,1,0,0:0:0:0:
320,192,121170,1,0,0:0:0:0:
64,192,121270,1,0,0:0:0:0:
192,192,121270,1,0,0:0:0:0:
448,192,121370,1,0,0:0:0:0:
320,192,121470,1,0,0:0:0:0:
192,192,121570,1,0,0:0:0:0:
320,192,121670,1,0,0:0:0:0:
448,192,121670,1,0,0:0:0:0:
64,192,121670,1,0,0:0:0:0:
192,192,121770,1,0,0:0:0:0:
448,192,121870,1,0,0:0:0:0:
64,192,121970,1,0,0:0:0:0:
320,192,122070,1,0,0:0:0:0:
448,192,122070,1,0,0:0:0:0:
192,192,122170,1,0,0:0:0:0:
320,192,122270,1,0,0:0:0:0:
64,192,122370,1,0,0:0:0:0:
448,192,122470,1,0,0:0:0:0:
192,192,122470,128,0,122670:0:0:0:0:
320,192,122470,128,0,122670:0:0:0:0:
448,192,122670,1,0,0:0:0:0:
320,192,122770,1,0,0:0:0:0:
192,192,122770,128,0,122970:0:0:0:0:
64,192,122770,128,0,122970:0:0:0:0:
64,192,123070,128,0,123270:0:0:0:0:
320,192,123070,128,0,123470:0:0:0:0:
448,192,123070,128,0,123670:0:0:0:0:
192,192,123270,1,0,0:0:0:0:
192,192,123370,1,0,0:0:0:0:
64,192,123470,1,0,0:0:0:0:
64,192,123570,1,0,0:0:0:0:
320,192,123670,1,0,0:0:0:0:
320,192,123770,1,0,0:0:0:0:
192,192,123870,1,0,0:0:0:0:
448,192,123970,1,0,0:0:0:0:
64,192,123970,1,0,0:0:0:0:
192,192,123970,1,0,0:0:0:0:
320,192,124070,1,0,0:0:0:0:
320,192,124170,1,0,0:0:0:0:
64,192,124270,1,0,0:0:0:0:
192,192,124370,1,0,0:0:0:0:
320,192,124470,1,0,0:0:0:0:
192,192,124470,1,0,0:0:0:0:
448,192,124570,1,0,0:0:0:0:
64,192,124570,1,0,0:0:0:0:
448,192,124670,1,0,0:0:0:0:
320,192,124670,1,0,0:0:0:0:
192,192,124770,1,0,0:0:0:0:
64,192,124770,1,0,0:0:0:0:
192,192,124870,1,0,0:0:0:0:
320,192,124870,1,0,0:0:0:0:
320,192,124970,1,0,0:0:0:0:
448,192,124970,1,0,0:0:0:0:
64,192,125070,1,0,0:0:0:0:
192,192,125070,1,0,0:0:0:0:
64,192,125170,1,0,0:0:0:0:
448,192,125170,1,0,0:0:0:0:
320,192,125270,1,0,0:0:0:0:
448,192,125270,1,0,0:0:0:0:
192,192,125370,1,0,0:0:0:0:
64,192,125370,1,0,0:0:0:0:
192,192,125470,1,0,0:0:0:0:
448,192,125470,1,0,0:0:0:0:
320,192,125570,1,0,0:0:0:0:
448,192,125570,1,0,0:0:0:0:
64,192,125670,128,0,125770:0:0:0:0:
192,192,125770,128,0,125970:0:0:0:0:
320,192,125770,128,0,125970:0:0:0:0:
448,192,125770,128,0,125970:0:0:0:0:
64,192,126070,128,0,126270:0:0:0:0:
320,192,126070,128,0,126270:0:0:0:0:
448,192,126070,128,0,126270:0:0:0:0:
320,192,126370,128,0,126570:0:0:0:0:
192,192,126370,128,0,126570:0:0:0:0:
64,192,126370,128,0,126570:0:0:0:0:
64,192,126670,128,0,127470:0:0:0:0:
320,192,126670,128,0,127470:0:0:0:0:
448,192,126670,128,0,127470:0:0:0:0:
320,192,127670,1,0,0:0:0:0:
448,192,127670,1,0,0:0:0:0:
64,192,127770,1,0,0:0:0:0:
448,192,127770,1,0,0:0:0:0:
192,192,127870,1,0,0:0:0:0:
320,192,127870,1,0,0:0:0:0:
448,192,127970,1,0,0:0:0:0:
320,192,127970,1,0,0:0:0:0:
64,192,128070,1,0,0:0:0:0:
192,192,128070,1,0,0:0:0:0:
448,192,128170,1,0,0:0:0:0:
192,192,128170,1,0,0:0:0:0:
64,192,128270,1,0,0:0:0:0:
448,192,128270,1,0,0:0:0:0:
192,192,128370,1,0,0:0:0:0:
320,192,128370,1,0,0:0:0:0:
448,192,128470,1,0,0:0:0:0:
320,192,128470,1,0,0:0:0:0:
64,192,128570,1,0,0:0:0:0:
192,192,128570,1,0,0:0:0:0:
320,192,128670,1,0,0:0:0:0:
192,192,128670,1,0,0:0:0:0:
320,192,128770,1,0,0:0:0:0:
448,192,128770,1,0,0:0:0:0:
64,192,129070,128,0,129670:0:0:0:0:
192,192,129070,128,0,129670:0:0:0:0:
320,192,129070,128,0,129670:0:0:0:0:
448,192,129070,128,0,129670:0:0:0:0:
