osu file format v14

[General]
AudioFilename: audio.ogg
AudioLeadIn: 0
PreviewTime: 97414
Countdown: 0
SampleSet: Soft
StackLeniency: 0.7
Mode: 3
LetterboxInBreaks: 0
SpecialStyle: 0
WidescreenStoryboard: 1

[Editor]
DistanceSpacing: 0.2
BeatDivisor: 4
GridSize: 32
TimelineZoom: 2.5

[Metadata]
Title:Aegleseeker
TitleUnicode:Aegleseeker
Artist:Silentroom vs. Frums
ArtistUnicode:Silentroom vs. Frums
Creator:Jinjin
Version:Present
Source:Arcaea
Tags:Esoteric Order Lowiro ijinjin blocko Arcaea Song Contest 2020 Arcaea楽曲コンテスト2020 winner grand prize electronic chiptune speedcore j-core instrumental video game frums.xyz frumsdotxyz featured artist fa MWC 7K 2022 mwc22 osu!mania 7K World Cup 2022 grandfinals mixed rice
BeatmapID:3537172
BeatmapSetID:1666003

[Difficulty]
HPDrainRate:7.8
CircleSize:7
OverallDifficulty:7.8
ApproachRate:5
SliderMultiplier:1.4
SliderTickRate:1

[Events]
//Background and Video events
0,0,"aegleseeker.jpg",0,0
//Break Periods
2,2229,5941
//Storyboard Layer 0 (Background)
//Storyboard Layer 1 (Fail)
//Storyboard Layer 2 (Pass)
//Storyboard Layer 3 (Foreground)
//Storyboard Layer 4 (Overlay)
//Storyboard Sound Samples

[TimingPoints]
1004,256.410256410256,4,2,1,30,1,0
16388,-100,4,2,1,45,0,0
17414,-100,4,2,1,55,0,0
50234,-100,4,2,1,45,0,0
66132,-100,4,2,1,55,0,0
73311,256.410256410256,3,2,1,55,1,0
79977,256.410256410256,4,2,1,30,1,0
89207,-100,4,2,1,45,0,0
97412,-100,4,2,1,60,0,1
113823,-100,4,2,1,60,0,0
115874,-100,4,2,1,60,0,1
126130,-100,4,2,1,60,0,0

[HitObjects]
109,192,1004,5,0,0:0:0:0:
402,192,1004,1,0,0:0:0:0:
182,192,1132,1,0,0:0:0:0:
329,192,1324,1,0,0:0:0:0:
109,192,1516,1,0,0:0:0:0:
256,192,1645,1,0,0:0:0:0:
402,192,1773,1,0,0:0:0:0:
329,192,2029,1,0,0:0:0:0:
182,192,2029,1,0,0:0:0:0:
182,192,7141,5,0,0:0:0:0:
256,192,7157,1,0,0:0:0:0:
329,192,7173,1,0,0:0:0:0:
475,192,7670,1,0,0:0:0:0:
402,192,7798,1,0,0:0:0:0:
329,192,7927,1,0,0:0:0:0:
36,192,8029,1,0,0:0:0:0:
109,192,8132,1,0,0:0:0:0:
182,192,8234,1,0,0:0:0:0:
475,192,8337,1,0,0:0:0:0:
402,192,8439,1,0,0:0:0:0:
329,192,8525,1,0,0:0:0:0:
182,192,8610,1,0,0:0:0:0:
109,192,8696,1,0,0:0:0:0:
36,192,8781,1,0,0:0:0:0:
329,192,8867,1,0,0:0:0:0:
402,192,8952,1,0,0:0:0:0:
109,192,9016,1,0,0:0:0:0:
182,192,9080,1,0,0:0:0:0:
256,192,9145,1,0,0:0:0:0:
475,192,9209,1,0,0:0:0:0:
36,192,9209,1,0,0:0:0:0:
36,192,9850,1,0,0:0:0:0:
475,192,9850,1,0,0:0:0:0:
36,192,10234,1,0,0:0:0:0:
475,192,10234,1,0,0:0:0:0:
475,192,10875,1,0,0:0:0:0:
36,192,10875,1,0,0:0:0:0:
36,192,11132,1,0,0:0:0:0:
475,192,11132,1,0,0:0:0:0:
36,192,11260,1,0,0:0:0:0:
475,192,11260,1,0,0:0:0:0:
475,192,11901,1,0,0:0:0:0:
36,192,11901,1,0,0:0:0:0:
475,192,12286,1,0,0:0:0:0:
36,192,12286,1,0,0:0:0:0:
475,192,12670,1,0,0:0:0:0:
36,192,12670,1,0,0:0:0:0:
475,192,12927,1,0,0:0:0:0:
36,192,12927,1,0,0:0:0:0:
475,192,13183,1,0,0:0:0:0:
36,192,13183,1,0,0:0:0:0:
475,192,13311,1,0,0:0:0:0:
36,192,13311,1,0,0:0:0:0:
329,192,13952,1,0,0:0:0:0:
182,192,13952,1,0,0:0:0:0:
329,192,14337,1,0,0:0:0:0:
182,192,14337,1,0,0:0:0:0:
329,192,14978,1,0,0:0:0:0:
182,192,14978,1,0,0:0:0:0:
329,192,15234,1,0,0:0:0:0:
182,192,15234,1,0,0:0:0:0:
256,192,15362,1,0,0:0:0:0:
109,192,16388,1,0,0:0:0:0:
182,192,16474,1,0,0:0:0:0:
109,192,16559,1,0,0:0:0:0:
402,192,16645,1,0,0:0:0:0:
329,192,16730,1,0,0:0:0:0:
402,192,16815,1,0,0:0:0:0:
182,192,16901,1,0,0:0:0:0:
329,192,16986,1,0,0:0:0:0:
109,192,17072,1,0,0:0:0:0:
402,192,17157,1,0,0:0:0:0:
182,192,17243,1,0,0:0:0:0:
329,192,17328,1,0,0:0:0:0:
36,192,17414,1,0,0:0:0:0:
475,192,17414,1,0,0:0:0:0:
109,192,17414,1,0,0:0:0:0:
402,192,17414,1,0,0:0:0:0:
329,192,17542,1,0,0:0:0:0:
109,192,17606,1,0,0:0:0:0:
182,192,17670,1,0,0:0:0:0:
256,192,17734,1,0,0:0:0:0:
402,192,17798,1,0,0:0:0:0:
475,192,17862,1,0,0:0:0:0:
109,192,17927,1,0,0:0:0:0:
182,192,17991,1,0,0:0:0:0:
329,192,18055,1,0,0:0:0:0:
402,192,18119,1,0,0:0:0:0:
475,192,18183,1,0,0:0:0:0:
36,192,18247,1,0,0:0:0:0:
182,192,18311,1,0,0:0:0:0:
256,192,18375,1,0,0:0:0:0:
329,192,18439,1,0,0:0:0:0:
475,192,18503,1,0,0:0:0:0:
109,192,18568,1,0,0:0:0:0:
182,192,18632,1,0,0:0:0:0:
256,192,18696,1,0,0:0:0:0:
402,192,18760,1,0,0:0:0:0:
475,192,18824,1,0,0:0:0:0:
36,192,18888,1,0,0:0:0:0:
109,192,18952,1,0,0:0:0:0:
256,192,19016,1,0,0:0:0:0:
329,192,19080,1,0,0:0:0:0:
475,192,19145,1,0,0:0:0:0:
36,192,19209,1,0,0:0:0:0:
109,192,19273,1,0,0:0:0:0:
182,192,19337,1,0,0:0:0:0:
329,192,19401,1,0,0:0:0:0:
475,192,19465,1,0,0:0:0:0:
109,192,19529,1,0,0:0:0:0:
182,192,19593,1,0,0:0:0:0:
256,192,19657,1,0,0:0:0:0:
402,192,19721,1,0,0:0:0:0:
475,192,19786,1,0,0:0:0:0:
36,192,19850,1,0,0:0:0:0:
182,192,19914,1,0,0:0:0:0:
329,192,19978,1,0,0:0:0:0:
402,192,20042,1,0,0:0:0:0:
475,192,20106,1,0,0:0:0:0:
109,192,20170,1,0,0:0:0:0:
182,192,20234,1,0,0:0:0:0:
256,192,20298,1,0,0:0:0:0:
329,192,20362,1,0,0:0:0:0:
402,192,20427,1,0,0:0:0:0:
36,192,20491,1,0,0:0:0:0:
182,192,20491,1,0,0:0:0:0:
475,192,20619,1,0,0:0:0:0:
329,192,20619,1,0,0:0:0:0:
329,192,20747,1,0,0:0:0:0:
475,192,20747,1,0,0:0:0:0:
109,192,20811,1,0,0:0:0:0:
182,192,20875,1,0,0:0:0:0:
402,192,20939,1,0,0:0:0:0:
329,192,21003,1,0,0:0:0:0:
109,192,21068,1,0,0:0:0:0:
182,192,21132,1,0,0:0:0:0:
256,192,21196,1,0,0:0:0:0:
475,192,21260,1,0,0:0:0:0:
36,192,21260,1,0,0:0:0:0:
329,192,21260,1,0,0:0:0:0:
475,192,21516,1,0,0:0:0:0:
402,192,21516,1,0,0:0:0:0:
109,192,21516,1,0,0:0:0:0:
36,192,21516,1,0,0:0:0:0:
182,192,21645,1,0,0:0:0:0:
402,192,21709,1,0,0:0:0:0:
329,192,21773,1,0,0:0:0:0:
256,192,21837,1,0,0:0:0:0:
109,192,21901,1,0,0:0:0:0:
36,192,21965,1,0,0:0:0:0:
402,192,22029,1,0,0:0:0:0:
329,192,22093,1,0,0:0:0:0:
182,192,22157,1,0,0:0:0:0:
109,192,22221,1,0,0:0:0:0:
36,192,22286,1,0,0:0:0:0:
475,192,22350,1,0,0:0:0:0:
329,192,22414,1,0,0:0:0:0:
256,192,22478,1,0,0:0:0:0:
182,192,22542,1,0,0:0:0:0:
36,192,22606,1,0,0:0:0:0:
402,192,22670,1,0,0:0:0:0:
329,192,22734,1,0,0:0:0:0:
256,192,22798,1,0,0:0:0:0:
109,192,22862,1,0,0:0:0:0:
36,192,22927,1,0,0:0:0:0:
475,192,22991,1,0,0:0:0:0:
402,192,23055,1,0,0:0:0:0:
256,192,23119,1,0,0:0:0:0:
182,192,23183,1,0,0:0:0:0:
36,192,23247,1,0,0:0:0:0:
475,192,23311,1,0,0:0:0:0:
402,192,23375,1,0,0:0:0:0:
329,192,23439,1,0,0:0:0:0:
182,192,23503,1,0,0:0:0:0:
36,192,23568,1,0,0:0:0:0:
402,192,23632,1,0,0:0:0:0:
329,192,23696,1,0,0:0:0:0:
256,192,23760,1,0,0:0:0:0:
109,192,23824,1,0,0:0:0:0:
36,192,23888,1,0,0:0:0:0:
475,192,23952,1,0,0:0:0:0:
329,192,24016,1,0,0:0:0:0:
182,192,24080,1,0,0:0:0:0:
109,192,24145,1,0,0:0:0:0:
36,192,24209,1,0,0:0:0:0:
402,192,24273,1,0,0:0:0:0:
329,192,24337,1,0,0:0:0:0:
256,192,24401,1,0,0:0:0:0:
182,192,24465,1,0,0:0:0:0:
109,192,24529,1,0,0:0:0:0:
329,192,24593,1,0,0:0:0:0:
475,192,24593,1,0,0:0:0:0:
182,192,24721,1,0,0:0:0:0:
329,192,24850,1,0,0:0:0:0:
475,192,24850,1,0,0:0:0:0:
36,192,24978,1,0,0:0:0:0:
182,192,24978,1,0,0:0:0:0:
329,192,25042,1,0,0:0:0:0:
36,192,25170,1,0,0:0:0:0:
182,192,25170,1,0,0:0:0:0:
402,192,25234,1,0,0:0:0:0:
475,192,25298,1,0,0:0:0:0:
256,192,25362,1,0,0:0:0:0:
109,192,25491,1,0,0:0:0:0:
36,192,25491,1,0,0:0:0:0:
402,192,25619,1,0,0:0:0:0:
475,192,25619,1,0,0:0:0:0:
329,192,25619,1,0,0:0:0:0:
256,192,25683,1,0,0:0:0:0:
182,192,25683,1,0,0:0:0:0:
36,192,25747,1,0,0:0:0:0:
109,192,25747,1,0,0:0:0:0:
329,192,25811,1,0,0:0:0:0:
402,192,25875,1,0,0:0:0:0:
475,192,25875,1,0,0:0:0:0:
36,192,26003,1,0,0:0:0:0:
109,192,26003,1,0,0:0:0:0:
182,192,26003,1,0,0:0:0:0:
256,192,26068,1,0,0:0:0:0:
329,192,26068,1,0,0:0:0:0:
402,192,26132,1,0,0:0:0:0:
475,192,26132,1,0,0:0:0:0:
182,192,26196,1,0,0:0:0:0:
109,192,26260,1,0,0:0:0:0:
36,192,26260,1,0,0:0:0:0:
475,192,26388,1,0,0:0:0:0:
402,192,26388,1,0,0:0:0:0:
256,192,26388,1,0,0:0:0:0:
329,192,26388,1,0,0:0:0:0:
36,192,26645,1,0,0:0:0:0:
109,192,26645,1,0,0:0:0:0:
256,192,26645,1,0,0:0:0:0:
329,192,26709,1,0,0:0:0:0:
182,192,26709,1,0,0:0:0:0:
475,192,26773,1,0,0:0:0:0:
402,192,26773,1,0,0:0:0:0:
36,192,26837,1,0,0:0:0:0:
109,192,26901,1,0,0:0:0:0:
182,192,26901,1,0,0:0:0:0:
402,192,27029,1,0,0:0:0:0:
475,192,27029,1,0,0:0:0:0:
256,192,27029,1,0,0:0:0:0:
182,192,27093,1,0,0:0:0:0:
329,192,27093,1,0,0:0:0:0:
109,192,27157,1,0,0:0:0:0:
36,192,27157,1,0,0:0:0:0:
475,192,27221,1,0,0:0:0:0:
402,192,27286,1,0,0:0:0:0:
329,192,27286,1,0,0:0:0:0:
36,192,27414,1,0,0:0:0:0:
182,192,27414,1,0,0:0:0:0:
109,192,27414,1,0,0:0:0:0:
256,192,27414,1,0,0:0:0:0:
36,192,27670,1,0,0:0:0:0:
182,192,27670,1,0,0:0:0:0:
109,192,27670,1,0,0:0:0:0:
475,192,27734,1,0,0:0:0:0:
402,192,27734,1,0,0:0:0:0:
329,192,27798,1,0,0:0:0:0:
256,192,27798,1,0,0:0:0:0:
182,192,27862,1,0,0:0:0:0:
109,192,27927,1,0,0:0:0:0:
36,192,27927,1,0,0:0:0:0:
402,192,28055,1,0,0:0:0:0:
475,192,28055,1,0,0:0:0:0:
329,192,28055,1,0,0:0:0:0:
109,192,28119,1,0,0:0:0:0:
36,192,28119,1,0,0:0:0:0:
256,192,28183,1,0,0:0:0:0:
182,192,28183,1,0,0:0:0:0:
329,192,28247,1,0,0:0:0:0:
475,192,28311,1,0,0:0:0:0:
402,192,28311,1,0,0:0:0:0:
36,192,28439,1,0,0:0:0:0:
109,192,28439,1,0,0:0:0:0:
256,192,28439,1,0,0:0:0:0:
182,192,28439,1,0,0:0:0:0:
402,192,28696,1,0,0:0:0:0:
329,192,28696,1,0,0:0:0:0:
475,192,28696,1,0,0:0:0:0:
36,192,28760,1,0,0:0:0:0:
109,192,28760,1,0,0:0:0:0:
256,192,28824,1,0,0:0:0:0:
182,192,28824,1,0,0:0:0:0:
329,192,28888,1,0,0:0:0:0:
475,192,28952,1,0,0:0:0:0:
402,192,28952,1,0,0:0:0:0:
109,192,29080,1,0,0:0:0:0:
182,192,29080,1,0,0:0:0:0:
36,192,29080,1,0,0:0:0:0:
475,192,29145,1,0,0:0:0:0:
329,192,29145,1,0,0:0:0:0:
256,192,29209,1,0,0:0:0:0:
402,192,29209,1,0,0:0:0:0:
182,192,29273,1,0,0:0:0:0:
36,192,29337,1,0,0:0:0:0:
109,192,29337,1,0,0:0:0:0:
256,192,29465,1,0,0:0:0:0:
402,192,29465,1,0,0:0:0:0:
475,192,29465,1,0,0:0:0:0:
329,192,29465,1,0,0:0:0:0:
109,192,29551,1,0,0:0:0:0:
36,192,29551,1,0,0:0:0:0:
182,192,29636,1,0,0:0:0:0:
256,192,29636,1,0,0:0:0:0:
475,192,29721,1,0,0:0:0:0:
402,192,29721,1,0,0:0:0:0:
329,192,29721,1,0,0:0:0:0:
109,192,29786,1,0,0:0:0:0:
36,192,29786,1,0,0:0:0:0:
182,192,29850,1,0,0:0:0:0:
256,192,29850,1,0,0:0:0:0:
329,192,29914,1,0,0:0:0:0:
36,192,29978,1,0,0:0:0:0:
109,192,29978,1,0,0:0:0:0:
475,192,30106,1,0,0:0:0:0:
402,192,30106,1,0,0:0:0:0:
329,192,30106,1,0,0:0:0:0:
36,192,30170,1,0,0:0:0:0:
109,192,30170,1,0,0:0:0:0:
182,192,30234,1,0,0:0:0:0:
256,192,30234,1,0,0:0:0:0:
329,192,30298,1,0,0:0:0:0:
109,192,30362,1,0,0:0:0:0:
36,192,30362,1,0,0:0:0:0:
402,192,30491,1,0,0:0:0:0:
475,192,30491,1,0,0:0:0:0:
256,192,30491,1,0,0:0:0:0:
182,192,30491,1,0,0:0:0:0:
36,192,30747,1,0,0:0:0:0:
109,192,30747,1,0,0:0:0:0:
182,192,30747,1,0,0:0:0:0:
475,192,30811,1,0,0:0:0:0:
402,192,30811,1,0,0:0:0:0:
329,192,30875,1,0,0:0:0:0:
256,192,30875,1,0,0:0:0:0:
182,192,30939,1,0,0:0:0:0:
475,192,31003,1,0,0:0:0:0:
402,192,31003,1,0,0:0:0:0:
36,192,31132,1,0,0:0:0:0:
109,192,31132,1,0,0:0:0:0:
182,192,31132,1,0,0:0:0:0:
402,192,31196,1,0,0:0:0:0:
475,192,31196,1,0,0:0:0:0:
256,192,31260,1,0,0:0:0:0:
329,192,31260,1,0,0:0:0:0:
182,192,31324,1,0,0:0:0:0:
475,192,31388,1,0,0:0:0:0:
402,192,31388,1,0,0:0:0:0:
256,192,31516,1,0,0:0:0:0:
109,192,31516,1,0,0:0:0:0:
329,192,31516,1,0,0:0:0:0:
36,192,31516,1,0,0:0:0:0:
256,192,31773,1,0,0:0:0:0:
402,192,31773,1,0,0:0:0:0:
329,192,31773,1,0,0:0:0:0:
109,192,31837,1,0,0:0:0:0:
36,192,31837,1,0,0:0:0:0:
182,192,31901,1,0,0:0:0:0:
475,192,31901,1,0,0:0:0:0:
402,192,31965,1,0,0:0:0:0:
109,192,32029,1,0,0:0:0:0:
36,192,32029,1,0,0:0:0:0:
402,192,32157,1,0,0:0:0:0:
329,192,32157,1,0,0:0:0:0:
256,192,32157,1,0,0:0:0:0:
36,192,32221,1,0,0:0:0:0:
109,192,32221,1,0,0:0:0:0:
182,192,32286,1,0,0:0:0:0:
475,192,32286,1,0,0:0:0:0:
402,192,32350,1,0,0:0:0:0:
36,192,32414,1,0,0:0:0:0:
109,192,32414,1,0,0:0:0:0:
182,192,32542,1,0,0:0:0:0:
329,192,32542,1,0,0:0:0:0:
256,192,32542,1,0,0:0:0:0:
475,192,32542,1,0,0:0:0:0:
36,192,32798,1,0,0:0:0:0:
329,192,32798,1,0,0:0:0:0:
402,192,32798,1,0,0:0:0:0:
109,192,32841,1,0,0:0:0:0:
182,192,32884,1,0,0:0:0:0:
256,192,32927,1,0,0:0:0:0:
475,192,32991,1,0,0:0:0:0:
109,192,33055,1,0,0:0:0:0:
402,192,33098,1,0,0:0:0:0:
182,192,33119,1,0,0:0:0:0:
329,192,33140,1,0,0:0:0:0:
256,192,33183,1,0,0:0:0:0:
182,192,33439,1,0,0:0:0:0:
329,192,33439,1,0,0:0:0:0:
36,192,33439,1,0,0:0:0:0:
475,192,33439,1,0,0:0:0:0:
36,192,33824,1,0,0:0:0:0:
475,192,33824,1,0,0:0:0:0:
402,192,33824,1,0,0:0:0:0:
109,192,33824,1,0,0:0:0:0:
256,192,33824,1,0,0:0:0:0:
329,192,34080,1,0,0:0:0:0:
36,192,34080,1,0,0:0:0:0:
109,192,34080,1,0,0:0:0:0:
402,192,34080,1,0,0:0:0:0:
329,192,34337,1,0,0:0:0:0:
402,192,34337,1,0,0:0:0:0:
475,192,34337,1,0,0:0:0:0:
182,192,34337,1,0,0:0:0:0:
402,192,34529,1,0,0:0:0:0:
475,192,34529,1,0,0:0:0:0:
329,192,34529,1,0,0:0:0:0:
182,192,34529,1,0,0:0:0:0:
402,192,34721,1,0,0:0:0:0:
475,192,34721,1,0,0:0:0:0:
329,192,34721,1,0,0:0:0:0:
182,192,34721,1,0,0:0:0:0:
36,192,34914,1,0,0:0:0:0:
109,192,34914,1,0,0:0:0:0:
256,192,34914,1,0,0:0:0:0:
329,192,34914,1,0,0:0:0:0:
109,192,35106,1,0,0:0:0:0:
182,192,35106,1,0,0:0:0:0:
329,192,35106,1,0,0:0:0:0:
402,192,35106,1,0,0:0:0:0:
109,192,35362,1,0,0:0:0:0:
36,192,35362,1,0,0:0:0:0:
402,192,35362,1,0,0:0:0:0:
256,192,35362,1,0,0:0:0:0:
36,192,35555,1,0,0:0:0:0:
109,192,35555,1,0,0:0:0:0:
256,192,35555,1,0,0:0:0:0:
402,192,35555,1,0,0:0:0:0:
109,192,35747,1,0,0:0:0:0:
36,192,35747,1,0,0:0:0:0:
256,192,35747,1,0,0:0:0:0:
402,192,35747,1,0,0:0:0:0:
402,192,35939,1,0,0:0:0:0:
475,192,35939,1,0,0:0:0:0:
256,192,35939,1,0,0:0:0:0:
182,192,35939,1,0,0:0:0:0:
256,192,36132,1,0,0:0:0:0:
109,192,36132,1,0,0:0:0:0:
36,192,36132,1,0,0:0:0:0:
329,192,36132,1,0,0:0:0:0:
329,192,36388,1,0,0:0:0:0:
475,192,36388,1,0,0:0:0:0:
182,192,36388,1,0,0:0:0:0:
109,192,36388,1,0,0:0:0:0:
182,192,36580,1,0,0:0:0:0:
109,192,36580,1,0,0:0:0:0:
329,192,36580,1,0,0:0:0:0:
475,192,36580,1,0,0:0:0:0:
475,192,36773,1,0,0:0:0:0:
329,192,36773,1,0,0:0:0:0:
182,192,36773,1,0,0:0:0:0:
109,192,36773,1,0,0:0:0:0:
109,192,36965,1,0,0:0:0:0:
36,192,36965,1,0,0:0:0:0:
256,192,36965,1,0,0:0:0:0:
329,192,36965,1,0,0:0:0:0:
256,192,37157,1,0,0:0:0:0:
402,192,37157,1,0,0:0:0:0:
475,192,37157,1,0,0:0:0:0:
182,192,37157,1,0,0:0:0:0:
256,192,37414,1,0,0:0:0:0:
475,192,37414,1,0,0:0:0:0:
36,192,37414,1,0,0:0:0:0:
182,192,37414,1,0,0:0:0:0:
329,192,37414,1,0,0:0:0:0:
256,192,37606,1,0,0:0:0:0:
36,192,37606,1,0,0:0:0:0:
475,192,37606,1,0,0:0:0:0:
182,192,37606,1,0,0:0:0:0:
329,192,37606,1,0,0:0:0:0:
256,192,37798,1,0,0:0:0:0:
36,192,37798,1,0,0:0:0:0:
475,192,37798,1,0,0:0:0:0:
182,192,37798,1,0,0:0:0:0:
329,192,37798,1,0,0:0:0:0:
182,192,37927,1,0,0:0:0:0:
329,192,37927,1,0,0:0:0:0:
256,192,37927,1,0,0:0:0:0:
109,192,37927,1,0,0:0:0:0:
402,192,37927,1,0,0:0:0:0:
109,192,38183,1,0,0:0:0:0:
182,192,38183,1,0,0:0:0:0:
36,192,38183,1,0,0:0:0:0:
256,192,38183,1,0,0:0:0:0:
256,192,38439,1,0,0:0:0:0:
475,192,38439,1,0,0:0:0:0:
402,192,38439,1,0,0:0:0:0:
109,192,38439,1,0,0:0:0:0:
402,192,38632,1,0,0:0:0:0:
475,192,38632,1,0,0:0:0:0:
256,192,38632,1,0,0:0:0:0:
109,192,38632,1,0,0:0:0:0:
402,192,38824,1,0,0:0:0:0:
256,192,38824,1,0,0:0:0:0:
475,192,38824,1,0,0:0:0:0:
109,192,38824,1,0,0:0:0:0:
182,192,39016,1,0,0:0:0:0:
329,192,39016,1,0,0:0:0:0:
109,192,39016,1,0,0:0:0:0:
36,192,39016,1,0,0:0:0:0:
182,192,39209,1,0,0:0:0:0:
256,192,39209,1,0,0:0:0:0:
402,192,39209,1,0,0:0:0:0:
475,192,39209,1,0,0:0:0:0:
36,192,39465,1,0,0:0:0:0:
109,192,39465,1,0,0:0:0:0:
256,192,39465,1,0,0:0:0:0:
402,192,39465,1,0,0:0:0:0:
256,192,39657,1,0,0:0:0:0:
36,192,39657,1,0,0:0:0:0:
109,192,39657,1,0,0:0:0:0:
402,192,39657,1,0,0:0:0:0:
36,192,39850,1,0,0:0:0:0:
109,192,39850,1,0,0:0:0:0:
256,192,39850,1,0,0:0:0:0:
402,192,39850,1,0,0:0:0:0:
329,192,40042,1,0,0:0:0:0:
475,192,40042,1,0,0:0:0:0:
182,192,40042,1,0,0:0:0:0:
109,192,40042,1,0,0:0:0:0:
36,192,40234,1,0,0:0:0:0:
256,192,40234,1,0,0:0:0:0:
402,192,40234,1,0,0:0:0:0:
109,192,40234,1,0,0:0:0:0:
475,192,40491,1,0,0:0:0:0:
36,192,40491,1,0,0:0:0:0:
182,192,40491,1,0,0:0:0:0:
329,192,40491,1,0,0:0:0:0:
256,192,40491,1,0,0:0:0:0:
475,192,40683,1,0,0:0:0:0:
329,192,40683,1,0,0:0:0:0:
182,192,40683,1,0,0:0:0:0:
36,192,40683,1,0,0:0:0:0:
256,192,40683,1,0,0:0:0:0:
36,192,40875,1,0,0:0:0:0:
182,192,40875,1,0,0:0:0:0:
329,192,40875,1,0,0:0:0:0:
475,192,40875,1,0,0:0:0:0:
256,192,40875,1,0,0:0:0:0:
182,192,41068,1,0,0:0:0:0:
109,192,41068,1,0,0:0:0:0:
329,192,41068,1,0,0:0:0:0:
402,192,41068,1,0,0:0:0:0:
475,192,41260,1,0,0:0:0:0:
36,192,41260,1,0,0:0:0:0:
256,192,41260,1,0,0:0:0:0:
402,192,41260,1,0,0:0:0:0:
109,192,41260,1,0,0:0:0:0:
475,192,41516,1,0,0:0:0:0:
402,192,41516,1,0,0:0:0:0:
109,192,41580,1,0,0:0:0:0:
36,192,41580,1,0,0:0:0:0:
329,192,41645,1,0,0:0:0:0:
182,192,41709,1,0,0:0:0:0:
475,192,41773,1,0,0:0:0:0:
402,192,41773,1,0,0:0:0:0:
109,192,41837,1,0,0:0:0:0:
36,192,41837,1,0,0:0:0:0:
329,192,41901,1,0,0:0:0:0:
182,192,41965,1,0,0:0:0:0:
475,192,42029,1,0,0:0:0:0:
402,192,42029,1,0,0:0:0:0:
256,192,42029,1,0,0:0:0:0:
109,192,42093,1,0,0:0:0:0:
36,192,42093,1,0,0:0:0:0:
329,192,42157,1,0,0:0:0:0:
182,192,42157,1,0,0:0:0:0:
402,192,42221,1,0,0:0:0:0:
475,192,42221,1,0,0:0:0:0:
36,192,42286,1,0,0:0:0:0:
109,192,42286,1,0,0:0:0:0:
256,192,42414,1,0,0:0:0:0:
402,192,42414,1,0,0:0:0:0:
475,192,42414,1,0,0:0:0:0:
36,192,42478,1,0,0:0:0:0:
109,192,42478,1,0,0:0:0:0:
329,192,42542,1,0,0:0:0:0:
182,192,42542,1,0,0:0:0:0:
475,192,42606,1,0,0:0:0:0:
402,192,42606,1,0,0:0:0:0:
36,192,42670,1,0,0:0:0:0:
109,192,42670,1,0,0:0:0:0:
402,192,42798,1,0,0:0:0:0:
475,192,42798,1,0,0:0:0:0:
329,192,42798,1,0,0:0:0:0:
256,192,42798,1,0,0:0:0:0:
182,192,42798,1,0,0:0:0:0:
36,192,43055,1,0,0:0:0:0:
109,192,43055,1,0,0:0:0:0:
256,192,43055,1,0,0:0:0:0:
402,192,43119,1,0,0:0:0:0:
475,192,43119,1,0,0:0:0:0:
182,192,43183,1,0,0:0:0:0:
329,192,43183,1,0,0:0:0:0:
36,192,43247,1,0,0:0:0:0:
109,192,43247,1,0,0:0:0:0:
475,192,43311,1,0,0:0:0:0:
402,192,43311,1,0,0:0:0:0:
256,192,43439,1,0,0:0:0:0:
109,192,43439,1,0,0:0:0:0:
36,192,43439,1,0,0:0:0:0:
475,192,43503,1,0,0:0:0:0:
402,192,43503,1,0,0:0:0:0:
329,192,43568,1,0,0:0:0:0:
182,192,43568,1,0,0:0:0:0:
109,192,43632,1,0,0:0:0:0:
36,192,43632,1,0,0:0:0:0:
256,192,43696,1,0,0:0:0:0:
402,192,43696,1,0,0:0:0:0:
109,192,43824,1,0,0:0:0:0:
36,192,43824,1,0,0:0:0:0:
182,192,43824,1,0,0:0:0:0:
475,192,43824,1,0,0:0:0:0:
329,192,43824,1,0,0:0:0:0:
329,192,44080,1,0,0:0:0:0:
402,192,44080,1,0,0:0:0:0:
475,192,44080,1,0,0:0:0:0:
36,192,44145,1,0,0:0:0:0:
109,192,44145,1,0,0:0:0:0:
256,192,44209,1,0,0:0:0:0:
182,192,44209,1,0,0:0:0:0:
402,192,44273,1,0,0:0:0:0:
329,192,44273,1,0,0:0:0:0:
109,192,44337,1,0,0:0:0:0:
36,192,44337,1,0,0:0:0:0:
402,192,44465,1,0,0:0:0:0:
329,192,44465,1,0,0:0:0:0:
475,192,44465,1,0,0:0:0:0:
36,192,44529,1,0,0:0:0:0:
109,192,44529,1,0,0:0:0:0:
182,192,44593,1,0,0:0:0:0:
256,192,44593,1,0,0:0:0:0:
402,192,44657,1,0,0:0:0:0:
329,192,44657,1,0,0:0:0:0:
36,192,44721,1,0,0:0:0:0:
109,192,44721,1,0,0:0:0:0:
256,192,44850,1,0,0:0:0:0:
182,192,44850,1,0,0:0:0:0:
402,192,44850,1,0,0:0:0:0:
475,192,44850,1,0,0:0:0:0:
329,192,44850,1,0,0:0:0:0:
182,192,45106,1,0,0:0:0:0:
109,192,45106,1,0,0:0:0:0:
36,192,45106,1,0,0:0:0:0:
475,192,45170,1,0,0:0:0:0:
402,192,45170,1,0,0:0:0:0:
256,192,45234,1,0,0:0:0:0:
329,192,45234,1,0,0:0:0:0:
109,192,45298,1,0,0:0:0:0:
182,192,45298,1,0,0:0:0:0:
402,192,45362,1,0,0:0:0:0:
475,192,45362,1,0,0:0:0:0:
109,192,45491,1,0,0:0:0:0:
256,192,45491,1,0,0:0:0:0:
36,192,45491,1,0,0:0:0:0:
475,192,45555,1,0,0:0:0:0:
402,192,45555,1,0,0:0:0:0:
329,192,45619,1,0,0:0:0:0:
182,192,45619,1,0,0:0:0:0:
109,192,45683,1,0,0:0:0:0:
36,192,45683,1,0,0:0:0:0:
475,192,45747,1,0,0:0:0:0:
402,192,45747,1,0,0:0:0:0:
329,192,45875,1,0,0:0:0:0:
256,192,45875,1,0,0:0:0:0:
109,192,45875,1,0,0:0:0:0:
36,192,45875,1,0,0:0:0:0:
182,192,45875,1,0,0:0:0:0:
402,192,45961,1,0,0:0:0:0:
475,192,45961,1,0,0:0:0:0:
329,192,46046,1,0,0:0:0:0:
182,192,46046,1,0,0:0:0:0:
109,192,46132,1,0,0:0:0:0:
36,192,46132,1,0,0:0:0:0:
256,192,46132,1,0,0:0:0:0:
475,192,46196,1,0,0:0:0:0:
402,192,46196,1,0,0:0:0:0:
182,192,46260,1,0,0:0:0:0:
329,192,46260,1,0,0:0:0:0:
36,192,46324,1,0,0:0:0:0:
109,192,46324,1,0,0:0:0:0:
475,192,46388,1,0,0:0:0:0:
402,192,46388,1,0,0:0:0:0:
256,192,46516,1,0,0:0:0:0:
36,192,46516,1,0,0:0:0:0:
109,192,46516,1,0,0:0:0:0:
475,192,46580,1,0,0:0:0:0:
402,192,46580,1,0,0:0:0:0:
182,192,46645,1,0,0:0:0:0:
329,192,46645,1,0,0:0:0:0:
109,192,46709,1,0,0:0:0:0:
36,192,46709,1,0,0:0:0:0:
402,192,46773,1,0,0:0:0:0:
475,192,46773,1,0,0:0:0:0:
329,192,46901,1,0,0:0:0:0:
36,192,46901,1,0,0:0:0:0:
182,192,46901,1,0,0:0:0:0:
256,192,46901,1,0,0:0:0:0:
109,192,46901,1,0,0:0:0:0:
109,192,47157,1,0,0:0:0:0:
36,192,47157,1,0,0:0:0:0:
256,192,47157,1,0,0:0:0:0:
182,192,47221,1,0,0:0:0:0:
329,192,47221,1,0,0:0:0:0:
475,192,47286,1,0,0:0:0:0:
402,192,47286,1,0,0:0:0:0:
109,192,47350,1,0,0:0:0:0:
36,192,47350,1,0,0:0:0:0:
329,192,47414,1,0,0:0:0:0:
182,192,47414,1,0,0:0:0:0:
36,192,47542,1,0,0:0:0:0:
109,192,47542,1,0,0:0:0:0:
256,192,47542,1,0,0:0:0:0:
329,192,47606,1,0,0:0:0:0:
182,192,47606,1,0,0:0:0:0:
402,192,47670,1,0,0:0:0:0:
475,192,47670,1,0,0:0:0:0:
36,192,47734,1,0,0:0:0:0:
109,192,47734,1,0,0:0:0:0:
329,192,47798,1,0,0:0:0:0:
182,192,47798,1,0,0:0:0:0:
36,192,47927,1,0,0:0:0:0:
402,192,47927,1,0,0:0:0:0:
475,192,47927,1,0,0:0:0:0:
256,192,47927,1,0,0:0:0:0:
109,192,47927,1,0,0:0:0:0:
36,192,48183,1,0,0:0:0:0:
109,192,48183,1,0,0:0:0:0:
256,192,48183,1,0,0:0:0:0:
402,192,48247,1,0,0:0:0:0:
475,192,48247,1,0,0:0:0:0:
182,192,48279,1,0,0:0:0:0:
329,192,48311,1,0,0:0:0:0:
109,192,48311,1,0,0:0:0:0:
36,192,48343,1,0,0:0:0:0:
256,192,48375,1,0,0:0:0:0:
475,192,48439,1,0,0:0:0:0:
402,192,48439,1,0,0:0:0:0:
36,192,48568,1,0,0:0:0:0:
109,192,48568,1,0,0:0:0:0:
256,192,48568,1,0,0:0:0:0:
402,192,48632,1,0,0:0:0:0:
475,192,48632,1,0,0:0:0:0:
182,192,48696,1,0,0:0:0:0:
329,192,48696,1,0,0:0:0:0:
36,192,48760,1,0,0:0:0:0:
109,192,48760,1,0,0:0:0:0:
475,192,48824,1,0,0:0:0:0:
402,192,48824,1,0,0:0:0:0:
36,192,48952,1,0,0:0:0:0:
109,192,48952,1,0,0:0:0:0:
329,192,48952,1,0,0:0:0:0:
182,192,48952,1,0,0:0:0:0:
256,192,48952,1,0,0:0:0:0:
475,192,49209,1,0,0:0:0:0:
402,192,49241,1,0,0:0:0:0:
329,192,49273,1,0,0:0:0:0:
256,192,49305,1,0,0:0:0:0:
182,192,49337,1,0,0:0:0:0:
109,192,49369,1,0,0:0:0:0:
36,192,49401,1,0,0:0:0:0:
475,192,49465,1,0,0:0:0:0:
329,192,49465,1,0,0:0:0:0:
182,192,49593,1,0,0:0:0:0:
36,192,49593,1,0,0:0:0:0:
256,192,50234,1,0,0:0:0:0:
475,192,50234,1,0,0:0:0:0:
36,192,50234,1,0,0:0:0:0:
475,192,50491,1,0,0:0:0:0:
182,192,50491,1,0,0:0:0:0:
109,192,50576,1,0,0:0:0:0:
402,192,50576,1,0,0:0:0:0:
256,192,50662,1,0,0:0:0:0:
36,192,50747,1,0,0:0:0:0:
329,192,50747,1,0,0:0:0:0:
109,192,50833,1,0,0:0:0:0:
402,192,50833,1,0,0:0:0:0:
182,192,50918,1,0,0:0:0:0:
475,192,51003,1,0,0:0:0:0:
256,192,51003,1,0,0:0:0:0:
182,192,51089,1,0,0:0:0:0:
36,192,51089,1,0,0:0:0:0:
329,192,51174,1,0,0:0:0:0:
402,192,51174,1,0,0:0:0:0:
109,192,51260,1,0,0:0:0:0:
182,192,51303,1,0,0:0:0:0:
256,192,51452,1,0,0:0:0:0:
475,192,51452,1,0,0:0:0:0:
182,192,51645,1,0,0:0:0:0:
402,192,51645,1,0,0:0:0:0:
256,192,52286,1,0,0:0:0:0:
36,192,52286,1,0,0:0:0:0:
475,192,52286,1,0,0:0:0:0:
109,192,52456,1,0,0:0:0:0:
402,192,52456,1,0,0:0:0:0:
182,192,52627,1,0,0:0:0:0:
329,192,52713,1,0,0:0:0:0:
256,192,52927,1,0,0:0:0:0:
36,192,52927,1,0,0:0:0:0:
182,192,53183,1,0,0:0:0:0:
475,192,53183,1,0,0:0:0:0:
109,192,53439,1,0,0:0:0:0:
402,192,53439,1,0,0:0:0:0:
36,192,53568,1,0,0:0:0:0:
329,192,53568,1,0,0:0:0:0:
109,192,53696,1,0,0:0:0:0:
402,192,53696,1,0,0:0:0:0:
256,192,53824,1,0,0:0:0:0:
36,192,54337,1,0,0:0:0:0:
256,192,54337,1,0,0:0:0:0:
475,192,54337,1,0,0:0:0:0:
36,192,54721,1,0,0:0:0:0:
329,192,54721,1,0,0:0:0:0:
109,192,54786,1,0,0:0:0:0:
182,192,54850,1,0,0:0:0:0:
402,192,54850,1,0,0:0:0:0:
329,192,55021,1,0,0:0:0:0:
109,192,55021,1,0,0:0:0:0:
402,192,55192,1,0,0:0:0:0:
182,192,55192,1,0,0:0:0:0:
475,192,55362,1,0,0:0:0:0:
256,192,55362,1,0,0:0:0:0:
402,192,55533,1,0,0:0:0:0:
182,192,55533,1,0,0:0:0:0:
329,192,55704,1,0,0:0:0:0:
109,192,55704,1,0,0:0:0:0:
36,192,55875,1,0,0:0:0:0:
256,192,55875,1,0,0:0:0:0:
475,192,56046,1,0,0:0:0:0:
329,192,56046,1,0,0:0:0:0:
402,192,56217,1,0,0:0:0:0:
182,192,56217,1,0,0:0:0:0:
109,192,56303,1,0,0:0:0:0:
256,192,56388,1,0,0:0:0:0:
36,192,56388,1,0,0:0:0:0:
475,192,56388,1,0,0:0:0:0:
329,192,56516,1,0,0:0:0:0:
109,192,56516,1,0,0:0:0:0:
402,192,56645,1,0,0:0:0:0:
182,192,56645,1,0,0:0:0:0:
256,192,56773,1,0,0:0:0:0:
36,192,56773,1,0,0:0:0:0:
109,192,57029,1,0,0:0:0:0:
182,192,57029,1,0,0:0:0:0:
475,192,57286,1,0,0:0:0:0:
329,192,57286,1,0,0:0:0:0:
182,192,57542,1,0,0:0:0:0:
402,192,57542,1,0,0:0:0:0:
109,192,57670,1,0,0:0:0:0:
329,192,57670,1,0,0:0:0:0:
36,192,57798,1,0,0:0:0:0:
256,192,57798,1,0,0:0:0:0:
109,192,58183,1,0,0:0:0:0:
329,192,58183,1,0,0:0:0:0:
182,192,58439,1,0,0:0:0:0:
402,192,58439,1,0,0:0:0:0:
256,192,58568,1,0,0:0:0:0:
475,192,58568,1,0,0:0:0:0:
109,192,58696,1,0,0:0:0:0:
402,192,58696,1,0,0:0:0:0:
329,192,58781,1,0,0:0:0:0:
182,192,58824,1,0,0:0:0:0:
402,192,58867,1,0,0:0:0:0:
256,192,58952,1,0,0:0:0:0:
182,192,59038,1,0,0:0:0:0:
109,192,59123,1,0,0:0:0:0:
329,192,59209,1,0,0:0:0:0:
182,192,59209,1,0,0:0:0:0:
402,192,59294,1,0,0:0:0:0:
329,192,59380,1,0,0:0:0:0:
475,192,59465,1,0,0:0:0:0:
36,192,59465,1,0,0:0:0:0:
182,192,59657,1,0,0:0:0:0:
329,192,59657,1,0,0:0:0:0:
36,192,59850,1,0,0:0:0:0:
109,192,59850,1,0,0:0:0:0:
182,192,60106,1,0,0:0:0:0:
329,192,60138,1,0,0:0:0:0:
402,192,60234,1,0,0:0:0:0:
475,192,60362,1,0,0:0:0:0:
256,192,60362,1,0,0:0:0:0:
36,192,60491,1,0,0:0:0:0:
109,192,60491,1,0,0:0:0:0:
182,192,60619,1,0,0:0:0:0:
402,192,60619,1,0,0:0:0:0:
329,192,60875,1,0,0:0:0:0:
109,192,60875,1,0,0:0:0:0:
182,192,61132,1,0,0:0:0:0:
402,192,61196,1,0,0:0:0:0:
109,192,61260,1,0,0:0:0:0:
182,192,61388,1,0,0:0:0:0:
329,192,61388,1,0,0:0:0:0:
109,192,61645,1,0,0:0:0:0:
402,192,61645,1,0,0:0:0:0:
182,192,61901,1,0,0:0:0:0:
329,192,61901,1,0,0:0:0:0:
109,192,62542,1,0,0:0:0:0:
256,192,62542,1,0,0:0:0:0:
402,192,62542,1,0,0:0:0:0:
36,192,62798,1,0,0:0:0:0:
329,192,62798,1,0,0:0:0:0:
109,192,62884,1,0,0:0:0:0:
402,192,62884,1,0,0:0:0:0:
182,192,62969,1,0,0:0:0:0:
475,192,63055,1,0,0:0:0:0:
109,192,63055,1,0,0:0:0:0:
402,192,63140,1,0,0:0:0:0:
36,192,63140,1,0,0:0:0:0:
329,192,63226,1,0,0:0:0:0:
109,192,63311,1,0,0:0:0:0:
402,192,63311,1,0,0:0:0:0:
182,192,63397,1,0,0:0:0:0:
475,192,63397,1,0,0:0:0:0:
256,192,63482,1,0,0:0:0:0:
36,192,63568,1,0,0:0:0:0:
402,192,63568,1,0,0:0:0:0:
109,192,63653,1,0,0:0:0:0:
329,192,63653,1,0,0:0:0:0:
475,192,63739,1,0,0:0:0:0:
182,192,63824,1,0,0:0:0:0:
402,192,63824,1,0,0:0:0:0:
329,192,63909,1,0,0:0:0:0:
109,192,63909,1,0,0:0:0:0:
182,192,63995,1,0,0:0:0:0:
329,192,64080,1,0,0:0:0:0:
36,192,64080,1,0,0:0:0:0:
402,192,64166,1,0,0:0:0:0:
109,192,64166,1,0,0:0:0:0:
475,192,64251,1,0,0:0:0:0:
182,192,64251,1,0,0:0:0:0:
36,192,64337,1,0,0:0:0:0:
256,192,64337,1,0,0:0:0:0:
329,192,64422,1,0,0:0:0:0:
109,192,64422,1,0,0:0:0:0:
182,192,64508,1,0,0:0:0:0:
402,192,64508,1,0,0:0:0:0:
475,192,64593,1,0,0:0:0:0:
256,192,64593,1,0,0:0:0:0:
36,192,64593,1,0,0:0:0:0:
402,192,64978,1,0,0:0:0:0:
109,192,64978,1,0,0:0:0:0:
329,192,65042,1,0,0:0:0:0:
36,192,65106,1,0,0:0:0:0:
256,192,65106,1,0,0:0:0:0:
402,192,65234,1,0,0:0:0:0:
109,192,65234,1,0,0:0:0:0:
329,192,65362,1,0,0:0:0:0:
182,192,65362,1,0,0:0:0:0:
256,192,65491,1,0,0:0:0:0:
402,192,65491,1,0,0:0:0:0:
109,192,65747,1,0,0:0:0:0:
182,192,65747,1,0,0:0:0:0:
329,192,65875,1,0,0:0:0:0:
256,192,65875,1,0,0:0:0:0:
402,192,66003,1,0,0:0:0:0:
475,192,66003,1,0,0:0:0:0:
36,192,66132,1,0,0:0:0:0:
109,192,66132,1,0,0:0:0:0:
182,192,66132,1,0,0:0:0:0:
475,192,66303,1,0,0:0:0:0:
402,192,66303,1,0,0:0:0:0:
329,192,66303,1,0,0:0:0:0:
182,192,66474,1,0,0:0:0:0:
36,192,66474,1,0,0:0:0:0:
329,192,66559,1,0,0:0:0:0:
475,192,66559,1,0,0:0:0:0:
402,192,66645,1,0,0:0:0:0:
256,192,66645,1,0,0:0:0:0:
109,192,66645,1,0,0:0:0:0:
36,192,66645,1,0,0:0:0:0:
329,192,66730,1,0,0:0:0:0:
182,192,66815,1,0,0:0:0:0:
36,192,66901,1,0,0:0:0:0:
475,192,66901,1,0,0:0:0:0:
402,192,66901,1,0,0:0:0:0:
109,192,66965,1,0,0:0:0:0:
182,192,67029,1,0,0:0:0:0:
256,192,67093,1,0,0:0:0:0:
36,192,67157,1,0,0:0:0:0:
475,192,67157,1,0,0:0:0:0:
402,192,67157,1,0,0:0:0:0:
182,192,67286,1,0,0:0:0:0:
109,192,67286,1,0,0:0:0:0:
329,192,67286,1,0,0:0:0:0:
256,192,67414,1,0,0:0:0:0:
36,192,67414,1,0,0:0:0:0:
475,192,67414,1,0,0:0:0:0:
182,192,67542,1,0,0:0:0:0:
329,192,67542,1,0,0:0:0:0:
402,192,67542,1,0,0:0:0:0:
475,192,67670,1,0,0:0:0:0:
109,192,67670,1,0,0:0:0:0:
36,192,67670,1,0,0:0:0:0:
256,192,67670,1,0,0:0:0:0:
329,192,67798,1,0,0:0:0:0:
182,192,67798,1,0,0:0:0:0:
402,192,67862,1,0,0:0:0:0:
475,192,67927,1,0,0:0:0:0:
36,192,67927,1,0,0:0:0:0:
256,192,67927,1,0,0:0:0:0:
182,192,68055,1,0,0:0:0:0:
109,192,68119,1,0,0:0:0:0:
402,192,68183,1,0,0:0:0:0:
475,192,68183,1,0,0:0:0:0:
256,192,68183,1,0,0:0:0:0:
109,192,68375,1,0,0:0:0:0:
36,192,68375,1,0,0:0:0:0:
256,192,68375,1,0,0:0:0:0:
182,192,68568,1,0,0:0:0:0:
329,192,68568,1,0,0:0:0:0:
402,192,68568,1,0,0:0:0:0:
109,192,68696,1,0,0:0:0:0:
36,192,68696,1,0,0:0:0:0:
256,192,68696,1,0,0:0:0:0:
475,192,68696,1,0,0:0:0:0:
402,192,68760,1,0,0:0:0:0:
329,192,68824,1,0,0:0:0:0:
182,192,68888,1,0,0:0:0:0:
475,192,68952,1,0,0:0:0:0:
36,192,68952,1,0,0:0:0:0:
256,192,68952,1,0,0:0:0:0:
402,192,69016,1,0,0:0:0:0:
109,192,69080,1,0,0:0:0:0:
182,192,69145,1,0,0:0:0:0:
402,192,69209,1,0,0:0:0:0:
475,192,69209,1,0,0:0:0:0:
256,192,69209,1,0,0:0:0:0:
109,192,69273,1,0,0:0:0:0:
36,192,69273,1,0,0:0:0:0:
182,192,69401,1,0,0:0:0:0:
329,192,69401,1,0,0:0:0:0:
402,192,69465,1,0,0:0:0:0:
475,192,69465,1,0,0:0:0:0:
109,192,69529,1,0,0:0:0:0:
36,192,69529,1,0,0:0:0:0:
182,192,69593,1,0,0:0:0:0:
256,192,69593,1,0,0:0:0:0:
402,192,69657,1,0,0:0:0:0:
329,192,69657,1,0,0:0:0:0:
475,192,69721,1,0,0:0:0:0:
36,192,69721,1,0,0:0:0:0:
109,192,69721,1,0,0:0:0:0:
329,192,69914,1,0,0:0:0:0:
182,192,69914,1,0,0:0:0:0:
256,192,69978,1,0,0:0:0:0:
109,192,69978,1,0,0:0:0:0:
402,192,69978,1,0,0:0:0:0:
475,192,69978,1,0,0:0:0:0:
402,192,70234,1,0,0:0:0:0:
475,192,70234,1,0,0:0:0:0:
109,192,70298,1,0,0:0:0:0:
182,192,70298,1,0,0:0:0:0:
329,192,70362,1,0,0:0:0:0:
256,192,70362,1,0,0:0:0:0:
402,192,70427,1,0,0:0:0:0:
475,192,70427,1,0,0:0:0:0:
36,192,70491,1,0,0:0:0:0:
109,192,70491,1,0,0:0:0:0:
182,192,70491,1,0,0:0:0:0:
256,192,70491,1,0,0:0:0:0:
329,192,70683,1,0,0:0:0:0:
402,192,70683,1,0,0:0:0:0:
182,192,70747,1,0,0:0:0:0:
109,192,70747,1,0,0:0:0:0:
475,192,70811,1,0,0:0:0:0:
402,192,70875,1,0,0:0:0:0:
329,192,70939,1,0,0:0:0:0:
109,192,71003,1,0,0:0:0:0:
36,192,71003,1,0,0:0:0:0:
475,192,71003,1,0,0:0:0:0:
256,192,71003,1,0,0:0:0:0:
329,192,71196,1,0,0:0:0:0:
182,192,71196,1,0,0:0:0:0:
475,192,71260,1,0,0:0:0:0:
402,192,71260,1,0,0:0:0:0:
109,192,71260,1,0,0:0:0:0:
36,192,71260,1,0,0:0:0:0:
182,192,71388,1,0,0:0:0:0:
329,192,71388,1,0,0:0:0:0:
475,192,71516,1,0,0:0:0:0:
402,192,71516,1,0,0:0:0:0:
256,192,71516,1,0,0:0:0:0:
109,192,71580,1,0,0:0:0:0:
36,192,71580,1,0,0:0:0:0:
329,192,71645,1,0,0:0:0:0:
182,192,71645,1,0,0:0:0:0:
402,192,71730,1,0,0:0:0:0:
475,192,71730,1,0,0:0:0:0:
36,192,71815,1,0,0:0:0:0:
109,192,71815,1,0,0:0:0:0:
182,192,71901,1,0,0:0:0:0:
329,192,71901,1,0,0:0:0:0:
402,192,71965,1,0,0:0:0:0:
475,192,71965,1,0,0:0:0:0:
36,192,72029,1,0,0:0:0:0:
109,192,72029,1,0,0:0:0:0:
256,192,72029,1,0,0:0:0:0:
182,192,72200,1,0,0:0:0:0:
329,192,72200,1,0,0:0:0:0:
475,192,72286,1,0,0:0:0:0:
256,192,72286,1,0,0:0:0:0:
402,192,72286,1,0,0:0:0:0:
109,192,72286,1,0,0:0:0:0:
182,192,72456,1,0,0:0:0:0:
329,192,72456,1,0,0:0:0:0:
36,192,72542,1,0,0:0:0:0:
256,192,72542,1,0,0:0:0:0:
109,192,72542,1,0,0:0:0:0:
475,192,72606,1,0,0:0:0:0:
402,192,72606,1,0,0:0:0:0:
182,192,72670,1,0,0:0:0:0:
329,192,72670,1,0,0:0:0:0:
109,192,72734,1,0,0:0:0:0:
36,192,72734,1,0,0:0:0:0:
256,192,72798,1,0,0:0:0:0:
402,192,72798,1,0,0:0:0:0:
475,192,72798,1,0,0:0:0:0:
182,192,72927,1,0,0:0:0:0:
36,192,72927,1,0,0:0:0:0:
475,192,73055,1,0,0:0:0:0:
402,192,73055,1,0,0:0:0:0:
256,192,73055,1,0,0:0:0:0:
109,192,73055,1,0,0:0:0:0:
329,192,73311,1,0,0:0:0:0:
182,192,73311,1,0,0:0:0:0:
36,192,73311,1,0,0:0:0:0:
402,192,73311,1,0,0:0:0:0:
402,192,73567,1,0,0:0:0:0:
475,192,73567,1,0,0:0:0:0:
256,192,73567,1,0,0:0:0:0:
182,192,73631,1,0,0:0:0:0:
109,192,73695,1,0,0:0:0:0:
182,192,73759,1,0,0:0:0:0:
256,192,73823,1,0,0:0:0:0:
402,192,73823,1,0,0:0:0:0:
475,192,73823,1,0,0:0:0:0:
36,192,73823,1,0,0:0:0:0:
36,192,74080,1,0,0:0:0:0:
109,192,74080,1,0,0:0:0:0:
256,192,74080,1,0,0:0:0:0:
475,192,74080,1,0,0:0:0:0:
329,192,74144,1,0,0:0:0:0:
402,192,74208,1,0,0:0:0:0:
329,192,74272,1,0,0:0:0:0:
36,192,74336,1,0,0:0:0:0:
109,192,74336,1,0,0:0:0:0:
256,192,74336,1,0,0:0:0:0:
182,192,74464,1,0,0:0:0:0:
329,192,74464,1,0,0:0:0:0:
402,192,74593,1,0,0:0:0:0:
36,192,74721,1,0,0:0:0:0:
182,192,74721,1,0,0:0:0:0:
329,192,74806,1,0,0:0:0:0:
475,192,74806,1,0,0:0:0:0:
182,192,74892,1,0,0:0:0:0:
36,192,74892,1,0,0:0:0:0:
475,192,74977,1,0,0:0:0:0:
402,192,74977,1,0,0:0:0:0:
256,192,75041,1,0,0:0:0:0:
329,192,75041,1,0,0:0:0:0:
109,192,75105,1,0,0:0:0:0:
36,192,75105,1,0,0:0:0:0:
182,192,75105,1,0,0:0:0:0:
256,192,75234,1,0,0:0:0:0:
475,192,75362,1,0,0:0:0:0:
402,192,75362,1,0,0:0:0:0:
329,192,75362,1,0,0:0:0:0:
256,192,75413,1,0,0:0:0:0:
182,192,75413,1,0,0:0:0:0:
109,192,75464,1,0,0:0:0:0:
36,192,75464,1,0,0:0:0:0:
475,192,75516,1,0,0:0:0:0:
402,192,75516,1,0,0:0:0:0:
256,192,75567,1,0,0:0:0:0:
329,192,75567,1,0,0:0:0:0:
36,192,75618,1,0,0:0:0:0:
109,192,75618,1,0,0:0:0:0:
182,192,75618,1,0,0:0:0:0:
402,192,75746,1,0,0:0:0:0:
475,192,75746,1,0,0:0:0:0:
329,192,75746,1,0,0:0:0:0:
36,192,75875,1,0,0:0:0:0:
182,192,75875,1,0,0:0:0:0:
256,192,75875,1,0,0:0:0:0:
109,192,75875,1,0,0:0:0:0:
109,192,76067,1,0,0:0:0:0:
36,192,76067,1,0,0:0:0:0:
475,192,76131,1,0,0:0:0:0:
402,192,76131,1,0,0:0:0:0:
329,192,76131,1,0,0:0:0:0:
182,192,76131,1,0,0:0:0:0:
402,192,76323,1,0,0:0:0:0:
475,192,76323,1,0,0:0:0:0:
36,192,76387,1,0,0:0:0:0:
109,192,76387,1,0,0:0:0:0:
182,192,76387,1,0,0:0:0:0:
329,192,76387,1,0,0:0:0:0:
402,192,76558,1,0,0:0:0:0:
475,192,76558,1,0,0:0:0:0:
256,192,76644,1,0,0:0:0:0:
182,192,76644,1,0,0:0:0:0:
329,192,76644,1,0,0:0:0:0:
36,192,76708,1,0,0:0:0:0:
109,192,76708,1,0,0:0:0:0:
329,192,76815,1,0,0:0:0:0:
402,192,76815,1,0,0:0:0:0:
109,192,76900,1,0,0:0:0:0:
256,192,76900,1,0,0:0:0:0:
182,192,76900,1,0,0:0:0:0:
36,192,76900,1,0,0:0:0:0:
36,192,77157,1,0,0:0:0:0:
475,192,77157,1,0,0:0:0:0:
256,192,77157,1,0,0:0:0:0:
402,192,77157,1,0,0:0:0:0:
109,192,77221,1,0,0:0:0:0:
182,192,77285,1,0,0:0:0:0:
329,192,77285,1,0,0:0:0:0:
475,192,77413,1,0,0:0:0:0:
402,192,77413,1,0,0:0:0:0:
256,192,77413,1,0,0:0:0:0:
36,192,77413,1,0,0:0:0:0:
182,192,77520,1,0,0:0:0:0:
109,192,77520,1,0,0:0:0:0:
329,192,77605,1,0,0:0:0:0:
402,192,77605,1,0,0:0:0:0:
36,192,77712,1,0,0:0:0:0:
109,192,77712,1,0,0:0:0:0:
475,192,77798,1,0,0:0:0:0:
402,192,77798,1,0,0:0:0:0:
256,192,77862,1,0,0:0:0:0:
329,192,77862,1,0,0:0:0:0:
36,192,77926,1,0,0:0:0:0:
109,192,77926,1,0,0:0:0:0:
182,192,77926,1,0,0:0:0:0:
36,192,78182,1,0,0:0:0:0:
256,192,78182,1,0,0:0:0:0:
402,192,78182,1,0,0:0:0:0:
475,192,78182,1,0,0:0:0:0:
109,192,78285,1,0,0:0:0:0:
329,192,78310,1,0,0:0:0:0:
182,192,78336,1,0,0:0:0:0:
475,192,78439,1,0,0:0:0:0:
256,192,78439,1,0,0:0:0:0:
36,192,78439,1,0,0:0:0:0:
329,192,78567,1,0,0:0:0:0:
182,192,78567,1,0,0:0:0:0:
402,192,78695,1,0,0:0:0:0:
36,192,78695,1,0,0:0:0:0:
256,192,78695,1,0,0:0:0:0:
475,192,78695,1,0,0:0:0:0:
109,192,78759,1,0,0:0:0:0:
182,192,78759,1,0,0:0:0:0:
329,192,78866,1,0,0:0:0:0:
402,192,78866,1,0,0:0:0:0:
109,192,78952,1,0,0:0:0:0:
36,192,78952,1,0,0:0:0:0:
256,192,78952,1,0,0:0:0:0:
402,192,79016,1,0,0:0:0:0:
475,192,79016,1,0,0:0:0:0:
329,192,79080,1,0,0:0:0:0:
182,192,79080,1,0,0:0:0:0:
36,192,79144,1,0,0:0:0:0:
109,192,79144,1,0,0:0:0:0:
256,192,79208,1,0,0:0:0:0:
402,192,79208,1,0,0:0:0:0:
475,192,79208,1,0,0:0:0:0:
109,192,79336,1,0,0:0:0:0:
182,192,79336,1,0,0:0:0:0:
256,192,79400,1,0,0:0:0:0:
329,192,79400,1,0,0:0:0:0:
475,192,79464,1,0,0:0:0:0:
402,192,79464,1,0,0:0:0:0:
36,192,79528,1,0,0:0:0:0:
109,192,79528,1,0,0:0:0:0:
182,192,79528,1,0,0:0:0:0:
329,192,79625,1,0,0:0:0:0:
402,192,79625,1,0,0:0:0:0:
475,192,79625,1,0,0:0:0:0:
182,192,79689,1,0,0:0:0:0:
256,192,79689,1,0,0:0:0:0:
109,192,79785,1,0,0:0:0:0:
36,192,79785,1,0,0:0:0:0:
402,192,79849,1,0,0:0:0:0:
475,192,79849,1,0,0:0:0:0:
256,192,79913,1,0,0:0:0:0:
329,192,79913,1,0,0:0:0:0:
109,192,79977,1,0,0:0:0:0:
182,192,79977,1,0,0:0:0:0:
36,192,79977,1,0,0:0:0:0:
475,192,80028,1,0,0:0:0:0:
402,192,80079,1,0,0:0:0:0:
256,192,80130,1,0,0:0:0:0:
109,192,80182,1,0,0:0:0:0:
36,192,80233,1,0,0:0:0:0:
402,192,80276,1,0,0:0:0:0:
329,192,80318,1,0,0:0:0:0:
256,192,80361,1,0,0:0:0:0:
182,192,80404,1,0,0:0:0:0:
36,192,80447,1,0,0:0:0:0:
475,192,80489,1,0,0:0:0:0:
329,192,80526,1,0,0:0:0:0:
256,192,80563,1,0,0:0:0:0:
182,192,80599,1,0,0:0:0:0:
109,192,80636,1,0,0:0:0:0:
402,192,80672,1,0,0:0:0:0:
329,192,80709,1,0,0:0:0:0:
256,192,80746,1,0,0:0:0:0:
182,192,80778,1,0,0:0:0:0:
36,192,80810,1,0,0:0:0:0:
475,192,80842,1,0,0:0:0:0:
402,192,80874,1,0,0:0:0:0:
329,192,80906,1,0,0:0:0:0:
256,192,80938,1,0,0:0:0:0:
182,192,80970,1,0,0:0:0:0:
109,192,81002,1,0,0:0:0:0:
36,192,81002,1,0,0:0:0:0:
475,192,81387,1,0,0:0:0:0:
329,192,81387,1,0,0:0:0:0:
109,192,81643,1,0,0:0:0:0:
182,192,81707,1,0,0:0:0:0:
402,192,81771,1,0,0:0:0:0:
329,192,81835,1,0,0:0:0:0:
109,192,81900,1,0,0:0:0:0:
182,192,81964,1,0,0:0:0:0:
329,192,82028,1,0,0:0:0:0:
402,192,82028,1,0,0:0:0:0:
109,192,82156,1,0,0:0:0:0:
182,192,82284,1,0,0:0:0:0:
256,192,82412,1,0,0:0:0:0:
475,192,82412,1,0,0:0:0:0:
402,192,82669,1,0,0:0:0:0:
329,192,82733,1,0,0:0:0:0:
109,192,82797,1,0,0:0:0:0:
182,192,82861,1,0,0:0:0:0:
329,192,82925,1,0,0:0:0:0:
402,192,82989,1,0,0:0:0:0:
182,192,83053,1,0,0:0:0:0:
109,192,83053,1,0,0:0:0:0:
329,192,83182,1,0,0:0:0:0:
182,192,83310,1,0,0:0:0:0:
402,192,83438,1,0,0:0:0:0:
36,192,83438,1,0,0:0:0:0:
329,192,83694,1,0,0:0:0:0:
182,192,83823,1,0,0:0:0:0:
109,192,83887,1,0,0:0:0:0:
36,192,83951,1,0,0:0:0:0:
256,192,84079,1,0,0:0:0:0:
329,192,84207,1,0,0:0:0:0:
402,192,84335,1,0,0:0:0:0:
475,192,84464,1,0,0:0:0:0:
402,192,84592,1,0,0:0:0:0:
329,192,84720,1,0,0:0:0:0:
256,192,84848,1,0,0:0:0:0:
109,192,84848,1,0,0:0:0:0:
36,192,84976,1,0,0:0:0:0:
182,192,85105,1,0,0:0:0:0:
402,192,85105,1,0,0:0:0:0:
109,192,85489,1,0,0:0:0:0:
329,192,85489,1,0,0:0:0:0:
182,192,85746,1,0,0:0:0:0:
256,192,85810,1,0,0:0:0:0:
329,192,85874,1,0,0:0:0:0:
402,192,86002,1,0,0:0:0:0:
182,192,86130,1,0,0:0:0:0:
329,192,86130,1,0,0:0:0:0:
402,192,86259,1,0,0:0:0:0:
256,192,86387,1,0,0:0:0:0:
36,192,86515,1,0,0:0:0:0:
182,192,86515,1,0,0:0:0:0:
475,192,86771,1,0,0:0:0:0:
329,192,86835,1,0,0:0:0:0:
182,192,86900,1,0,0:0:0:0:
256,192,87028,1,0,0:0:0:0:
475,192,87156,1,0,0:0:0:0:
329,192,87156,1,0,0:0:0:0:
182,192,87541,1,0,0:0:0:0:
402,192,87669,1,0,0:0:0:0:
36,192,87797,1,0,0:0:0:0:
182,192,87925,1,0,0:0:0:0:
329,192,88053,1,0,0:0:0:0:
402,192,88118,1,0,0:0:0:0:
475,192,88182,1,0,0:0:0:0:
109,192,88182,1,0,0:0:0:0:
182,192,88310,1,0,0:0:0:0:
329,192,88438,1,0,0:0:0:0:
475,192,88566,1,0,0:0:0:0:
402,192,88566,1,0,0:0:0:0:
329,192,88823,1,0,0:0:0:0:
182,192,88887,1,0,0:0:0:0:
109,192,88951,1,0,0:0:0:0:
402,192,89015,1,0,0:0:0:0:
256,192,89079,1,0,0:0:0:0:
182,192,89143,1,0,0:0:0:0:
36,192,89207,1,0,0:0:0:0:
475,192,89207,1,0,0:0:0:0:
329,192,89207,1,0,0:0:0:0:
109,192,89464,1,0,0:0:0:0:
402,192,89592,1,0,0:0:0:0:
256,192,89592,1,0,0:0:0:0:
109,192,89720,1,0,0:0:0:0:
329,192,89848,1,0,0:0:0:0:
182,192,89912,1,0,0:0:0:0:
402,192,89976,1,0,0:0:0:0:
109,192,90041,1,0,0:0:0:0:
329,192,90105,1,0,0:0:0:0:
182,192,90169,1,0,0:0:0:0:
256,192,90233,1,0,0:0:0:0:
475,192,90233,1,0,0:0:0:0:
109,192,90361,1,0,0:0:0:0:
329,192,90489,1,0,0:0:0:0:
182,192,90489,1,0,0:0:0:0:
109,192,90618,1,0,0:0:0:0:
256,192,90746,1,0,0:0:0:0:
182,192,90874,1,0,0:0:0:0:
329,192,90938,1,0,0:0:0:0:
109,192,91002,1,0,0:0:0:0:
402,192,91066,1,0,0:0:0:0:
182,192,91130,1,0,0:0:0:0:
329,192,91194,1,0,0:0:0:0:
36,192,91259,1,0,0:0:0:0:
475,192,91259,1,0,0:0:0:0:
329,192,91387,1,0,0:0:0:0:
182,192,91515,1,0,0:0:0:0:
475,192,91643,1,0,0:0:0:0:
402,192,91643,1,0,0:0:0:0:
182,192,91771,1,0,0:0:0:0:
109,192,91900,1,0,0:0:0:0:
475,192,92028,1,0,0:0:0:0:
182,192,92028,1,0,0:0:0:0:
402,192,92092,1,0,0:0:0:0:
329,192,92156,1,0,0:0:0:0:
36,192,92284,1,0,0:0:0:0:
256,192,92284,1,0,0:0:0:0:
109,192,92412,1,0,0:0:0:0:
182,192,92541,1,0,0:0:0:0:
402,192,92541,1,0,0:0:0:0:
475,192,92669,1,0,0:0:0:0:
402,192,92797,1,0,0:0:0:0:
182,192,92797,1,0,0:0:0:0:
109,192,92925,1,0,0:0:0:0:
329,192,93053,1,0,0:0:0:0:
36,192,93053,1,0,0:0:0:0:
182,192,93182,1,0,0:0:0:0:
109,192,93310,1,0,0:0:0:0:
402,192,93310,1,0,0:0:0:0:
329,192,93438,1,0,0:0:0:0:
182,192,93566,1,0,0:0:0:0:
402,192,93694,1,0,0:0:0:0:
109,192,93694,1,0,0:0:0:0:
329,192,93823,1,0,0:0:0:0:
182,192,93951,1,0,0:0:0:0:
402,192,94015,1,0,0:0:0:0:
329,192,94079,1,0,0:0:0:0:
182,192,94207,1,0,0:0:0:0:
402,192,94335,1,0,0:0:0:0:
109,192,94335,1,0,0:0:0:0:
182,192,94464,1,0,0:0:0:0:
329,192,94592,1,0,0:0:0:0:
402,192,94720,1,0,0:0:0:0:
109,192,94720,1,0,0:0:0:0:
329,192,94848,1,0,0:0:0:0:
182,192,94976,1,0,0:0:0:0:
329,192,95105,1,0,0:0:0:0:
182,192,95233,1,0,0:0:0:0:
256,192,95618,1,0,0:0:0:0:
109,192,97412,1,0,0:0:0:0:
36,192,97412,1,0,0:0:0:0:
475,192,97412,1,0,0:0:0:0:
256,192,97412,1,0,0:0:0:0:
402,192,97412,1,0,0:0:0:0:
329,192,97412,1,0,0:0:0:0:
475,192,97541,1,0,0:0:0:0:
402,192,97541,1,0,0:0:0:0:
36,192,97605,1,0,0:0:0:0:
109,192,97605,1,0,0:0:0:0:
329,192,97669,1,0,0:0:0:0:
256,192,97669,1,0,0:0:0:0:
402,192,97797,1,0,0:0:0:0:
475,192,97797,1,0,0:0:0:0:
329,192,97797,1,0,0:0:0:0:
256,192,97797,1,0,0:0:0:0:
36,192,97797,1,0,0:0:0:0:
109,192,97797,1,0,0:0:0:0:
36,192,97925,1,0,0:0:0:0:
109,192,97925,1,0,0:0:0:0:
182,192,97989,1,0,0:0:0:0:
329,192,97989,1,0,0:0:0:0:
402,192,98053,1,0,0:0:0:0:
475,192,98053,1,0,0:0:0:0:
109,192,98182,1,0,0:0:0:0:
256,192,98182,1,0,0:0:0:0:
36,192,98182,1,0,0:0:0:0:
182,192,98182,1,0,0:0:0:0:
329,192,98182,1,0,0:0:0:0:
36,192,98438,1,0,0:0:0:0:
402,192,98438,1,0,0:0:0:0:
475,192,98438,1,0,0:0:0:0:
182,192,98438,1,0,0:0:0:0:
109,192,98438,1,0,0:0:0:0:
256,192,98438,1,0,0:0:0:0:
182,192,98566,1,0,0:0:0:0:
256,192,98566,1,0,0:0:0:0:
402,192,98630,1,0,0:0:0:0:
475,192,98630,1,0,0:0:0:0:
109,192,98694,1,0,0:0:0:0:
36,192,98694,1,0,0:0:0:0:
475,192,98823,1,0,0:0:0:0:
402,192,98823,1,0,0:0:0:0:
36,192,98823,1,0,0:0:0:0:
109,192,98823,1,0,0:0:0:0:
256,192,98823,1,0,0:0:0:0:
182,192,98823,1,0,0:0:0:0:
256,192,99079,1,0,0:0:0:0:
402,192,99079,1,0,0:0:0:0:
475,192,99079,1,0,0:0:0:0:
109,192,99079,1,0,0:0:0:0:
36,192,99079,1,0,0:0:0:0:
402,192,99207,1,0,0:0:0:0:
475,192,99207,1,0,0:0:0:0:
109,192,99207,1,0,0:0:0:0:
256,192,99207,1,0,0:0:0:0:
36,192,99207,1,0,0:0:0:0:
36,192,99464,1,0,0:0:0:0:
402,192,99464,1,0,0:0:0:0:
475,192,99464,1,0,0:0:0:0:
329,192,99464,1,0,0:0:0:0:
109,192,99464,1,0,0:0:0:0:
182,192,99464,1,0,0:0:0:0:
36,192,99592,1,0,0:0:0:0:
109,192,99592,1,0,0:0:0:0:
182,192,99656,1,0,0:0:0:0:
329,192,99656,1,0,0:0:0:0:
402,192,99720,1,0,0:0:0:0:
475,192,99720,1,0,0:0:0:0:
36,192,99848,1,0,0:0:0:0:
182,192,99848,1,0,0:0:0:0:
109,192,99848,1,0,0:0:0:0:
329,192,99848,1,0,0:0:0:0:
402,192,99848,1,0,0:0:0:0:
475,192,99848,1,0,0:0:0:0:
109,192,99976,1,0,0:0:0:0:
36,192,99976,1,0,0:0:0:0:
475,192,100041,1,0,0:0:0:0:
402,192,100041,1,0,0:0:0:0:
182,192,100105,1,0,0:0:0:0:
329,192,100105,1,0,0:0:0:0:
109,192,100233,1,0,0:0:0:0:
402,192,100233,1,0,0:0:0:0:
475,192,100233,1,0,0:0:0:0:
36,192,100233,1,0,0:0:0:0:
256,192,100233,1,0,0:0:0:0:
36,192,100489,1,0,0:0:0:0:
256,192,100489,1,0,0:0:0:0:
109,192,100489,1,0,0:0:0:0:
402,192,100489,1,0,0:0:0:0:
475,192,100489,1,0,0:0:0:0:
182,192,100618,1,0,0:0:0:0:
402,192,100618,1,0,0:0:0:0:
36,192,100746,1,0,0:0:0:0:
109,192,100746,1,0,0:0:0:0:
475,192,100746,1,0,0:0:0:0:
329,192,100746,1,0,0:0:0:0:
256,192,100746,1,0,0:0:0:0:
109,192,100874,1,0,0:0:0:0:
182,192,100874,1,0,0:0:0:0:
36,192,101002,1,0,0:0:0:0:
402,192,101002,1,0,0:0:0:0:
475,192,101002,1,0,0:0:0:0:
256,192,101002,1,0,0:0:0:0:
329,192,101002,1,0,0:0:0:0:
182,192,101130,1,0,0:0:0:0:
329,192,101130,1,0,0:0:0:0:
475,192,101259,1,0,0:0:0:0:
36,192,101259,1,0,0:0:0:0:
256,192,101259,1,0,0:0:0:0:
109,192,101259,1,0,0:0:0:0:
402,192,101259,1,0,0:0:0:0:
182,192,101387,1,0,0:0:0:0:
329,192,101387,1,0,0:0:0:0:
36,192,101515,1,0,0:0:0:0:
109,192,101515,1,0,0:0:0:0:
475,192,101515,1,0,0:0:0:0:
402,192,101515,1,0,0:0:0:0:
329,192,101515,1,0,0:0:0:0:
182,192,101515,1,0,0:0:0:0:
475,192,101643,1,0,0:0:0:0:
402,192,101643,1,0,0:0:0:0:
329,192,101707,1,0,0:0:0:0:
182,192,101707,1,0,0:0:0:0:
109,192,101771,1,0,0:0:0:0:
36,192,101771,1,0,0:0:0:0:
36,192,101900,1,0,0:0:0:0:
182,192,101900,1,0,0:0:0:0:
109,192,101900,1,0,0:0:0:0:
329,192,101900,1,0,0:0:0:0:
402,192,101900,1,0,0:0:0:0:
475,192,101900,1,0,0:0:0:0:
402,192,102028,1,0,0:0:0:0:
475,192,102028,1,0,0:0:0:0:
109,192,102092,1,0,0:0:0:0:
36,192,102092,1,0,0:0:0:0:
182,192,102156,1,0,0:0:0:0:
329,192,102156,1,0,0:0:0:0:
402,192,102284,1,0,0:0:0:0:
475,192,102284,1,0,0:0:0:0:
109,192,102284,1,0,0:0:0:0:
36,192,102284,1,0,0:0:0:0:
256,192,102284,1,0,0:0:0:0:
475,192,102541,1,0,0:0:0:0:
402,192,102541,1,0,0:0:0:0:
109,192,102541,1,0,0:0:0:0:
182,192,102541,1,0,0:0:0:0:
256,192,102541,1,0,0:0:0:0:
329,192,102541,1,0,0:0:0:0:
182,192,102669,1,0,0:0:0:0:
109,192,102669,1,0,0:0:0:0:
256,192,102733,1,0,0:0:0:0:
329,192,102733,1,0,0:0:0:0:
402,192,102797,1,0,0:0:0:0:
475,192,102797,1,0,0:0:0:0:
402,192,102925,1,0,0:0:0:0:
329,192,102925,1,0,0:0:0:0:
36,192,102925,1,0,0:0:0:0:
109,192,102925,1,0,0:0:0:0:
256,192,102925,1,0,0:0:0:0:
182,192,102925,1,0,0:0:0:0:
36,192,103182,1,0,0:0:0:0:
109,192,103182,1,0,0:0:0:0:
256,192,103182,1,0,0:0:0:0:
475,192,103182,1,0,0:0:0:0:
402,192,103182,1,0,0:0:0:0:
256,192,103310,1,0,0:0:0:0:
36,192,103310,1,0,0:0:0:0:
109,192,103310,1,0,0:0:0:0:
475,192,103310,1,0,0:0:0:0:
402,192,103310,1,0,0:0:0:0:
109,192,103566,1,0,0:0:0:0:
475,192,103566,1,0,0:0:0:0:
329,192,103566,1,0,0:0:0:0:
256,192,103566,1,0,0:0:0:0:
402,192,103566,1,0,0:0:0:0:
182,192,103566,1,0,0:0:0:0:
402,192,103694,1,0,0:0:0:0:
475,192,103694,1,0,0:0:0:0:
256,192,103759,1,0,0:0:0:0:
329,192,103759,1,0,0:0:0:0:
109,192,103823,1,0,0:0:0:0:
182,192,103823,1,0,0:0:0:0:
36,192,103951,1,0,0:0:0:0:
109,192,103951,1,0,0:0:0:0:
182,192,103951,1,0,0:0:0:0:
329,192,103951,1,0,0:0:0:0:
402,192,103951,1,0,0:0:0:0:
256,192,103951,1,0,0:0:0:0:
402,192,104079,1,0,0:0:0:0:
329,192,104079,1,0,0:0:0:0:
182,192,104143,1,0,0:0:0:0:
256,192,104143,1,0,0:0:0:0:
36,192,104207,1,0,0:0:0:0:
109,192,104207,1,0,0:0:0:0:
475,192,104335,1,0,0:0:0:0:
402,192,104335,1,0,0:0:0:0:
329,192,104335,1,0,0:0:0:0:
182,192,104335,1,0,0:0:0:0:
256,192,104335,1,0,0:0:0:0:
402,192,104464,1,0,0:0:0:0:
475,192,104464,1,0,0:0:0:0:
256,192,104592,1,0,0:0:0:0:
329,192,104592,1,0,0:0:0:0:
182,192,104592,1,0,0:0:0:0:
36,192,104592,1,0,0:0:0:0:
109,192,104592,1,0,0:0:0:0:
329,192,104848,1,0,0:0:0:0:
402,192,104848,1,0,0:0:0:0:
475,192,104848,1,0,0:0:0:0:
182,192,104848,1,0,0:0:0:0:
256,192,104848,1,0,0:0:0:0:
36,192,105105,1,0,0:0:0:0:
109,192,105105,1,0,0:0:0:0:
182,192,105105,1,0,0:0:0:0:
256,192,105105,1,0,0:0:0:0:
329,192,105105,1,0,0:0:0:0:
182,192,105297,1,0,0:0:0:0:
256,192,105297,1,0,0:0:0:0:
329,192,105297,1,0,0:0:0:0:
402,192,105297,1,0,0:0:0:0:
475,192,105297,1,0,0:0:0:0:
109,192,105489,1,0,0:0:0:0:
402,192,105489,1,0,0:0:0:0:
182,192,105553,1,0,0:0:0:0:
329,192,105553,1,0,0:0:0:0:
475,192,105618,1,0,0:0:0:0:
256,192,105618,1,0,0:0:0:0:
402,192,105618,1,0,0:0:0:0:
36,192,105618,1,0,0:0:0:0:
109,192,105618,1,0,0:0:0:0:
402,192,105746,1,0,0:0:0:0:
475,192,105746,1,0,0:0:0:0:
182,192,105810,1,0,0:0:0:0:
329,192,105810,1,0,0:0:0:0:
36,192,105874,1,0,0:0:0:0:
109,192,105874,1,0,0:0:0:0:
109,192,106002,1,0,0:0:0:0:
182,192,106002,1,0,0:0:0:0:
329,192,106002,1,0,0:0:0:0:
402,192,106002,1,0,0:0:0:0:
475,192,106002,1,0,0:0:0:0:
36,192,106002,1,0,0:0:0:0:
402,192,106130,1,0,0:0:0:0:
475,192,106130,1,0,0:0:0:0:
109,192,106194,1,0,0:0:0:0:
36,192,106194,1,0,0:0:0:0:
329,192,106259,1,0,0:0:0:0:
182,192,106259,1,0,0:0:0:0:
36,192,106387,1,0,0:0:0:0:
109,192,106387,1,0,0:0:0:0:
256,192,106387,1,0,0:0:0:0:
402,192,106387,1,0,0:0:0:0:
475,192,106387,1,0,0:0:0:0:
36,192,106643,1,0,0:0:0:0:
109,192,106643,1,0,0:0:0:0:
182,192,106643,1,0,0:0:0:0:
329,192,106643,1,0,0:0:0:0:
402,192,106643,1,0,0:0:0:0:
475,192,106643,1,0,0:0:0:0:
36,192,106771,1,0,0:0:0:0:
109,192,106771,1,0,0:0:0:0:
182,192,106835,1,0,0:0:0:0:
329,192,106835,1,0,0:0:0:0:
402,192,106900,1,0,0:0:0:0:
475,192,106900,1,0,0:0:0:0:
329,192,107028,1,0,0:0:0:0:
402,192,107028,1,0,0:0:0:0:
475,192,107028,1,0,0:0:0:0:
109,192,107028,1,0,0:0:0:0:
182,192,107028,1,0,0:0:0:0:
36,192,107028,1,0,0:0:0:0:
36,192,107284,1,0,0:0:0:0:
109,192,107284,1,0,0:0:0:0:
475,192,107284,1,0,0:0:0:0:
256,192,107284,1,0,0:0:0:0:
402,192,107284,1,0,0:0:0:0:
475,192,107412,1,0,0:0:0:0:
109,192,107412,1,0,0:0:0:0:
36,192,107412,1,0,0:0:0:0:
256,192,107412,1,0,0:0:0:0:
402,192,107412,1,0,0:0:0:0:
109,192,107669,1,0,0:0:0:0:
256,192,107669,1,0,0:0:0:0:
475,192,107669,1,0,0:0:0:0:
36,192,107669,1,0,0:0:0:0:
402,192,107669,1,0,0:0:0:0:
182,192,107669,1,0,0:0:0:0:
36,192,107797,1,0,0:0:0:0:
109,192,107797,1,0,0:0:0:0:
402,192,107861,1,0,0:0:0:0:
475,192,107861,1,0,0:0:0:0:
182,192,107925,1,0,0:0:0:0:
256,192,107925,1,0,0:0:0:0:
182,192,108053,1,0,0:0:0:0:
402,192,108053,1,0,0:0:0:0:
36,192,108053,1,0,0:0:0:0:
109,192,108053,1,0,0:0:0:0:
475,192,108053,1,0,0:0:0:0:
256,192,108053,1,0,0:0:0:0:
475,192,108182,1,0,0:0:0:0:
402,192,108182,1,0,0:0:0:0:
109,192,108246,1,0,0:0:0:0:
36,192,108246,1,0,0:0:0:0:
329,192,108310,1,0,0:0:0:0:
182,192,108310,1,0,0:0:0:0:
36,192,108438,1,0,0:0:0:0:
109,192,108438,1,0,0:0:0:0:
402,192,108438,1,0,0:0:0:0:
475,192,108438,1,0,0:0:0:0:
256,192,108438,1,0,0:0:0:0:
109,192,108694,1,0,0:0:0:0:
36,192,108694,1,0,0:0:0:0:
475,192,108694,1,0,0:0:0:0:
402,192,108694,1,0,0:0:0:0:
256,192,108694,1,0,0:0:0:0:
329,192,108823,1,0,0:0:0:0:
109,192,108823,1,0,0:0:0:0:
36,192,108951,1,0,0:0:0:0:
475,192,108951,1,0,0:0:0:0:
402,192,108951,1,0,0:0:0:0:
182,192,108951,1,0,0:0:0:0:
256,192,108951,1,0,0:0:0:0:
329,192,109079,1,0,0:0:0:0:
402,192,109079,1,0,0:0:0:0:
475,192,109207,1,0,0:0:0:0:
36,192,109207,1,0,0:0:0:0:
109,192,109207,1,0,0:0:0:0:
182,192,109207,1,0,0:0:0:0:
256,192,109207,1,0,0:0:0:0:
182,192,109335,1,0,0:0:0:0:
329,192,109335,1,0,0:0:0:0:
36,192,109464,1,0,0:0:0:0:
475,192,109464,1,0,0:0:0:0:
109,192,109464,1,0,0:0:0:0:
402,192,109464,1,0,0:0:0:0:
256,192,109464,1,0,0:0:0:0:
182,192,109592,1,0,0:0:0:0:
329,192,109592,1,0,0:0:0:0:
109,192,109720,1,0,0:0:0:0:
475,192,109720,1,0,0:0:0:0:
36,192,109720,1,0,0:0:0:0:
402,192,109720,1,0,0:0:0:0:
182,192,109720,1,0,0:0:0:0:
329,192,109720,1,0,0:0:0:0:
109,192,109848,1,0,0:0:0:0:
36,192,109848,1,0,0:0:0:0:
329,192,109912,1,0,0:0:0:0:
182,192,109912,1,0,0:0:0:0:
402,192,109976,1,0,0:0:0:0:
475,192,109976,1,0,0:0:0:0:
256,192,110105,1,0,0:0:0:0:
402,192,110105,1,0,0:0:0:0:
475,192,110105,1,0,0:0:0:0:
36,192,110105,1,0,0:0:0:0:
109,192,110105,1,0,0:0:0:0:
182,192,110105,1,0,0:0:0:0:
109,192,110233,1,0,0:0:0:0:
36,192,110233,1,0,0:0:0:0:
475,192,110297,1,0,0:0:0:0:
402,192,110297,1,0,0:0:0:0:
182,192,110361,1,0,0:0:0:0:
329,192,110361,1,0,0:0:0:0:
402,192,110489,1,0,0:0:0:0:
475,192,110489,1,0,0:0:0:0:
109,192,110489,1,0,0:0:0:0:
36,192,110489,1,0,0:0:0:0:
256,192,110489,1,0,0:0:0:0:
475,192,110746,1,0,0:0:0:0:
329,192,110746,1,0,0:0:0:0:
256,192,110746,1,0,0:0:0:0:
36,192,110746,1,0,0:0:0:0:
402,192,110746,1,0,0:0:0:0:
109,192,110746,1,0,0:0:0:0:
256,192,110874,1,0,0:0:0:0:
329,192,110874,1,0,0:0:0:0:
36,192,110938,1,0,0:0:0:0:
109,192,110938,1,0,0:0:0:0:
402,192,111002,1,0,0:0:0:0:
475,192,111002,1,0,0:0:0:0:
256,192,111130,1,0,0:0:0:0:
329,192,111130,1,0,0:0:0:0:
475,192,111130,1,0,0:0:0:0:
402,192,111130,1,0,0:0:0:0:
36,192,111130,1,0,0:0:0:0:
182,192,111130,1,0,0:0:0:0:
109,192,111387,1,0,0:0:0:0:
36,192,111387,1,0,0:0:0:0:
402,192,111387,1,0,0:0:0:0:
475,192,111387,1,0,0:0:0:0:
256,192,111387,1,0,0:0:0:0:
402,192,111515,1,0,0:0:0:0:
475,192,111515,1,0,0:0:0:0:
109,192,111515,1,0,0:0:0:0:
36,192,111515,1,0,0:0:0:0:
256,192,111515,1,0,0:0:0:0:
36,192,111771,1,0,0:0:0:0:
109,192,111771,1,0,0:0:0:0:
402,192,111771,1,0,0:0:0:0:
475,192,111771,1,0,0:0:0:0:
182,192,111771,1,0,0:0:0:0:
329,192,111771,1,0,0:0:0:0:
256,192,111900,1,0,0:0:0:0:
182,192,112028,1,0,0:0:0:0:
402,192,112028,1,0,0:0:0:0:
475,192,112156,1,0,0:0:0:0:
109,192,112156,1,0,0:0:0:0:
36,192,112156,1,0,0:0:0:0:
329,192,112156,1,0,0:0:0:0:
256,192,112284,1,0,0:0:0:0:
182,192,112412,1,0,0:0:0:0:
402,192,112412,1,0,0:0:0:0:
475,192,112541,1,0,0:0:0:0:
109,192,112541,1,0,0:0:0:0:
329,192,112541,1,0,0:0:0:0:
256,192,112669,1,0,0:0:0:0:
402,192,112797,1,0,0:0:0:0:
109,192,112797,1,0,0:0:0:0:
36,192,112797,1,0,0:0:0:0:
256,192,112925,1,0,0:0:0:0:
109,192,113053,1,0,0:0:0:0:
402,192,113053,1,0,0:0:0:0:
475,192,113053,1,0,0:0:0:0:
256,192,113182,1,0,0:0:0:0:
36,192,113310,1,0,0:0:0:0:
182,192,113310,1,0,0:0:0:0:
329,192,113502,1,0,0:0:0:0:
475,192,113502,1,0,0:0:0:0:
256,192,113566,1,0,0:0:0:0:
182,192,113694,1,0,0:0:0:0:
36,192,113694,1,0,0:0:0:0:
256,192,113759,1,0,0:0:0:0:
109,192,113823,1,0,0:0:0:0:
402,192,113823,1,0,0:0:0:0:
329,192,114207,1,0,0:0:0:0:
475,192,114207,1,0,0:0:0:0:
182,192,114848,1,0,0:0:0:0:
36,192,114848,1,0,0:0:0:0:
329,192,114848,1,0,0:0:0:0:
402,192,114976,1,0,0:0:0:0:
256,192,115041,1,0,0:0:0:0:
109,192,115105,1,0,0:0:0:0:
475,192,115169,1,0,0:0:0:0:
329,192,115233,1,0,0:0:0:0:
182,192,115297,1,0,0:0:0:0:
36,192,115361,1,0,0:0:0:0:
402,192,115425,1,0,0:0:0:0:
256,192,115489,1,0,0:0:0:0:
109,192,115553,1,0,0:0:0:0:
475,192,115618,1,0,0:0:0:0:
329,192,115682,1,0,0:0:0:0:
182,192,115746,1,0,0:0:0:0:
36,192,115810,1,0,0:0:0:0:
402,192,115874,1,0,0:0:0:0:
475,192,115874,1,0,0:0:0:0:
109,192,115874,1,0,0:0:0:0:
256,192,115874,1,0,0:0:0:0:
256,192,116002,1,0,0:0:0:0:
402,192,116002,1,0,0:0:0:0:
475,192,116002,1,0,0:0:0:0:
329,192,116130,1,0,0:0:0:0:
36,192,116130,1,0,0:0:0:0:
109,192,116130,1,0,0:0:0:0:
256,192,116259,1,0,0:0:0:0:
182,192,116259,1,0,0:0:0:0:
402,192,116259,1,0,0:0:0:0:
475,192,116259,1,0,0:0:0:0:
109,192,116387,1,0,0:0:0:0:
36,192,116387,1,0,0:0:0:0:
329,192,116387,1,0,0:0:0:0:
402,192,116515,1,0,0:0:0:0:
475,192,116515,1,0,0:0:0:0:
256,192,116515,1,0,0:0:0:0:
182,192,116643,1,0,0:0:0:0:
109,192,116643,1,0,0:0:0:0:
36,192,116643,1,0,0:0:0:0:
329,192,116771,1,0,0:0:0:0:
402,192,116771,1,0,0:0:0:0:
475,192,116771,1,0,0:0:0:0:
36,192,116900,1,0,0:0:0:0:
109,192,116900,1,0,0:0:0:0:
182,192,116900,1,0,0:0:0:0:
256,192,116900,1,0,0:0:0:0:
256,192,117028,1,0,0:0:0:0:
402,192,117028,1,0,0:0:0:0:
475,192,117028,1,0,0:0:0:0:
182,192,117156,1,0,0:0:0:0:
109,192,117156,1,0,0:0:0:0:
329,192,117156,1,0,0:0:0:0:
256,192,117284,1,0,0:0:0:0:
402,192,117284,1,0,0:0:0:0:
475,192,117284,1,0,0:0:0:0:
36,192,117412,1,0,0:0:0:0:
109,192,117412,1,0,0:0:0:0:
182,192,117412,1,0,0:0:0:0:
402,192,117476,1,0,0:0:0:0:
475,192,117476,1,0,0:0:0:0:
329,192,117541,1,0,0:0:0:0:
256,192,117541,1,0,0:0:0:0:
182,192,117541,1,0,0:0:0:0:
109,192,117605,1,0,0:0:0:0:
36,192,117605,1,0,0:0:0:0:
475,192,117669,1,0,0:0:0:0:
402,192,117701,1,0,0:0:0:0:
329,192,117733,1,0,0:0:0:0:
256,192,117765,1,0,0:0:0:0:
182,192,117797,1,0,0:0:0:0:
109,192,117829,1,0,0:0:0:0:
36,192,117861,1,0,0:0:0:0:
475,192,117925,1,0,0:0:0:0:
402,192,117925,1,0,0:0:0:0:
329,192,117925,1,0,0:0:0:0:
256,192,117925,1,0,0:0:0:0:
36,192,118053,1,0,0:0:0:0:
109,192,118053,1,0,0:0:0:0:
182,192,118053,1,0,0:0:0:0:
256,192,118182,1,0,0:0:0:0:
402,192,118182,1,0,0:0:0:0:
475,192,118182,1,0,0:0:0:0:
36,192,118310,1,0,0:0:0:0:
109,192,118310,1,0,0:0:0:0:
182,192,118310,1,0,0:0:0:0:
329,192,118310,1,0,0:0:0:0:
256,192,118438,1,0,0:0:0:0:
402,192,118438,1,0,0:0:0:0:
475,192,118438,1,0,0:0:0:0:
109,192,118566,1,0,0:0:0:0:
182,192,118566,1,0,0:0:0:0:
329,192,118566,1,0,0:0:0:0:
256,192,118694,1,0,0:0:0:0:
36,192,118694,1,0,0:0:0:0:
475,192,118694,1,0,0:0:0:0:
182,192,118823,1,0,0:0:0:0:
329,192,118823,1,0,0:0:0:0:
402,192,118823,1,0,0:0:0:0:
109,192,118951,1,0,0:0:0:0:
36,192,118951,1,0,0:0:0:0:
256,192,118951,1,0,0:0:0:0:
475,192,118951,1,0,0:0:0:0:
36,192,119079,1,0,0:0:0:0:
256,192,119079,1,0,0:0:0:0:
109,192,119079,1,0,0:0:0:0:
182,192,119207,1,0,0:0:0:0:
329,192,119207,1,0,0:0:0:0:
109,192,119335,1,0,0:0:0:0:
256,192,119335,1,0,0:0:0:0:
475,192,119335,1,0,0:0:0:0:
402,192,119335,1,0,0:0:0:0:
256,192,119464,1,0,0:0:0:0:
402,192,119464,1,0,0:0:0:0:
475,192,119464,1,0,0:0:0:0:
182,192,119592,1,0,0:0:0:0:
329,192,119592,1,0,0:0:0:0:
36,192,119720,1,0,0:0:0:0:
109,192,119720,1,0,0:0:0:0:
402,192,119720,1,0,0:0:0:0:
475,192,119720,1,0,0:0:0:0:
329,192,119784,1,0,0:0:0:0:
256,192,119848,1,0,0:0:0:0:
182,192,119912,1,0,0:0:0:0:
475,192,119976,1,0,0:0:0:0:
109,192,119976,1,0,0:0:0:0:
36,192,119976,1,0,0:0:0:0:
402,192,119976,1,0,0:0:0:0:
182,192,120105,1,0,0:0:0:0:
475,192,120105,1,0,0:0:0:0:
402,192,120105,1,0,0:0:0:0:
36,192,120233,1,0,0:0:0:0:
256,192,120233,1,0,0:0:0:0:
109,192,120233,1,0,0:0:0:0:
182,192,120361,1,0,0:0:0:0:
475,192,120361,1,0,0:0:0:0:
329,192,120361,1,0,0:0:0:0:
402,192,120361,1,0,0:0:0:0:
36,192,120489,1,0,0:0:0:0:
256,192,120489,1,0,0:0:0:0:
109,192,120489,1,0,0:0:0:0:
182,192,120618,1,0,0:0:0:0:
329,192,120618,1,0,0:0:0:0:
402,192,120618,1,0,0:0:0:0:
475,192,120746,1,0,0:0:0:0:
36,192,120746,1,0,0:0:0:0:
109,192,120746,1,0,0:0:0:0:
329,192,120874,1,0,0:0:0:0:
256,192,120874,1,0,0:0:0:0:
182,192,120874,1,0,0:0:0:0:
36,192,121002,1,0,0:0:0:0:
475,192,121002,1,0,0:0:0:0:
109,192,121002,1,0,0:0:0:0:
402,192,121002,1,0,0:0:0:0:
109,192,121130,1,0,0:0:0:0:
36,192,121130,1,0,0:0:0:0:
256,192,121130,1,0,0:0:0:0:
329,192,121259,1,0,0:0:0:0:
402,192,121259,1,0,0:0:0:0:
475,192,121259,1,0,0:0:0:0:
36,192,121387,1,0,0:0:0:0:
109,192,121387,1,0,0:0:0:0:
182,192,121387,1,0,0:0:0:0:
256,192,121387,1,0,0:0:0:0:
475,192,121515,1,0,0:0:0:0:
329,192,121515,1,0,0:0:0:0:
402,192,121515,1,0,0:0:0:0:
109,192,121579,1,0,0:0:0:0:
36,192,121579,1,0,0:0:0:0:
256,192,121643,1,0,0:0:0:0:
329,192,121643,1,0,0:0:0:0:
182,192,121643,1,0,0:0:0:0:
402,192,121707,1,0,0:0:0:0:
475,192,121707,1,0,0:0:0:0:
36,192,121771,1,0,0:0:0:0:
109,192,121803,1,0,0:0:0:0:
182,192,121835,1,0,0:0:0:0:
256,192,121868,1,0,0:0:0:0:
329,192,121900,1,0,0:0:0:0:
402,192,121932,1,0,0:0:0:0:
475,192,121964,1,0,0:0:0:0:
109,192,122028,1,0,0:0:0:0:
182,192,122028,1,0,0:0:0:0:
36,192,122028,1,0,0:0:0:0:
256,192,122028,1,0,0:0:0:0:
36,192,122156,1,0,0:0:0:0:
109,192,122156,1,0,0:0:0:0:
182,192,122156,1,0,0:0:0:0:
329,192,122284,1,0,0:0:0:0:
402,192,122284,1,0,0:0:0:0:
475,192,122284,1,0,0:0:0:0:
109,192,122412,1,0,0:0:0:0:
36,192,122412,1,0,0:0:0:0:
475,192,122412,1,0,0:0:0:0:
402,192,122412,1,0,0:0:0:0:
256,192,122412,1,0,0:0:0:0:
329,192,122412,1,0,0:0:0:0:
36,192,122541,1,0,0:0:0:0:
109,192,122541,1,0,0:0:0:0:
256,192,122541,1,0,0:0:0:0:
475,192,122669,1,0,0:0:0:0:
329,192,122669,1,0,0:0:0:0:
402,192,122669,1,0,0:0:0:0:
36,192,122797,1,0,0:0:0:0:
182,192,122797,1,0,0:0:0:0:
109,192,122797,1,0,0:0:0:0:
402,192,122925,1,0,0:0:0:0:
475,192,122925,1,0,0:0:0:0:
256,192,122925,1,0,0:0:0:0:
36,192,123053,1,0,0:0:0:0:
109,192,123053,1,0,0:0:0:0:
256,192,123053,1,0,0:0:0:0:
402,192,123053,1,0,0:0:0:0:
475,192,123053,1,0,0:0:0:0:
182,192,123053,1,0,0:0:0:0:
36,192,123182,1,0,0:0:0:0:
109,192,123182,1,0,0:0:0:0:
182,192,123182,1,0,0:0:0:0:
402,192,123310,1,0,0:0:0:0:
475,192,123310,1,0,0:0:0:0:
256,192,123310,1,0,0:0:0:0:
256,192,123438,1,0,0:0:0:0:
402,192,123438,1,0,0:0:0:0:
475,192,123438,1,0,0:0:0:0:
109,192,123438,1,0,0:0:0:0:
36,192,123438,1,0,0:0:0:0:
182,192,123438,1,0,0:0:0:0:
182,192,123566,1,0,0:0:0:0:
109,192,123566,1,0,0:0:0:0:
36,192,123566,1,0,0:0:0:0:
329,192,123694,1,0,0:0:0:0:
402,192,123694,1,0,0:0:0:0:
475,192,123694,1,0,0:0:0:0:
109,192,123823,1,0,0:0:0:0:
36,192,123823,1,0,0:0:0:0:
256,192,123823,1,0,0:0:0:0:
402,192,123887,1,0,0:0:0:0:
475,192,123887,1,0,0:0:0:0:
329,192,123951,1,0,0:0:0:0:
182,192,123951,1,0,0:0:0:0:
109,192,124015,1,0,0:0:0:0:
36,192,124015,1,0,0:0:0:0:
402,192,124079,1,0,0:0:0:0:
475,192,124079,1,0,0:0:0:0:
329,192,124079,1,0,0:0:0:0:
256,192,124079,1,0,0:0:0:0:
329,192,124207,1,0,0:0:0:0:
402,192,124207,1,0,0:0:0:0:
475,192,124207,1,0,0:0:0:0:
256,192,124335,1,0,0:0:0:0:
36,192,124335,1,0,0:0:0:0:
109,192,124335,1,0,0:0:0:0:
109,192,124464,1,0,0:0:0:0:
256,192,124464,1,0,0:0:0:0:
475,192,124464,1,0,0:0:0:0:
36,192,124464,1,0,0:0:0:0:
402,192,124464,1,0,0:0:0:0:
329,192,124464,1,0,0:0:0:0:
329,192,124592,1,0,0:0:0:0:
475,192,124592,1,0,0:0:0:0:
402,192,124592,1,0,0:0:0:0:
182,192,124720,1,0,0:0:0:0:
109,192,124720,1,0,0:0:0:0:
36,192,124720,1,0,0:0:0:0:
402,192,124848,1,0,0:0:0:0:
475,192,124848,1,0,0:0:0:0:
329,192,124848,1,0,0:0:0:0:
256,192,124976,1,0,0:0:0:0:
36,192,124976,1,0,0:0:0:0:
109,192,124976,1,0,0:0:0:0:
109,192,125105,1,0,0:0:0:0:
256,192,125105,1,0,0:0:0:0:
36,192,125105,1,0,0:0:0:0:
402,192,125105,1,0,0:0:0:0:
475,192,125105,1,0,0:0:0:0:
329,192,125105,1,0,0:0:0:0:
329,192,125233,1,0,0:0:0:0:
402,192,125233,1,0,0:0:0:0:
475,192,125233,1,0,0:0:0:0:
109,192,125361,1,0,0:0:0:0:
36,192,125361,1,0,0:0:0:0:
182,192,125361,1,0,0:0:0:0:
256,192,125489,1,0,0:0:0:0:
402,192,125489,1,0,0:0:0:0:
475,192,125489,1,0,0:0:0:0:
36,192,125618,1,0,0:0:0:0:
182,192,125618,1,0,0:0:0:0:
109,192,125618,1,0,0:0:0:0:
402,192,125682,1,0,0:0:0:0:
475,192,125682,1,0,0:0:0:0:
256,192,125746,1,0,0:0:0:0:
182,192,125746,1,0,0:0:0:0:
329,192,125746,1,0,0:0:0:0:
109,192,125810,1,0,0:0:0:0:
36,192,125810,1,0,0:0:0:0:
475,192,125874,1,0,0:0:0:0:
402,192,125906,1,0,0:0:0:0:
329,192,125938,1,0,0:0:0:0:
256,192,125970,1,0,0:0:0:0:
182,192,126002,1,0,0:0:0:0:
109,192,126034,1,0,0:0:0:0:
36,192,126066,1,0,0:0:0:0:
475,192,126130,1,0,0:0:0:0:
329,192,126130,1,0,0:0:0:0:
402,192,126130,1,0,0:0:0:0:
402,192,126515,1,0,0:0:0:0:
256,192,126515,1,0,0:0:0:0:
329,192,127156,1,0,0:0:0:0:
182,192,127156,1,0,0:0:0:0:
256,192,127541,1,0,0:0:0:0:
109,192,127541,1,0,0:0:0:0:
36,192,128182,1,0,0:0:0:0:
182,192,128224,1,0,0:0:0:0:
329,192,128267,1,0,0:0:0:0:
475,192,128310,1,0,0:0:0:0:
109,192,129207,1,0,0:0:0:0:
402,192,129207,1,0,0:0:0:0:
182,192,129464,1,0,0:0:0:0:
329,192,129464,1,0,0:0:0:0:
402,192,129720,1,0,0:0:0:0:
109,192,129720,1,0,0:0:0:0:
36,192,129976,1,0,0:0:0:0:
475,192,129976,1,0,0:0:0:0:
182,192,130041,1,0,0:0:0:0:
329,192,130105,1,0,0:0:0:0:
402,192,130169,1,0,0:0:0:0:
36,192,130233,1,0,0:0:0:0:
256,192,130233,1,0,0:0:0:0:
109,192,130233,1,0,0:0:0:0:
475,192,130233,1,0,0:0:0:0:
329,192,130361,1,0,0:0:0:0:
182,192,130425,1,0,0:0:0:0:
402,192,130489,1,0,0:0:0:0:
475,192,130489,1,0,0:0:0:0:
256,192,130618,1,0,0:0:0:0:
36,192,130618,1,0,0:0:0:0:
109,192,130618,1,0,0:0:0:0:
182,192,130618,1,0,0:0:0:0:
36,192,130746,1,0,0:0:0:0:
109,192,130746,1,0,0:0:0:0:
256,192,130746,1,0,0:0:0:0:
182,192,130746,1,0,0:0:0:0:
329,192,130810,1,0,0:0:0:0:
475,192,130874,1,0,0:0:0:0:
402,192,130874,1,0,0:0:0:0:
329,192,131002,1,0,0:0:0:0:
182,192,131002,1,0,0:0:0:0:
109,192,131130,1,0,0:0:0:0:
36,192,131130,1,0,0:0:0:0:
475,192,131259,1,0,0:0:0:0:
402,192,131259,1,0,0:0:0:0:
256,192,131259,1,0,0:0:0:0:
182,192,131259,1,0,0:0:0:0:
329,192,131387,1,0,0:0:0:0:
182,192,131451,1,0,0:0:0:0:
36,192,131515,1,0,0:0:0:0:
109,192,131515,1,0,0:0:0:0:
329,192,131643,1,0,0:0:0:0:
256,192,131643,1,0,0:0:0:0:
402,192,131643,1,0,0:0:0:0:
475,192,131643,1,0,0:0:0:0:
402,192,131771,1,0,0:0:0:0:
475,192,131771,1,0,0:0:0:0:
256,192,131771,1,0,0:0:0:0:
329,192,131771,1,0,0:0:0:0:
36,192,131900,1,0,0:0:0:0:
109,192,131964,1,0,0:0:0:0:
182,192,132028,1,0,0:0:0:0:
256,192,132092,1,0,0:0:0:0:
329,192,132156,1,0,0:0:0:0:
402,192,132220,1,0,0:0:0:0:
109,192,132284,1,0,0:0:0:0:
36,192,132284,1,0,0:0:0:0:
475,192,132284,1,0,0:0:0:0:
182,192,132284,1,0,0:0:0:0:
402,192,132412,1,0,0:0:0:0:
329,192,132476,1,0,0:0:0:0:
109,192,132541,1,0,0:0:0:0:
256,192,132541,1,0,0:0:0:0:
182,192,132669,1,0,0:0:0:0:
402,192,132669,1,0,0:0:0:0:
36,192,132669,1,0,0:0:0:0:
475,192,132669,1,0,0:0:0:0:
182,192,132797,1,0,0:0:0:0:
402,192,132797,1,0,0:0:0:0:
36,192,132797,1,0,0:0:0:0:
475,192,132797,1,0,0:0:0:0:
329,192,132925,1,0,0:0:0:0:
182,192,132989,1,0,0:0:0:0:
109,192,133053,1,0,0:0:0:0:
402,192,133053,1,0,0:0:0:0:
329,192,133182,1,0,0:0:0:0:
182,192,133182,1,0,0:0:0:0:
402,192,133310,1,0,0:0:0:0:
475,192,133310,1,0,0:0:0:0:
36,192,133310,1,0,0:0:0:0:
109,192,133310,1,0,0:0:0:0:
329,192,133438,1,0,0:0:0:0:
256,192,133502,1,0,0:0:0:0:
402,192,133566,1,0,0:0:0:0:
182,192,133566,1,0,0:0:0:0:
109,192,133694,1,0,0:0:0:0:
329,192,133694,1,0,0:0:0:0:
36,192,133694,1,0,0:0:0:0:
475,192,133694,1,0,0:0:0:0:
475,192,133823,1,0,0:0:0:0:
36,192,133823,1,0,0:0:0:0:
109,192,133823,1,0,0:0:0:0:
329,192,133823,1,0,0:0:0:0:
182,192,133951,1,0,0:0:0:0:
256,192,134015,1,0,0:0:0:0:
329,192,134079,1,0,0:0:0:0:
109,192,134143,1,0,0:0:0:0:
182,192,134207,1,0,0:0:0:0:
256,192,134271,1,0,0:0:0:0:
402,192,134335,1,0,0:0:0:0:
475,192,134335,1,0,0:0:0:0:
36,192,134335,1,0,0:0:0:0:
329,192,134335,1,0,0:0:0:0:
109,192,134464,1,0,0:0:0:0:
182,192,134528,1,0,0:0:0:0:
329,192,134592,1,0,0:0:0:0:
475,192,134592,1,0,0:0:0:0:
256,192,134720,1,0,0:0:0:0:
109,192,134720,1,0,0:0:0:0:
36,192,134720,1,0,0:0:0:0:
402,192,134720,1,0,0:0:0:0:
109,192,134848,1,0,0:0:0:0:
36,192,134848,1,0,0:0:0:0:
256,192,134848,1,0,0:0:0:0:
402,192,134848,1,0,0:0:0:0:
329,192,134976,1,0,0:0:0:0:
402,192,135041,1,0,0:0:0:0:
182,192,135105,1,0,0:0:0:0:
475,192,135105,1,0,0:0:0:0:
256,192,135233,1,0,0:0:0:0:
329,192,135297,1,0,0:0:0:0:
109,192,135361,1,0,0:0:0:0:
36,192,135361,1,0,0:0:0:0:
402,192,135361,1,0,0:0:0:0:
475,192,135361,1,0,0:0:0:0:
182,192,135489,1,0,0:0:0:0:
256,192,135553,1,0,0:0:0:0:
36,192,135618,1,0,0:0:0:0:
329,192,135618,1,0,0:0:0:0:
182,192,135746,1,0,0:0:0:0:
402,192,135746,1,0,0:0:0:0:
475,192,135746,1,0,0:0:0:0:
109,192,135746,1,0,0:0:0:0:
109,192,135874,1,0,0:0:0:0:
182,192,135874,1,0,0:0:0:0:
402,192,135874,1,0,0:0:0:0:
475,192,135874,1,0,0:0:0:0:
36,192,136002,1,0,0:0:0:0:
109,192,136066,1,0,0:0:0:0:
182,192,136130,1,0,0:0:0:0:
256,192,136194,1,0,0:0:0:0:
329,192,136259,1,0,0:0:0:0:
402,192,136323,1,0,0:0:0:0:
475,192,136387,1,0,0:0:0:0:
36,192,136387,1,0,0:0:0:0:
109,192,136387,1,0,0:0:0:0:
182,192,136387,1,0,0:0:0:0:
329,192,136515,1,0,0:0:0:0:
256,192,136579,1,0,0:0:0:0:
402,192,136643,1,0,0:0:0:0:
182,192,136643,1,0,0:0:0:0:
329,192,136771,1,0,0:0:0:0:
36,192,136771,1,0,0:0:0:0:
109,192,136771,1,0,0:0:0:0:
256,192,136771,1,0,0:0:0:0:
109,192,136900,1,0,0:0:0:0:
329,192,136900,1,0,0:0:0:0:
36,192,136900,1,0,0:0:0:0:
256,192,136900,1,0,0:0:0:0:
182,192,137092,1,0,0:0:0:0:
475,192,137092,1,0,0:0:0:0:
402,192,137092,1,0,0:0:0:0:
182,192,137284,1,0,0:0:0:0:
475,192,137284,1,0,0:0:0:0:
402,192,137284,1,0,0:0:0:0:
329,192,137412,1,0,0:0:0:0:
109,192,137412,1,0,0:0:0:0:
36,192,137412,1,0,0:0:0:0:
256,192,137412,1,0,0:0:0:0:
475,192,137541,1,0,0:0:0:0:
402,192,137605,1,0,0:0:0:0:
109,192,137669,1,0,0:0:0:0:
329,192,137669,1,0,0:0:0:0:
182,192,137797,1,0,0:0:0:0:
402,192,137797,1,0,0:0:0:0:
256,192,137797,1,0,0:0:0:0:
475,192,137797,1,0,0:0:0:0:
256,192,137925,1,0,0:0:0:0:
182,192,137925,1,0,0:0:0:0:
475,192,137925,1,0,0:0:0:0:
402,192,137925,1,0,0:0:0:0:
36,192,138053,1,0,0:0:0:0:
109,192,138096,1,0,0:0:0:0:
182,192,138139,1,0,0:0:0:0:
329,192,138182,1,0,0:0:0:0:
402,192,138224,1,0,0:0:0:0:
475,192,138267,1,0,0:0:0:0:
109,192,138310,1,0,0:0:0:0:
36,192,138310,1,0,0:0:0:0:
475,192,138438,1,0,0:0:0:0:
402,192,138438,1,0,0:0:0:0:
109,192,138438,1,0,0:0:0:0:
36,192,138438,1,0,0:0:0:0:
256,192,138438,1,0,0:0:0:0:
329,192,139720,1,0,0:0:0:0:
475,192,140137,1,0,0:0:0:0:
402,192,140489,1,0,0:0:0:0:
329,192,140842,1,0,0:0:0:0:
256,192,141162,1,0,0:0:0:0:
475,192,141515,1,0,0:0:0:0:
182,192,141515,1,0,0:0:0:0:
329,192,142284,1,0,0:0:0:0:
36,192,142284,1,0,0:0:0:0:
402,192,142541,1,0,0:0:0:0:
475,192,142541,1,0,0:0:0:0:
36,192,142541,1,0,0:0:0:0:
182,192,142541,1,0,0:0:0:0:
256,192,142541,1,0,0:0:0:0:
109,192,142669,1,0,0:0:0:0:
329,192,142669,1,0,0:0:0:0:
182,192,142733,1,0,0:0:0:0:
475,192,142797,1,0,0:0:0:0:
256,192,142797,1,0,0:0:0:0:
402,192,142797,1,0,0:0:0:0:
109,192,142925,1,0,0:0:0:0:
329,192,142925,1,0,0:0:0:0:
182,192,142925,1,0,0:0:0:0:
36,192,142925,1,0,0:0:0:0:
329,192,143053,1,0,0:0:0:0:
109,192,143053,1,0,0:0:0:0:
182,192,143053,1,0,0:0:0:0:
36,192,143053,1,0,0:0:0:0:
256,192,143182,1,0,0:0:0:0:
475,192,143182,1,0,0:0:0:0:
402,192,143246,1,0,0:0:0:0:
36,192,143310,1,0,0:0:0:0:
329,192,143310,1,0,0:0:0:0:
109,192,143310,1,0,0:0:0:0:
182,192,143438,1,0,0:0:0:0:
402,192,143438,1,0,0:0:0:0:
329,192,143566,1,0,0:0:0:0:
256,192,143566,1,0,0:0:0:0:
36,192,143566,1,0,0:0:0:0:
109,192,143566,1,0,0:0:0:0:
475,192,143566,1,0,0:0:0:0:
182,192,143694,1,0,0:0:0:0:
402,192,143694,1,0,0:0:0:0:
329,192,143759,1,0,0:0:0:0:
36,192,143823,1,0,0:0:0:0:
256,192,143823,1,0,0:0:0:0:
109,192,143823,1,0,0:0:0:0:
182,192,143951,1,0,0:0:0:0:
475,192,143951,1,0,0:0:0:0:
402,192,143951,1,0,0:0:0:0:
329,192,143951,1,0,0:0:0:0:
182,192,144079,1,0,0:0:0:0:
402,192,144079,1,0,0:0:0:0:
475,192,144079,1,0,0:0:0:0:
329,192,144079,1,0,0:0:0:0:
256,192,144207,1,0,0:0:0:0:
109,192,144207,1,0,0:0:0:0:
402,192,144271,1,0,0:0:0:0:
182,192,144335,1,0,0:0:0:0:
329,192,144335,1,0,0:0:0:0:
36,192,144335,1,0,0:0:0:0:
402,192,144421,1,0,0:0:0:0:
109,192,144421,1,0,0:0:0:0:
182,192,144506,1,0,0:0:0:0:
329,192,144506,1,0,0:0:0:0:
36,192,144592,1,0,0:0:0:0:
256,192,144592,1,0,0:0:0:0:
475,192,144592,1,0,0:0:0:0:
402,192,144677,1,0,0:0:0:0:
329,192,144677,1,0,0:0:0:0:
182,192,144763,1,0,0:0:0:0:
109,192,144763,1,0,0:0:0:0:
475,192,144848,1,0,0:0:0:0:
256,192,144848,1,0,0:0:0:0:
36,192,144848,1,0,0:0:0:0:
109,192,144934,1,0,0:0:0:0:
182,192,144934,1,0,0:0:0:0:
402,192,145019,1,0,0:0:0:0:
329,192,145019,1,0,0:0:0:0:
109,192,145105,1,0,0:0:0:0:
36,192,145105,1,0,0:0:0:0:
256,192,145105,1,0,0:0:0:0:
475,192,145190,1,0,0:0:0:0:
402,192,145190,1,0,0:0:0:0:
182,192,145276,1,0,0:0:0:0:
329,192,145276,1,0,0:0:0:0:
36,192,145361,1,0,0:0:0:0:
256,192,145361,1,0,0:0:0:0:
475,192,145361,1,0,0:0:0:0:
402,192,145447,1,0,0:0:0:0:
109,192,145447,1,0,0:0:0:0:
329,192,145532,1,0,0:0:0:0:
182,192,145532,1,0,0:0:0:0:
36,192,145618,1,0,0:0:0:0:
402,192,145618,1,0,0:0:0:0:
475,192,145618,1,0,0:0:0:0:
256,192,145618,1,0,0:0:0:0:
109,192,145618,1,0,0:0:0:0:
