osu file format v14

[General]
AudioFilename: audio.mp3
AudioLeadIn: 0
PreviewTime: 95293
Countdown: 0
SampleSet: Soft
StackLeniency: 0.7
Mode: 2
LetterboxInBreaks: 0
WidescreenStoryboard: 1

[Editor]
Bookmarks: 9204,25614,29204,42024,50229,64588,80998,95101,95229,95357,96383,97409,113819,130229,138434,145614
DistanceSpacing: 1
BeatDivisor: 4
GridSize: 32
TimelineZoom: 4.199998

[Metadata]
Title:Aegleseeker
TitleUnicode:Aegleseeker
Artist:Silentroom vs. Frums
ArtistUnicode:Silentroom vs. Frums
Creator:Jemzuu
Version:Salad
Source:Arcaea
Tags:ajamez gigas [_-Kukkai-_] autofanboy alienflybot bunnrei -plus- ster osu_gangster chara razor sharp lowiro esoteric order electronic instrumental video game Song Contest 2020
BeatmapID:3024978
BeatmapSetID:1460413

[Difficulty]
HPDrainRate:3
CircleSize:3
OverallDifficulty:7.4
ApproachRate:7.4
SliderMultiplier:1.24
SliderTickRate:1

[Events]
//Background and Video events
0,0,"86238824_p0.jpg",0,0
//Break Periods
2,81208,86308
2,95567,96565
//Storyboard Layer 0 (Background)
//Storyboard Layer 1 (Fail)
//Storyboard Layer 2 (Pass)
//Storyboard Layer 3 (Foreground)
//Storyboard Layer 4 (Overlay)
//Storyboard Sound Samples

[TimingPoints]
1009,256.410256410256,4,2,1,60,1,0
1137,-100,4,2,1,30,0,0
9214,-100,4,2,1,20,0,0
11265,-100,4,2,1,30,0,0
12803,-100,4,2,1,35,0,0
13316,-100,4,2,1,40,0,0
14342,-100,4,2,1,45,0,0
15367,-100,4,2,1,60,0,0
16393,-100,4,2,1,10,0,0
17419,-100,4,2,6,60,0,0
17547,-100,4,2,2,60,0,0
18444,-100,4,2,2,70,0,0
19470,-100,4,2,2,75,0,0
20239,-100,4,2,2,80,0,0
21521,-100,4,2,6,80,0,0
21650,-100,4,2,2,60,0,0
22547,-100,4,2,2,65,0,0
22803,-100,4,2,2,70,0,0
23316,-100,4,2,2,75,0,0
24085,-100,4,2,2,80,0,0
24598,-100,4,2,3,80,0,0
25367,-100,4,2,4,65,0,0
25624,-100,4,1,1,70,0,0
29726,-100,4,1,1,60,0,0
30624,-100,4,1,2,60,0,0
30752,-100,4,1,1,60,0,0
31650,-100,4,1,2,60,0,0
31777,-100,4,1,1,65,0,0
32547,-100,4,1,1,60,0,0
32675,-100,4,1,2,60,0,0
32803,-100,4,1,1,60,0,0
33444,-100,4,1,2,60,0,0
33829,-100,4,1,4,80,0,0
33957,-100,4,1,4,65,0,0
34854,-100,4,1,4,70,0,0
35880,-100,4,1,4,75,0,0
37162,-100,4,1,4,80,0,0
37418,-100,4,1,4,65,0,0
37931,-100,4,1,4,80,0,0
38060,-100,4,1,4,65,0,0
38957,-100,4,1,4,70,0,0
39470,-100,4,1,4,75,0,0
41265,-100,4,1,4,80,0,0
42034,-100,4,1,1,70,0,0
46136,-100,4,1,1,60,0,0
46906,-100,4,1,2,60,0,0
47162,-100,4,1,1,60,0,0
47931,-100,4,1,2,60,0,0
48188,-100,4,1,1,60,0,0
48957,-100,4,1,2,60,0,0
49213,-100,4,1,1,60,0,0
49470,-100,4,1,5,60,0,0
50239,-100,4,2,5,60,0,0
58701,-100,4,2,5,65,0,0
63572,-100,4,2,5,70,0,0
64085,-100,4,2,5,75,0,0
64342,-100,4,2,5,80,0,0
64598,-100,4,2,5,85,0,0
64983,-100,4,2,5,80,0,0
66136,-100,4,1,6,70,0,0
66649,-100,4,1,6,80,0,0
73316,256.410256410256,3,1,6,80,1,0
81008,256.410256410256,4,2,73,80,1,0
81008,-100,4,2,73,80,0,0
81136,-100,4,2,1,40,0,0
93572,-100,4,2,1,60,0,0
94341,-100,4,2,10,60,0,0
94597,-100,4,2,1,60,0,0
97418,-100,4,3,1,80,0,1
99469,-100,4,3,2,80,0,1
101264,-100,4,3,3,80,0,1
101905,-100,4,3,4,80,0,1
102161,-100,4,2,1,60,0,1
102546,-100,4,3,4,80,0,1
102931,-100,4,3,5,80,0,1
103187,-100,4,3,2,60,0,1
103572,-100,4,3,2,80,0,1
105495,-100,4,3,2,80,0,0
105623,-100,4,3,1,80,0,1
107290,-100,4,2,1,60,0,1
107674,-100,4,3,2,80,0,1
109469,-100,4,3,3,80,0,1
110110,-100,4,3,4,80,0,1
110366,-100,4,2,1,60,0,1
110751,-100,4,3,4,80,0,1
111136,-100,4,3,5,80,0,1
111392,-100,4,2,1,60,0,1
111777,-100,4,3,2,80,0,1
113828,-100,4,3,73,80,0,0
113892,-100,4,3,1,60,0,0
115879,-100,4,3,1,80,0,1
116264,-100,4,3,2,80,0,1
116777,-100,4,3,99,80,0,1
116905,-100,4,3,55,80,0,1
117033,-100,4,3,98,80,0,1
117290,-100,4,3,97,80,0,1
117418,-100,4,3,98,80,0,1
117931,-100,4,3,97,80,0,1
118315,-100,4,3,96,80,0,1
118443,-100,4,2,1,60,0,1
118956,-100,4,3,55,80,0,1
119084,-100,4,3,99,80,0,1
119341,-100,4,3,95,80,0,1
119725,-100,4,3,96,80,0,1
119982,-100,4,3,94,80,0,1
120366,-100,4,3,97,80,0,1
121007,-100,4,3,56,80,0,1
121072,-100,4,3,95,80,0,1
121392,-100,4,3,94,80,0,1
121905,-100,4,2,1,80,0,0
122033,-100,4,3,80,85,0,1
123059,-100,4,3,57,85,0,1
123123,-100,4,3,70,85,0,1
123315,-100,4,3,80,85,0,1
124469,-100,4,3,79,85,0,1
125110,-100,4,3,55,85,0,1
125174,-100,4,3,79,85,0,1
125879,-100,4,3,98,85,0,1
126136,-100,4,3,97,70,0,0
126520,-100,4,3,96,70,0,0
127161,-100,4,3,99,70,0,0
129982,-100,4,1,6,50,0,0
130110,-100,4,1,6,55,0,0
130495,-100,4,1,6,60,0,0
134084,-100,4,1,1,75,0,0
134341,-100,4,1,6,60,0,0
138187,-100,4,1,2,75,0,0
138251,-100,4,1,1,60,0,0
138443,-100,4,1,6,60,0,0
138572,-100,4,2,5,60,0,0
139725,-100,4,2,3,40,0,0
141520,-100,4,2,3,50,0,0
142290,-100,4,1,6,50,0,0
142418,-100,4,1,6,60,0,0
142546,-100,4,1,6,70,0,0
144597,-100,4,2,3,70,0,0
145623,-100,4,2,3,60,0,0

[Colours]
Combo1 : 132,193,255
Combo2 : 151,151,255
Combo3 : 255,145,255

[HitObjects]
254,196,9214,5,2,3:2:0:0:
254,196,9855,1,0,3:2:0:0:
115,192,10239,1,0,3:2:0:0:
254,196,10880,1,0,3:2:0:0:
254,196,11137,1,0,3:2:0:0:
254,196,11265,5,2,3:2:0:0:
254,196,11906,1,0,3:2:0:0:
385,192,12291,1,0,3:2:0:0:
254,196,12675,1,0,3:2:0:0:
254,196,12932,1,0,3:2:0:0:
254,196,13188,1,0,3:2:0:0:
254,196,13316,5,2,3:2:0:0:
254,196,13957,1,0,3:2:0:0:
103,196,14342,1,0,3:2:0:0:
254,196,14983,1,0,3:2:0:0:
383,207,15239,1,2,3:2:0:0:
256,192,16393,12,0,17162,0:0:0:0:
403,289,17419,6,0,L|405:150,1,124,4|2,1:0|0:0,0:0:0:0:
274,122,17932,1,2,0:0:0:0:
212,118,18060,1,0,0:0:0:0:
150,114,18188,1,2,0:0:0:0:
287,41,18444,6,0,L|434:48,1,124,2|2,0:0|0:0,0:0:0:0:
274,133,18957,1,2,0:0:0:0:
269,194,19085,1,0,0:0:0:0:
265,256,19213,1,2,0:0:0:0:
128,296,19470,6,0,L|16:238,1,124,2|2,0:0|0:0,0:0:0:0:
162,214,19983,1,2,0:0:0:0:
165,152,20111,1,0,0:0:0:0:
169,90,20239,1,2,0:0:0:0:
309,58,20496,5,2,0:0:0:0:
247,54,20624,1,8,0:0:0:0:
185,50,20752,1,8,0:0:0:0:
329,176,21008,1,0,0:0:0:0:
390,172,21136,1,0,0:0:0:0:
452,168,21264,1,8,0:0:0:0:
218,313,21521,6,0,L|214:181,1,124,4|2,1:0|0:0,0:0:0:0:
74,177,22034,1,2,0:0:0:0:
70,115,22162,1,0,0:0:0:0:
67,53,22290,1,2,0:0:0:0:
205,36,22547,6,0,L|338:53,1,124,2|2,0:0|0:0,0:0:0:0:
190,132,23060,1,2,0:0:0:0:
186,193,23188,1,0,0:0:0:0:
183,255,23316,1,2,0:0:0:0:
326,309,23573,6,0,L|180:328,1,124,2|2,0:0|0:0,0:0:0:0:
346,226,24085,1,2,0:0:0:0:
407,222,24213,1,0,0:0:0:0:
469,219,24341,1,2,0:0:0:0:
242,231,24598,6,0,L|241:100,1,124,2|8,0:0|0:0,0:0:0:0:
306,88,24983,2,0,L|410:80,2,93,2|2|4,0:0|0:0|3:2,0:0:0:0:
78,173,25624,6,0,L|46:109,2,62,12|0|2,0:0|0:0|0:0,0:0:0:0:
142,204,26008,2,0,L|223:218,2,62,8|8|2,0:0|0:0|0:0,0:0:0:0:
78,173,26393,1,8,0:0:0:0:
304,316,26650,5,8,0:0:0:0:
364,303,26778,1,0,0:0:0:0:
425,291,26906,1,2,0:0:0:0:
359,249,27034,2,0,L|326:187,2,62,8|8|2,0:0|0:0|0:0,0:0:0:0:
425,291,27419,1,4,0:0:0:0:
199,322,27675,5,8,0:0:0:0:
195,260,27803,1,0,0:0:0:0:
192,198,27931,1,2,0:0:0:0:
255,177,28060,1,8,0:0:0:0:
316,168,28188,1,8,0:0:0:0:
377,160,28316,1,2,0:0:0:0:
316,168,28444,1,4,0:0:0:0:
87,113,28701,6,0,L|58:54,2,62,8|0|2,0:0|0:0|0:0,0:0:0:0:
150,135,29085,2,0,L|228:148,2,62,8|8|2,0:0|0:0|0:0,0:0:0:0:
86,113,29470,1,2,0:0:0:0:
303,250,29726,6,0,L|332:188,2,62,8|0|2,0:0|0:0|0:0,0:0:0:0:
239,267,30111,2,0,L|315:265,1,62,8|8,0:0|0:0,0:0:0:0:
363,322,30367,2,0,L|276:328,1,62,2|0,0:0|0:0,0:0:0:0:
166,320,30752,6,0,L|134:257,2,62,8|0|2,0:0|0:0|0:0,0:0:0:0:
233,337,31137,2,0,L|159:332,1,62,8|8,0:0|0:0,0:0:0:0:
106,327,31393,2,0,L|103:257,1,62,2|0,0:0|0:0,0:0:0:0:
327,201,31778,6,0,L|391:191,2,62,8|0|2,0:0|0:0|0:0,0:0:0:0:
262,167,32162,2,0,L|228:103,2,62,8|8|2,0:0|0:0|0:0,0:0:0:0:
329,200,32547,1,8,0:0:0:0:
200,209,32803,5,8,0:0:0:0:
139,195,32931,1,0,0:0:0:0:
78,182,33059,1,8,0:0:0:0:
139,195,33188,1,8,0:0:0:0:
272,127,33444,2,0,L|344:117,1,62,0|0,0:0|0:0,0:0:0:0:
103,25,33829,6,0,L|97:166,1,124,4|8,0:0|0:0,0:0:0:0:
222,188,34342,2,0,L|319:205,2,93,8|8|8,0:0|0:0|0:0,0:0:0:0:
126,237,34919,1,8,0:0:0:0:
225,302,35111,1,8,0:0:0:0:
363,311,35367,6,0,L|369:196,1,93,8|8,0:0|0:0,0:0:0:0:
275,184,35752,1,8,0:0:0:0:
180,168,35944,1,8,0:0:0:0:
280,100,36137,6,0,L|414:87,1,124,8|8,0:0|0:0,0:0:0:0:
454,229,36585,1,0,3:0:0:0:
403,342,36778,1,0,3:0:0:0:
311,357,36970,1,0,3:0:0:0:
212,337,37162,6,0,L|142:308,2,62,8|0|10,0:0|0:0|0:0,0:0:0:0:
306,284,37611,1,10,0:0:0:0:
210,245,37803,1,10,0:0:0:0:
140,236,37932,6,0,L|136:89,1,124,4|8,0:0|0:0,0:0:0:0:
363,65,38444,2,0,L|461:97,2,93,8|8|8,0:0|0:0|0:0,0:0:0:0:
270,105,39021,1,8,0:0:0:0:
366,171,39214,1,8,0:0:0:0:
491,257,39470,6,0,L|376:271,1,93,8|8,0:0|0:0,0:0:0:0:
340,157,39855,1,8,0:0:0:0:
398,43,40047,1,8,0:0:0:0:
489,340,40239,6,0,L|345:334,1,124,8|8,0:0|0:0,0:0:0:0:
270,281,40688,1,8,0:0:0:0:
363,242,40880,1,8,0:0:0:0:
269,194,41073,1,8,0:0:0:0:
166,198,41265,6,0,L|160:67,1,124,8|2,0:0|0:0,0:0:0:0:
224,45,41650,1,0,0:0:0:0:
288,39,41778,1,0,0:0:0:0:
61,228,42034,6,0,L|34:166,2,62,12|0|2,0:0|0:0|0:0,0:0:0:0:
123,251,42419,2,0,L|197:231,2,62,8|8|2,0:0|0:0|0:0,0:0:0:0:
60,226,42803,1,2,0:0:0:0:
275,245,43060,6,0,L|307:179,2,62,12|0|2,0:0|0:0|0:0,0:0:0:0:
211,244,43444,2,0,L|148:235,2,62,8|8|2,0:0|0:0|0:0,0:0:0:0:
275,248,43829,1,10,0:0:0:0:
492,115,44085,6,0,L|474:187,1,62,12|0,0:0|0:0,0:0:0:0:
413,193,44342,1,2,0:0:0:0:
349,213,44470,2,0,L|310:280,2,62,8|8|2,0:0|0:0|0:0,0:0:0:0:
413,193,44855,1,10,0:0:0:0:
197,134,45111,6,0,L|159:67,2,62,12|0|2,0:0|0:0|0:0,0:0:0:0:
260,130,45496,2,0,L|321:120,2,62,8|8|2,0:0|0:0|0:0,0:0:0:0:
197,134,45880,1,2,0:0:0:0:
412,271,46137,6,0,L|474:262,2,62,12|0|2,0:0|0:0|0:0,0:0:0:0:
351,258,46521,1,8,0:0:0:0:
290,238,46650,1,8,0:0:0:0:
353,224,46778,2,0,L|359:138,1,62,2|4,0:0|0:0,0:0:0:0:
131,142,47162,6,0,L|104:82,2,62,12|0|2,0:0|0:0|0:0,0:0:0:0:
193,165,47547,1,8,0:0:0:0:
254,167,47675,1,8,0:0:0:0:
316,170,47803,1,2,0:0:0:0:
254,167,47932,1,4,0:0:0:0:
33,61,48188,6,0,L|50:132,1,62,12|0,0:0|0:0,0:0:0:0:
109,140,48444,1,2,0:0:0:0:
174,155,48573,2,0,L|208:213,2,62,8|8|2,0:0|0:0|0:0,0:0:0:0:
109,140,48957,1,4,0:0:0:0:
336,125,49214,6,0,L|408:132,2,62,6|2|12,0:0|0:0|0:0,0:0:0:0:
274,124,49598,2,0,P|230:131|210:261,1,186,0|0,0:0|0:0,0:0:0:0:
431,300,50239,6,0,L|437:154,1,124,12|2,3:2|0:0,0:0:0:0:
305,119,50752,2,0,L|176:102,1,124,2|2,0:0|0:0,0:0:0:0:
316,222,51265,6,0,L|320:112,1,93,8|0,0:0|0:0,0:0:0:0:
218,90,51650,2,0,P|174:103|230:246,1,248,10|0,0:0|0:0,0:0:0:0:
287,256,52291,6,0,L|377:258,2,82.6666666666667,10|0|2,0:0|0:0|0:0,0:0:0:0:
150,301,52932,1,8,0:0:0:0:
281,350,53188,2,0,L|418:338,1,124,2|2,0:0|0:0,0:0:0:0:
438,289,53573,1,0,0:0:0:0:
403,339,53701,2,0,L|203:308,1,186,10|8,0:0|0:0,0:0:0:0:
441,249,54342,6,0,P|463:193|364:115,1,186,12|8,0:0|0:0,0:0:0:0:
321,106,54855,1,8,0:0:0:0:
238,106,55026,1,0,0:0:0:0:
321,106,55197,1,0,0:0:0:0:
368,186,55367,5,8,0:0:0:0:
321,104,55538,1,2,0:0:0:0:
245,97,55709,1,8,0:0:0:0:
324,84,55880,1,2,0:0:0:0:
404,75,56051,1,8,0:0:0:0:
125,42,56393,6,0,P|80:46|70:132,1,124,12|8,0:0|0:0,0:0:0:0:
121,141,56778,2,0,L|252:158,1,124,8|0,0:0|0:0,0:0:0:0:
102,269,57291,2,0,L|92:122,1,124,8|2,0:0|0:0,0:0:0:0:
154,117,57675,1,8,0:0:0:0:
218,103,57803,2,0,L|383:189,1,186,8|2,0:0|0:0,0:0:0:0:
159,320,58444,6,0,L|77:311,2,62,6|0|8,0:0|0:0|0:0,0:0:0:0:
226,318,58829,2,0,P|246:282|147:198,1,186,2|8,0:0|0:0,0:0:0:0:
96,183,59342,1,0,0:0:0:0:
162,168,59470,2,0,L|273:155,1,93,8|0,0:0|0:0,0:0:0:0:
157,75,59855,2,0,P|115:76|77:202,1,186,2|8,0:0|0:0,0:0:0:0:
289,230,60496,5,12,0:0:0:0:
351,287,60624,2,0,L|211:308,1,124,2|8,0:0|0:0,0:0:0:0:
114,209,61137,1,8,0:0:0:0:
81,118,61265,1,8,0:0:0:0:
114,209,61393,5,2,0:0:0:0:
243,229,61650,1,2,0:0:0:0:
116,261,61906,2,0,P|54:248|88:148,1,186,8|2,0:0|0:0,0:0:0:0:
301,82,62547,6,0,L|443:107,1,124,12|8,0:0|0:0,0:0:0:0:
365,155,62932,1,0,0:0:0:0:
303,165,63060,1,8,0:0:0:0:
435,233,63316,2,0,L|464:297,2,62,8|0|8,0:0|0:0|0:0,0:0:0:0:
297,265,63829,2,0,L|221:263,2,62,8|0|8,0:0|0:0|0:0,0:0:0:0:
431,241,64342,1,10,0:0:0:0:
203,87,64598,6,0,P|155:88|149:209,1,186,14|2,0:0|0:0,0:0:0:0:
165,255,65111,1,8,0:0:0:0:
218,285,65239,1,2,0:0:0:0:
279,283,65367,1,8,0:0:0:0:
218,285,65496,6,0,L|95:322,1,124,8|0,0:0|0:0,0:0:0:0:
158,349,65880,1,8,0:0:0:0:
289,351,66137,5,0,0:0:0:0:
372,352,66308,1,0,0:0:0:0:
289,351,66479,1,0,0:0:0:0:
125,245,66650,6,0,L|122:111,1,124,12|0,0:0|0:0,0:0:0:0:
253,38,67162,1,8,0:0:0:0:
310,54,67290,1,0,0:0:0:0:
336,108,67418,1,8,0:0:0:0:
311,163,67546,1,0,0:0:0:0:
253,179,67675,6,0,L|123:149,1,124,8|8,0:0|0:0,0:0:0:0:
265,273,68188,2,0,L|370:271,2,93,8|0|0,0:0|0:0|0:0,0:0:0:0:
131,299,68701,6,0,L|20:229,2,124,12|8|8,0:0|0:0|0:0,0:0:0:0:
191,286,69342,1,0,0:0:0:0:
252,275,69470,1,0,0:0:0:0:
191,286,69598,1,2,0:0:0:0:
128,289,69726,6,0,L|121:157,1,124,8|8,0:0|0:0,0:0:0:0:
253,126,70239,2,0,L|188:99,1,62,8|0,0:0|0:0,0:0:0:0:
132,97,70496,1,8,0:0:0:0:
351,45,70752,6,0,L|468:102,1,124,14|8,0:0|0:0,0:0:0:0:
331,155,71265,1,8,0:0:0:0:
271,163,71393,1,0,0:0:0:0:
244,216,71521,1,8,0:0:0:0:
272,269,71649,1,2,0:0:0:0:
331,276,71778,6,0,L|417:271,2,62,0|0|8,0:0|0:0|0:0,0:0:0:0:
205,316,72291,2,0,L|85:275,1,124,8|8,0:0|0:0,0:0:0:0:
148,235,72675,1,0,0:0:0:0:
210,223,72803,1,8,0:0:0:0:
334,209,73060,1,8,0:0:0:0:
105,47,73316,6,0,L|101:196,1,124,12|8,0:0|0:0,0:0:0:0:
162,206,73701,1,0,0:0:0:0:
225,218,73829,1,8,0:0:0:0:
448,257,74085,6,0,L|472:196,2,62,12|0|8,0:0|0:0|0:0,0:0:0:0:
322,300,74598,1,8,0:0:0:0:
99,308,74855,6,0,L|65:241,2,62,12|0|8,0:0|0:0|0:0,0:0:0:0:
231,329,75367,2,0,L|303:323,2,62,8|0|8,0:0|0:0|0:0,0:0:0:0:
97,340,75880,2,0,L|83:207,1,124,8|8,0:0|0:0,0:0:0:0:
314,74,76393,6,0,L|331:206,1,124,12|8,0:0|0:0,0:0:0:0:
271,228,76778,1,0,0:0:0:0:
212,232,76906,1,8,0:0:0:0:
437,170,77162,6,0,L|454:302,1,124,12|8,0:0|0:0,0:0:0:0:
394,324,77547,1,0,0:0:0:0:
335,328,77675,1,8,0:0:0:0:
117,28,77932,6,0,L|101:153,1,124,12|8,0:0|0:0,0:0:0:0:
160,187,78315,1,0,0:0:0:0:
221,199,78445,1,8,0:0:0:0:
440,236,78701,6,0,P|453:291|401:316,1,124,12|8,0:0|0:0,0:0:0:0:
340,324,79085,1,2,0:0:0:0:
277,327,79214,1,0,0:0:0:0:
406,193,79470,1,2,0:0:0:0:
177,121,79726,5,8,0:0:0:0:
256,192,79983,12,2,81008,0:0:0:0:
256,192,87162,12,2,88957,0:0:0:0:
250,260,89214,6,0,L|112:129,1,186,10|2,3:2|0:0,0:0:0:0:
248,115,89855,2,0,L|283:55,2,62,8|8|8,0:0|0:0|0:0,0:0:0:0:
182,133,90239,6,0,P|163:176|269:248,1,186,2|2,0:0|0:0,0:0:0:0:
385,289,90880,2,0,L|417:231,2,62,8|8|8,0:0|0:0|0:0,0:0:0:0:
319,308,91265,6,0,P|261:309|255:197,1,186,2|2,0:0|0:0,0:0:0:0:
377,158,91906,2,0,L|447:136,1,62,0|8,0:0|0:0,0:0:0:0:
377,158,92162,2,0,L|253:132,1,124,0|0,0:0|0:0,0:0:0:0:
192,142,92547,1,8,0:0:0:0:
316,222,92803,1,8,0:0:0:0:
191,256,93060,1,0,0:0:0:0:
128,264,93188,1,0,0:0:0:0:
63,266,93316,6,0,P|47:217|143:145,1,186,2|2,0:0|0:0,0:0:0:0:
291,134,94021,1,0,0:0:0:0:
127,106,94342,2,0,P|47:131|70:228,1,186,6|8,0:0|0:0,0:0:0:0:
119,241,94855,1,0,0:0:0:0:
245,264,95111,1,0,0:0:0:0:
373,275,95367,5,0,0:0:0:0:
92,280,97419,6,0,P|79:202|121:173,1,124,6|0,0:0|0:0,0:0:0:0:
175,163,97803,2,0,L|45:148,1,124,8|0,0:0|0:0,0:0:0:0:
115,119,98188,1,0,0:0:0:0:
341,318,98444,6,0,P|354:240|312:211,1,124,2|0,0:0|0:0,0:0:0:0:
258,201,98828,2,0,L|388:186,1,124,8|0,0:0|0:0,0:0:0:0:
318,157,99213,1,0,0:0:0:0:
92,315,99470,6,0,L|79:170,1,124,6|0,0:0|0:0,0:0:0:0:
149,160,99855,2,0,L|300:135,1,124,8|0,0:0|0:0,0:0:0:0:
337,25,100239,1,0,0:0:0:0:
219,47,100495,5,0,0:0:0:0:
166,154,100751,1,0,0:0:0:0:
219,261,101008,1,0,0:0:0:0:
336,284,101264,1,2,0:0:0:0:
108,342,101521,6,0,L|20:231,1,124,12|0,0:0|0:0,0:0:0:0:
99,204,101906,2,0,L|232:180,1,124,2|0,0:0|0:0,0:0:0:0:
289,173,102291,1,0,3:0:0:0:
66,214,102547,6,0,P|57:166|121:115,1,124,8|0,0:0|0:0,0:0:0:0:
171,104,102932,2,0,L|33:80,1,124,2|0,0:0|0:0,0:0:0:0:
114,54,103316,1,0,0:0:0:0:
342,113,103573,6,0,P|360:154|308:211,1,124,12|0,0:0|0:0,0:0:0:0:
253,222,103957,1,0,0:0:0:0:
190,225,104085,1,0,0:0:0:0:
320,314,104342,1,0,0:0:0:0:
190,225,104598,5,0,0:0:0:0:
123,114,104855,1,0,0:0:0:0:
190,225,105111,1,0,0:0:0:0:
320,314,105367,1,0,0:0:0:0:
87,322,105624,6,0,P|57:280|104:219,1,124,6|0,0:0|0:0,0:0:0:0:
156,206,106008,2,0,L|27:178,1,124,8|0,0:0|0:0,0:0:0:0:
99,151,106393,1,0,0:0:0:0:
330,160,106650,6,0,P|307:127|225:91,1,124,2|0,0:0|0:0,0:0:0:0:
164,125,107034,2,0,P|187:158|269:194,1,124,8|0,0:0|3:0,0:0:0:0:
331,198,107419,1,0,3:0:0:0:
103,327,107675,6,0,L|91:180,1,124,6|0,0:0|0:0,0:0:0:0:
160,179,108060,2,0,L|297:165,1,124,8|0,0:0|0:0,0:0:0:0:
219,132,108444,1,0,0:0:0:0:
339,83,108701,5,0,0:0:0:0:
402,226,108957,1,0,0:0:0:0:
339,83,109214,1,0,0:0:0:0:
213,77,109470,1,2,0:0:0:0:
445,40,109726,6,0,L|459:182,1,124,12|0,0:0|0:0,0:0:0:0:
390,197,110111,2,0,L|243:222,1,124,2|0,0:0|3:0,0:0:0:0:
202,228,110496,1,0,3:0:0:0:
431,88,110752,6,0,L|417:230,1,124,8|0,0:0|0:0,0:0:0:0:
356,253,111137,2,0,L|234:209,1,124,2|0,0:0|3:0,0:0:0:0:
175,201,111520,1,0,3:0:0:0:
406,75,111778,6,0,L|489:188,1,124,12|0,0:0|0:0,0:0:0:0:
417,206,112162,1,0,0:0:0:0:
350,215,112291,1,0,0:0:0:0:
479,308,112547,1,0,0:0:0:0:
350,215,112803,5,0,0:0:0:0:
279,102,113060,1,0,0:0:0:0:
350,215,113316,1,0,0:0:0:0:
479,308,113573,1,0,0:0:0:0:
243,336,113829,6,0,L|91:216,2,186,10|8|8,3:2|2:3|3:3,0:0:0:0:
381,344,114855,6,0,P|401:292|311:207,1,186,2|8,2:3|0:0,0:0:0:0:
289,165,115367,1,0,0:0:0:0:
322,206,115496,1,0,0:0:0:0:
381,218,115624,1,0,0:0:0:0:
148,80,115880,6,0,L|35:129,1,124,6|0,0:0|0:0,0:0:0:0:
102,163,116265,2,0,L|252:175,1,124,8|0,0:0|0:0,0:0:0:0:
260,222,116650,1,0,0:0:0:0:
226,174,116778,1,0,0:0:0:0:
168,161,116906,5,4,3:0:0:0:
39,271,117162,1,0,0:0:0:0:
168,161,117419,1,0,0:0:0:0:
229,154,117547,1,0,0:0:0:0:
291,148,117675,1,2,0:0:0:0:
62,214,117932,6,0,P|47:158|109:107,1,124,12|0,0:0|0:0,0:0:0:0:
155,96,118316,2,0,L|286:97,1,124,2|0,0:0|3:0,0:0:0:0:
346,108,118701,1,0,3:0:0:0:
118,330,118957,6,0,P|103:274|165:223,1,124,12|0,0:0|0:0,0:0:0:0:
211,212,119341,2,0,L|342:213,1,124,2|0,0:0|0:0,0:0:0:0:
368,160,119726,1,8,0:0:0:0:
336,211,119855,1,0,0:0:0:0:
199,308,119983,6,0,L|51:328,1,124,6|0,0:0|0:0,0:0:0:0:
141,276,120367,2,0,L|274:258,1,124,2|0,0:0|0:0,0:0:0:0:
330,246,120752,1,0,0:0:0:0:
95,186,121008,6,0,P|68:146|111:82,1,124,12|0,0:0|0:0,0:0:0:0:
172,84,121393,2,0,L|58:146,1,124,8|0,0:0|0:0,0:0:0:0:
31,186,121778,1,0,3:0:0:0:
63,144,121906,1,0,3:0:0:0:
204,269,122034,6,0,L|340:232,1,124,6|0,0:0|0:0,0:0:0:0:
393,184,122419,2,0,L|267:152,1,124,8|0,0:0|0:0,0:0:0:0:
205,148,122803,1,0,0:0:0:0:
433,73,123060,6,0,P|456:128|406:173,1,124,6|0,0:0|0:0,0:0:0:0:
349,183,123444,2,0,L|199:199,1,124,8|0,0:0|0:0,0:0:0:0:
161,241,123829,1,0,0:0:0:0:
226,195,123957,1,0,0:0:0:0:
360,266,124085,6,0,L|504:292,1,124,6|0,0:0|0:0,0:0:0:0:
415,333,124470,2,0,L|276:335,1,124,2|0,0:0|0:0,0:0:0:0:
225,321,124855,1,0,0:0:0:0:
454,254,125111,6,0,P|469:204|417:139,1,124,4|0,0:0|0:0,0:0:0:0:
368,135,125496,1,0,0:0:0:0:
301,127,125624,1,0,0:0:0:0:
368,135,125752,1,0,0:0:0:0:
435,145,125880,1,2,0:0:0:0:
196,44,126137,6,0,P|140:47|142:161,1,186,12|2,0:0|0:0,0:0:0:0:
385,351,127162,6,0,P|401:267|321:240,1,186,8|2,0:0|0:0,0:0:0:0:
75,233,128188,5,8,0:0:0:0:
256,192,128444,12,0,129983,0:0:0:0:
246,158,130239,6,0,L|135:140,2,93,2|0|2,0:0|0:0|0:0,0:0:0:0:
310,157,130752,2,0,L|312:290,1,124,0|8,0:0|0:0,0:0:0:0:
175,326,131265,2,0,L|129:233,2,93,2|0|2,0:0|0:0|0:0,0:0:0:0:
240,331,131778,2,0,L|372:323,1,124,2|8,0:0|0:0,0:0:0:0:
134,175,132291,6,0,L|28:162,2,93,2|0|2,0:0|0:0|0:0,0:0:0:0:
199,125,132803,2,0,L|66:95,1,124,0|8,0:0|0:0,0:0:0:0:
214,228,133316,2,0,L|348:216,1,124,2|8,0:0|0:0,0:0:0:0:
271,177,133701,2,0,L|139:157,1,124,2|8,0:0|0:0,0:0:0:0:
212,125,134085,1,4,0:0:0:0:
442,100,134342,6,0,L|484:201,2,93,2|0|2,0:0|0:0|0:0,0:0:0:0:
374,87,134855,2,0,L|237:92,1,124,8|2,0:0|0:0,0:0:0:0:
388,237,135367,6,0,L|434:328,2,93,2|0|8,0:0|0:0|0:0,0:0:0:0:
320,230,135880,1,2,0:0:0:0:
381,219,136008,1,8,0:0:0:0:
442,209,136136,1,8,0:0:0:0:
210,161,136393,6,0,L|105:149,2,93,2|0|2,0:0|0:0|0:0,0:0:0:0:
277,128,136906,2,0,L|361:44,2,93,2|0|0,0:0|0:0|0:0,0:0:0:0:
135,230,137419,6,0,L|77:327,2,93,2|0|2,0:0|0:0|0:0,0:0:0:0:
205,211,137932,2,0,L|310:201,2,93,8|0|2,0:0|0:0|0:0,0:0:0:0:
66,164,138444,5,0,0:0:0:0:
256,192,138701,12,2,139726,0:0:0:0:
248,125,140154,5,8,0:0:0:0:
387,165,140496,1,2,0:0:0:0:
249,245,140837,1,2,0:0:0:0:
120,281,141179,1,2,0:0:0:0:
266,300,141521,6,0,P|383:293|347:88,1,372,10|10,0:0|0:0,0:0:0:0:
125,83,142547,6,0,L|32:149,2,93,2|0|2,0:0|0:0|0:0,0:0:0:0:
192,104,143060,2,0,L|330:118,1,124,2|8,0:0|0:0,0:0:0:0:
87,291,143573,6,0,L|29:193,2,93,2|0|2,0:0|0:0|0:0,0:0:0:0:
159,309,144085,2,0,L|19:311,1,124,2|8,0:0|0:0,0:0:0:0:
265,284,144598,5,2,3:2:0:0:
286,245,144683,1,2,3:2:0:0:
265,284,144768,1,2,3:2:0:0:
226,288,144854,1,2,3:2:0:0:
89,164,145111,5,2,3:2:0:0:
68,124,145196,1,2,3:2:0:0:
89,164,145281,1,2,3:2:0:0:
128,168,145367,1,2,3:2:0:0:
372,178,145624,5,8,3:2:0:0:
