osu file format v14

[General]
AudioFilename: audio.mp3
AudioLeadIn: 0
PreviewTime: 95293
Countdown: 0
SampleSet: Soft
StackLeniency: 0.7
Mode: 2
LetterboxInBreaks: 0
WidescreenStoryboard: 1

[Editor]
Bookmarks: 9204,25614,29204,42024,50229,64588,80998,95101,95229,95357,96383,97409,113819,130229,138434,145614
DistanceSpacing: 1
BeatDivisor: 4
GridSize: 32
TimelineZoom: 4.199998

[Metadata]
Title:Aegleseeker
TitleUnicode:Aegleseeker
Artist:Silentroom vs. Frums
ArtistUnicode:Silentroom vs. Frums
Creator:Jemzuu
Version:Rei's Deluge
Source:Arcaea
Tags:ajamez gigas [_-Kukkai-_] autofanboy alienflybot bunnrei -plus- ster osu_gangster chara razor sharp lowiro esoteric order electronic instrumental video game Song Contest 2020
BeatmapID:3002434
BeatmapSetID:1460413

[Difficulty]
HPDrainRate:5
CircleSize:4
OverallDifficulty:9.8
ApproachRate:9.8
SliderMultiplier:1.8
SliderTickRate:2

[Events]
//Background and Video events
0,0,"86238824_p0.jpg",0,0
//Break Periods
//Storyboard Layer 0 (Background)
//Storyboard Layer 1 (Fail)
//Storyboard Layer 2 (Pass)
//Storyboard Layer 3 (Foreground)
//Storyboard Layer 4 (Overlay)
//Storyboard Sound Samples

[TimingPoints]
1009,256.410256410256,4,2,1,60,1,0
1137,-100,4,2,1,30,0,0
9214,-100,4,2,1,20,0,0
11265,-100,4,2,1,30,0,0
12803,-100,4,2,1,35,0,0
13316,-100,4,2,1,40,0,0
14342,-100,4,2,1,45,0,0
15367,-100,4,2,1,60,0,0
16393,-100,4,2,1,10,0,0
16521,-100,4,2,1,60,0,0
17419,-100,4,2,6,60,0,0
17547,-100,4,2,2,60,0,0
18316,-100,4,2,2,60,0,0
18444,-100,4,2,2,70,0,0
19470,-100,4,2,2,75,0,0
19598,-100,4,2,2,75,0,0
20239,-100,4,2,2,80,0,0
21265,-100,4,2,2,80,0,0
21521,-100,4,2,6,80,0,0
21650,-100,4,2,2,60,0,0
22547,-100,4,2,2,65,0,0
22803,-100,4,2,2,70,0,0
23316,-100,4,2,2,75,0,0
23444,-100,4,2,2,75,0,0
24085,-100,4,2,2,80,0,0
24598,-100,4,2,3,80,0,0
24854,-100,4,2,3,80,0,0
25367,-100,4,2,4,65,0,0
25624,-100,4,1,1,70,0,0
26393,-100,4,1,1,70,0,0
26649,-100,4,1,1,70,0,0
27418,-100,4,1,1,70,0,0
27675,-100,4,1,1,70,0,0
28444,-100,4,1,1,70,0,0
28701,-100,4,1,1,70,0,0
29342,-100,4,1,1,70,0,0
29598,-100,4,1,1,70,0,0
29726,-100,4,1,1,60,0,0
30495,-100,4,1,1,60,0,0
30624,-100,4,1,2,60,0,0
30752,-100,4,1,1,60,0,0
31521,-100,4,1,1,60,0,0
31650,-100,4,1,2,60,0,0
31777,-100,4,1,1,65,0,0
32547,-100,4,1,1,60,0,0
32675,-100,4,1,2,60,0,0
32803,-100,4,1,1,60,0,0
33444,-33.3333333333333,4,1,2,60,0,0
33829,-100,4,1,4,80,0,0
33957,-100,4,1,4,65,0,0
34342,-100,4,1,4,65,0,0
34534,-100,4,1,4,65,0,0
34854,-100,4,1,4,70,0,0
35047,-100,4,1,4,70,0,0
35367,-100,4,1,4,70,0,0
35880,-100,4,1,4,75,0,0
36649,-100,4,1,4,75,0,0
37034,-100,4,1,4,75,0,0
37162,-100,4,1,4,80,0,0
37418,-100,4,1,4,65,0,0
37931,-100,4,1,4,80,0,0
38060,-100,4,1,4,65,0,0
38636,-100,4,1,4,65,0,0
38829,-100,4,1,4,65,0,0
38957,-100,4,1,4,70,0,0
39021,-100,4,1,4,70,0,0
39213,-100,4,1,4,70,0,0
39470,-100,4,1,4,75,0,0
40047,-100,4,1,4,75,0,0
41008,-100,4,1,4,75,0,0
41265,-100,4,1,4,80,0,0
42034,-100,4,1,1,70,0,0
42675,-100,4,1,1,70,0,0
42803,-100,4,1,1,70,0,0
43060,-100,4,1,1,70,0,0
43701,-100,4,1,1,70,0,0
43829,-100,4,1,1,70,0,0
44085,-100,4,1,1,70,0,0
44726,-100,4,1,1,70,0,0
44854,-100,4,1,1,70,0,0
45111,-100,4,1,1,70,0,0
45880,-100,4,1,1,70,0,0
46136,-100,4,1,1,60,0,0
46777,-100,4,1,1,60,0,0
46906,-100,4,1,2,60,0,0
47162,-100,4,1,1,60,0,0
47803,-100,4,1,1,60,0,0
47931,-100,4,1,2,60,0,0
48188,-100,4,1,1,60,0,0
48829,-100,4,1,1,60,0,0
48957,-100,4,1,2,60,0,0
49213,-100,4,1,1,60,0,0
49470,-100,4,1,5,60,0,0
49598,-100,4,1,5,60,0,0
50239,-100,4,2,5,60,0,0
51649,-100,4,2,5,60,0,0
52290,-100,4,2,5,60,0,0
52931,-100,4,2,5,60,0,0
54342,-100,4,2,5,60,0,0
54854,-100,4,2,5,60,0,0
55880,-100,4,2,5,60,0,0
56393,-100,4,2,5,60,0,0
57034,-100,4,2,5,60,0,0
57290,-100,4,2,5,60,0,0
58701,-100,4,2,5,65,0,0
58957,-100,4,2,5,65,0,0
59213,-100,4,2,5,65,0,0
59470,-100,4,2,5,65,0,0
61393,-100,4,2,5,65,0,0
61649,-100,4,2,5,65,0,0
61906,-100,4,2,5,65,0,0
63572,-100,4,2,5,70,0,0
64085,-100,4,2,5,75,0,0
64342,-100,4,2,5,80,0,0
64598,-100,4,2,5,85,0,0
64983,-100,4,2,5,80,0,0
65111,-100,4,2,5,80,0,0
65880,-100,4,2,5,80,0,0
66136,-100,4,1,6,70,0,0
66649,-100,4,1,6,80,0,0
66906,-100,4,1,6,80,0,0
67675,-100,4,1,6,80,0,0
67931,-100,4,1,6,80,0,0
68188,-100,4,1,6,80,0,0
68380,-100,4,1,6,80,0,0
68572,-100,4,1,6,80,0,0
68701,-100,4,1,6,80,0,0
68957,-100,4,1,6,80,0,0
69213,-100,4,1,6,80,0,0
69726,-100,4,1,6,80,0,0
70495,-100,4,1,6,80,0,0
71008,-100,4,1,6,80,0,0
72290,-100,4,1,6,80,0,0
73316,256.410256410256,3,1,6,80,1,0
73316,-100,4,1,6,80,0,0
73572,-100,4,1,6,80,0,0
76393,-100,4,1,6,80,0,0
76906,-100,4,1,6,80,0,0
77162,-100,4,1,6,80,0,0
77418,-100,4,1,6,80,0,0
77675,-100,4,1,6,80,0,0
77931,-100,4,1,6,80,0,0
78188,-100,4,1,6,80,0,0
78701,-100,4,1,6,80,0,0
78957,-100,4,1,6,80,0,0
81008,256.410256410256,4,2,73,80,1,0
81008,-125,4,2,73,80,0,0
81136,-125,4,2,1,40,0,0
89213,-111.111111111111,4,2,1,40,0,0
93572,-111.111111111111,4,2,1,60,0,0
94341,-111.111111111111,4,2,10,60,0,0
94597,-111.111111111111,4,2,1,60,0,0
94725,-40,4,2,1,60,0,0
97418,-83.3333333333333,4,3,1,80,0,1
99469,-83.3333333333333,4,3,2,80,0,1
101264,-83.3333333333333,4,3,3,80,0,1
101905,-83.3333333333333,4,3,4,80,0,1
102161,-83.3333333333333,4,2,1,60,0,1
102546,-83.3333333333333,4,3,4,80,0,1
102931,-83.3333333333333,4,3,5,80,0,1
103187,-83.3333333333333,4,3,2,60,0,1
103572,-83.3333333333333,4,3,2,80,0,1
105495,-83.3333333333333,4,3,2,80,0,0
105623,-83.3333333333333,4,3,1,80,0,1
107290,-83.3333333333333,4,2,1,60,0,1
107674,-83.3333333333333,4,3,2,80,0,1
109469,-83.3333333333333,4,3,3,80,0,1
110110,-83.3333333333333,4,3,4,80,0,1
110366,-83.3333333333333,4,2,1,60,0,1
110751,-83.3333333333333,4,3,4,80,0,1
111136,-83.3333333333333,4,3,5,80,0,1
111392,-83.3333333333333,4,2,1,60,0,1
111777,-83.3333333333333,4,3,2,80,0,1
113828,-83.3333333333333,4,3,73,80,0,0
113892,-83.3333333333333,4,3,1,60,0,0
115879,-83.3333333333333,4,3,1,80,0,1
116264,-83.3333333333333,4,3,2,80,0,1
116777,-83.3333333333333,4,3,99,80,0,1
116905,-83.3333333333333,4,3,55,80,0,1
117033,-83.3333333333333,4,3,98,80,0,1
117290,-83.3333333333333,4,3,97,80,0,1
117418,-83.3333333333333,4,3,98,80,0,1
117931,-83.3333333333333,4,3,97,80,0,1
118315,-83.3333333333333,4,3,96,80,0,1
118443,-83.3333333333333,4,2,1,60,0,1
118956,-83.3333333333333,4,3,55,80,0,1
119084,-83.3333333333333,4,3,99,80,0,1
119341,-83.3333333333333,4,3,95,80,0,1
119725,-83.3333333333333,4,3,96,80,0,1
119982,-83.3333333333333,4,3,94,80,0,1
120366,-83.3333333333333,4,3,97,80,0,1
121007,-83.3333333333333,4,3,56,80,0,1
121072,-83.3333333333333,4,3,95,80,0,1
121392,-83.3333333333333,4,3,94,80,0,1
121905,-83.3333333333333,4,2,1,80,0,0
122033,-83.3333333333333,4,3,80,85,0,1
123059,-83.3333333333333,4,3,57,85,0,1
123123,-83.3333333333333,4,3,70,85,0,1
123315,-83.3333333333333,4,3,80,85,0,1
124469,-83.3333333333333,4,3,79,85,0,1
125110,-83.3333333333333,4,3,55,85,0,1
125174,-83.3333333333333,4,3,79,85,0,1
125879,-83.3333333333333,4,3,98,85,0,1
126136,-100,4,3,97,70,0,0
126520,-100,4,3,96,70,0,0
127161,-100,4,3,99,70,0,0
128187,-100,4,3,99,70,0,0
129982,-100,4,1,6,50,0,0
130110,-100,4,1,6,55,0,0
130238,-90.9090909090909,4,1,6,55,0,0
130495,-90.9090909090909,4,1,6,60,0,0
132290,-90.9090909090909,4,1,6,60,0,0
134084,-90.9090909090909,4,1,1,75,0,0
134341,-90.9090909090909,4,1,6,60,0,0
138187,-90.9090909090909,4,1,2,75,0,0
138251,-90.9090909090909,4,1,1,60,0,0
138443,-90.9090909090909,4,1,6,60,0,0
138572,-90.9090909090909,4,2,5,60,0,0
139725,-90.9090909090909,4,2,3,40,0,0
141520,-133.333333333333,4,2,3,50,0,0
142290,-133.333333333333,4,1,6,50,0,0
142418,-133.333333333333,4,1,6,60,0,0
142546,-90.9090909090909,4,1,6,70,0,0
144597,-90.9090909090909,4,2,3,70,0,0
145623,-10,4,2,3,60,0,0
145644,-100,4,2,3,60,0,0

[Colours]
Combo1 : 132,193,255
Combo2 : 151,151,255
Combo3 : 255,145,255

[HitObjects]
254,196,9214,5,2,3:2:0:0:
254,196,9855,1,0,3:2:0:0:
254,196,10239,1,0,3:2:0:0:
254,196,10880,1,0,3:2:0:0:
254,196,11137,1,0,3:2:0:0:
254,196,11265,5,2,3:2:0:0:
254,196,11906,1,0,3:2:0:0:
254,196,12291,1,0,3:2:0:0:
254,196,12675,1,0,3:2:0:0:
254,196,12932,1,0,3:2:0:0:
254,196,13188,1,0,3:2:0:0:
254,196,13316,5,2,3:2:0:0:
254,196,13957,1,0,3:2:0:0:
254,196,14342,1,0,3:2:0:0:
254,196,14983,1,0,3:2:0:0:
254,196,15239,1,2,3:2:0:0:
256,192,16393,12,0,17291,0:0:0:0:
352,192,17419,5,4,1:0:0:0:
96,192,17547,2,0,L|87:134,1,45,2|0,0:0|0:0,0:0:0:0:
161,108,17675,2,0,L|170:50,3,45,2|0|0|0,0:0|0:0|0:0|0:0,0:0:0:0:
241,41,17932,1,2,0:0:0:0:
283,49,17996,1,0,0:0:0:0:
302,88,18060,1,0,0:0:0:0:
283,126,18124,1,0,0:0:0:0:
240,134,18188,1,2,0:0:0:0:
313,214,18252,5,0,0:0:0:0:
355,222,18316,1,0,0:0:0:0:
374,261,18380,1,0,0:0:0:0:
355,299,18444,1,2,0:0:0:0:
312,307,18508,1,0,0:0:0:0:
239,320,18573,5,0,0:0:0:0:
196,312,18637,1,0,0:0:0:0:
177,274,18701,1,2,0:0:0:0:
196,235,18765,1,0,0:0:0:0:
238,227,18829,1,0,0:0:0:0:
166,180,18893,5,0,0:0:0:0:
123,172,18957,1,2,0:0:0:0:
104,134,19021,1,0,0:0:0:0:
123,95,19085,1,0,0:0:0:0:
165,87,19149,1,0,0:0:0:0:
320,96,19214,6,0,L|329:38,4,45,2|0|0|0|2,0:0|0:0|0:0|0:0|0:0,0:0:0:0:
192,96,19534,6,0,L|183:38,4,45,0|0|0|2|0,0:0|0:0|0:0|0:0|0:0,0:0:0:0:
346,180,19855,5,0,0:0:0:0:
389,172,19919,1,0,0:0:0:0:
408,134,19983,1,2,0:0:0:0:
389,95,20047,1,0,0:0:0:0:
347,87,20111,1,0,0:0:0:0:
166,180,20175,5,0,0:0:0:0:
123,172,20239,1,2,0:0:0:0:
104,134,20303,1,0,0:0:0:0:
123,95,20367,1,0,0:0:0:0:
165,87,20431,1,0,0:0:0:0:
346,64,20496,6,0,L|256:64,1,90,2|8,0:0|0:0,0:0:0:0:
384,160,20752,2,0,L|448:160,1,45,8|0,0:0|0:0,0:0:0:0:
256,288,20880,2,0,L|192:288,2,60,8|0|8,0:0|0:0|0:0,0:0:0:0:
164,320,21137,2,0,L|132:320,2,22.5,0|0|0,0:0|0:0|0:0,0:0:0:0:
326,192,21265,2,0,L|422:192,1,90,8|0,0:0|0:0,0:0:0:0:
160,192,21521,5,4,1:0:0:0:
416,192,21649,2,0,L|425:134,1,45,2|0,0:0|0:0,0:0:0:0:
351,108,21777,2,0,L|342:50,3,45,2|0|0|0,0:0|0:0|0:0|0:0,0:0:0:0:
271,41,22034,1,2,0:0:0:0:
229,49,22098,1,0,0:0:0:0:
210,88,22162,1,0,0:0:0:0:
229,126,22226,1,0,0:0:0:0:
272,134,22290,1,2,0:0:0:0:
199,214,22354,5,0,0:0:0:0:
157,222,22418,1,0,0:0:0:0:
138,261,22482,1,0,0:0:0:0:
157,299,22546,1,2,0:0:0:0:
200,307,22610,1,0,0:0:0:0:
273,320,22675,5,0,0:0:0:0:
316,312,22739,1,0,0:0:0:0:
335,274,22803,1,2,0:0:0:0:
316,235,22867,1,0,0:0:0:0:
274,227,22931,1,0,0:0:0:0:
346,180,22995,5,0,0:0:0:0:
389,172,23059,1,2,0:0:0:0:
408,134,23123,1,0,0:0:0:0:
389,95,23187,1,0,0:0:0:0:
347,87,23251,1,0,0:0:0:0:
192,96,23316,6,0,L|183:38,4,45,2|0|0|0|2,0:0|0:0|0:0|0:0|0:0,0:0:0:0:
320,96,23636,6,0,L|329:38,4,45,0|0|0|2|0,0:0|0:0|0:0|0:0|0:0,0:0:0:0:
166,180,23957,5,0,0:0:0:0:
123,172,24021,1,0,0:0:0:0:
104,134,24085,1,2,0:0:0:0:
123,95,24149,1,0,0:0:0:0:
165,87,24213,1,0,0:0:0:0:
346,180,24277,5,0,0:0:0:0:
389,172,24341,1,2,0:0:0:0:
408,134,24405,1,0,0:0:0:0:
389,95,24469,1,0,0:0:0:0:
347,87,24533,1,0,0:0:0:0:
166,64,24598,6,0,L|256:64,1,90,2|2,0:0|0:0,0:0:0:0:
64,352,24855,2,0,L|52:240,1,90,8|0,0:0|0:0,0:0:0:0:
203,269,25047,2,0,L|215:157,1,90,8|2,0:0|0:0,0:0:0:0:
64,128,25239,2,0,L|128:128,1,45,8|8,0:0|0:0,0:0:0:0:
256,128,25367,2,0,L|128:128,1,90,4|0,3:2|0:0,0:0:0:0:
434,197,25624,6,0,L|498:197,1,45,12|0,0:0|0:0,0:0:0:0:
320,192,25752,2,0,L|311:134,1,45,0|0,0:0|0:0,0:0:0:0:
376,121,25880,1,2,0:0:0:0:
142,332,26008,2,0,L|78:332,1,45,8|0,0:0|0:0,0:0:0:0:
256,327,26136,2,0,L|265:269,1,45,8|0,0:0|0:0,0:0:0:0:
200,256,26264,1,2,0:0:0:0:
434,197,26393,2,0,L|306:197,1,90,8|0,0:0|0:0,0:0:0:0:
78,197,26650,6,0,L|14:197,1,45,8|0,0:0|0:0,0:0:0:0:
192,192,26778,2,0,L|201:134,1,45,0|0,0:0|0:0,0:0:0:0:
136,121,26906,1,2,0:0:0:0:
370,332,27034,2,0,L|434:332,1,45,8|0,0:0|0:0,0:0:0:0:
256,327,27162,2,0,L|247:269,1,45,8|0,0:0|0:0,0:0:0:0:
312,256,27290,1,2,0:0:0:0:
78,197,27419,2,0,L|206:197,1,90,4|0,0:0|0:0,0:0:0:0:
448,128,27675,6,0,L|384:128,1,45,8|0,0:0|0:0,0:0:0:0:
256,128,27803,2,0,L|247:70,1,45,0|0,0:0|0:0,0:0:0:0:
312,57,27931,1,2,0:0:0:0:
64,128,28060,2,0,L|128:128,1,45,8|0,0:0|0:0,0:0:0:0:
256,128,28188,2,0,L|265:70,1,45,8|0,0:0|0:0,0:0:0:0:
200,57,28316,1,2,0:0:0:0:
403,128,28444,2,0,L|415:16,1,90,4|0,0:0|0:0,0:0:0:0:
120,250,28701,6,0,L|184:250,1,45,8|0,0:0|0:0,0:0:0:0:
312,250,28829,2,0,L|321:192,1,45,0|0,0:0|0:0,0:0:0:0:
256,179,28957,1,2,0:0:0:0:
64,128,29085,2,0,L|109:128,1,45,8|0,0:0|0:0,0:0:0:0:
301,160,29214,2,0,L|256:160,1,45,8|0,0:0|0:0,0:0:0:0:
64,128,29342,1,2,0:0:0:0:
256,288,29470,2,0,L|320:288,2,60,2|2|2,0:0|0:0|0:0,0:0:0:0:
433,342,29726,5,8,0:0:0:0:
476,334,29790,1,0,0:0:0:0:
495,296,29854,1,0,0:0:0:0:
476,257,29918,1,0,0:0:0:0:
434,249,29982,1,2,0:0:0:0:
194,316,30111,1,8,0:0:0:0:
237,308,30175,1,0,0:0:0:0:
256,270,30239,1,8,0:0:0:0:
237,231,30303,1,0,0:0:0:0:
195,223,30367,1,2,0:0:0:0:
416,160,30496,2,0,L|288:160,1,90,0|4,0:0|0:0,0:0:0:0:
79,342,30752,5,8,0:0:0:0:
36,334,30816,1,0,0:0:0:0:
17,296,30880,1,0,0:0:0:0:
36,257,30944,1,0,0:0:0:0:
78,249,31008,1,2,0:0:0:0:
318,316,31137,1,8,0:0:0:0:
275,308,31201,1,0,0:0:0:0:
256,270,31265,1,8,0:0:0:0:
275,231,31329,1,0,0:0:0:0:
317,223,31393,1,2,0:0:0:0:
96,160,31522,2,0,L|224:160,1,90,0|0,0:0|0:0,0:0:0:0:
448,160,31778,5,8,0:0:0:0:
398,140,31842,1,0,0:0:0:0:
348,160,31906,1,0,0:0:0:0:
398,140,31970,1,0,0:0:0:0:
448,160,32034,1,2,0:0:0:0:
164,160,32162,1,8,0:0:0:0:
114,140,32226,1,0,0:0:0:0:
64,160,32290,1,8,0:0:0:0:
114,140,32354,1,0,0:0:0:0:
164,160,32418,1,2,0:0:0:0:
448,160,32547,2,0,L|358:160,1,90,8|4,0:0|0:0,0:0:0:0:
128,288,32803,6,0,L|64:288,1,45,8|0,0:0|0:0,0:0:0:0:
288,160,32932,2,0,L|297:102,1,45,0|0,0:0|0:0,0:0:0:0:
224,160,33060,2,0,L|215:102,1,45,8|0,0:0|0:0,0:0:0:0:
384,288,33188,2,0,P|377:218|309:188,1,135,8|0,0:0|0:0,0:0:0:0:
128,288,33444,2,0,B|400:288|400:288|381:1,1,540.000020599366,0|0,0:0|0:0,0:0:0:0:
160,223,33829,6,0,P|115:183|158:140,1,135,4|0,0:0|0:0,0:0:0:0:
351,223,34085,2,0,P|396:183|353:140,1,135,8|0,0:0|0:0,0:0:0:0:
160,128,34342,2,0,L|32:128,1,90,8|0,0:0|0:0,0:0:0:0:
205,312,34534,2,0,L|217:200,1,90,8|0,0:0|0:0,0:0:0:0:
352,128,34726,2,0,L|480:128,1,90,8|0,0:0|0:0,0:0:0:0:
307,312,34918,2,0,L|295:200,1,90,8|0,0:0|0:0,0:0:0:0:
160,223,35111,6,0,P|115:183|158:140,1,135,8|0,0:0|0:0,0:0:0:0:
320,96,35367,2,0,L|192:96,1,90,8|0,0:0|0:0,0:0:0:0:
367,367,35560,2,0,L|379:255,1,90,8|0,0:0|0:0,0:0:0:0:
192,96,35752,2,0,L|320:96,1,90,8|0,0:0|0:0,0:0:0:0:
145,367,35945,2,0,L|133:255,1,90,8|0,0:0|0:0,0:0:0:0:
352,223,36137,6,0,P|397:183|354:140,1,135,8|0,0:0|0:0,0:0:0:0:
192,128,36393,2,0,L|64:128,1,90,8|0,0:0|0:0,0:0:0:0:
288,64,36585,2,0,L|416:64,1,90,8|0,0:0|0:0,0:0:0:0:
224,64,36778,2,0,L|96:64,1,90,0|2,3:0|0:0,0:0:0:0:
320,128,36970,2,0,L|448:128,1,90,0|0,3:0|0:0,0:0:0:0:
160,223,37162,6,0,P|115:183|158:140,1,135,8|0,0:0|0:0,0:0:0:0:
308,97,37419,1,10,0:0:0:0:
285,97,37451,1,0,0:0:0:0:
263,97,37483,1,0,0:0:0:0:
240,97,37515,1,0,0:0:0:0:
218,97,37547,1,0,0:0:0:0:
195,97,37579,1,0,0:0:0:0:
173,97,37611,1,10,0:0:0:0:
320,256,37675,1,0,0:0:0:0:
342,256,37707,1,0,0:0:0:0:
365,256,37739,1,0,0:0:0:0:
387,256,37771,1,0,0:0:0:0:
410,256,37803,1,10,0:0:0:0:
432,256,37835,1,0,0:0:0:0:
455,256,37867,1,0,0:0:0:0:
256,320,37932,6,0,P|211:280|254:237,1,135,4|0,0:0|0:0,0:0:0:0:
96,224,38188,2,0,P|51:184|94:141,1,135,8|0,0:0|0:0,0:0:0:0:
256,160,38444,2,0,L|352:160,1,90,8|0,0:0|0:0,0:0:0:0:
186,224,38637,2,0,L|174:112,1,90,8|0,0:0|0:0,0:0:0:0:
334,247,38829,2,0,L|430:247,1,90,8|0,0:0|0:0,0:0:0:0:
264,311,39022,2,0,L|252:199,1,90,8|0,0:0|0:0,0:0:0:0:
416,224,39214,6,0,P|461:184|418:141,1,135,8|0,0:0|0:0,0:0:0:0:
256,160,39470,2,0,L|160:160,1,90,8|0,0:0|0:0,0:0:0:0:
326,224,39663,2,0,L|338:112,1,90,8|0,0:0|0:0,0:0:0:0:
178,247,39855,2,0,L|82:247,1,90,8|0,0:0|0:0,0:0:0:0:
248,311,40048,2,0,L|260:199,1,90,8|0,0:0|0:0,0:0:0:0:
96,224,40239,6,0,P|51:184|94:141,1,135,8|0,0:0|0:0,0:0:0:0:
288,64,40496,2,0,L|384:64,1,90,8|0,0:0|0:0,0:0:0:0:
224,64,40688,2,0,L|128:64,1,90,8|0,0:0|0:0,0:0:0:0:
301,138,40880,2,0,L|397:138,1,90,8|0,0:0|0:0,0:0:0:0:
211,138,41073,2,0,L|115:138,1,90,8|0,0:0|0:0,0:0:0:0:
416,224,41265,6,0,P|461:184|418:141,1,135,8|0,0:0|0:0,0:0:0:0:
256,224,41521,1,2,0:0:0:0:
189,213,41585,2,0,L|180:155,1,45,0|0,0:0|0:0,0:0:0:0:
365,84,41714,1,2,0:0:0:0:
432,73,41778,2,0,L|441:15,1,45,0|0,0:0|0:0,0:0:0:0:
379,20,41906,1,2,0:0:0:0:
318,19,41970,1,0,0:0:0:0:
128,96,42034,6,0,L|64:96,1,45,12|0,0:0|0:0,0:0:0:0:
256,32,42162,2,0,L|192:32,1,45,0|0,0:0|0:0,0:0:0:0:
165,32,42291,1,2,0:0:0:0:
384,96,42419,2,0,L|448:96,1,45,8|0,0:0|0:0,0:0:0:0:
256,32,42547,2,0,L|320:32,1,45,8|0,0:0|0:0,0:0:0:0:
347,32,42675,1,2,0:0:0:0:
160,192,42803,2,0,L|64:192,1,90,2|0,0:0|0:0,0:0:0:0:
384,96,43060,6,0,L|448:96,1,45,12|0,0:0|0:0,0:0:0:0:
256,32,43188,2,0,L|320:32,1,45,0|0,0:0|0:0,0:0:0:0:
347,32,43317,1,2,0:0:0:0:
128,96,43445,2,0,L|64:96,1,45,8|0,0:0|0:0,0:0:0:0:
256,32,43573,2,0,L|192:32,1,45,8|0,0:0|0:0,0:0:0:0:
165,32,43701,1,2,0:0:0:0:
352,192,43829,2,0,L|448:192,1,90,10|0,0:0|0:0,0:0:0:0:
128,320,44085,6,0,L|64:320,1,45,12|0,0:0|0:0,0:0:0:0:
256,320,44214,2,0,L|247:262,1,45,0|0,0:0|0:0,0:0:0:0:
181,68,44342,1,2,0:0:0:0:
384,320,44470,2,0,L|448:320,1,45,8|0,0:0|0:0,0:0:0:0:
256,320,44599,2,0,L|265:262,1,45,8|0,0:0|0:0,0:0:0:0:
331,68,44727,1,2,0:0:0:0:
128,320,44855,2,0,L|32:320,1,90,10|0,0:0|0:0,0:0:0:0:
320,192,45111,6,0,L|329:134,1,45,12|0,0:0|0:0,0:0:0:0:
192,192,45239,2,0,L|183:134,1,45,0|0,0:0|0:0,0:0:0:0:
256,96,45367,1,2,0:0:0:0:
493,64,45496,2,0,L|448:64,1,45,8|0,0:0|0:0,0:0:0:0:
256,96,45625,2,0,L|301:96,1,45,8|0,0:0|0:0,0:0:0:0:
493,64,45753,1,2,0:0:0:0:
256,288,45880,2,0,L|192:288,2,60,2|2|2,0:0|0:0|0:0,0:0:0:0:
16,342,46137,5,12,0:0:0:0:
59,334,46201,1,0,0:0:0:0:
78,296,46265,1,0,0:0:0:0:
59,257,46329,1,0,0:0:0:0:
17,249,46393,1,2,0:0:0:0:
256,224,46521,1,8,0:0:0:0:
213,216,46585,1,0,0:0:0:0:
194,178,46649,1,8,0:0:0:0:
213,139,46713,1,0,0:0:0:0:
255,131,46777,1,2,0:0:0:0:
17,249,46906,2,0,L|135:249,1,90,4|0,0:0|0:0,0:0:0:0:
496,342,47162,5,12,0:0:0:0:
453,334,47226,1,0,0:0:0:0:
434,296,47290,1,0,0:0:0:0:
453,257,47354,1,0,0:0:0:0:
495,249,47418,1,2,0:0:0:0:
256,224,47546,1,8,0:0:0:0:
299,216,47610,1,0,0:0:0:0:
318,178,47674,1,8,0:0:0:0:
299,139,47738,1,0,0:0:0:0:
257,131,47802,1,2,0:0:0:0:
495,249,47931,2,0,L|377:249,1,90,4|0,0:0|0:0,0:0:0:0:
64,160,48188,5,12,0:0:0:0:
114,140,48252,1,0,0:0:0:0:
164,160,48316,1,0,0:0:0:0:
114,140,48380,1,0,0:0:0:0:
64,160,48444,1,2,0:0:0:0:
448,160,48572,1,8,0:0:0:0:
398,140,48636,1,0,0:0:0:0:
348,160,48700,1,8,0:0:0:0:
398,140,48764,1,0,0:0:0:0:
448,160,48828,1,2,0:0:0:0:
154,160,48957,2,0,L|58:160,1,90,4|0,0:0|0:0,0:0:0:0:
256,256,49214,5,6,0:0:0:0:
352,256,49246,2,0,L|384:256,2,22.5,0|0|0,0:0|0:0|0:0,0:0:0:0:
256,256,49342,1,2,0:0:0:0:
160,256,49374,2,0,L|128:256,2,22.5,0|0|0,0:0|0:0|0:0,0:0:0:0:
255,351,49470,6,0,P|417:201|255:52,1,495,12|0,0:0|0:0,0:0:0:0:
96,64,50239,5,12,3:2:0:0:
283,149,50496,1,2,0:0:0:0:
355,151,50581,2,0,L|362:57,1,60,0|0,0:0|0:0,0:0:0:0:
269,82,50752,2,0,L|173:82,2,60,2|0|0,0:0|0:0|0:0,0:0:0:0:
359,91,51008,2,0,L|455:91,2,60,2|0|0,0:0|0:0|0:0,0:0:0:0:
209,82,51265,6,0,L|79:119,1,135,8|0,0:0|0:0,0:0:0:0:
256,320,51650,2,0,P|397:217|258:111,1,405,10|0,0:0|0:0,0:0:0:0:
96,160,52291,5,10,0:0:0:0:
235,208,52461,1,0,0:0:0:0:
97,159,52632,2,0,P|23:105|94:47,1,210,2|8,0:0|0:0,0:0:0:0:
301,84,53188,6,0,L|109:84,1,180,2|2,0:0|0:0,0:0:0:0:
212,180,53573,1,0,0:0:0:0:
352,320,53701,2,0,P|413:272|351:226,1,180,10|2,0:0|0:0,0:0:0:0:
226,192,54085,2,0,L|386:192,1,135,8|0,0:0|0:0,0:0:0:0:
160,320,54342,6,0,P|98:272|160:226,1,180,12|0,0:0|0:0,0:0:0:0:
289,152,54726,2,0,L|244:152,1,45,8|0,0:0|0:0,0:0:0:0:
88,158,54855,1,8,0:0:0:0:
233,95,55026,1,0,0:0:0:0:
114,37,55197,1,0,0:0:0:0:
398,37,55367,5,8,0:0:0:0:
279,95,55538,1,2,0:0:0:0:
433,163,55709,2,0,L|440:298,1,120,8|2,0:0|0:0,0:0:0:0:
128,320,56051,1,8,0:0:0:0:
256,320,56222,2,0,L|192:320,1,60,0|2,0:0|0:0,0:0:0:0:
352,224,56393,6,0,L|448:224,2,90,12|0|8,0:0|0:0|0:0,0:0:0:0:
160,320,56778,2,0,P|99:272|161:226,1,180,8|0,0:0|0:0,0:0:0:0:
256,192,57162,1,2,0:0:0:0:
137,211,57291,6,0,L|127:7,1,180,8|2,0:0|0:0,0:0:0:0:
256,96,57675,1,8,0:0:0:0:
375,211,57803,2,0,L|385:7,1,180,8|8,0:0|0:0,0:0:0:0:
256,64,58188,2,0,L|416:64,1,135,2|0,0:0|0:0,0:0:0:0:
192,256,58444,6,0,L|320:256,1,90,6|0,0:0|0:0,0:0:0:0:
35,295,58701,2,0,L|30:354,1,60,8|0,0:0|0:0,0:0:0:0:
103,355,58872,1,0,0:0:0:0:
192,288,58957,2,0,L|288:288,2,60,8|2|0,0:0|0:0|0:0,0:0:0:0:
103,355,59214,2,0,L|7:355,2,60,8|2|0,0:0|0:0|0:0,0:0:0:0:
256,192,59470,6,0,L|366:64,1,135,8|0,0:0|0:0,0:0:0:0:
160,288,59855,2,0,P|163:247|250:206,1,135,2|0,0:0|0:0,0:0:0:0:
288,192,60111,2,0,L|192:192,1,90,0|8,0:0|0:0,0:0:0:0:
448,288,60367,6,0,L|256:288,2,180,8|2|8,0:0|0:0|0:0,0:0:0:0:
211,190,61137,2,0,L|256:190,1,45,8|0,0:0|0:0,0:0:0:0:
306,190,61265,1,8,0:0:0:0:
64,288,61393,6,0,P|72:242|203:182,1,180,2|2,0:0|0:0,0:0:0:0:
358,263,61906,2,0,P|250:257|151:43,1,360,8|2,0:0|0:0,0:0:0:0:
363,52,62547,5,12,0:0:0:0:
148,52,62803,2,0,L|142:147,1,60,8|0,0:0|0:0,0:0:0:0:
238,189,62974,2,0,L|244:283,1,60,0|8,0:0|0:0,0:0:0:0:
336,302,63145,1,0,0:0:0:0:
392,290,63230,1,0,0:0:0:0:
419,238,63315,1,8,0:0:0:0:
394,186,63401,1,0,0:0:0:0:
337,173,63486,1,0,0:0:0:0:
152,175,63573,6,0,L|56:175,2,60,8|0|0,0:0|0:0|0:0,0:0:0:0:
316,53,63829,1,8,0:0:0:0:
256,53,63914,1,0,0:0:0:0:
196,53,63999,1,0,0:0:0:0:
360,175,64085,2,0,L|456:175,2,60,8|0|0,0:0|0:0|0:0,0:0:0:0:
152,175,64342,2,0,L|56:175,2,60,10|2|2,0:0|0:0|0:0,0:0:0:0:
360,175,64598,6,0,P|421:127|359:81,1,180,14|0,0:0|0:0,0:0:0:0:
256,64,64983,2,0,L|192:64,1,45,2|0,0:0|0:0,0:0:0:0:
357,81,65111,2,0,L|485:81,2,90,8|2|8,0:0|0:0|0:0,0:0:0:0:
166,262,65496,2,0,L|346:262,1,180,8|0,0:0|0:0,0:0:0:0:
256,192,65880,1,8,0:0:0:0:
166,262,66008,1,0,0:0:0:0:
409,305,66137,6,0,L|415:400,1,60,0|0,0:0|0:0,0:0:0:0:
256,256,66308,2,0,L|250:351,1,60,0|0,0:0|0:0,0:0:0:0:
416,192,66479,2,0,L|352:192,1,60,0|0,0:0|0:0,0:0:0:0:
156,192,66650,6,0,L|96:192,2,60,12|0|0,0:0|0:0|0:0,0:0:0:0:
356,192,66906,2,0,L|484:192,1,90,8|0,0:0|0:0,0:0:0:0:
199,63,67162,1,8,0:0:0:0:
313,63,67291,1,0,0:0:0:0:
190,170,67419,1,8,0:0:0:0:
322,170,67547,1,0,0:0:0:0:
66,192,67675,5,8,0:0:0:0:
178,192,67803,2,0,L|242:192,1,45,0|0,0:0|0:0,0:0:0:0:
66,192,67932,2,0,L|54:80,1,90,8|0,0:0|0:0,0:0:0:0:
256,352,68188,2,0,P|300:328|246:280,1,135,8|0,0:0|0:0,0:0:0:0:
96,256,68444,2,0,L|224:256,1,90,8|0,0:0|0:0,0:0:0:0:
416,256,68701,5,12,0:0:0:0:
308,240,68829,2,0,L|372:240,1,45,0|0,0:0|0:0,0:0:0:0:
480,128,68957,2,0,L|352:128,1,90,8|0,0:0|0:0,0:0:0:0:
256,128,69214,1,8,0:0:0:0:
384,64,69278,2,0,L|256:64,1,90,0|0,0:0|0:0,0:0:0:0:
128,64,69470,2,0,L|192:64,1,45,8|2,0:0|0:0,0:0:0:0:
301,192,69598,2,0,L|256:192,1,45,2|2,0:0|0:0,0:0:0:0:
96,352,69726,6,0,P|110:302|201:273,1,135,8|0,0:0|0:0,0:0:0:0:
346,256,69983,2,0,L|256:256,1,90,8|0,0:0|0:0,0:0:0:0:
480,128,70239,2,0,L|416:128,1,45,8|0,0:0|0:0,0:0:0:0:
301,160,70367,2,0,L|256:160,1,45,0|0,0:0|0:0,0:0:0:0:
392,192,70496,2,0,P|438:157|389:126,1,135,8|0,0:0|0:0,0:0:0:0:
192,96,70752,6,0,L|160:96,2,30,14|0|0,0:0|0:0|0:0,0:0:0:0:
283,96,70923,1,0,0:0:0:0:
90,273,71008,2,0,P|44:238|93:207,1,135,8|0,0:0|0:0,0:0:0:0:
256,192,71265,2,0,L|160:192,1,90,8|0,0:0|0:0,0:0:0:0:
359,320,71521,2,0,L|366:260,1,45,8|0,0:0|0:0,0:0:0:0:
192,128,71650,6,0,L|256:128,2,60,2|2|2,0:0|0:0|0:0,0:0:0:0:
391,344,71906,2,0,L|398:284,1,45,0|0,0:0|0:0,0:0:0:0:
256,352,72034,2,0,P|212:328|266:280,1,135,8|0,0:0|0:0,0:0:0:0:
416,288,72291,2,0,P|460:264|406:216,1,135,8|0,0:0|0:0,0:0:0:0:
256,160,72547,2,0,L|192:160,1,45,8|0,0:0|0:0,0:0:0:0:
373,212,72675,2,0,L|437:212,1,45,0|0,0:0|0:0,0:0:0:0:
192,256,72803,6,0,L|96:256,1,90,8|0,0:0|0:0,0:0:0:0:
320,256,73060,2,0,L|416:256,1,90,8|0,0:0|0:0,0:0:0:0:
160,128,73316,1,12,0:0:0:0:
135,128,73348,1,0,0:0:0:0:
108,128,73380,2,0,L|95:221,1,90,0|0,0:0|0:0,0:0:0:0:
256,256,73573,2,0,L|288:256,2,30,8|0|0,0:0|0:0|0:0,0:0:0:0:
165,256,73744,1,0,0:0:0:0:
347,256,73829,6,0,P|391:232|337:184,1,135,8|0,0:0|0:0,0:0:0:0:
165,256,74085,1,12,0:0:0:0:
256,256,74171,2,0,L|288:256,2,30,2|0|0,0:0|0:0|0:0,0:0:0:0:
67,319,74342,1,8,0:0:0:0:
256,320,74470,2,0,L|160:320,1,90,0|8,0:0|0:0,0:0:0:0:
379,251,74726,6,0,L|443:251,1,60,0|4,0:0|0:0,0:0:0:0:
256,352,74897,1,2,0:0:0:0:
226,352,74939,1,0,0:0:0:0:
196,352,74982,1,0,0:0:0:0:
256,256,75047,1,0,0:0:0:0:
439,251,75111,6,0,L|311:251,1,90,8|0,0:0|0:0,0:0:0:0:
104,271,75367,2,0,L|168:271,1,45,8|0,0:0|0:0,0:0:0:0:
320,288,75496,2,0,L|352:288,2,30,0|0|0,0:0|0:0|0:0,0:0:0:0:
192,320,75624,1,12,0:0:0:0:
75,356,75752,1,0,0:0:0:0:
332,194,75880,6,0,P|376:170|322:122,1,135,8|0,0:0|0:0,0:0:0:0:
180,194,76137,2,0,P|136:170|190:122,1,135,8|0,0:0|0:0,0:0:0:0:
376,64,76393,2,0,L|256:64,1,120,12|0,0:0|0:0,0:0:0:0:
448,224,76650,2,0,L|352:224,2,60,8|0|0,0:0|0:0|0:0,0:0:0:0:
256,320,76906,6,0,L|128:320,1,90,8|0,0:0|0:0,0:0:0:0:
397,221,77162,6,0,L|461:221,2,45,12|0|0,0:0|0:0|0:0,0:0:0:0:
115,221,77419,2,0,L|201:221,2,60,8|0|0,0:0|0:0|0:0,0:0:0:0:
320,320,77675,1,8,0:0:0:0:
442,221,77803,2,0,L|378:221,1,45,0|0,0:0|0:0,0:0:0:0:
224,224,77932,6,0,L|96:224,1,90,12|0,0:0|0:0,0:0:0:0:
378,224,78188,2,0,L|315:224,2,60,8|0|0,0:0|0:0|0:0,0:0:0:0:
192,96,78444,1,8,0:0:0:0:
320,96,78573,1,0,0:0:0:0:
115,221,78701,2,0,L|51:221,2,45,12|0|0,0:0|0:0|0:0,0:0:0:0:
428,292,78957,6,0,L|435:232,1,45,8|0,0:0|0:0,0:0:0:0:
256,192,79085,2,0,L|263:132,1,45,2|0,0:0|0:0,0:0:0:0:
334,122,79214,1,0,0:0:0:0:
84,292,79342,6,0,L|77:232,1,45,8|0,0:0|0:0,0:0:0:0:
256,192,79470,2,0,L|249:132,1,45,2|0,0:0|0:0,0:0:0:0:
178,122,79599,1,0,0:0:0:0:
384,64,79726,2,0,L|448:64,1,45,8|0,0:0|0:0,0:0:0:0:
128,64,79855,1,2,0:0:0:0:
105,64,79887,1,0,0:0:0:0:
83,64,79919,1,0,0:0:0:0:
256,288,79983,6,0,L|320:288,1,45,8|0,0:0|0:0,0:0:0:0:
448,160,80111,2,0,L|384:160,1,45,0|0,0:0|0:0,0:0:0:0:
256,288,80239,2,0,L|192:288,1,45,8|0,0:0|0:0,0:0:0:0:
64,160,80367,2,0,L|128:160,1,45,8|0,0:0|0:0,0:0:0:0:
352,96,80496,6,0,L|361:168,1,45,8|0,0:0|0:0,0:0:0:0:
160,96,80624,2,0,L|151:168,1,45,8|0,0:0|0:0,0:0:0:0:
384,288,80752,2,0,L|448:288,1,45,8|0,0:0|0:0,0:0:0:0:
256,224,80880,1,8,0:0:0:0:
83,288,80944,1,0,0:0:0:0:
256,352,81008,6,0,P|331:299|256:246,1,216,2|2,0:0|0:0,0:0:0:0:
83,256,81650,2,0,L|47:256,1,36,8|0,0:0|0:0,0:0:0:0:
91,256,81778,2,0,L|55:256,1,36,0|0,0:0|0:0,0:0:0:0:
99,256,81906,2,0,L|63:256,1,36,0|0,0:0|0:0,0:0:0:0:
107,256,82034,6,0,L|179:256,3,72,2|0|0|2,0:0|0:0|0:0|0:0,0:0:0:0:
384,256,82675,2,0,L|420:256,1,36,8|0,0:0|0:0,0:0:0:0:
376,256,82803,2,0,L|412:256,1,36,0|0,0:0|0:0,0:0:0:0:
367,256,82931,2,0,L|403:256,1,36,0|0,0:0|0:0,0:0:0:0:
359,256,83060,5,2,0:0:0:0:
316,247,83124,1,0,0:0:0:0:
297,208,83188,1,0,0:0:0:0:
316,169,83252,1,0,0:0:0:0:
358,160,83316,1,0,0:0:0:0:
448,160,83444,1,2,0:0:0:0:
256,128,83701,2,0,L|160:128,1,72,0|8,0:0|0:0,0:0:0:0:
219,128,83893,1,0,0:0:0:0:
256,128,83957,6,0,L|416:128,1,144,0|0,0:0|0:0,0:0:0:0:
264,320,84342,2,0,L|228:320,1,36,10|0,0:0|0:0,0:0:0:0:
272,320,84470,2,0,L|236:320,1,36,0|0,0:0|0:0,0:0:0:0:
280,320,84598,2,0,L|244:320,1,36,0|0,0:0|0:0,0:0:0:0:
288,320,84726,2,0,L|252:320,1,36,0|0,0:0|0:0,0:0:0:0:
208,320,84855,2,0,L|304:320,1,72,8|0,0:0|0:0,0:0:0:0:
64,320,85111,6,0,L|50:104,1,216,2|0,0:0|0:0,0:0:0:0:
256,160,85752,2,0,L|259:108,1,36,8|0,0:0|0:0,0:0:0:0:
186,119,85880,2,0,L|181:38,1,72,0|0,0:0|0:0,0:0:0:0:
331,47,86137,5,2,0:0:0:0:
395,66,86265,1,0,0:0:0:0:
394,134,86393,1,0,0:0:0:0:
329,152,86521,1,2,0:0:0:0:
126,355,86778,2,0,L|123:303,1,36,8|0,0:0|0:0,0:0:0:0:
196,314,86906,2,0,L|201:233,1,72,0|0,0:0|0:0,0:0:0:0:
416,293,87162,6,0,P|491:240|416:187,1,216,2|0,0:0|0:0,0:0:0:0:
256,224,87675,2,0,L|160:224,2,72,8|0|0,0:0|0:0|0:0,0:0:0:0:
328,224,88060,2,0,L|288:224,1,36,0|0,0:0|0:0,0:0:0:0:
148,217,88188,6,0,L|52:217,2,72,2|0|0,0:0|0:0|0:0,0:0:0:0:
292,217,88573,2,0,L|132:217,1,144,2|2,0:0|0:0,0:0:0:0:
196,208,88893,1,0,0:0:0:0:
228,170,88957,1,2,0:0:0:0:
228,121,89021,1,0,0:0:0:0:
197,83,89085,1,0,0:0:0:0:
148,74,89149,1,0,0:0:0:0:
416,351,89214,6,0,L|437:100,1,242.999992584229,10|2,3:2|0:0,0:0:0:0:
248,123,89855,2,0,L|184:123,1,40.4999987640381,8|0,0:0|0:0,0:0:0:0:
264,123,89983,2,0,L|328:123,1,40.4999987640381,8|0,0:0|0:0,0:0:0:0:
248,123,90111,2,0,L|181:126,1,40.4999987640381,8|0,0:0|0:0,0:0:0:0:
264,123,90239,6,0,L|363:125,2,80.9999975280763,2|0|0,0:0|0:0|0:0,0:0:0:0:
164,313,90624,1,2,0:0:0:0:
350,285,90880,2,0,L|414:285,1,40.4999987640381,8|0,0:0|0:0,0:0:0:0:
334,285,91008,2,0,L|270:285,1,40.4999987640381,8|0,0:0|0:0,0:0:0:0:
350,285,91136,2,0,L|417:288,1,40.4999987640381,8|0,0:0|0:0,0:0:0:0:
192,352,91265,6,0,L|96:352,1,80.9999975280763,2|0,0:0|0:0,0:0:0:0:
151,352,91457,1,0,0:0:0:0:
192,352,91521,1,8,0:0:0:0:
320,352,91650,2,0,P|374:306|320:259,1,161.999995056153,2|0,0:0|0:0,0:0:0:0:
192,224,92034,2,0,L|256:224,1,40.4999987640381,8|0,0:0|0:0,0:0:0:0:
288,160,92162,6,0,L|96:160,1,161.999995056153,0|0,0:0|0:0,0:0:0:0:
264,123,92547,2,0,L|304:123,1,40.4999987640381,8|0,0:0|0:0,0:0:0:0:
248,123,92675,2,0,L|207:123,1,40.4999987640381,2|0,0:0|0:0,0:0:0:0:
264,123,92803,2,0,L|304:124,1,40.4999987640381,8|0,0:0|0:0,0:0:0:0:
248,123,92932,2,0,L|207:123,1,40.4999987640381,0|0,0:0|0:0,0:0:0:0:
352,256,93060,2,0,L|448:256,1,80.9999975280763,0|0,0:0|0:0,0:0:0:0:
160,352,93316,6,0,P|104:321|158:242,1,161.999995056153,2|0,0:0|0:0,0:0:0:0:
256,224,93701,2,0,L|0:224,1,242.999992584229,2|0,0:0|0:0,0:0:0:0:
352,352,94342,6,0,P|408:321|354:242,1,161.999995056153,6|0,0:0|0:0,0:0:0:0:
256,384,94726,2,0,B|256:0|256:0|256:68|256:68|200:284|200:284|329:98|329:98|256:308|256:308|232:258|232:258|208:311|208:311|190:260|190:260|167:314|167:314|157:260|157:260|146:206|146:206|139:262|139:262|139:206|139:206|144:148|144:148|145:202|145:202|158:145|158:145|175:93|175:93|192:147|192:147|212:95|212:95|234:147|234:147|257:95|257:95|284:46|284:46|302:99|302:99|325:48|325:48|339:102|339:102|354:160|354:160|367:107|367:107|372:162|372:162|372:224|372:224|367:282|367:282|361:229|361:229|352:284|352:284|334:231|334:231|321:282|321:282|300:333|300:333|282:280|282:280|255:332|255:332|228:283|228:283|209:334|209:334|191:280|191:280|174:226|174:226|155:283|155:283|148:229|148:229|142:175|142:175|139:235|139:235|141:183|141:183|151:125|151:125|160:177|160:177|174:122|174:122|192:68|192:68|212:120|212:120|230:66|230:66|257:117|257:117|370:310|370:310|255:116|255:116|2:66,1,4500,8|0,0:0|0:0,0:0:0:0:
256,288,97419,6,0,P|313:248|256:209,1,161.999995056153,6|0,0:0|0:0,0:0:0:0:
94,203,97675,1,0,0:0:0:0:
337,189,97803,2,0,P|394:149|337:110,1,161.999995056153,8|0,0:0|0:0,0:0:0:0:
175,104,98059,1,0,0:0:0:0:
419,121,98188,2,0,P|476:81|419:42,1,161.999995056153,0|0,0:0|0:0,0:0:0:0:
256,288,98444,6,0,P|200:248|257:209,1,161.999995056153,2|0,0:0|0:0,0:0:0:0:
418,203,98700,1,0,0:0:0:0:
175,189,98828,2,0,P|119:149|176:110,1,161.999995056153,8|0,0:0|0:0,0:0:0:0:
337,104,99084,1,0,0:0:0:0:
93,121,99213,2,0,P|37:81|94:42,1,161.999995056153,0|0,0:0|0:0,0:0:0:0:
256,288,99470,6,0,P|312:248|255:209,1,161.999995056153,6|0,0:0|0:0,0:0:0:0:
94,203,99726,1,0,0:0:0:0:
320,192,99855,2,0,P|390:172|397:91,1,161.999995056153,8|0,0:0|0:0,0:0:0:0:
333,62,100111,1,0,0:0:0:0:
139,34,100239,2,0,L|247:34,1,107.999996704102,0|0,0:0|0:0,0:0:0:0:
361,32,100496,5,0,0:0:0:0:
96,256,100624,1,0,0:0:0:0:
205,210,100752,1,0,0:0:0:0:
87,147,100880,1,0,0:0:0:0:
312,121,101008,1,0,0:0:0:0:
200,121,101137,2,0,L|193:68,1,53.9999983520508,0|0,0:0|0:0,0:0:0:0:
364,66,101265,1,2,0:0:0:0:
256,64,101393,2,0,L|192:64,1,53.9999983520508,0|0,0:0|0:0,0:0:0:0:
391,315,101521,6,0,P|448:275|391:236,1,161.999995056153,12|0,0:0|0:0,0:0:0:0:
229,230,101777,1,0,0:0:0:0:
338,178,101906,2,0,P|395:138|338:99,1,161.999995056153,2|0,0:0|0:0,0:0:0:0:
176,93,102162,1,0,0:0:0:0:
285,102,102291,2,0,P|342:62|285:23,1,161.999995056153,0|0,3:0|3:0,0:0:0:0:
121,315,102547,6,0,P|64:275|121:235,1,161.999995056153,8|0,0:0|0:0,0:0:0:0:
283,230,102803,1,0,0:0:0:0:
174,178,102932,2,0,P|117:138|174:98,1,161.999995056153,2|0,0:0|0:0,0:0:0:0:
336,93,103188,1,0,0:0:0:0:
227,102,103315,2,0,P|170:62|227:22,1,161.999995056153
469,293,103573,5,12,0:0:0:0:
476,239,103637,1,0,0:0:0:0:
483,185,103701,1,0,0:0:0:0:
359,168,103829,1,0,0:0:0:0:
43,293,103957,1,0,0:0:0:0:
36,239,104021,1,0,0:0:0:0:
29,185,104085,1,0,0:0:0:0:
153,168,104213,1,0,0:0:0:0:
384,96,104342,2,0,L|448:96,2,53.9999983520508,0|0|0,0:0|0:0|0:0,0:0:0:0:
123,362,104598,6,0,L|116:309,1,53.9999983520508,0|0,0:0|0:0,0:0:0:0:
256,160,104726,2,0,L|128:160,1,107.999996704102,0|0,0:0|0:0,0:0:0:0:
389,362,104983,2,0,L|396:309,1,53.9999983520508,0|0,0:0|0:0,0:0:0:0:
256,160,105111,2,0,L|384:160,1,107.999996704102,0|0,0:0|0:0,0:0:0:0:
160,128,105367,2,0,L|96:128,1,53.9999983520508,0|0,0:0|0:0,0:0:0:0:
352,128,105496,2,0,L|416:128,1,53.9999983520508,0|0,0:0|0:0,0:0:0:0:
256,288,105624,6,0,P|199:248|256:209,1,161.999995056153,6|0,0:0|0:0,0:0:0:0:
418,203,105880,1,0,0:0:0:0:
175,189,106008,2,0,L|363:188,1,161.999995056153,8|0,0:0|0:0,0:0:0:0:
175,189,106264,1,0,0:0:0:0:
419,121,106393,2,0,P|476:81|419:42,1,161.999995056153,0|0,0:0|0:0,0:0:0:0:
256,288,106650,6,0,P|313:248|256:209,1,161.999995056153,2|0,0:0|0:0,0:0:0:0:
94,203,106906,1,0,0:0:0:0:
337,189,107034,2,0,L|149:188,1,161.999995056153,8|0,0:0|0:0,0:0:0:0:
337,189,107290,1,0,3:0:0:0:
93,121,107419,2,0,P|36:81|93:42,1,161.999995056153,0|0,3:0|3:0,0:0:0:0:
256,64,107675,6,0,L|448:64,1,161.999995056153,6|0,0:0|0:0,0:0:0:0:
256,224,107932,1,0,0:0:0:0:
64,224,108060,2,0,P|8:184|65:145,1,161.999995056153,8|0,0:0|0:0,0:0:0:0:
128,145,108316,1,0,0:0:0:0:
317,28,108444,2,0,L|189:28,1,107.999996704102,0|0,0:0|0:0,0:0:0:0:
95,28,108701,5,0,0:0:0:0:
416,256,108829,1,0,0:0:0:0:
307,210,108957,1,0,0:0:0:0:
425,147,109085,1,0,0:0:0:0:
200,121,109213,1,0,0:0:0:0:
312,121,109342,2,0,L|319:68,1,53.9999983520508,0|0,0:0|0:0,0:0:0:0:
148,66,109470,1,2,0:0:0:0:
256,64,109598,2,0,L|320:64,1,53.9999983520508,0|0,0:0|0:0,0:0:0:0:
94,182,109726,6,0,P|37:142|94:103,1,161.999995056153,12|0,0:0|0:0,0:0:0:0:
256,97,109982,1,0,0:0:0:0:
147,66,110111,2,0,L|339:66,1,161.999995056153,2|0,0:0|0:0,0:0:0:0:
147,66,110366,1,0,3:0:0:0:
256,254,110496,2,0,P|313:214|256:175,1,161.999995056153,0|0,3:0|3:0,0:0:0:0:
418,182,110752,6,0,P|475:142|418:103,1,161.999995056153,8|0,0:0|0:0,0:0:0:0:
256,97,111008,1,0,0:0:0:0:
365,66,111137,2,0,L|173:66,1,161.999995056153,2|0,0:0|0:0,0:0:0:0:
365,66,111393,1,0,3:0:0:0:
256,254,111520,2,0,P|199:214|256:175,1,161.999995056153,0|0,3:0|3:0,0:0:0:0:
93,148,111778,5,12,0:0:0:0:
45,133,111842,1,0,0:0:0:0:
45,83,111906,1,0,0:0:0:0:
93,68,111970,1,0,0:0:0:0:
252,202,112034,2,0,L|259:149,3,53.9999983520508,0|0|0|0,0:0|0:0|0:0|0:0,0:0:0:0:
420,176,112291,6,0,L|474:176,1,53.9999983520508,0|0,0:0|0:0,0:0:0:0:
311,63,112419,2,0,L|257:63,1,53.9999983520508,0|0,0:0|0:0,0:0:0:0:
435,21,112547,2,0,L|489:21,1,53.9999983520508,0|0,0:0|0:0,0:0:0:0:
256,320,112675,6,0,P|180:271|257:224,1,215.999993408203,0|0,0:0|0:0,0:0:0:0:
313,235,112996,1,0,0:0:0:0:
160,128,113060,2,0,L|153:75,1,53.9999983520508,0|0,0:0|0:0,0:0:0:0:
352,128,113188,2,0,L|359:75,1,53.9999983520508,0|0,0:0|0:0,0:0:0:0:
144,169,113316,6,0,L|84:178,1,53.9999983520508,0|0,0:0|0:0,0:0:0:0:
368,169,113444,2,0,L|428:178,1,53.9999983520508,0|0,0:0|0:0,0:0:0:0:
160,320,113573,5,0,0:0:0:0:
134,320,113605,1,0,0:0:0:0:
112,305,113637,1,0,0:0:0:0:
104,280,113669,1,0,0:0:0:0:
112,255,113701,1,0,0:0:0:0:
133,240,113733,1,0,0:0:0:0:
160,240,113765,1,0,0:0:0:0:
468,304,113829,6,0,P|460:193|271:100,2,323.999990112305,10|8|8,3:2|2:3|3:3,0:0:0:0:
44,304,114855,6,0,P|52:193|241:100,2,323.999990112305,2|8|0,2:3|0:0|0:0,0:0:0:0:
364,256,115880,6,0,L|256:256,1,107.999996704102,6|0,0:0|0:0,0:0:0:0:
452,96,116137,1,0,0:0:0:0:
137,96,116265,1,8,0:0:0:0:
256,96,116393,1,0,0:0:0:0:
375,96,116521,1,0,0:0:0:0:
60,96,116650,1,0,0:0:0:0:
256,320,116778,6,0,L|148:320,1,107.999996704102,0|4,0:0|3:0,0:0:0:0:
375,96,117034,1,0,0:0:0:0:
256,96,117162,1,0,0:0:0:0:
383,188,117291,1,0,0:0:0:0:
128,256,117419,2,0,L|224:256,1,53.9999983520508,0|0,0:0|0:0,0:0:0:0:
384,256,117547,2,0,L|288:256,1,53.9999983520508,0|0,0:0|0:0,0:0:0:0:
182,256,117675,1,2,0:0:0:0:
150,256,117707,1,0,0:0:0:0:
150,256,117739,1,0,0:0:0:0:
182,256,117771,1,0,0:0:0:0:
330,256,117803,1,0,0:0:0:0:
362,256,117835,1,0,0:0:0:0:
362,256,117867,1,0,0:0:0:0:
330,256,117899,1,0,0:0:0:0:
160,128,117932,6,0,L|0:128,1,107.999996704102,12|0,0:0|0:0,0:0:0:0:
256,64,118188,1,0,0:0:0:0:
460,128,118316,2,0,L|352:128,2,107.999996704102,2|0|0,0:0|3:0|3:0,0:0:0:0:
202,317,118701,2,0,L|310:317,1,107.999996704102,0|0,3:0|3:0,0:0:0:0:
54,377,118957,6,0,L|38:256,1,107.999996704102,12|0,0:0|0:0,0:0:0:0:
159,211,119214,1,0,0:0:0:0:
416,96,119342,2,0,L|256:96,1,107.999996704102,2|0,0:0|0:0,0:0:0:0:
96,96,119598,1,0,0:0:0:0:
320,256,119726,2,0,L|384:256,1,53.9999983520508,8|0,0:0|0:0,0:0:0:0:
192,256,119855,2,0,L|128:256,1,53.9999983520508,0|0,0:0|0:0,0:0:0:0:
384,320,119983,6,0,L|512:320,2,107.999996704102,6|0|0,0:0|0:0|0:0,0:0:0:0:
128,320,120367,2,0,L|0:320,2,107.999996704102,2|0|0,0:0|0:0|0:0,0:0:0:0:
384,320,120752,1,0,0:0:0:0:
256,320,120880,2,0,L|248:249,1,53.9999983520508,0|0,0:0|0:0,0:0:0:0:
384,160,121008,6,0,L|256:160,1,107.999996704102,12|0,0:0|0:0,0:0:0:0:
480,320,121265,1,0,0:0:0:0:
128,160,121393,2,0,L|256:160,1,107.999996704102,8|0,0:0|0:0,0:0:0:0:
32,320,121650,2,0,L|86:320,1,53.9999983520508,0|0,0:0|0:0,0:0:0:0:
330,256,121778,1,0,3:0:0:0:
362,256,121810,1,0,3:0:0:0:
362,256,121842,1,0,3:0:0:0:
330,256,121874,1,0,3:0:0:0:
182,256,121906,1,0,3:0:0:0:
150,256,121938,1,0,3:0:0:0:
150,256,121970,1,0,3:0:0:0:
182,256,122002,1,0,3:0:0:0:
448,315,122034,5,6,0:0:0:0:
262,224,122162,1,0,0:0:0:0:
76,315,122291,1,0,0:0:0:0:
454,315,122419,1,8,0:0:0:0:
268,224,122547,1,0,0:0:0:0:
460,315,122675,1,0,0:0:0:0:
160,214,122803,1,0,0:0:0:0:
352,123,122931,1,0,0:0:0:0:
64,315,123060,5,6,0:0:0:0:
250,224,123188,1,0,0:0:0:0:
436,315,123315,1,0,0:0:0:0:
58,315,123443,1,8,0:0:0:0:
250,224,123573,1,0,0:0:0:0:
52,315,123701,1,0,0:0:0:0:
352,214,123829,1,0,0:0:0:0:
160,123,123957,2,0,L|222:123,1,53.9999983520508,0|0,0:0|0:0,0:0:0:0:
364,128,124085,6,0,L|256:128,1,107.999996704102,6|0,0:0|0:0,0:0:0:0:
449,276,124342,1,0,0:0:0:0:
175,230,124470,2,0,L|159:109,1,107.999996704102,2|0,0:0|0:0,0:0:0:0:
364,128,124726,1,0,0:0:0:0:
63,276,124855,2,0,L|171:276,1,107.999996704102,0|0,0:0|0:0,0:0:0:0:
480,160,125111,5,4,0:0:0:0:
354,131,125239,1,0,0:0:0:0:
32,160,125367,1,0,0:0:0:0:
158,131,125495,1,0,0:0:0:0:
416,288,125624,6,0,L|320:288,1,53.9999983520508,0|0,0:0|0:0,0:0:0:0:
150,288,125752,2,0,L|96:288,1,53.9999983520508,0|0,0:0|0:0,0:0:0:0:
256,160,125880,1,2,0:0:0:0:
384,160,125912,2,0,L|416:160,2,26.9999991760254,0|0|0,0:0|0:0|0:0,0:0:0:0:
256,160,126008,1,0,0:0:0:0:
128,160,126040,2,0,L|96:160,2,26.9999991760254,0|0|0,0:0|0:0|0:0,0:0:0:0:
256,320,126137,6,0,P|361:306|435:158,2,270,12|2|0,0:0|0:0|0:0,0:0:0:0:
75,172,127162,6,0,P|128:291|256:320,2,270,8|2|0,0:0|0:0|0:0,0:0:0:0:
436,172,128188,5,8,0:0:0:0:
256,192,128316,12,0,130111,0:0:0:0:
258,231,130239,6,0,L|253:60,1,148.50000453186,2|0,0:0|0:0,0:0:0:0:
328,81,130496,2,0,L|227:80,1,99.0000030212403,8|2,0:0|0:0,0:0:0:0:
416,320,130752,2,0,L|424:258,1,49.5000015106202,0|0,0:0|0:0,0:0:0:0:
256,256,130880,2,0,L|384:256,1,99.0000030212403,8|8,0:0|0:0,0:0:0:0:
157,256,131137,1,8,0:0:0:0:
425,324,131265,6,0,P|473:279|410:238,1,148.50000453186,2|0,0:0|0:0,0:0:0:0:
223,234,131520,2,0,L|324:233,1,99.0000030212403,8|2,0:0|0:0,0:0:0:0:
128,352,131778,2,0,L|64:352,1,49.5000015106202,2|0,0:0|0:0,0:0:0:0:
256,256,131906,1,8,0:0:0:0:
384,352,132034,2,0,L|448:352,1,49.5000015106202,8|0,0:0|0:0,0:0:0:0:
256,256,132162,2,0,L|192:256,1,49.5000015106202,8|0,0:0|0:0,0:0:0:0:
384,256,132291,6,0,P|379:193|285:164,1,148.50000453186,2|0,0:0|0:0,0:0:0:0:
448,96,132547,2,0,L|320:96,1,99.0000030212403,8|2,0:0|0:0,0:0:0:0:
128,256,132803,2,0,P|133:193|227:164,1,148.50000453186,0|0,0:0|0:0,0:0:0:0:
64,96,133059,2,0,L|192:96,1,99.0000030212403,8|8,0:0|0:0,0:0:0:0:
384,64,133316,6,0,L|224:64,1,148.50000453186,2|0,0:0|0:0,0:0:0:0:
384,192,133573,2,0,L|512:192,1,99.0000030212403,8|2,0:0|0:0,0:0:0:0:
200,329,133829,1,8,0:0:0:0:
312,329,133957,1,8,0:0:0:0:
29,192,134085,2,0,L|128:192,1,99.0000030212403,4|0,0:0|0:0,0:0:0:0:
425,324,134342,6,0,P|473:279|410:238,1,148.50000453186,2|0,0:0|0:0,0:0:0:0:
223,234,134597,2,0,L|324:233,1,99.0000030212403,8|0,0:0|0:0,0:0:0:0:
96,320,134855,2,0,L|88:258,1,49.5000015106202,8|0,0:0|0:0,0:0:0:0:
256,256,134983,2,0,L|128:256,1,99.0000030212403,2|2,0:0|0:0,0:0:0:0:
355,256,135238,1,8,0:0:0:0:
87,324,135366,6,0,P|39:279|102:238,1,148.50000453186,2|0,0:0|0:0,0:0:0:0:
289,234,135623,2,0,L|188:233,1,99.0000030212403
384,352,135879,2,0,L|448:352,1,49.5000015106202,2|0,0:0|0:0,0:0:0:0:
256,256,136007,1,8,0:0:0:0:
128,352,136136,2,0,L|64:352,1,49.5000015106202,8|0,0:0|0:0,0:0:0:0:
256,256,136264,2,0,L|320:256,1,49.5000015106202
128,256,136392,6,0,P|133:193|227:164,1,148.50000453186,2|0,0:0|0:0,0:0:0:0:
64,96,136649,2,0,L|192:96,1,99.0000030212403,8|2,0:0|0:0,0:0:0:0:
384,256,136906,2,0,P|379:193|285:164,1,148.50000453186,2|0,0:0|0:0,0:0:0:0:
448,96,137162,2,0,L|320:96,1,99.0000030212403,8|0,0:0|0:0,0:0:0:0:
128,64,137419,6,0,L|288:64,1,148.50000453186,2|0,0:0|0:0,0:0:0:0:
128,192,137674,2,0,L|0:192,1,99.0000030212403,8|0,0:0|0:0,0:0:0:0:
312,329,137932,1,8,0:0:0:0:
200,329,138060,1,8,0:0:0:0:
483,192,138188,2,0,L|384:192,1,99.0000030212403,4|2,0:0|0:0,0:0:0:0:
29,192,138444,5,0,0:0:0:0:
352,192,139726,1,2,0:0:0:0:
160,192,140154,1,8,0:0:0:0:
384,96,140496,1,2,0:0:0:0:
256,320,140837,1,2,0:0:0:0:
128,96,141179,1,2,0:0:0:0:
352,320,141521,2,0,P|487:205|350:93,1,405.000015449525,10|10,0:0|0:0,0:0:0:0:
32,224,142547,6,0,L|192:224,1,148.50000453186,2|0,0:0|0:0,0:0:0:0:
32,224,142803,2,0,L|160:224,1,99.0000030212403,8|2,0:0|0:0,0:0:0:0:
355,96,143060,2,0,L|256:96,1,99.0000030212403,2|8,0:0|0:0,0:0:0:0:
452,320,143316,2,0,L|388:320,1,49.5000015106202,8|0,0:0|0:0,0:0:0:0:
206,172,143444,2,0,L|256:172,1,49.5000015106202,8|0,0:0|0:0,0:0:0:0:
480,224,143573,6,0,L|320:224,1,148.50000453186,2|0,0:0|0:0,0:0:0:0:
480,224,143829,2,0,L|352:224,1,99.0000030212403,8|2,0:0|0:0,0:0:0:0:
157,96,144084,2,0,L|256:96,1,99.0000030212403,2|8,0:0|0:0,0:0:0:0:
60,320,144342,2,0,L|124:320,1,49.5000015106202,8|0,0:0|0:0,0:0:0:0:
305,172,144470,2,0,L|256:172,1,49.5000015106202,8|0,0:0|0:0,0:0:0:0:
74,259,144598,6,0,L|57:379,1,66.0000020141602,2|2,3:2|3:2,0:0:0:0:
289,168,144769,6,0,L|223:168,1,66.0000020141602,2|2,3:2|3:2,0:0:0:0:
438,259,144940,6,0,L|455:379,1,66.0000020141602,2|2,3:2|3:2,0:0:0:0:
223,168,145111,6,0,L|289:168,1,66.0000020141602,2|2,3:2|3:2,0:0:0:0:
115,286,145282,6,0,L|98:406,1,66.0000020141602,2|2,3:2|3:2,0:0:0:0:
397,286,145453,6,0,L|414:406,1,66.0000020141602,2|2,3:2|3:2,0:0:0:0:
257,384,145624,6,8,L|107:384,1,150,8|8,3:2|3:2,3:2:0:0:
