osu file format v14

[General]
AudioFilename: audio.mp3
AudioLeadIn: 0
PreviewTime: 95293
Countdown: 0
SampleSet: Normal
StackLeniency: 0.7
Mode: 2
LetterboxInBreaks: 0
WidescreenStoryboard: 0

[Editor]
Bookmarks: 9204,25614,42024,50229,64588,80998,97409,113819,130229,138434,140165,145614
DistanceSpacing: 1
BeatDivisor: 6
GridSize: 8
TimelineZoom: 3.199999

[Metadata]
Title:Aegleseeker
TitleUnicode:Aegleseeker
Artist:Silentroom vs. Frums
ArtistUnicode:Silentroom vs. Frums
Creator:Jemzuu
Version:Razor's Beyond
Source:Arcaea
Tags:ajamez gigas [_-Kukkai-_] autofanboy alienflybot bunnrei -plus- ster osu_gangster chara razor sharp lowiro esoteric order electronic instrumental video game Song Contest 2020
BeatmapID:3024977
BeatmapSetID:1460413

[Difficulty]
HPDrainRate:5
CircleSize:4.5
OverallDifficulty:10
ApproachRate:10
SliderMultiplier:2
SliderTickRate:2

[Events]
//Background and Video events
0,0,"86238824_p0.jpg",0,0
//Break Periods
2,95439,96940
//Storyboard Layer 0 (Background)
//Storyboard Layer 1 (Fail)
//Storyboard Layer 2 (Pass)
//Storyboard Layer 3 (Foreground)
//Storyboard Layer 4 (Overlay)
//Storyboard Sound Samples

[TimingPoints]
1009,256.410256410256,4,2,1,60,1,0
1137,-100,4,2,1,30,0,0
9214,-100,4,2,1,20,0,0
11265,-100,4,2,1,30,0,0
12803,-100,4,2,1,35,0,0
13316,-100,4,2,1,40,0,0
14342,-100,4,2,1,45,0,0
15367,-100,4,2,1,60,0,0
16393,-100,4,2,1,10,0,0
17419,-100,4,2,6,60,0,0
17547,-100,4,2,2,60,0,0
18444,-100,4,2,2,70,0,0
19470,-100,4,2,2,75,0,0
20239,-100,4,2,2,80,0,0
21521,-100,4,2,6,80,0,0
21650,-100,4,2,2,60,0,0
22547,-100,4,2,2,65,0,0
22803,-100,4,2,2,70,0,0
23316,-100,4,2,2,75,0,0
24085,-100,4,2,2,80,0,0
24598,-100,4,2,3,80,0,0
25367,-100,4,2,4,65,0,0
25624,-100,4,1,1,70,0,0
29726,-100,4,1,1,60,0,0
30624,-100,4,1,2,60,0,0
30752,-100,4,1,1,60,0,0
31650,-100,4,1,2,60,0,0
31777,-100,4,1,1,65,0,0
32547,-100,4,1,1,60,0,0
32675,-100,4,1,2,60,0,0
32803,-100,4,1,1,60,0,0
33444,-100,4,1,2,60,0,0
33829,-100,4,1,4,80,0,0
33957,-100,4,1,4,65,0,0
34854,-100,4,1,4,70,0,0
35880,-100,4,1,4,75,0,0
37162,-100,4,1,4,80,0,0
37418,-100,4,1,4,65,0,0
37931,-100,4,1,4,80,0,0
38060,-100,4,1,4,65,0,0
38957,-100,4,1,4,70,0,0
39470,-100,4,1,4,75,0,0
41265,-100,4,1,4,80,0,0
42034,-100,4,1,1,70,0,0
46136,-100,4,1,1,60,0,0
46906,-100,4,1,2,60,0,0
47162,-100,4,1,1,60,0,0
47931,-100,4,1,2,60,0,0
48188,-100,4,1,1,60,0,0
48957,-100,4,1,2,60,0,0
49213,-100,4,1,1,60,0,0
49470,-100,4,1,5,60,0,0
50239,-100,4,2,5,60,0,0
51265,-50,4,2,5,60,0,0
51441,-50,4,2,5,5,0,0
51457,-50,4,2,5,60,0,0
51633,-50,4,2,5,5,0,0
51650,-100,4,2,5,60,0,0
52461,-50,4,2,5,60,0,0
52590,-100,4,2,5,60,0,0
58701,-100,4,2,5,65,0,0
59646,-100,4,2,5,5,0,0
59662,-100,4,2,5,65,0,0
59839,-100,4,2,5,5,0,0
59855,-100,4,2,5,65,0,0
60608,-100,4,2,5,5,0,0
60624,-100,4,2,5,65,0,0
60864,-100,4,2,5,5,0,0
60880,-100,4,2,5,65,0,0
61890,-100,4,2,5,5,0,0
61906,-100,4,2,5,65,0,0
63572,-100,4,2,5,70,0,0
64085,-100,4,2,5,75,0,0
64342,-100,4,2,5,80,0,0
64598,-100,4,2,5,85,0,0
64983,-100,4,2,5,80,0,0
66136,-100,4,1,6,70,0,0
66649,-100,4,1,6,80,0,0
73316,256.410256410256,3,1,6,80,1,0
81008,256.410256410256,4,2,73,80,1,0
81008,-100,4,2,73,80,0,0
81136,-100,4,2,1,40,0,0
93572,-100,4,2,1,60,0,0
94341,-100,4,2,10,60,0,0
94597,-100,4,2,1,60,0,0
97418,-43.4782608695652,4,3,1,80,0,1
98059,-100,4,3,1,80,0,1
98443,-43.4782608695652,4,3,1,80,0,1
99084,-100,4,3,1,80,0,1
99469,-43.4782608695652,4,3,2,80,0,1
100110,-100,4,3,2,80,0,1
101264,-100,4,3,3,80,0,1
101520,-43.4782608695652,4,3,3,80,0,1
101905,-43.4782608695652,4,3,4,80,0,1
102161,-100,4,2,1,60,0,1
102546,-43.4782608695652,4,3,4,80,0,1
102931,-43.4782608695652,4,3,5,80,0,1
103187,-100,4,3,2,60,0,1
103572,-100,4,3,2,80,0,1
105495,-100,4,3,2,80,0,0
105623,-43.4782608695652,4,3,1,80,0,1
106264,-100,4,3,1,80,0,1
106649,-43.4782608695652,4,3,1,80,0,1
107290,-100,4,2,1,60,0,1
107674,-43.4782608695652,4,3,2,80,0,1
108315,-100,4,3,2,80,0,1
109469,-100,4,3,3,80,0,1
109725,-43.4782608695652,4,3,3,80,0,1
110110,-43.4782608695652,4,3,4,80,0,1
110366,-100,4,2,1,60,0,1
110751,-43.4782608695652,4,3,4,80,0,1
111136,-43.4782608695652,4,3,5,80,0,1
111392,-100,4,2,1,60,0,1
111777,-100,4,3,2,80,0,1
113828,-100,4,3,73,80,0,0
113892,-100,4,3,1,60,0,0
115879,-100,4,3,1,80,0,1
116264,-100,4,3,2,80,0,1
116777,-100,4,3,99,80,0,1
116905,-100,4,3,55,80,0,1
117033,-100,4,3,98,80,0,1
117290,-100,4,3,97,80,0,1
117418,-100,4,3,98,80,0,1
117931,-100,4,3,97,80,0,1
118315,-100,4,3,96,80,0,1
118443,-100,4,2,1,60,0,1
118956,-100,4,3,55,80,0,1
119084,-100,4,3,99,80,0,1
119341,-100,4,3,95,80,0,1
119725,-100,4,3,96,80,0,1
119982,-100,4,3,94,80,0,1
120366,-100,4,3,97,80,0,1
121007,-100,4,3,56,80,0,1
121072,-100,4,3,95,80,0,1
121392,-100,4,3,94,80,0,1
121905,-100,4,2,1,80,0,0
122033,-100,4,3,80,85,0,1
123059,-100,4,3,57,85,0,1
123123,-100,4,3,70,85,0,1
123315,-100,4,3,80,85,0,1
124469,-100,4,3,79,85,0,1
125110,-100,4,3,55,85,0,1
125174,-100,4,3,79,85,0,1
125879,-100,4,3,98,85,0,1
126136,-100,4,3,97,70,0,0
126520,-100,4,3,96,70,0,0
127161,-100,4,3,99,70,0,0
129197,-100,4,3,99,5,0,0
129213,-100,4,3,99,70,0,0
129453,-100,4,3,99,5,0,0
129469,-100,4,3,99,70,0,0
129709,-100,4,3,99,5,0,0
129725,-100,4,3,99,70,0,0
129982,-100,4,1,6,50,0,0
130110,-100,4,1,6,55,0,0
130495,-100,4,1,6,60,0,0
134084,-100,4,1,1,75,0,0
134341,-100,4,1,6,60,0,0
138187,-100,4,1,2,75,0,0
138251,-100,4,1,1,60,0,0
138443,-200,4,1,6,60,0,0
138572,-200,4,2,5,60,0,0
139725,-200,4,2,3,40,0,0
141520,-200,4,2,3,50,0,0
142290,-200,4,1,6,50,0,0
142418,-200,4,1,6,60,0,0
142546,-100,4,1,6,70,0,0
144597,-100,4,2,3,70,0,0
145623,-100,4,2,3,60,0,0

[Colours]
Combo1 : 132,193,255
Combo2 : 151,151,255
Combo3 : 255,145,255

[HitObjects]
256,192,9214,5,2,3:2:0:0:
160,192,9855,1,0,3:2:0:0:
256,192,10239,1,0,3:2:0:0:
352,192,10880,1,0,3:2:0:0:
256,192,11137,1,0,3:2:0:0:
160,192,11265,5,2,3:2:0:0:
256,192,11906,1,0,3:2:0:0:
352,192,12291,1,0,3:2:0:0:
256,192,12675,1,0,3:2:0:0:
160,192,12932,1,0,3:2:0:0:
256,192,13188,1,0,3:2:0:0:
352,192,13316,5,2,3:2:0:0:
256,192,13957,1,0,3:2:0:0:
160,192,14342,1,0,3:2:0:0:
256,192,14983,1,0,3:2:0:0:
352,192,15239,5,2,3:2:0:0:
256,192,16393,12,0,16409,0:0:0:0:
256,192,16425,12,0,16441,0:0:0:0:
256,192,16457,12,0,16473,0:0:0:0:
256,192,16489,12,0,16505,0:0:0:0:
256,192,16521,12,0,16537,0:0:0:0:
256,192,16553,12,0,16569,0:0:0:0:
256,192,16585,12,0,16601,0:0:0:0:
256,192,16617,12,0,16633,0:0:0:0:
256,192,16650,12,0,16666,0:0:0:0:
256,192,16682,12,0,16698,0:0:0:0:
256,192,16714,12,0,16730,0:0:0:0:
256,192,16746,12,0,16762,0:0:0:0:
256,192,16778,12,0,16794,0:0:0:0:
256,192,16811,12,0,16827,0:0:0:0:
256,192,16842,12,0,16858,0:0:0:0:
256,192,16874,12,0,16890,0:0:0:0:
256,192,16906,12,0,16922,0:0:0:0:
256,192,16938,12,0,16954,0:0:0:0:
256,192,16971,12,0,16987,0:0:0:0:
256,192,17002,12,0,17018,0:0:0:0:
256,192,17034,12,0,17050,0:0:0:0:
256,192,17066,12,0,17082,0:0:0:0:
256,192,17098,12,0,17114,0:0:0:0:
256,192,17131,12,0,17147,0:0:0:0:
256,192,17162,12,0,17178,0:0:0:0:
256,192,17194,12,0,17210,0:0:0:0:
256,192,17226,12,0,17242,0:0:0:0:
256,192,17258,12,0,17291,0:0:0:0:
128,64,17419,5,4,1:0:0:0:
328,310,17547,5,2,0:0:0:0:
377,311,17611,2,0,L|382:258,2,50,0|2|0,0:0|0:0|0:0,0:0:0:0:
322,310,17803,5,0,0:0:0:0:
377,311,17867,2,0,L|395:260,2,50,0|2|0,0:0|0:0|0:0,0:0:0:0:
316,310,18060,5,0,0:0:0:0:
377,311,18124,2,0,L|409:268,2,50,0|2|0,0:0|0:0|0:0,0:0:0:0:
312,310,18316,5,0,0:0:0:0:
377,311,18380,2,0,L|421:283,2,50,0|2|0,0:0|0:0|0:0,0:0:0:0:
306,310,18573,5,0,0:0:0:0:
377,311,18637,2,0,L|428:311,2,50,0|2|0,0:0|0:0|0:0,0:0:0:0:
302,310,18829,5,0,0:0:0:0:
377,311,18893,1,0,0:0:0:0:
436,311,18957,1,2,0:0:0:0:
377,311,19021,1,0,0:0:0:0:
297,310,19085,5,0,0:0:0:0:
377,311,19150,1,0,0:0:0:0:
446,311,19214,1,2,0:0:0:0:
377,311,19278,1,0,0:0:0:0:
227,240,19342,6,0,L|207:191,2,50,0|0|2,0:0|0:0|0:0,0:0:0:0:
296,241,19534,1,0,0:0:0:0:
146,94,19598,6,0,L|126:45,2,50,0|0|2,0:0|0:0|0:0,0:0:0:0:
215,95,19790,1,0,0:0:0:0:
63,183,19855,6,0,L|43:134,2,50,0|0|2,0:0|0:0|0:0,0:0:0:0:
132,184,20047,1,0,0:0:0:0:
282,185,20111,6,0,L|344:185,1,50,0|0,0:0|0:0,0:0:0:0:
207,298,20239,1,2,0:0:0:0:
82,301,20303,1,0,0:0:0:0:
207,298,20367,1,0,0:0:0:0:
332,301,20431,1,0,0:0:0:0:
207,298,20496,6,0,L|204:240,1,50,2|0,0:0|0:0,0:0:0:0:
79,234,20624,2,0,L|76:176,1,50,8|0,0:0|0:0,0:0:0:0:
201,108,20752,6,0,L|255:108,3,50,8|0|8|0,0:0|0:0|0:0|0:0,0:0:0:0:
376,109,21008,6,0,L|381:162,1,50,0|0,0:0|0:0,0:0:0:0:
310,165,21137,2,0,L|245:166,1,50,0|0,0:0|0:0,0:0:0:0:
110,171,21265,5,8,0:0:0:0:
134,171,21297,1,0,0:0:0:0:
159,171,21329,1,0,0:0:0:0:
184,171,21361,1,0,0:0:0:0:
209,171,21393,1,0,0:0:0:0:
234,171,21425,1,0,0:0:0:0:
259,171,21457,1,0,0:0:0:0:
386,276,21521,5,4,1:0:0:0:
184,310,21650,5,2,0:0:0:0:
135,311,21714,2,0,L|130:258,2,50,0|2|0,0:0|0:0|0:0,0:0:0:0:
190,310,21906,5,0,0:0:0:0:
135,311,21970,2,0,L|117:260,2,50,0|2|0,0:0|0:0|0:0,0:0:0:0:
196,310,22163,5,0,0:0:0:0:
135,311,22227,2,0,L|103:268,2,50,0|2|0,0:0|0:0|0:0,0:0:0:0:
200,310,22419,5,0,0:0:0:0:
135,311,22483,2,0,L|91:283,2,50,0|2|0,0:0|0:0|0:0,0:0:0:0:
206,310,22676,5,0,0:0:0:0:
135,311,22740,2,0,L|84:311,2,50,0|2|0,0:0|0:0|0:0,0:0:0:0:
210,310,22932,5,0,0:0:0:0:
135,311,22996,5,0,0:0:0:0:
76,311,23060,1,2,0:0:0:0:
135,311,23124,1,0,0:0:0:0:
215,310,23188,5,0,0:0:0:0:
135,311,23253,1,0,0:0:0:0:
66,311,23317,1,2,0:0:0:0:
135,311,23381,1,0,0:0:0:0:
285,240,23445,6,0,L|305:191,2,50,0|0|2,0:0|0:0|0:0,0:0:0:0:
216,241,23637,1,0,0:0:0:0:
366,94,23701,6,0,L|386:45,2,50,0|0|2,0:0|0:0|0:0,0:0:0:0:
297,95,23893,1,0,0:0:0:0:
449,183,23958,6,0,L|469:134,2,50,0|0|2,0:0|0:0|0:0,0:0:0:0:
380,184,24150,1,0,0:0:0:0:
230,185,24214,6,0,L|168:185,1,50,0|0,0:0|0:0,0:0:0:0:
305,298,24342,1,2,0:0:0:0:
430,301,24406,1,0,0:0:0:0:
305,298,24470,1,0,0:0:0:0:
180,301,24534,1,0,0:0:0:0:
305,298,24599,6,0,L|308:240,1,50,2|0,0:0|0:0,0:0:0:0:
183,152,24727,2,0,L|186:94,1,50,2|0,0:0|0:0,0:0:0:0:
336,94,24855,6,0,L|285:70,1,50,8|0,0:0|0:0,0:0:0:0:
165,68,24983,1,2,0:0:0:0:
291,194,25047,2,0,L|297:249,1,50,8|0,0:0|0:0,0:0:0:0:
170,261,25175,1,2,0:0:0:0:
295,314,25239,2,0,L|348:315,1,50,8|8,0:0|0:0,0:0:0:0:
470,263,25367,2,0,L|487:260,4,12.5,4|0|0|0|0,3:2|0:0|0:0|0:0|0:0,0:0:0:0:
321,144,25496,1,0,0:0:0:0:
294,142,25528,1,0,0:0:0:0:
268,141,25560,1,0,0:0:0:0:
108,178,25624,6,0,L|175:178,1,50,12|0,0:0|0:0,0:0:0:0:
283,275,25752,2,0,L|216:275,1,50,0|0,0:0|0:0,0:0:0:0:
108,178,25880,1,2,0:0:0:0:
308,123,26008,6,0,L|241:123,1,50,8|0,0:0|0:0,0:0:0:0:
133,220,26136,2,0,L|200:220,1,50,8|0,0:0|0:0,0:0:0:0:
308,123,26264,1,2,0:0:0:0:
108,178,26393,6,0,P|84:133|113:88,1,100,8|0,0:0|0:0,0:0:0:0:
128,92,26553,1,0,0:0:0:0:
152,92,26585,1,0,0:0:0:0:
304,179,26650,6,0,L|366:179,1,50,8|0,0:0|0:0,0:0:0:0:
229,273,26778,2,0,L|167:273,1,50,0|0,0:0|0:0,0:0:0:0:
304,179,26906,1,2,0:0:0:0:
104,287,27034,6,0,L|42:287,1,50,8|0,0:0|0:0,0:0:0:0:
179,193,27162,2,0,L|241:193,1,50,8|0,0:0|0:0,0:0:0:0:
104,287,27290,1,2,0:0:0:0:
304,179,27419,6,0,L|411:179,1,100,4|0,0:0|0:0,0:0:0:0:
379,179,27579,1,0,0:0:0:0:
354,179,27611,1,0,0:0:0:0:
204,163,27675,6,0,L|151:163,1,50,8|0,0:0|0:0,0:0:0:0:
279,307,27803,2,0,L|286:254,1,50,0|0,0:0|0:0,0:0:0:0:
159,209,27932,1,2,0:0:0:0:
359,243,28060,6,0,L|412:243,1,50,8|0,0:0|0:0,0:0:0:0:
284,99,28188,2,0,L|277:152,1,50,8|0,0:0|0:0,0:0:0:0:
404,197,28317,1,2,0:0:0:0:
206,136,28444,6,0,L|99:136,1,100,4|0,0:0|0:0,0:0:0:0:
131,136,28604,1,0,0:0:0:0:
156,136,28636,1,0,0:0:0:0:
308,295,28701,6,0,L|252:295,1,50,8|0,0:0|0:0,0:0:0:0:
133,314,28829,2,0,L|189:314,1,50,0|0,0:0|0:0,0:0:0:0:
308,295,28957,1,2,0:0:0:0:
108,210,29085,6,0,L|54:210,1,50,8|0,0:0|0:0,0:0:0:0:
185,49,29214,2,0,L|239:49,1,50,8|0,0:0|0:0,0:0:0:0:
108,210,29342,1,2,0:0:0:0:
308,149,29470,6,0,L|391:148,2,66.6666666666667,2|2|2,0:0|0:0|0:0,0:0:0:0:
107,325,29726,6,0,L|101:272,1,50,8|0,0:0|0:0,0:0:0:0:
172,270,29855,2,0,L|178:217,1,50,0|0,0:0|0:0,0:0:0:0:
107,218,29983,1,2,0:0:0:0:
307,215,30111,6,0,L|313:162,1,50,8|0,0:0|0:0,0:0:0:0:
242,160,30240,2,0,L|236:107,1,50,8|0,0:0|0:0,0:0:0:0:
307,108,30368,1,2,0:0:0:0:
107,325,30496,6,0,P|83:280|112:235,1,100,0|4,0:0|0:0,0:0:0:0:
127,239,30656,1,0,0:0:0:0:
151,239,30688,1,0,0:0:0:0:
301,276,30752,6,0,L|251:276,1,50,8|0,0:0|0:0,0:0:0:0:
181,274,30880,2,0,L|231:274,1,50,0|0,0:0|0:0,0:0:0:0:
301,276,31008,1,2,0:0:0:0:
100,70,31137,6,0,L|150:70,1,50,8|0,0:0|0:0,0:0:0:0:
220,68,31265,2,0,L|170:68,1,50,8|0,0:0|0:0,0:0:0:0:
100,70,31393,1,2,0:0:0:0:
301,276,31521,6,0,P|325:231|296:186,1,100,0|4,0:0|0:0,0:0:0:0:
281,190,31681,1,0,0:0:0:0:
257,190,31713,1,0,0:0:0:0:
105,183,31778,6,0,L|167:183,1,50,8|0,0:0|0:0,0:0:0:0:
280,233,31906,2,0,L|342:233,1,50,0|0,0:0|0:0,0:0:0:0:
205,312,32034,1,2,0:0:0:0:
406,336,32162,6,0,L|456:336,1,50,8|0,0:0|0:0,0:0:0:0:
329,271,32291,2,0,L|327:212,1,50,8|0,0:0|0:0,0:0:0:0:
197,182,32419,2,0,L|195:119,1,50,2|0,0:0|0:0,0:0:0:0:
343,69,32547,6,0,L|245:111,1,100,8|4,0:0|0:0,0:0:0:0:
227,111,32707,1,0,0:0:0:0:
203,111,32739,1,0,0:0:0:0:
343,151,32803,6,0,L|376:150,2,33.3333333333333,8|0|0,0:0|0:0|0:0,0:0:0:0:
293,151,32932,2,0,L|355:151,1,50,0|0,0:0|0:0,0:0:0:0:
181,236,33060,2,0,L|151:234,2,25,8|0|0,0:0|0:0|0:0,0:0:0:0:
315,312,33188,2,0,L|426:312,1,100,8|0,0:0|0:0,0:0:0:0:
108,330,33444,5,0,0:0:0:0:
85,318,33476,1,0,0:0:0:0:
66,302,33508,1,0,0:0:0:0:
52,281,33540,1,0,0:0:0:0:
44,258,33572,1,0,0:0:0:0:
42,233,33604,1,0,0:0:0:0:
46,208,33636,1,0,0:0:0:0:
56,186,33668,1,0,0:0:0:0:
71,166,33700,1,0,0:0:0:0:
91,151,33732,1,0,0:0:0:0:
114,142,33764,1,0,0:0:0:0:
266,133,33829,6,0,L|321:133,1,50,4|0,0:0|0:0,0:0:0:0:
256,133,33957,2,0,L|198:132,1,50,0|0,0:0|0:0,0:0:0:0:
346,316,34085,6,0,L|349:264,1,50,8|0,0:0|0:0,0:0:0:0:
288,259,34214,2,0,L|221:259,1,50,0|0,0:0|0:0,0:0:0:0:
379,153,34342,6,0,L|432:153,2,50,8|0|0,0:0|0:0|0:0,0:0:0:0:
229,186,34534,6,0,L|223:248,1,50,8|0,0:0|0:0,0:0:0:0:
283,240,34662,1,0,0:0:0:0:
143,294,34726,6,0,L|90:294,2,50,8|0|0,0:0|0:0|0:0,0:0:0:0:
293,261,34918,6,0,L|299:199,1,50,8|0,0:0|0:0,0:0:0:0:
237,209,35046,1,0,0:0:0:0:
381,97,35111,6,0,L|389:152,1,50,8|0,0:0|0:0,0:0:0:0:
328,150,35239,2,0,L|268:150,1,50,0|0,0:0|0:0,0:0:0:0:
117,169,35367,6,0,L|171:193,1,50,8|0,0:0|0:0,0:0:0:0:
223,193,35496,1,0,0:0:0:0:
83,256,35560,6,0,L|27:255,2,50,8|0|0,0:0|0:0|0:0,0:0:0:0:
233,346,35752,6,0,L|179:322,1,50,8|0,0:0|0:0,0:0:0:0:
126,325,35881,1,0,0:0:0:0:
265,265,35944,6,0,L|271:213,1,50,8|0,0:0|0:0,0:0:0:0:
209,213,36073,1,0,0:0:0:0:
349,142,36137,6,0,L|411:143,1,50,8|0,0:0|0:0,0:0:0:0:
339,142,36265,2,0,L|271:142,1,50,0|0,3:0|0:0,0:0:0:0:
429,232,36393,6,0,L|484:232,2,50,8|0|0,0:0|0:0|0:0,0:0:0:0:
279,192,36585,6,0,L|224:192,2,50,8|0|0,0:0|0:0|0:0,0:0:0:0:
127,173,36778,6,0,L|68:173,2,50,0|0|2,3:0|0:0|0:1,0:0:0:0:
276,91,36970,6,0,L|222:67,1,50,0|0,3:0|0:0,0:0:0:0:
169,69,37099,1,0,0:0:0:0:
308,253,37162,5,10,0:0:0:0:
458,284,37226,1,0,0:0:0:0:
308,253,37291,1,0,0:0:0:0:
158,284,37355,1,0,0:0:0:0:
308,253,37419,6,0,L|315:192,1,50,10|0,0:0|0:0,0:0:0:0:
253,200,37547,1,0,0:0:0:0:
93,150,37611,6,0,L|86:89,1,50,10|0,0:0|0:0,0:0:0:0:
147,100,37739,1,0,0:0:0:0:
308,122,37803,6,0,L|359:122,1,50,10|0,0:0|0:0,0:0:0:0:
206,332,37932,6,0,L|203:272,1,50,4|0,0:0|0:0,0:0:0:0:
263,279,38060,2,0,L|321:273,1,50,0|0,0:0|0:0,0:0:0:0:
172,176,38188,6,0,L|224:176,1,50,8|0,0:0|0:0,0:0:0:0:
281,176,38316,2,0,L|333:176,1,50,0|0,0:0|0:0,0:0:0:0:
191,44,38444,6,0,L|137:44,2,50,8|0|0,0:0|0:0|0:0,0:0:0:0:
343,353,38637,6,0,L|346:297,1,50,8|0,0:0|0:0,0:0:0:0:
285,300,38765,1,0,0:0:0:0:
425,238,38829,6,0,L|377:209,1,50,8|0,0:0|0:0,0:0:0:0:
322,205,38957,1,0,0:0:0:0:
162,164,39021,6,0,L|159:108,1,50,8|0,0:0|0:0,0:0:0:0:
219,112,39149,1,0,0:0:0:0:
78,62,39214,6,0,L|22:62,1,50,8|0,0:0|0:0,0:0:0:0:
87,63,39342,2,0,L|136:63,1,50,8|0,0:0|0:0,0:0:0:0:
297,60,39470,6,0,L|355:60,2,50,8|0|0,0:0|0:0|0:0,0:0:0:0:
147,237,39662,6,0,L|199:255,1,50,8|0,0:0|0:0,0:0:0:0:
255,254,39791,1,0,0:0:0:0:
115,324,39855,6,0,L|57:324,2,50,8|0|0,0:0|0:0|0:0,0:0:0:0:
265,147,40047,6,0,L|213:129,1,50,8|0,0:0|0:0,0:0:0:0:
156,128,40176,1,0,0:0:0:0:
295,35,40239,6,0,L|300:88,1,50,8|0,0:0|0:0,0:0:0:0:
239,86,40367,2,0,L|234:139,1,50,0|0,0:0|0:0,0:0:0:0:
377,221,40496,6,0,L|427:221,2,50,8|0|0,0:0|0:0|0:0,0:0:0:0:
227,224,40688,6,0,L|220:172,1,50,8|0,0:0|0:0,0:0:0:0:
280,173,40816,1,0,0:0:0:0:
139,216,40880,6,0,L|89:216,2,50,8|0|0,0:0|0:0|0:0,0:0:0:0:
289,213,41072,6,0,L|296:265,1,50,8|0,0:0|0:0,0:0:0:0:
236,268,41200,1,0,0:0:0:0:
75,337,41265,5,8,0:0:0:0:
225,330,41329,1,0,0:0:0:0:
375,337,41393,1,0,0:0:0:0:
225,330,41457,1,0,0:0:0:0:
75,337,41521,6,0,L|75:286,3,50,2|0|0|2,0:0|0:0|0:0|0:0,0:0:0:0:
145,336,41778,2,0,L|145:285,1,50,0|0,0:0|0:0,0:0:0:0:
214,281,41906,2,0,L|214:230,1,50,2|0,0:0|0:0,0:0:0:0:
414,165,42034,6,0,L|463:168,2,50,12|0|0,0:0|0:0|0:0,0:0:0:0:
289,137,42226,1,0,0:0:0:0:
162,117,42291,1,2,0:0:0:0:
362,251,42419,6,0,L|411:254,2,50,8|0|8,0:0|0:0|0:0,0:0:0:0:
237,223,42611,1,0,0:0:0:0:
110,203,42676,1,2,0:0:0:0:
308,342,42803,6,0,L|331:329,6,25,2|0|0|0|0|0|0,0:0|0:0|0:0|0:0|0:0|0:0|0:0,0:0:0:0:
156,246,43060,6,0,L|105:246,2,50,12|0|0,0:0|0:0|0:0,0:0:0:0:
281,175,43252,1,0,0:0:0:0:
156,246,43316,1,2,0:0:0:0:
356,246,43444,6,0,L|407:246,2,50,8|0|8,0:0|0:0|0:0,0:0:0:0:
231,175,43636,1,0,0:0:0:0:
356,246,43700,1,2,0:0:0:0:
155,205,43829,5,10,0:0:0:0:
131,196,43861,1,0,0:0:0:0:
114,178,43893,1,0,0:0:0:0:
108,154,43925,1,0,0:0:0:0:
114,130,43957,1,0,0:0:0:0:
131,111,43989,1,0,0:0:0:0:
154,103,44021,1,0,0:0:0:0:
304,126,44085,6,0,L|312:181,1,50,12|0,0:0|0:0,0:0:0:0:
240,183,44214,1,0,0:0:0:0:
365,212,44278,1,0,0:0:0:0:
490,228,44342,1,2,0:0:0:0:
290,331,44470,6,0,L|282:276,1,50,8|0,0:0|0:0,0:0:0:0:
354,274,44599,1,8,0:0:0:0:
229,245,44663,1,0,0:0:0:0:
104,229,44727,1,2,0:0:0:0:
304,85,44855,6,0,L|327:72,6,25,10|0|0|0|0|0|0,0:0|0:0|0:0|0:0|0:0|0:0|0:0,0:0:0:0:
179,91,45111,6,0,L|127:91,2,50,12|0|0,0:0|0:0|0:0,0:0:0:0:
304,169,45303,1,0,0:0:0:0:
429,172,45367,1,2,0:0:0:0:
228,251,45496,6,0,L|172:251,2,50,8|0|8,0:0|0:0|0:0,0:0:0:0:
353,308,45688,1,0,0:0:0:0:
228,251,45752,1,2,0:0:0:0:
428,217,45880,6,0,L|496:216,2,66.6666666666667,2|2|2,0:0|0:0|0:0,0:0:0:0:
258,159,46137,6,0,L|317:159,1,50,12|0,0:0|0:0,0:0:0:0:
433,157,46265,1,0,0:0:0:0:
308,159,46329,1,0,0:0:0:0:
183,156,46393,1,2,0:0:0:0:
383,293,46521,6,0,L|324:293,1,50,8|0,0:0|0:0,0:0:0:0:
208,291,46649,1,8,0:0:0:0:
333,293,46713,1,0,0:0:0:0:
458,290,46777,1,2,0:0:0:0:
257,227,46906,5,4,0:0:0:0:
232,225,46938,1,0,0:0:0:0:
212,211,46970,1,0,0:0:0:0:
203,188,47002,1,0,0:0:0:0:
209,164,47034,1,0,0:0:0:0:
227,147,47066,1,0,0:0:0:0:
251,142,47098,1,0,0:0:0:0:
376,136,47162,6,0,L|327:136,1,50,12|0,0:0|0:0,0:0:0:0:
199,108,47291,1,0,0:0:0:0:
74,107,47355,1,0,0:0:0:0:
199,108,47419,1,2,0:0:0:0:
399,221,47547,6,0,L|350:221,1,50,8|0,0:0|0:0,0:0:0:0:
222,193,47676,1,8,0:0:0:0:
97,192,47740,1,0,0:0:0:0:
222,193,47804,1,2,0:0:0:0:
422,346,47932,6,0,L|445:333,6,25,4|0|0|0|0|0|0,0:0|0:0|0:0|0:0|0:0|0:0|0:0,0:0:0:0:
273,105,48188,6,0,L|222:104,1,50,12|0,0:0|0:0,0:0:0:0:
348,105,48316,1,0,0:0:0:0:
223,104,48380,1,0,0:0:0:0:
98,96,48444,1,2,0:0:0:0:
299,221,48573,6,0,L|350:220,1,50,8|0,0:0|0:0,0:0:0:0:
224,221,48701,1,8,0:0:0:0:
348,220,48765,1,0,0:0:0:0:
474,212,48829,1,2,0:0:0:0:
274,145,48957,5,4,0:0:0:0:
250,139,48989,1,0,0:0:0:0:
228,150,49021,1,0,0:0:0:0:
219,173,49053,1,0,0:0:0:0:
227,196,49085,1,0,0:0:0:0:
249,208,49117,1,0,0:0:0:0:
272,203,49149,1,0,0:0:0:0:
399,304,49214,5,6,0:0:0:0:
299,303,49246,1,0,0:0:0:0:
199,300,49278,1,0,0:0:0:0:
74,281,49342,2,0,L|41:281,2,25,2|0|0,0:0|0:0|0:0,0:0:0:0:
224,62,49470,5,12,0:0:0:0:
324,71,49598,2,0,P|337:101|72:283,1,450,0|0,0:0|0:0,0:0:0:0:
234,334,50239,6,0,P|286:307|221:212,1,200,12|2,3:2|0:0,0:0:0:0:
163,210,50581,2,0,L|249:210,1,66.6666666666667,0|0,0:0|0:0,0:0:0:0:
135,207,50752,2,0,L|63:207,2,66.6666666666667,2|0|0,0:0|0:0|0:0,0:0:0:0:
282,107,51008,2,0,L|210:107,2,66.6666666666667,2|0|0,0:0|0:0|0:0,0:0:0:0:
133,136,51265,6,0,L|412:136,1,275,8|0,0:0|0:0,0:0:0:0:
408,136,51457,2,0,L|264:373,1,275,0|0,0:0|0:0,0:0:0:0:
265,371,51650,2,0,P|305:367|272:85,1,450,10|0,0:0|0:0,0:0:0:0:
150,194,52291,6,0,L|295:194,1,133.333333333333,10|0,0:0|0:0,0:0:0:0:
99,194,52632,2,0,P|71:179|101:12,1,233.333333333333,2|8,0:0|0:0,0:0:0:0:
106,56,52996,1,0,0:0:0:0:
176,59,53060,2,0,L|187:125,1,50,8|0,0:0|0:0,0:0:0:0:
334,163,53188,6,0,P|384:186|318:283,1,200,2|2,0:0|0:0,0:0:0:0:
210,278,53573,1,0,0:0:0:0:
329,274,53701,2,0,P|280:243|335:136,1,200,10|2,0:0|0:0,0:0:0:0:
354,136,53989,2,0,L|315:136,1,25,0|0,0:0|0:0,0:0:0:0:
269,136,54085,2,0,L|374:136,1,100,8|0,0:0|0:0,0:0:0:0:
394,136,54246,2,0,L|355:136,1,25,0|0,0:0|0:0,0:0:0:0:
219,317,54342,6,0,P|169:308|47:98,1,300,12|8,0:0|0:0,0:0:0:0:
115,116,54791,1,0,0:0:0:0:
240,117,54855,2,0,L|400:117,2,133.333333333333,8|0|0,0:0|0:0|0:0,0:0:0:0:
67,117,55367,6,0,L|227:117,3,133.333333333333,8|2|8|2,0:0|0:0|0:0|0:0,0:0:0:0:
465,146,56051,2,0,L|471:288,1,133.333333333333,8|0,0:0|0:0,0:0:0:0:
375,280,56308,1,2,0:0:0:0:
229,205,56393,6,0,L|328:205,2,100,12|0|8,0:0|0:0|0:0,0:0:0:0:
430,152,56778,2,0,B|331:150|331:150|431:146,1,200,8|0,0:0|0:0,0:0:0:0:
418,98,57098,1,0,0:0:0:0:
382,64,57162,1,2,0:0:0:0:
334,54,57226,1,0,0:0:0:0:
207,139,57291,6,0,B|108:139|108:139|210:146,1,200,8|2,0:0|0:0,0:0:0:0:
348,147,57675,1,8,0:0:0:0:
487,149,57803,2,0,L|493:270,1,100,8|0,0:0|0:0,0:0:0:0:
420,250,57996,1,0,0:0:0:0:
350,250,58060,2,0,L|345:215,2,25,8|0|0,0:0|0:0|0:0,0:0:0:0:
200,251,58188,2,0,L|88:251,1,100,2|8,0:0|0:0,0:0:0:0:
75,251,58348,2,0,L|100:251,1,25,0|0,0:0|0:0,0:0:0:0:
250,134,58444,6,0,L|123:135,2,100,6|0|8,0:0|0:0|0:0,0:0:0:0:
316,134,58786,2,0,L|235:134,1,66.6666666666667,0|0,0:0|0:0,0:0:0:0:
155,132,58957,2,0,L|230:133,2,66.6666666666667,8|2|0,0:0|0:0|0:0,0:0:0:0:
249,134,59214,2,0,L|324:135,2,66.6666666666667,8|2|0,0:0|0:0|0:0,0:0:0:0:
81,279,59470,6,0,L|217:220,1,137.5,8|0,0:0|0:0,0:0:0:0:
207,224,59662,2,0,L|343:165,1,137.5,0|0,0:0|0:0,0:0:0:0:
333,169,59855,2,0,P|280:179|341:289,1,233.333333333333,2|0,0:0|0:0,0:0:0:0:
412,300,60239,1,8,0:0:0:0:
214,313,60367,6,0,B|313:313|313:313|220:314,1,187.5,12|0,0:0|0:0,0:0:0:0:
224,313,60624,2,0,P|178:289|226:187,1,187.5,2|0,0:0|0:0,0:0:0:0:
220,187,60880,2,0,L|17:190,1,200,8|8,0:0|0:0,0:0:0:0:
80,190,61201,1,0,0:0:0:0:
20,189,61265,1,8,0:0:0:0:
258,308,61393,6,0,L|371:308,1,100,2|8,0:0|0:0,0:0:0:0:
237,308,61650,2,0,B|138:308|138:308|231:309,1,187.5,2|0,0:0|0:0,0:0:0:0:
226,308,61906,2,0,P|278:290|207:-10,1,450,8|0,0:0|0:0,0:0:0:0:
75,193,62547,2,0,P|60:153|83:93,1,100,12|0,0:0|0:0,0:0:0:0:
129,71,62739,1,0,0:0:0:0:
188,71,62803,1,8,0:0:0:0:
356,183,62889,6,0,L|437:157,2,66.6666666666667,0|0|8,0:0|0:0|0:0,0:0:0:0:
188,239,63145,2,0,L|251:259,1,66.6666666666667,0|0,0:0|0:0,0:0:0:0:
171,264,63316,2,0,L|107:284,1,66.6666666666667,8|0,0:0|0:0,0:0:0:0:
276,344,63487,1,0,0:0:0:0:
445,298,63573,6,0,L|465:224,2,66.6666666666667,8|0|0,0:0|0:0|0:0,0:0:0:0:
278,140,63829,1,8,0:0:0:0:
344,95,63914,1,0,0:0:0:0:
411,51,64000,1,0,0:0:0:0:
243,31,64085,5,8,0:0:0:0:
322,41,64171,1,0,0:0:0:0:
243,31,64256,1,0,0:0:0:0:
446,196,64342,1,10,0:0:0:0:
280,220,64427,1,2,0:0:0:0:
112,163,64513,1,2,0:0:0:0:
311,316,64598,6,0,P|370:285|289:102,1,300,14|2,0:0|0:0,0:0:0:0:
252,103,65047,1,0,0:0:0:0:
402,233,65111,2,0,L|292:245,2,100,8|2|8,0:0|0:0|0:0,0:0:0:0:
201,328,65496,6,0,P|153:308|222:209,1,200,8|0,0:0|0:0,0:0:0:0:
321,202,65880,1,8,0:0:0:0:
201,200,66008,1,0,0:0:0:0:
414,59,66137,2,0,L|267:79,2,133.333333333333
347,53,66564,1,0,0:0:0:0:
194,248,66650,6,0,L|250:248,1,50,12|0,0:0|0:0,0:0:0:0:
369,235,66778,2,0,L|314:235,1,50,0|0,0:0|0:0,0:0:0:0:
259,233,66906,1,8,0:0:0:0:
384,313,66970,2,0,L|437:314,2,50,0|0|0,0:0|0:0|0:0,0:0:0:0:
259,333,67162,6,0,L|257:276,1,50,8|0,0:0|0:0,0:0:0:0:
130,263,67291,2,0,L|128:206,1,50,0|0,0:0|0:0,0:0:0:0:
254,192,67419,2,0,L|256:135,1,50,8|0,0:0|0:0,0:0:0:0:
383,122,67548,2,0,L|385:65,1,50,0|0,0:0|0:0,0:0:0:0:
262,47,67675,6,0,L|260:96,1,50,8|0,0:0|0:0,0:0:0:0:
385,212,67803,1,0,0:0:0:0:
260,254,67867,1,0,0:0:0:0:
133,320,67932,2,0,L|130:264,1,50,8|0,0:0|0:0,0:0:0:0:
190,272,68060,2,0,L|193:218,1,50,0|0,0:0|0:0,0:0:0:0:
68,187,68188,6,0,L|66:132,1,50,8|0,0:0|0:0,0:0:0:0:
126,134,68316,1,0,0:0:0:0:
251,111,68380,2,0,L|253:56,1,50,0|8,0:0|0:0,0:0:0:0:
193,58,68508,1,0,0:0:0:0:
320,235,68573,2,0,L|322:180,1,50,0|0,0:0|0:0,0:0:0:0:
197,318,68701,6,0,L|250:318,1,50,12|0,0:0|0:0,0:0:0:0:
372,317,68829,1,0,0:0:0:0:
247,318,68893,1,0,0:0:0:0:
122,222,68957,2,0,L|119:166,1,50,8|0,0:0|0:0,0:0:0:0:
178,165,69085,2,0,L|244:164,1,50,0|0,0:0|0:0,0:0:0:0:
101,88,69214,5,8,0:0:0:0:
226,81,69278,2,0,L|278:81,1,50,0|0,0:0|0:0,0:0:0:0:
151,307,69406,2,0,L|147:238,1,50,0|8,0:0|0:0,0:0:0:0:
273,223,69534,1,2,0:0:0:0:
398,225,69598,1,2,0:0:0:0:
273,223,69662,1,2,0:0:0:0:
148,225,69726,6,0,L|144:173,1,50,8|0,0:0|0:0,0:0:0:0:
204,176,69855,1,0,0:0:0:0:
329,152,69919,1,0,0:0:0:0:
204,115,69983,2,0,L|152:114,1,50,8|0,0:0|0:0,0:0:0:0:
213,114,70111,2,0,L|275:114,1,50,0|0,0:0|0:0,0:0:0:0:
138,51,70239,6,0,L|82:50,1,50,8|0,0:0|0:0,0:0:0:0:
245,170,70367,2,0,L|301:170,1,50,0|0,0:0|0:0,0:0:0:0:
138,333,70496,2,0,L|81:333,2,50,8|0|0,0:0|0:0|0:0,0:0:0:0:
263,324,70688,1,0,0:0:0:0:
388,326,70752,5,14,0:0:0:0:
263,324,70816,2,0,L|260:271,1,50,0|0,0:0|0:0,0:0:0:0:
385,243,70944,1,0,0:0:0:0:
260,203,71008,2,0,L|256:150,1,50,8|0,0:0|0:0,0:0:0:0:
317,153,71137,1,0,0:0:0:0:
192,131,71201,1,0,0:0:0:0:
67,131,71265,6,0,L|64:74,1,50,8|0,0:0|0:0,0:0:0:0:
189,34,71393,2,0,L|192:91,1,50,0|0,0:0|0:0,0:0:0:0:
317,91,71521,6,0,L|369:98,1,50,8|0,0:0|0:0,0:0:0:0:
216,151,71650,2,0,L|164:158,1,50,2|0,0:0|0:0,0:0:0:0:
317,91,71778,2,0,L|369:98,1,50,0|0,0:0|0:0,0:0:0:0:
216,151,71907,2,0,L|164:158,1,50,0|0,0:0|0:0,0:0:0:0:
317,91,72034,2,0,L|382:91,2,50,8|0|0,0:0|0:0|0:0,0:0:0:0:
192,296,72226,1,0,0:0:0:0:
319,295,72291,6,0,L|371:295,2,50,8|0|0,0:0|0:0|0:0,0:0:0:0:
192,296,72483,2,0,L|137:295,1,50,0|8,0:0|0:0,0:0:0:0:
267,231,72611,1,0,0:0:0:0:
142,190,72675,2,0,L|78:189,1,50,0|0,0:0|0:0,0:0:0:0:
317,194,72803,6,0,L|369:194,1,50,8|0,0:0|0:0,0:0:0:0:
240,28,72932,2,0,L|236:82,1,50,0|0,0:0|0:0,0:0:0:0:
111,137,73060,2,0,L|58:139,1,50,8|0,0:0|0:0,0:0:0:0:
48,197,73188,2,0,L|97:195,1,50,0|0,0:0|0:0,0:0:0:0:
224,274,73316,5,12,0:0:0:0:
349,288,73380,1,0,0:0:0:0:
224,274,73444,2,0,L|222:217,1,50,0|0,0:0|0:0,0:0:0:0:
350,181,73573,6,0,L|408:178,1,50,8|0,0:0|0:0,0:0:0:0:
271,144,73701,2,0,L|213:141,1,50,0|0,0:0|0:0,0:0:0:0:
350,137,73829,6,0,L|354:84,1,50,8|0,0:0|0:0,0:0:0:0:
293,84,73957,2,0,L|236:80,1,50,0|0,0:0|0:0,0:0:0:0:
368,283,74085,2,0,L|368:345,1,50,12|0,0:0|0:0,0:0:0:0:
241,334,74214,1,0,0:0:0:0:
116,329,74278,1,0,0:0:0:0:
241,334,74342,6,0,L|246:283,1,50,8|0,0:0|0:0,0:0:0:0:
121,192,74470,2,0,L|118:134,1,50,0|0,0:0|0:0,0:0:0:0:
177,130,74598,2,0,L|231:127,1,50,8|0,0:0|0:0,0:0:0:0:
352,127,74726,6,0,L|401:130,1,50,0|0,0:0|0:0,0:0:0:0:
220,211,74855,2,0,L|160:211,1,50,12|0,0:0|0:0,0:0:0:0:
299,287,74983,2,0,L|353:287,1,50,0|0,0:0|0:0,0:0:0:0:
98,127,75111,1,8,0:0:0:0:
55,105,75175,1,0,0:0:0:0:
57,58,75239,1,0,0:0:0:0:
101,40,75303,1,0,0:0:0:0:
226,45,75367,6,0,L|286:47,1,50,8|0,0:0|0:0,0:0:0:0:
131,164,75496,2,0,L|74:168,1,50,0|0,0:0|0:0,0:0:0:0:
228,113,75624,2,0,L|280:115,1,50,12|0,0:0|0:0,0:0:0:0:
403,139,75752,2,0,L|455:140,1,50,0|0,0:0|0:0,0:0:0:0:
328,280,75880,6,0,L|275:279,2,50,8|0|0,0:0|0:0|0:0,0:0:0:0:
455,279,76073,1,0,0:0:0:0:
328,280,76137,2,0,L|275:279,2,50,8|0|0,0:0|0:0|0:0,0:0:0:0:
455,279,76329,1,0,0:0:0:0:
328,280,76393,6,0,L|256:282,1,50,12|0,0:0|0:0,0:0:0:0:
160,194,76521,2,0,L|216:194,1,50
328,142,76650,1,8,0:0:0:0:
210,194,76714,2,0,L|151:192,1,50
286,46,76842,1,0,0:0:0:0:
162,97,76906,6,0,L|94:101,1,50,8|0,0:0|0:0,0:0:0:0:
243,217,77034,2,0,L|308:222,1,50,0|0,0:0|0:0,0:0:0:0:
429,287,77162,1,12,0:0:0:0:
303,310,77226,1,0,0:0:0:0:
176,303,77291,2,0,L|120:300,1,50,0|0,0:0|0:0,0:0:0:0:
251,149,77419,6,0,L|305:148,1,50,8|0,0:0|0:0,0:0:0:0:
175,190,77547,2,0,L|172:248,1,50,0|0,0:0|0:0,0:0:0:0:
297,327,77675,2,0,L|368:329,1,50,8|0,0:0|0:0,0:0:0:0:
222,253,77803,1,0,0:0:0:0:
96,229,77867,1,0,0:0:0:0:
223,75,77932,6,0,L|282:75,1,50,12|0,0:0|0:0,0:0:0:0:
213,74,78060,2,0,L|150:74,1,50,0|0,0:0|0:0,0:0:0:0:
288,167,78188,2,0,L|293:227,1,50,8|0,0:0|0:0,0:0:0:0:
168,302,78316,1,0,0:0:0:0:
294,342,78380,1,0,0:0:0:0:
419,257,78444,6,0,L|360:258,1,50,8|0,0:0|0:0,0:0:0:0:
242,232,78573,2,0,L|183:233,1,50,0|0,0:0|0:0,0:0:0:0:
317,99,78701,1,12,0:0:0:0:
444,161,78765,2,0,L|450:222,1,50,0|0,0:0|0:0,0:0:0:0:
324,283,78893,1,0,0:0:0:0:
199,269,78957,6,0,L|140:265,1,50,8|0,0:0|0:0,0:0:0:0:
274,148,79085,2,0,L|331:147,2,50,2|0|0,0:0|0:0|0:0,0:0:0:0:
147,146,79278,1,0,0:0:0:0:
272,243,79342,1,8,0:0:0:0:
397,228,79406,1,0,0:0:0:0:
272,243,79470,5,2,0:0:0:0:
146,246,79534,2,0,L|89:244,1,50,0|0,0:0|0:0,0:0:0:0:
221,338,79662,1,0,0:0:0:0:
346,334,79726,2,0,L|405:334,1,50,8|0,0:0|0:0,0:0:0:0:
268,135,79855,2,0,L|218:134,1,50,2|0,0:0|0:0,0:0:0:0:
51,149,79983,6,0,L|49:173,1,25,8|0,0:0|0:0,0:0:0:0:
135,183,80047,2,0,L|165:183,1,25,0|0,0:0|0:0,0:0:0:0:
247,185,80111,2,0,L|277:185,1,25,0|0,0:0|0:0,0:0:0:0:
359,186,80175,2,0,L|389:186,1,25,0|0,0:0|0:0,0:0:0:0:
470,194,80239,6,0,L|472:218,1,25,8|0,0:0|0:0,0:0:0:0:
386,228,80303,2,0,L|361:228,1,25,0|0,0:0|0:0,0:0:0:0:
274,230,80367,2,0,L|249:230,1,25,8|0,0:0|0:0,0:0:0:0:
162,231,80431,2,0,L|137:231,1,25,0|0,0:0|0:0,0:0:0:0:
47,235,80496,6,0,L|45:259,1,25,8|0,0:0|0:0,0:0:0:0:
131,269,80560,2,0,L|161:269,1,25,0|0,0:0|0:0,0:0:0:0:
243,271,80624,2,0,L|273:271,1,25,8|0,0:0|0:0,0:0:0:0:
355,272,80688,2,0,L|385:272,1,25,0|0,0:0|0:0,0:0:0:0:
467,272,80752,6,0,L|435:273,1,25,8|0,0:0|0:0,0:0:0:0:
355,272,80816,2,0,L|323:273,1,25,0|0,0:0|0:0,0:0:0:0:
243,271,80880,2,0,L|275:272,1,25,8|0,0:0|0:0,0:0:0:0:
355,271,80944,2,0,L|387:272,1,25,0|0,0:0|0:0,0:0:0:0:
467,272,81008,6,0,P|484:210|308:67,1,300,2|2,0:0|0:0,0:0:0:0:
235,73,81650,5,8,0:0:0:0:
260,73,81714,1,0,0:0:0:0:
210,119,81778,1,0,0:0:0:0:
235,119,81842,1,0,0:0:0:0:
185,160,81906,1,0,0:0:0:0:
210,160,81970,1,0,0:0:0:0:
84,293,82034,6,0,L|23:191,2,100,2|0|0,0:0|0:0|0:0,0:0:0:0:
204,294,82419,1,2,0:0:0:0:
304,76,82675,5,8,0:0:0:0:
279,106,82739,1,0,0:0:0:0:
354,189,82803,1,0,0:0:0:0:
329,219,82867,1,0,0:0:0:0:
380,270,82932,1,0,0:0:0:0:
355,289,82996,1,0,0:0:0:0:
480,325,83060,6,0,L|481:272,1,50,2|0,0:0|0:0,0:0:0:0:
421,270,83188,2,0,L|422:217,1,50,0|0,0:0|0:0,0:0:0:0:
362,214,83316,1,0,0:0:0:0:
480,195,83444,1,2,0:0:0:0:
379,12,83701,5,0,0:0:0:0:
279,78,83829,1,8,0:0:0:0:
329,101,83893,1,0,0:0:0:0:
354,109,83957,1,0,0:0:0:0:
154,215,84214,5,0,0:0:0:0:
129,225,84278,1,0,0:0:0:0:
179,249,84342,1,10,0:0:0:0:
129,254,84406,1,0,0:0:0:0:
191,279,84470,1,0,0:0:0:0:
129,286,84534,1,0,0:0:0:0:
179,312,84598,1,0,0:0:0:0:
129,318,84662,1,0,0:0:0:0:
154,344,84726,1,0,0:0:0:0:
128,347,84791,1,0,0:0:0:0:
253,346,84855,5,8,0:0:0:0:
452,213,85111,2,0,L|158:93,1,300,2|0,0:0|0:0,0:0:0:0:
274,243,85752,5,8,0:0:0:0:
299,244,85816,1,0,0:0:0:0:
349,233,85880,1,0,0:0:0:0:
229,226,86008,1,0,0:0:0:0:
430,44,86137,6,0,L|324:69,1,100,2|0,0:0|0:0,0:0:0:0:
212,71,86393,1,0,0:0:0:0:
413,324,86521,1,2,0:0:0:0:
313,136,86778,5,8,0:0:0:0:
263,131,86842,1,0,0:0:0:0:
238,170,86906,1,0,0:0:0:0:
357,178,87034,1,0,0:0:0:0:
156,367,87162,6,0,P|113:339|176:139,1,300,2|0,0:0|0:0,0:0:0:0:
288,148,87675,2,0,L|299:263,1,100,8|0,0:0|0:0,0:0:0:0:
176,252,87932,1,0,0:0:0:0:
295,252,88060,2,0,L|240:252,1,50,0|0,0:0|0:0,0:0:0:0:
370,344,88188,6,0,L|383:232,1,100,2|0,0:0|0:0,0:0:0:0:
262,235,88444,1,0,0:0:0:0:
464,167,88573,2,0,P|449:104|321:27,1,200,2|2,0:0|0:0,0:0:0:0:
269,30,88893,1,0,0:0:0:0:
206,28,88957,1,2,0:0:0:0:
156,27,89021,1,0,0:0:0:0:
118,27,89085,1,0,0:0:0:0:
92,26,89150,1,0,0:0:0:0:
217,196,89214,6,0,L|326:219,2,100,10|0|0,3:2|0:0|0:0,0:0:0:0:
97,193,89598,2,0,L|91:301,1,100,2|0,0:0|0:0,0:0:0:0:
212,287,89855,5,8,0:0:0:0:
187,287,89919,1,0,0:0:0:0:
237,241,89983,1,8,0:0:0:0:
212,241,90047,1,0,0:0:0:0:
262,200,90111,1,8,0:0:0:0:
237,200,90175,1,0,0:0:0:0:
112,104,90239,6,0,L|189:25,2,100,2|0|0,0:0|0:0|0:0,0:0:0:0:
232,108,90624,2,0,L|337:108,1,100,2|0,0:0|0:0,0:0:0:0:
212,112,90880,5,8,0:0:0:0:
237,142,90944,1,0,0:0:0:0:
162,225,91008,1,8,0:0:0:0:
187,255,91072,1,0,0:0:0:0:
136,306,91137,1,8,0:0:0:0:
161,325,91201,1,0,0:0:0:0:
286,298,91265,6,0,L|339:291,1,50,2|0,0:0|0:0,0:0:0:0:
276,284,91393,2,0,L|275:226,1,50,0|0,0:0|0:0,0:0:0:0:
335,234,91521,1,8,0:0:0:0:
214,225,91650,6,0,L|207:115,1,100,2|0,0:0|0:0,0:0:0:0:
327,128,91906,1,0,0:0:0:0:
427,194,92034,1,8,0:0:0:0:
377,217,92098,1,0,0:0:0:0:
352,225,92162,1,0,0:0:0:0:
231,226,92291,1,2,0:0:0:0:
352,225,92419,5,0,0:0:0:0:
377,215,92483,1,0,0:0:0:0:
327,191,92547,1,8,0:0:0:0:
377,186,92611,1,0,0:0:0:0:
315,161,92675,1,2,0:0:0:0:
377,154,92739,1,0,0:0:0:0:
327,128,92803,1,8,0:0:0:0:
377,122,92867,1,0,0:0:0:0:
352,96,92931,1,0,0:0:0:0:
378,94,92996,1,0,0:0:0:0:
253,94,93060,6,0,L|143:94,1,100,0|0,0:0|0:0,0:0:0:0:
271,108,93316,2,0,L|285:213,2,100,2|0|0,0:0|0:0|0:0,0:0:0:0:
150,110,93701,2,0,L|256:101,2,100,2|0|0,0:0|0:0|0:0,0:0:0:0:
209,112,94021,1,0,0:0:0:0:
267,123,94085,2,0,L|276:228,1,100,0|0,0:0|0:0,0:0:0:0:
72,321,94342,6,0,L|167:255,1,100,6|0,0:0|0:0,0:0:0:0:
273,259,94598,1,0,0:0:0:0:
153,254,94726,2,0,L|36:249,2,100,8|0|0,0:0|0:0|0:0,0:0:0:0:
273,251,95111,2,0,L|161:250,1,100,0|0,0:0|0:0,0:0:0:0:
259,46,97419,6,0,B|29:46|29:46|143:259,1,460.000008773804,6|0,0:0|0:0,0:0:0:0:
345,121,97803,2,0,B|115:121|115:121|229:334,1,460.000008773804,8|0,0:0|0:0,0:0:0:0:
284,326,98124,1,0,0:0:0:0:
343,323,98188,2,0,L|348:263,1,50,0|0,0:0|0:0,0:0:0:0:
287,269,98316,2,0,L|284:206,1,50,0|0,0:0|0:0,0:0:0:0:
480,346,98444,6,0,B|250:346|250:346|234:113,1,460.000008773804,2|0,0:0|0:0,0:0:0:0:
32,346,98829,2,0,B|262:346|262:346|278:113,1,460.000008773804,8|0,0:0|0:0,0:0:0:0:
217,112,99150,1,0,0:0:0:0:
92,108,99214,1,0,0:0:0:0:
50,133,99278,1,0,0:0:0:0:
49,181,99342,1,0,0:0:0:0:
87,209,99406,1,0,0:0:0:0:
295,26,99470,6,0,B|504:123|504:123|399:340,1,460.000008773804,6|0,0:0|0:0,0:0:0:0:
217,26,99855,2,0,B|8:123|8:123|113:340,1,460.000008773804,8|0,0:0|0:0,0:0:0:0:
167,328,100175,1,0,0:0:0:0:
292,262,100239,2,0,L|296:204,1,50,0|0,0:0|0:0,0:0:0:0:
235,209,100367,2,0,L|239:151,1,50,0|0,0:0|0:0,0:0:0:0:
391,162,100496,6,0,L|396:104,1,50,0|0,0:0|0:0,0:0:0:0:
335,106,100624,2,0,L|277:103,1,50,0|0,0:0|0:0,0:0:0:0:
160,98,100752,2,0,L|218:97,1,50,0|0,0:0|0:0,0:0:0:0:
269,95,100880,2,0,L|207:93,1,50,0|0,0:0|0:0,0:0:0:0:
94,236,101008,2,0,L|38:235,2,50,0|0|0,0:0|0:0|0:0,0:0:0:0:
222,248,101201,1,0,0:0:0:0:
347,245,101265,2,0,P|360:196|330:154,1,100,2|0,0:0|0:0,0:0:0:0:
274,156,101457,1,0,0:0:0:0:
136,157,101521,6,0,B|123:35|123:35|109:142|109:142|230:346,1,460.000008773804,12|0,0:0|0:0,0:0:0:0:
408,230,101906,2,0,B|421:352|421:352|435:245|435:245|314:41,1,460.000008773804,2|0,0:0|0:0,0:0:0:0:
258,45,102226,1,0,3:0:0:0:
131,101,102291,2,0,L|151:153,1,50,0|0,3:0|3:0,0:0:0:0:
207,158,102419,2,0,L|279:166,1,50,0|0,3:0|3:0,0:0:0:0:
425,176,102547,6,0,B|379:287|379:287|341:181|341:181|337:47|337:47|329:155,1,460.000008773804,8|0,0:0|0:0,0:0:0:0:
87,176,102932,2,0,B|133:287|133:287|171:181|171:181|175:47|175:47|183:155,1,460.000008773804,2|0,0:0|0:0,0:0:0:0:
122,130,103252,1,0,0:0:0:0:
249,119,103316,2,0,L|301:118,1,50,0|0,0:0|0:0,0:0:0:0:
239,112,103444,2,0,L|177:108,1,50,0|0,0:0|0:0,0:0:0:0:
316,208,103573,6,0,L|369:209,1,50,12|0,0:0|0:0,0:0:0:0:
306,200,103701,1,0,0:0:0:0:
263,178,103765,1,0,0:0:0:0:
262,130,103829,1,0,0:0:0:0:
303,107,103893,1,0,0:0:0:0:
429,104,103957,2,0,L|433:47,1,50,0|0,0:0|0:0,0:0:0:0:
373,46,104085,6,0,L|318:45,1,50,0|0,0:0|0:0,0:0:0:0:
262,47,104214,2,0,L|258:104,1,50,0|0,0:0|0:0,0:0:0:0:
415,234,104342,2,0,L|420:179,1,50
366,167,104470,2,0,L|312:166,1,50
199,298,104598,6,0,L|193:240,1,50,0|0,0:0|0:0,0:0:0:0:
249,252,104726,2,0,L|258:200,1,50,0|0,0:0|0:0,0:0:0:0:
138,211,104855,2,0,L|120:164,1,50,0|0,0:0|0:0,0:0:0:0:
277,213,104983,2,0,L|309:167,1,50,0|0,0:0|0:0,0:0:0:0:
104,159,105111,6,0,L|66:120,1,50,0|0,0:0|0:0,0:0:0:0:
330,166,105239,2,0,L|380:152,1,50,0|0,0:0|0:0,0:0:0:0:
83,121,105367,2,0,L|31:100,1,50,0|0,0:0|0:0,0:0:0:0:
217,26,105496,1,0,0:0:0:0:
395,70,105560,1,0,0:0:0:0:
217,26,105624,6,0,B|8:123|8:123|113:340,1,460.000008773804,6|0,0:0|0:0,0:0:0:0:
295,26,106007,2,0,B|504:123|504:123|399:340,1,460.000008773804,8|0,0:0|0:0,0:0:0:0:
344,331,106329,1,0,0:0:0:0:
194,261,106393,2,0,L|186:198,1,50
246,202,106521,2,0,L|308:199,1,50
458,96,106650,6,0,B|228:96|228:96|331:313,1,460.000008773804,2|0,0:0|0:0,0:0:0:0:
54,96,107034,2,0,B|284:96|284:96|181:313,1,460.000008773804,8|0,0:0|3:0,0:0:0:0:
143,350,107355,1,0,3:0:0:0:
269,248,107419,2,0,L|324:250,1,50,0|0,3:0|3:0,0:0:0:0:
259,248,107547,2,0,L|182:247,1,50,0|0,3:0|3:0,0:0:0:0:
32,346,107675,6,0,B|262:346|262:346|278:113,1,460.000008773804,6|0,0:0|0:0,0:0:0:0:
480,346,108060,2,0,B|250:346|250:346|234:113,1,460.000008773804,8|0,0:0|0:0,0:0:0:0:
294,116,108380,1,0,0:0:0:0:
170,235,108444,1,0,0:0:0:0:
126,214,108508,1,0,0:0:0:0:
123,167,108572,1,0,0:0:0:0:
163,140,108636,1,0,0:0:0:0:
315,202,108701,6,0,L|320:262,1,50,0|0,0:0|0:0,0:0:0:0:
388,254,108829,2,0,L|393:314,1,50,0|0,0:0|0:0,0:0:0:0:
266,336,108957,2,0,L|261:276,1,50,0|0,0:0|0:0,0:0:0:0:
137,307,109085,2,0,L|132:257,1,50,0|0,0:0|0:0,0:0:0:0:
283,116,109214,6,0,L|341:114,1,50,0|0,0:0|0:0,0:0:0:0:
265,95,109342,2,0,L|196:90,1,50,0|0,0:0|0:0,0:0:0:0:
365,39,109470,2,0,L|423:37,2,50,2|0|0,0:0|0:0|0:0,0:0:0:0:
240,164,109662,1,0,0:0:0:0:
103,159,109726,6,0,B|90:37|90:37|76:144|76:144|197:348,1,460.000008773804,12|0,0:0|0:0,0:0:0:0:
375,232,110110,2,0,B|388:354|388:354|402:247|402:247|281:43,1,460.000008773804,2|0,0:0|3:0,0:0:0:0:
234,65,110432,1,0,3:0:0:0:
360,92,110496,2,0,L|367:145,1,50,0|0,3:0|3:0,0:0:0:0:
303,170,110624,2,0,L|230:182,1,50,0|0,3:0|3:0,0:0:0:0:
98,187,110752,6,0,B|155:345|155:345|198:298|198:298|91:80,1,460.000008773804,8|0,0:0|0:0,0:0:0:0:
334,209,111137,2,0,B|277:51|277:51|234:98|234:98|341:316,1,460.000008773804,2|0,0:0|3:0,0:0:0:0:
285,323,111457,1,0,3:0:0:0:
135,174,111521,2,0,L|194:173,1,50,0|0,3:0|3:0,0:0:0:0:
246,136,111650,2,0,L|305:135,1,50,0|0,3:0|3:0,0:0:0:0:
146,38,111778,6,0,L|88:38,1,50,12|0,0:0|0:0,0:0:0:0:
164,52,111906,2,0,L|231:54,1,50,0|0,0:0|0:0,0:0:0:0:
145,68,112034,2,0,L|90:67,1,50,0|0,0:0|0:0,0:0:0:0:
245,116,112162,6,0,L|252:171,1,50,0|0,0:0|0:0,0:0:0:0:
180,166,112291,2,0,L|187:221,1,50,0|0,0:0|0:0,0:0:0:0:
255,208,112419,2,0,L|262:263,1,50,0|0,0:0|0:0,0:0:0:0:
111,286,112547,6,0,L|167:285,1,50,0|0,0:0|0:0,0:0:0:0:
224,256,112675,2,0,L|159:256,1,50,0|0,0:0|0:0,0:0:0:0:
324,327,112803,6,0,L|386:327,1,50,0|0,0:0|0:0,0:0:0:0:
444,322,112932,2,0,L|381:324,1,50,0|0,0:0|0:0,0:0:0:0:
244,218,113060,2,0,L|306:218,1,50,0|0,0:0|0:0,0:0:0:0:
364,213,113187,2,0,L|301:215,1,50
165,120,113316,6,0,L|227:120,1,50,0|0,0:0|0:0,0:0:0:0:
285,115,113443,2,0,L|222:117,1,50
85,62,113572,2,0,L|149:62,1,50
293,36,113700,2,0,L|243:34,1,50
30,346,113829,6,0,L|30:37,2,300,10|8|8,3:2|2:3|3:3,0:0:0:0:
30,346,114855,6,0,L|30:37,1,300,2|8,2:3|0:0,0:0:0:0:
40,46,115303,5,0,0:0:0:0:
57,46,115367,5,0,0:0:0:0:
84,46,115432,5,0,0:0:0:0:
121,46,115496,5,0,0:0:0:0:
167,46,115560,5,0,0:0:0:0:
221,46,115624,5,0,0:0:0:0:
285,46,115688,5,0,0:0:0:0:
359,46,115752,5,0,0:0:0:0:
470,47,115816,5,0,0:0:0:0:
322,233,115880,6,0,L|261:233,1,50,6|0,0:0|0:0,0:0:0:0:
122,278,116008,2,0,L|57:277,1,50,0|0,0:0|0:0,0:0:0:0:
224,340,116137,2,0,L|226:281,1,50,0|0,0:0|0:0,0:0:0:0:
376,129,116265,6,0,L|380:192,1,50,8|0,0:0|0:0,0:0:0:0:
229,116,116393,2,0,L|168:116,1,50,0|0,0:0|0:0,0:0:0:0:
329,293,116521,2,0,L|333:235,1,50,0|0,0:0|0:0,0:0:0:0:
180,200,116650,2,0,L|238:200,1,50,0|0,0:0|0:0,0:0:0:0:
380,179,116778,2,0,L|434:179,1,50,0|0,0:0|0:0,0:0:0:0:
278,287,116906,6,0,L|276:233,1,50,4|0,3:0|3:0,0:0:0:0:
126,239,117034,2,0,L|63:238,1,50,0|0,0:0|0:0,0:0:0:0:
226,130,117162,6,0,L|228:76,1,50,0|0,0:0|0:0,0:0:0:0:
378,82,117290,2,0,L|441:81,1,50,0|0,0:0|0:0,0:0:0:0:
276,208,117419,6,0,L|222:209,1,50,0|0,0:0|0:0,0:0:0:0:
376,300,117547,2,0,L|446:300,1,50,0|0,0:0|0:0,0:0:0:0:
276,280,117675,6,0,L|243:280,2,25,2|0|0,0:0|0:0|0:0,0:0:0:0:
376,203,117771,1,0,0:0:0:0:
476,280,117803,2,0,L|509:280,2,25,0|0|0,0:0|0:0|0:0,0:0:0:0:
376,203,117899,1,0,0:0:0:0:
273,120,117932,6,0,L|214:120,1,50,12|0,0:0|0:0,0:0:0:0:
373,34,118060,2,0,L|431:34,1,50,0|0,0:0|0:0,0:0:0:0:
273,120,118188,2,0,L|214:120,1,50,0|0,0:0|0:0,0:0:0:0:
73,241,118316,6,0,L|123:241,1,50,2|0,0:0|0:0,0:0:0:0:
273,303,118444,2,0,L|325:303,1,50,0|0,3:0|3:0,0:0:0:0:
170,146,118573,2,0,L|222:146,1,50,0|0,3:0|3:0,0:0:0:0:
70,338,118701,2,0,L|63:282,1,50,0|0,3:0|3:0,0:0:0:0:
214,248,118829,2,0,L|217:190,1,50,0|0,3:0|3:0,0:0:0:0:
367,124,118957,6,0,L|418:124,1,50,12|0,0:0|0:0,0:0:0:0:
267,91,119085,2,0,L|216:90,1,50,0|0,0:0|0:0,0:0:0:0:
371,223,119214,2,0,L|310:223,1,50,0|0,0:0|0:0,0:0:0:0:
171,298,119342,6,0,L|227:299,1,50,2|0,0:0|0:0,0:0:0:0:
71,229,119470,2,0,L|66:175,1,50,0|0,0:0|0:0,0:0:0:0:
217,142,119598,2,0,L|284:142,1,50,0|0,0:0|0:0,0:0:0:0:
418,159,119726,6,0,L|362:159,1,50,8|0,0:0|0:0,0:0:0:0:
241,254,119855,1,0,0:0:0:0:
116,299,119919,1,0,0:0:0:0:
267,196,119983,6,0,L|326:196,1,50,6|0,0:0|0:0,0:0:0:0:
467,201,120111,2,0,L|414:201,1,50,0|0,0:0|0:0,0:0:0:0:
267,113,120239,2,0,L|208:113,1,50,0|0,0:0|0:0,0:0:0:0:
367,242,120367,6,0,L|308:242,1,50,2|0,0:0|0:0,0:0:0:0:
167,237,120495,2,0,L|220:237,1,50,0|0,0:0|0:0,0:0:0:0:
367,325,120623,2,0,L|426:325,1,50,0|0,0:0|0:0,0:0:0:0:
265,317,120752,2,0,L|261:259,1,50,0|0,0:0|0:0,0:0:0:0:
112,157,120880,2,0,L|108:99,1,50,0|0,0:0|0:0,0:0:0:0:
260,68,121008,6,0,L|204:68,1,50,12|0,0:0|0:0,0:0:0:0:
362,145,121137,2,0,L|411:145,1,50,0|0,0:0|0:0,0:0:0:0:
262,255,121265,2,0,L|211:255,1,50,0|0,0:0|0:0,0:0:0:0:
363,206,121393,6,0,L|306:205,1,50,8|0,0:0|0:0,0:0:0:0:
162,201,121521,2,0,L|103:201,1,50,0|0,0:0|0:0,0:0:0:0:
264,120,121650,2,0,L|323:120,1,50,0|0,0:0|0:0,0:0:0:0:
164,151,121778,6,0,L|131:151,2,25,0|0|0,3:0|3:0|3:0,0:0:0:0:
264,228,121874,1,0,3:0:0:0:
364,151,121906,2,0,L|397:151,2,25,0|0|0,3:0|3:0|3:0,0:0:0:0:
264,228,122002,1,0,3:0:0:0:
164,298,122034,6,0,L|106:298,1,50,6|0,0:0|0:0,0:0:0:0:
288,300,122162,2,0,L|340:300,1,50,0|0,0:0|0:0,0:0:0:0:
160,298,122291,2,0,L|86:298,1,50,0|0,0:0|0:0,0:0:0:0:
284,300,122419,6,0,L|289:239,1,50,8|0,0:0|0:0,0:0:0:0:
462,247,122547,2,0,L|466:182,1,50,0|0,0:0|0:0,0:0:0:0:
291,178,122675,2,0,L|287:127,1,50,0|0,0:0|0:0,0:0:0:0:
112,128,122803,2,0,L|108:69,1,50,0|0,0:0|0:0,0:0:0:0:
286,77,122932,2,0,L|289:18,1,50,0|0,0:0|0:0,0:0:0:0:
463,26,123060,6,0,L|399:26,1,50,6|0,0:0|0:0,0:0:0:0:
238,27,123188,2,0,L|302:27,1,50,0|0,0:0|0:0,0:0:0:0:
463,26,123316,2,0,L|399:26,1,50,0|0,0:0|0:0,0:0:0:0:
238,31,123444,6,0,L|234:84,1,50,8|0,0:0|0:0,0:0:0:0:
56,89,123573,2,0,L|52:142,1,50,0|0,0:0|0:0,0:0:0:0:
226,137,123701,2,0,L|230:190,1,50,0|0,0:0|0:0,0:0:0:0:
404,192,123829,5,0,0:0:0:0:
279,193,123893,1,0,0:0:0:0:
154,191,123957,1,0,0:0:0:0:
279,192,124021,1,0,0:0:0:0:
404,192,124085,6,0,L|461:192,1,50,6|0,0:0|0:0,0:0:0:0:
280,194,124214,2,0,L|223:194,1,50,0|0,0:0|0:0,0:0:0:0:
404,192,124342,2,0,L|461:192,1,50,0|0,0:0|0:0,0:0:0:0:
279,192,124470,6,0,L|273:127,1,50,2|0,0:0|0:0,0:0:0:0:
100,130,124598,2,0,L|94:65,1,50,0|0,0:0|0:0,0:0:0:0:
270,74,124726,2,0,L|276:139,1,50,0|0,0:0|0:0,0:0:0:0:
449,136,124854,2,0,L|455:201,1,50,0|0,0:0|0:0,0:0:0:0:
276,183,124983,2,0,L|270:248,1,50,0|0,0:0|0:0,0:0:0:0:
96,232,125111,5,4,0:0:0:0:
220,234,125175,1,0,0:0:0:0:
344,235,125239,1,0,0:0:0:0:
468,236,125303,1,0,0:0:0:0:
220,234,125366,2,0,L|166:235,1,50
344,235,125495,2,0,L|267:234,1,50,0|0,0:0|0:0,0:0:0:0:
57,230,125624,5,0,0:0:0:0:
181,228,125688,1,0,0:0:0:0:
305,227,125752,1,0,0:0:0:0:
429,226,125816,1,0,0:0:0:0:
203,203,125880,6,0,L|170:203,2,25,2|0|0,0:0|0:0|0:0,0:0:0:0:
303,126,125976,1,0,0:0:0:0:
403,203,126008,2,0,L|436:203,2,25,0|0|0,0:0|0:0|0:0,0:0:0:0:
303,126,126104,1,0,0:0:0:0:
203,203,126137,6,0,P|151:209|223:361,1,300,12|2,0:0|0:0,0:0:0:0:
309,181,127162,2,0,P|361:175|289:23,1,300,8|2,0:0|0:0,0:0:0:0:
101,48,128188,2,0,B|82:352|82:352|89:2|89:2|76:136,1,787.5,8|0,0:0|0:0,0:0:0:0:
76,134,129214,6,0,L|156:312,1,187.5,0|0,0:0|0:0,0:0:0:0:
152,305,129470,6,0,L|274:159,1,187.5,0|0,0:0|0:0,0:0:0:0:
272,160,129726,6,0,L|66:162,1,200,0|0,0:0|0:0,0:0:0:0:
97,161,130047,5,0,0:0:0:0:
146,160,130111,5,0,0:0:0:0:
215,160,130175,5,0,0:0:0:0:
365,227,130239,6,0,L|419:227,2,50,2|0|0,0:0|0:0|0:0,0:0:0:0:
238,283,130432,1,0,0:0:0:0:
113,272,130496,2,0,L|82:272,2,25,8|0|0,0:0|0:0|0:0,0:0:0:0:
238,220,130624,2,0,L|291:219,1,50,2|0,0:0|0:0,0:0:0:0:
163,192,130752,6,0,L|162:131,1,50,0|0,0:0|0:0,0:0:0:0:
287,99,130880,1,8,0:0:0:0:
312,99,130912,1,0,0:0:0:0:
337,99,130944,1,0,0:0:0:0:
212,327,131008,2,0,L|186:326,2,25,8|0|0,0:0|0:0|0:0,0:0:0:0:
315,255,131105,1,0,0:0:0:0:
418,327,131137,2,0,L|444:326,2,25,8|0|0,0:0|0:0|0:0,0:0:0:0:
293,182,131265,6,0,L|235:182,1,50,2|0,0:0|0:0,0:0:0:0:
368,103,131393,2,0,L|313:104,1,50,0|0,0:0|0:0,0:0:0:0:
193,148,131521,2,0,L|189:206,1,50,8|0,0:0|0:0,0:0:0:0:
317,243,131650,2,0,L|320:301,1,50,2|0,0:0|0:0,0:0:0:0:
445,310,131778,6,0,L|448:252,1,50,2|0,0:0|0:0,0:0:0:0:
323,152,131906,2,0,L|306:129,2,25,8|0|0,0:0|0:0|0:0,0:0:0:0:
353,154,132001,1,0,0:0:0:0:
382,153,132034,2,0,L|408:152,2,25,8|0|0,0:0|0:0|0:0,0:0:0:0:
279,81,132129,1,0,0:0:0:0:
176,153,132162,2,0,L|150:152,2,25,8|0|0,0:0|0:0|0:0,0:0:0:0:
279,81,132257,1,0,0:0:0:0:
379,40,132291,6,0,L|436:39,1,50,2|0,0:0|0:0,0:0:0:0:
304,274,132419,2,0,L|234:273,1,50,0|0,0:0|0:0,0:0:0:0:
379,333,132547,2,0,L|409:332,2,25,8|0|0,0:0|0:0|0:0,0:0:0:0:
254,336,132675,2,0,L|249:279,1,50,2|0,0:0|0:0,0:0:0:0:
125,269,132803,6,0,L|120:212,1,50,0|0,0:0|0:0,0:0:0:0:
248,138,132932,2,0,L|194:137,1,50,8|0,0:0|0:0,0:0:0:0:
257,129,133060,2,0,L|310:126,1,50,8|0,0:0|0:0,0:0:0:0:
178,15,133188,2,0,L|176:73,1,50,8|0,0:0|0:0,0:0:0:0:
302,227,133316,6,0,L|251:226,1,50,2|0,0:0|0:0,0:0:0:0:
192,222,133444,2,0,L|245:222,1,50,0|0,0:0|0:0,0:0:0:0:
302,219,133573,2,0,L|360:219,1,50,8|0,0:0|0:0,0:0:0:0:
227,333,133701,2,0,L|222:281,1,50,2|0,0:0|0:0,0:0:0:0:
97,262,133829,6,0,L|92:204,1,50,8|0,0:0|0:0,0:0:0:0:
219,145,133957,2,0,L|236:122,2,25,8|0|0,0:0|0:0|0:0,0:0:0:0:
189,147,134052,1,0,0:0:0:0:
160,146,134085,2,0,L|134:145,2,25,4|0|0,0:0|0:0|0:0,0:0:0:0:
263,74,134181,1,0,0:0:0:0:
366,146,134213,2,0,L|392:145,2,25,0|0|0,0:0|0:0|0:0,0:0:0:0:
263,74,134309,1,0,0:0:0:0:
162,288,134342,6,0,L|108:289,1,50,2|0,0:0|0:0,0:0:0:0:
237,203,134470,2,0,L|242:259,1,50,0|0,0:0|0:0,0:0:0:0:
115,199,134598,2,0,L|175:200,1,50,8|0,0:0|0:0,0:0:0:0:
290,211,134726,2,0,L|343:211,1,50,2|0,0:0|0:0,0:0:0:0:
213,300,134855,6,0,L|273:301,1,50,8|0,0:0|0:0,0:0:0:0:
388,312,134983,2,0,L|417:312,2,25,2|0|0,0:0|0:0|0:0,0:0:0:0:
263,101,135111,2,0,L|234:101,2,25,2|0|0,0:0|0:0|0:0,0:0:0:0:
363,176,135207,1,0,0:0:0:0:
463,215,135239,2,0,L|492:215,2,25,8|0|0,0:0|0:0|0:0,0:0:0:0:
363,290,135335,1,0,0:0:0:0:
263,266,135367,6,0,L|209:266,1,50,2|0,0:0|0:0,0:0:0:0:
86,251,135496,2,0,L|36:251,1,50,8|0,0:0|0:0,0:0:0:0:
161,169,135624,2,0,L|188:170,2,25,0|0|0,0:0|0:0|0:0,0:0:0:0:
36,168,135752,2,0,L|32:113,1,50,8|0,0:0|0:0,0:0:0:0:
158,84,135880,6,0,L|209:84,1,50,2|0,0:0|0:0,0:0:0:0:
333,171,136008,2,0,L|350:148,2,25,8|0|0,0:0|0:0|0:0,0:0:0:0:
303,173,136105,1,0,0:0:0:0:
274,172,136136,2,0,L|248:171,2,25,8|0|0,0:0|0:0|0:0,0:0:0:0:
377,100,136233,1,0,0:0:0:0:
480,172,136264,2,0,L|506:171,2,25,0|0|0,0:0|0:0|0:0,0:0:0:0:
377,100,136361,1,0,0:0:0:0:
276,76,136393,6,0,L|224:76,1,50,2|0,0:0|0:0,0:0:0:0:
285,86,136521,2,0,L|335:86,1,50,0|0,0:0|0:0,0:0:0:0:
207,254,136650,1,8,0:0:0:0:
182,253,136682,1,0,0:0:0:0:
157,253,136714,1,0,0:0:0:0:
282,324,136778,2,0,L|285:265,1,50,2|0,0:0|0:0,0:0:0:0:
159,147,136906,6,0,L|213:147,1,50,2|0,0:0|0:0,0:0:0:0:
335,223,137034,2,0,L|389:223,1,50,8|0,0:0|0:0,0:0:0:0:
260,165,137162,2,0,L|206:165,1,50,8|0,0:0|0:0,0:0:0:0:
84,241,137290,2,0,L|30:241,1,50,0|0,0:0|0:0,0:0:0:0:
161,324,137419,6,0,L|218:323,1,50,2|0,0:0|0:0,0:0:0:0:
336,293,137547,2,0,L|279:292,1,50,0|0,0:0|0:0,0:0:0:0:
411,208,137675,2,0,L|462:209,1,50,8|0,0:0|0:0,0:0:0:0:
336,188,137803,2,0,L|333:125,1,50,2|0,0:0|0:0,0:0:0:0:
207,129,137932,6,0,L|204:74,1,50,8|0,0:0|0:0,0:0:0:0:
330,128,138060,2,0,L|347:105,2,25,8|0|0,0:0|0:0|0:0,0:0:0:0:
300,130,138155,1,0,0:0:0:0:
271,129,138188,2,0,L|245:128,2,25,4|0|0,0:0|0:0|0:0,0:0:0:0:
374,57,138283,1,0,0:0:0:0:
477,129,138316,2,0,L|503:128,2,25,2|0|0,0:0|0:0|0:0,0:0:0:0:
374,57,138411,1,0,0:0:0:0:
278,33,138444,6,0,P|106:66|314:317,1,666.666666666667,0|8,0:0|0:0,0:0:0:0:
181,91,140496,5,2,0:0:0:0:
378,207,140837,5,2,0:0:0:0:
131,294,141178,5,2,0:0:0:0:
254,151,141521,5,10,0:0:0:0:
452,178,142291,5,10,0:0:0:0:
112,220,142547,6,0,L|58:220,2,50,2|0|0,0:0|0:0|0:0,0:0:0:0:
239,276,142738,1,0,0:0:0:0:
364,265,142802,2,0,L|395:265,2,25,8|0|0,0:0|0:0|0:0,0:0:0:0:
239,213,142931,2,0,L|186:212,1,50,2|0,0:0|0:0,0:0:0:0:
314,185,143059,6,0,L|315:124,1,50,2|0,0:0|0:0,0:0:0:0:
190,92,143187,1,8,0:0:0:0:
165,92,143219,1,0,0:0:0:0:
140,92,143251,1,0,0:0:0:0:
265,320,143315,2,0,L|291:319,2,25,8|0|0,0:0|0:0|0:0,0:0:0:0:
162,248,143411,1,0,0:0:0:0:
59,320,143443,2,0,L|33:319,2,25,8|0|0,0:0|0:0|0:0,0:0:0:0:
184,175,143572,6,0,L|242:175,1,50,2|0,0:0|0:0,0:0:0:0:
109,96,143700,2,0,L|164:97,1,50
284,141,143828,2,0,L|288:199,1,50,8|0,0:0|0:0,0:0:0:0:
160,236,143956,2,0,L|157:294,1,50,2|0,0:0|0:0,0:0:0:0:
32,303,144084,6,0,L|29:245,1,50,2|0,0:0|0:0,0:0:0:0:
154,145,144213,2,0,L|171:122,2,25,8|0|0,0:0|0:0|0:0,0:0:0:0:
124,147,144309,1,0,0:0:0:0:
95,146,144341,2,0,L|69:145,2,25,8|0|0,0:0|0:0|0:0,0:0:0:0:
198,74,144437,1,0,0:0:0:0:
301,146,144469,2,0,L|327:145,2,25,8|0|0,0:0|0:0|0:0,0:0:0:0:
198,74,144565,1,0,0:0:0:0:
101,71,144597,6,0,L|72:70,1,16.6666666666667,2|0,3:2|3:2,0:0:0:0:
24,81,144683,2,0,L|18:107,1,16.6666666666667,2|0,3:2|3:2,0:0:0:0:
79,101,144769,2,0,L|95:101,1,16.6666666666667,2|0,3:2|3:2,0:0:0:0:
271,232,144855,2,0,L|255:232,1,16.6666666666667,2|0,3:2|3:2,0:0:0:0:
194,232,144940,2,0,L|210:232,1,16.6666666666667,2|0,3:2|3:2,0:0:0:0:
271,232,145026,2,0,L|255:232,1,16.6666666666667,2|0,3:2|3:2,0:0:0:0:
427,306,145111,6,0,L|398:305,1,16.6666666666667,2|0,3:2|3:2,0:0:0:0:
274,315,145197,2,0,L|245:314,1,16.6666666666667,2|0,3:2|3:2,0:0:0:0:
105,306,145282,6,0,L|134:305,1,16.6666666666667,2|0,3:2|3:2,0:0:0:0:
258,315,145366,2,0,L|287:314,1,16.6666666666667,2|0,3:2|3:2,0:0:0:0:
129,200,145453,2,0,L|100:199,1,16.6666666666667,2|0,3:2|3:2,0:0:0:0:
356,227,145538,2,0,L|385:226,1,16.6666666666667,2|0,3:2|3:2,0:0:0:0:
256,192,145624,12,8,145640,0:0:0:0:
