osu file format v14

[General]
AudioFilename: audio.mp3
AudioLeadIn: 0
PreviewTime: 95293
Countdown: 0
SampleSet: Soft
StackLeniency: 0.7
Mode: 2
LetterboxInBreaks: 0
WidescreenStoryboard: 1

[Editor]
Bookmarks: 9204,25614,29204,42024,50229,64588,80998,95101,95229,95357,96383,97409,113819,130229,138434,145614
DistanceSpacing: 1
BeatDivisor: 4
GridSize: 32
TimelineZoom: 4.199998

[Metadata]
Title:Aegleseeker
TitleUnicode:Aegleseeker
Artist:Silentroom vs. Frums
ArtistUnicode:Silentroom vs. Frums
Creator:Jemzuu
Version:Rain
Source:Arcaea
Tags:ajamez gigas [_-Kukkai-_] autofanboy alienflybot bunnrei -plus- ster osu_gangster chara razor sharp lowiro esoteric order electronic instrumental video game Song Contest 2020
BeatmapID:3024976
BeatmapSetID:1460413

[Difficulty]
HPDrainRate:5
CircleSize:3.8
OverallDifficulty:9.2
ApproachRate:9.2
SliderMultiplier:1.59
SliderTickRate:2

[Events]
//Background and Video events
0,0,"86238824_p0.jpg",0,0
//Break Periods
2,95567,96849
//Storyboard Layer 0 (Background)
//Storyboard Layer 1 (Fail)
//Storyboard Layer 2 (Pass)
//Storyboard Layer 3 (Foreground)
//Storyboard Layer 4 (Overlay)
//Storyboard Sound Samples

[TimingPoints]
1009,256.410256410256,4,2,1,60,1,0
1137,-100,4,2,1,30,0,0
9214,-100,4,2,1,20,0,0
11265,-100,4,2,1,30,0,0
12803,-100,4,2,1,35,0,0
13316,-100,4,2,1,40,0,0
14342,-100,4,2,1,45,0,0
15367,-100,4,2,1,60,0,0
16393,-100,4,2,1,10,0,0
17419,-100,4,2,6,60,0,0
17547,-100,4,2,2,60,0,0
18444,-100,4,2,2,70,0,0
19470,-100,4,2,2,75,0,0
20239,-100,4,2,2,80,0,0
21521,-100,4,2,6,80,0,0
21650,-100,4,2,2,60,0,0
22547,-100,4,2,2,65,0,0
22803,-100,4,2,2,70,0,0
23316,-100,4,2,2,75,0,0
24085,-100,4,2,2,80,0,0
24598,-100,4,2,3,80,0,0
25367,-100,4,2,4,65,0,0
25624,-100,4,1,1,70,0,0
29726,-100,4,1,1,60,0,0
30624,-100,4,1,2,60,0,0
30752,-100,4,1,1,60,0,0
31650,-100,4,1,2,60,0,0
31777,-100,4,1,1,65,0,0
32547,-100,4,1,1,60,0,0
32675,-100,4,1,2,60,0,0
32803,-100,4,1,1,60,0,0
33444,-100,4,1,2,60,0,0
33829,-100,4,1,4,80,0,0
33957,-100,4,1,4,65,0,0
34854,-100,4,1,4,70,0,0
35880,-100,4,1,4,75,0,0
37162,-100,4,1,4,80,0,0
37418,-100,4,1,4,65,0,0
37931,-100,4,1,4,80,0,0
38060,-100,4,1,4,65,0,0
38957,-100,4,1,4,70,0,0
39470,-100,4,1,4,75,0,0
41265,-100,4,1,4,80,0,0
42034,-100,4,1,1,70,0,0
46136,-100,4,1,1,60,0,0
46906,-100,4,1,2,60,0,0
47162,-100,4,1,1,60,0,0
47931,-100,4,1,2,60,0,0
48188,-100,4,1,1,60,0,0
48957,-100,4,1,2,60,0,0
49213,-100,4,1,1,60,0,0
49470,-100,4,1,5,60,0,0
50239,-100,4,2,5,60,0,0
58701,-100,4,2,5,65,0,0
63572,-100,4,2,5,70,0,0
64085,-100,4,2,5,75,0,0
64342,-100,4,2,5,80,0,0
64598,-100,4,2,5,85,0,0
64983,-100,4,2,5,80,0,0
66136,-100,4,1,6,70,0,0
66649,-100,4,1,6,80,0,0
73316,256.410256410256,3,1,6,80,1,0
81008,256.410256410256,4,2,73,80,1,0
81008,-100,4,2,73,80,0,0
81136,-100,4,2,1,40,0,0
93572,-100,4,2,1,60,0,0
94341,-100,4,2,10,60,0,0
94597,-100,4,2,1,60,0,0
97418,-100,4,3,1,80,0,1
99469,-100,4,3,2,80,0,1
101264,-100,4,3,3,80,0,1
101905,-100,4,3,4,80,0,1
102161,-100,4,2,1,60,0,1
102546,-100,4,3,4,80,0,1
102931,-100,4,3,5,80,0,1
103187,-100,4,3,2,60,0,1
103572,-100,4,3,2,80,0,1
105495,-100,4,3,2,80,0,0
105623,-100,4,3,1,80,0,1
107290,-100,4,2,1,60,0,1
107674,-100,4,3,2,80,0,1
109469,-100,4,3,3,80,0,1
110110,-100,4,3,4,80,0,1
110366,-100,4,2,1,60,0,1
110751,-100,4,3,4,80,0,1
111136,-100,4,3,5,80,0,1
111392,-100,4,2,1,60,0,1
111777,-100,4,3,2,80,0,1
113828,-100,4,3,73,80,0,0
113892,-100,4,3,1,60,0,0
115879,-100,4,3,1,80,0,1
116264,-100,4,3,2,80,0,1
116777,-100,4,3,99,80,0,1
116905,-100,4,3,55,80,0,1
117033,-100,4,3,98,80,0,1
117290,-100,4,3,97,80,0,1
117418,-100,4,3,98,80,0,1
117931,-100,4,3,97,80,0,1
118315,-100,4,3,96,80,0,1
118443,-100,4,2,1,60,0,1
118956,-100,4,3,55,80,0,1
119084,-100,4,3,99,80,0,1
119341,-100,4,3,95,80,0,1
119725,-100,4,3,96,80,0,1
119982,-100,4,3,94,80,0,1
120366,-100,4,3,97,80,0,1
121007,-100,4,3,56,80,0,1
121072,-100,4,3,95,80,0,1
121392,-100,4,3,94,80,0,1
121905,-100,4,2,1,80,0,0
122033,-100,4,3,80,85,0,1
123059,-100,4,3,57,85,0,1
123123,-100,4,3,70,85,0,1
123315,-100,4,3,80,85,0,1
124469,-100,4,3,79,85,0,1
125110,-100,4,3,55,85,0,1
125174,-100,4,3,79,85,0,1
125879,-100,4,3,98,85,0,1
126136,-100,4,3,97,70,0,0
126520,-100,4,3,96,70,0,0
127161,-100,4,3,99,70,0,0
129982,-100,4,1,6,50,0,0
130110,-100,4,1,6,55,0,0
130495,-100,4,1,6,60,0,0
134084,-100,4,1,1,75,0,0
134341,-100,4,1,6,60,0,0
138187,-100,4,1,2,75,0,0
138251,-100,4,1,1,60,0,0
138443,-100,4,1,6,60,0,0
138572,-100,4,2,5,60,0,0
139725,-100,4,2,3,40,0,0
141520,-100,4,2,3,50,0,0
142290,-100,4,1,6,50,0,0
142418,-100,4,1,6,60,0,0
142546,-100,4,1,6,70,0,0
144597,-100,4,2,3,70,0,0
145623,-100,4,2,3,60,0,0

[Colours]
Combo1 : 132,193,255
Combo2 : 151,151,255
Combo3 : 255,145,255

[HitObjects]
254,196,9214,5,2,3:2:0:0:
254,196,9855,1,0,3:2:0:0:
90,193,10239,1,0,3:2:0:0:
254,196,10880,1,0,3:2:0:0:
254,196,11137,1,0,3:2:0:0:
254,196,11265,5,2,3:2:0:0:
254,196,11906,1,0,3:2:0:0:
459,195,12291,1,0,3:2:0:0:
254,196,12675,1,0,3:2:0:0:
254,196,12932,1,0,3:2:0:0:
254,196,13188,1,0,3:2:0:0:
254,196,13316,5,2,3:2:0:0:
67,196,13957,1,0,3:2:0:0:
254,196,14342,1,0,3:2:0:0:
254,196,14983,1,0,3:2:0:0:
428,198,15239,1,2,3:2:0:0:
256,192,16393,12,0,17291,0:0:0:0:
248,192,17419,5,4,1:0:0:0:
88,165,17675,2,0,L|56:112,2,39.75,2|0|0,0:0|0:0|0:0,0:0:0:0:
186,133,17932,2,0,L|186:86,2,39.75,2|0|0,0:0|0:0|0:0,0:0:0:0:
286,85,18188,2,0,L|286:38,2,39.75,2|0|0,0:0|0:0|0:0,0:0:0:0:
391,82,18444,6,0,L|421:23,2,39.75,2|0|0,0:0|0:0|0:0,0:0:0:0:
283,215,18701,2,0,L|283:168,2,39.75,2|0|0,0:0|0:0|0:0,0:0:0:0:
174,181,18957,2,0,L|174:134,2,39.75,2|0|0,0:0|0:0|0:0,0:0:0:0:
64,168,19214,2,0,L|39:122,2,39.75,2|0|0,0:0|0:0|0:0,0:0:0:0:
175,231,19470,6,0,L|175:184,2,39.75,2|0|0,0:0|0:0|0:0,0:0:0:0:
286,203,19726,2,0,L|286:156,2,39.75,2|0|0,0:0|0:0|0:0,0:0:0:0:
402,149,19983,2,0,L|428:94,2,39.75,2|0|0,0:0|0:0|0:0,0:0:0:0:
204,322,20239,2,0,L|187:357,2,39.75,2|0|0,0:0|0:0|0:0,0:0:0:0:
413,318,20496,5,2,0:0:0:0:
316,332,20624,1,8,0:0:0:0:
278,324,20688,1,0,0:0:0:0:
261,289,20752,1,8,0:0:0:0:
279,255,20816,1,0,0:0:0:0:
317,248,20880,1,8,0:0:0:0:
416,182,21008,2,0,L|317:176,1,79.5,0|0,0:0|0:0,0:0:0:0:
129,152,21265,6,0,L|120:53,1,79.5,8|0,0:0|0:0,0:0:0:0:
337,44,21521,6,0,L|423:34,1,79.5,4|2,1:0|0:0,0:0:0:0:
302,117,21778,2,0,L|301:164,2,39.75,2|0|0,0:0|0:0|0:0,0:0:0:0:
188,219,22034,2,0,L|187:266,2,39.75,2|0|0,0:0|0:0|0:0,0:0:0:0:
305,243,22291,2,0,L|308:290,2,39.75,2|0|0,0:0|0:0|0:0,0:0:0:0:
422,235,22547,6,0,L|428:285,2,39.75,2|0|0,0:0|0:0|0:0,0:0:0:0:
303,204,22803,2,0,L|302:147,2,39.75,2|0|0,0:0|0:0|0:0,0:0:0:0:
179,149,23060,2,0,L|178:92,2,39.75,2|0|0,0:0|0:0|0:0,0:0:0:0:
53,93,23316,2,0,L|29:47,2,39.75,2|0|0,0:0|0:0|0:0,0:0:0:0:
177,111,23573,6,0,L|177:57,2,39.75,2|0|0,0:0|0:0|0:0,0:0:0:0:
303,88,23829,2,0,L|303:34,2,39.75,2|0|0,0:0|0:0|0:0,0:0:0:0:
432,109,24085,2,0,L|461:52,2,39.75,2|0|0,0:0|0:0|0:0,0:0:0:0:
235,280,24342,2,0,L|206:223,2,39.75,2|0|0,0:0|0:0|0:0,0:0:0:0:
450,336,24598,6,0,P|466:269|388:223,1,159,2|8,0:0|0:0,0:0:0:0:
280,167,24983,2,0,L|154:155,2,119.25,2|2|4,0:0|0:0|3:2,0:0:0:0:
301,203,25432,1,0,0:0:0:0:
280,167,25496,1,0,0:0:0:0:
54,175,25624,5,12,0:0:0:0:
41,137,25688,1,0,0:0:0:0:
51,99,25752,1,0,0:0:0:0:
80,73,25816,1,0,0:0:0:0:
118,66,25880,1,2,0:0:0:0:
250,115,26008,5,8,0:0:0:0:
227,147,26072,1,0,0:0:0:0:
195,170,26136,1,8,0:0:0:0:
157,180,26200,1,0,0:0:0:0:
118,176,26264,1,2,0:0:0:0:
236,232,26393,2,0,L|239:315,1,79.5,8|0,0:0|0:0,0:0:0:0:
452,86,26650,5,8,0:0:0:0:
429,119,26714,1,0,0:0:0:0:
397,142,26778,1,0,0:0:0:0:
359,152,26842,1,0,0:0:0:0:
320,148,26906,1,2,0:0:0:0:
188,16,27034,5,8,0:0:0:0:
211,48,27098,1,0,0:0:0:0:
243,71,27162,1,8,0:0:0:0:
281,81,27226,1,0,0:0:0:0:
320,77,27290,1,2,0:0:0:0:
451,191,27419,2,0,L|454:300,1,79.5,4|0,0:0|0:0,0:0:0:0:
228,352,27675,5,8,0:0:0:0:
215,314,27739,1,0,0:0:0:0:
225,276,27803,1,0,0:0:0:0:
254,250,27867,1,0,0:0:0:0:
292,243,27931,1,2,0:0:0:0:
166,149,28060,5,8,0:0:0:0:
128,156,28124,1,0,0:0:0:0:
99,182,28188,1,8,0:0:0:0:
89,220,28252,1,0,0:0:0:0:
102,258,28316,1,2,0:0:0:0:
225,276,28444,2,0,L|330:277,1,79.5,4|0,0:0|0:0,0:0:0:0:
74,208,28701,5,8,0:0:0:0:
61,170,28765,1,0,0:0:0:0:
71,132,28829,1,0,0:0:0:0:
100,106,28893,1,0,0:0:0:0:
138,99,28957,1,2,0:0:0:0:
277,133,29085,5,8,0:0:0:0:
253,101,29149,1,0,0:0:0:0:
220,78,29213,1,8,0:0:0:0:
183,65,29277,1,0,0:0:0:0:
143,65,29341,1,2,0:0:0:0:
262,17,29470,2,0,L|340:19,2,53,2|2|2,0:0|0:0|0:0,0:0:0:0:
93,164,29726,5,8,0:0:0:0:
56,177,29790,1,0,0:0:0:0:
42,213,29854,1,0,0:0:0:0:
59,248,29918,1,0,0:0:0:0:
96,259,29982,1,2,0:0:0:0:
232,272,30111,5,8,0:0:0:0:
269,285,30175,1,0,0:0:0:0:
283,321,30239,1,8,0:0:0:0:
266,356,30303,1,0,0:0:0:0:
229,367,30367,1,2,0:0:0:0:
95,363,30496,2,0,L|89:267,1,79.5,0|4,0:0|0:0,0:0:0:0:
309,50,30752,5,8,0:0:0:0:
346,63,30816,1,0,0:0:0:0:
360,99,30880,1,0,0:0:0:0:
343,134,30944,1,0,0:0:0:0:
306,145,31008,1,2,0:0:0:0:
170,158,31137,5,8,0:0:0:0:
133,171,31201,1,0,0:0:0:0:
119,207,31265,1,8,0:0:0:0:
136,242,31329,1,0,0:0:0:0:
173,253,31393,1,2,0:0:0:0:
309,251,31522,2,0,L|219:261,1,79.5,0|0,0:0|0:0,0:0:0:0:
447,318,31778,6,0,L|454:263,4,39.75,8|0|0|0|2,0:0|0:0|0:0|0:0|0:0,0:0:0:0:
322,217,32162,5,8,0:0:0:0:
341,182,32226,1,0,0:0:0:0:
371,156,32290,1,8,0:0:0:0:
408,143,32354,1,0,0:0:0:0:
447,143,32418,1,2,0:0:0:0:
331,101,32547,2,0,L|324:9,1,79.5,8|4,0:0|0:0,0:0:0:0:
110,77,32803,5,8,0:0:0:0:
198,134,32932,1,0,0:0:0:0:
237,133,32996,1,0,0:0:0:0:
277,133,33060,1,8,0:0:0:0:
283,258,33188,1,8,0:0:0:0:
72,339,33444,6,0,P|52:278|140:225,1,159,0|0,0:0|0:0,0:0:0:0:
345,357,33829,6,0,L|174:324,1,159,4|8,0:0|0:0,0:0:0:0:
289,277,34214,1,0,0:0:0:0:
396,243,34342,2,0,L|242:229,2,119.25,8|8|8,0:0|0:0|0:0,0:0:0:0:
261,151,34919,1,8,0:0:0:0:
116,132,35111,2,0,L|201:128,1,79.5,8|0,0:0|0:0,0:0:0:0:
425,26,35367,6,0,L|437:177,1,119.25,8|8,0:0|0:0,0:0:0:0:
269,237,35752,2,0,L|421:236,1,119.25,8|8,0:0|0:0,0:0:0:0:
219,335,36137,1,8,0:0:0:0:
179,339,36201,1,0,0:0:0:0:
140,344,36265,1,0,3:0:0:0:
368,118,36393,6,0,L|491:112,2,119.25,8|0|0,0:0|3:0|3:0,0:0:0:0:
211,115,36970,1,0,3:0:0:0:
371,205,37162,2,0,L|439:201,2,39.75,8|0|0,0:0|0:0|0:0,0:0:0:0:
140,246,37419,6,0,L|12:227,2,119.25,10|10|10,0:0|0:0|0:0,0:0:0:0:
260,252,37932,2,0,L|258:165,1,79.5,4|0,0:0|0:0,0:0:0:0:
137,135,38188,1,8,0:0:0:0:
354,64,38444,6,0,L|219:44,2,119.25,8|8|8,0:0|0:0|0:0,0:0:0:0:
202,145,39021,1,8,0:0:0:0:
368,201,39214,1,8,0:0:0:0:
407,202,39278,1,0,0:0:0:0:
447,203,39342,1,8,0:0:0:0:
326,303,39470,6,0,L|321:151,1,119.25,8|8,0:0|0:0,0:0:0:0:
474,121,39855,1,8,0:0:0:0:
246,70,39983,2,0,L|191:65,1,39.75,0|8,0:0|0:0,0:0:0:0:
360,81,40239,2,0,L|378:35,2,39.75,8|0|0,0:0|0:0|0:0,0:0:0:0:
232,178,40496,6,0,L|200:124,2,39.75,8|0|0,0:0|0:0|0:0,0:0:0:0:
284,188,40688,2,0,L|335:185,2,39.75,8|0|0,0:0|0:0|0:0,0:0:0:0:
144,269,40880,2,0,L|112:215,2,39.75,8|0|0,0:0|0:0|0:0,0:0:0:0:
196,279,41072,2,0,L|247:276,2,39.75,8|0|0,0:0|0:0|0:0,0:0:0:0:
51,291,41265,6,0,L|43:191,1,79.5,8|0,0:0|0:0,0:0:0:0:
157,173,41521,1,2,0:0:0:0:
194,163,41585,1,0,0:0:0:0:
210,128,41649,1,0,0:0:0:0:
193,93,41713,1,0,0:0:0:0:
155,85,41777,1,0,0:0:0:0:
53,74,41906,1,2,0:0:0:0:
285,26,42034,5,12,0:0:0:0:
324,26,42098,1,0,0:0:0:0:
355,48,42162,1,0,0:0:0:0:
368,85,42226,1,0,0:0:0:0:
358,123,42290,1,2,0:0:0:0:
234,299,42419,5,8,0:0:0:0:
224,261,42483,1,0,0:0:0:0:
237,224,42547,1,8,0:0:0:0:
268,202,42611,1,0,0:0:0:0:
307,202,42675,1,2,0:0:0:0:
433,210,42803,2,0,L|437:104,1,79.5,2|0,0:0|0:0,0:0:0:0:
217,35,43060,5,12,0:0:0:0:
178,35,43124,1,0,0:0:0:0:
147,57,43188,1,0,0:0:0:0:
134,94,43252,1,0,0:0:0:0:
144,132,43316,1,2,0:0:0:0:
268,308,43444,5,8,0:0:0:0:
246,274,43508,1,0,0:0:0:0:
215,250,43572,1,8,0:0:0:0:
177,238,43636,1,0,0:0:0:0:
138,239,43700,1,2,0:0:0:0:
257,217,43829,2,0,L|260:108,1,79.5,10|0,0:0|0:0,0:0:0:0:
42,152,44085,5,12,0:0:0:0:
32,114,44149,1,0,0:0:0:0:
45,77,44213,1,0,0:0:0:0:
76,55,44277,1,0,0:0:0:0:
115,55,44341,1,2,0:0:0:0:
239,127,44470,5,8,0:0:0:0:
249,165,44534,1,0,0:0:0:0:
236,202,44598,1,8,0:0:0:0:
205,224,44662,1,0,0:0:0:0:
166,224,44726,1,2,0:0:0:0:
37,293,44855,2,0,L|128:297,1,79.5,10|0,0:0|0:0,0:0:0:0:
334,334,45111,5,12,0:0:0:0:
369,319,45175,1,0,0:0:0:0:
383,283,45239,1,0,0:0:0:0:
366,248,45303,1,0,0:0:0:0:
329,237,45367,1,2,0:0:0:0:
112,205,45496,5,8,0:0:0:0:
77,190,45560,1,0,0:0:0:0:
63,154,45624,1,8,0:0:0:0:
80,119,45688,1,0,0:0:0:0:
117,108,45752,1,2,0:0:0:0:
225,75,45880,2,0,L|285:72,2,53,2|2|2,0:0|0:0|0:0,0:0:0:0:
403,57,46137,5,12,0:0:0:0:
442,57,46201,1,0,0:0:0:0:
473,79,46265,1,0,0:0:0:0:
486,116,46329,1,0,0:0:0:0:
476,154,46393,1,2,0:0:0:0:
355,209,46521,5,8,0:0:0:0:
345,247,46585,1,0,0:0:0:0:
358,284,46649,1,8,0:0:0:0:
389,306,46713,1,0,0:0:0:0:
428,306,46777,1,2,0:0:0:0:
312,360,46906,2,0,L|309:257,1,79.5,4|0,0:0|0:0,0:0:0:0:
97,307,47162,5,12,0:0:0:0:
120,275,47226,1,0,0:0:0:0:
152,252,47290,1,0,0:0:0:0:
190,239,47354,1,0,0:0:0:0:
229,239,47418,1,2,0:0:0:0:
107,71,47547,5,8,0:0:0:0:
68,71,47611,1,0,0:0:0:0:
37,93,47675,1,8,0:0:0:0:
24,130,47739,1,0,0:0:0:0:
34,168,47803,1,2,0:0:0:0:
157,177,47932,2,0,L|163:268,1,79.5,4|0,0:0|0:0,0:0:0:0:
376,150,48188,5,12,0:0:0:0:
353,118,48252,1,0,0:0:0:0:
321,95,48316,1,0,0:0:0:0:
283,82,48380,1,0,0:0:0:0:
244,82,48444,1,2,0:0:0:0:
374,30,48573,6,0,L|388:88,4,39.75,8|0|8|0|2,0:0|0:0|0:0|0:0|0:0,0:0:0:0:
242,20,48957,2,0,L|157:27,1,79.5,4|0,0:0|0:0,0:0:0:0:
387,164,49214,5,6,0:0:0:0:
427,174,49278,1,0,0:0:0:0:
445,209,49342,1,2,0:0:0:0:
427,244,49406,1,0,0:0:0:0:
385,260,49470,2,0,P|332:258|410:56,1,397.5,12|0,0:0|0:0,0:0:0:0:
157,33,50239,6,0,L|20:129,1,159,12|2,3:2|0:0,0:0:0:0:
84,137,50581,1,0,0:0:0:0:
146,146,50667,2,0,L|179:198,2,53,0|2|0,0:0|0:0|0:0,0:0:0:0:
77,147,50923,2,0,L|19:153,2,53,0|2|0,0:0|0:0|0:0,0:0:0:0:
147,146,51179,1,0,0:0:0:0:
326,174,51265,6,0,L|477:184,1,119.25,8|0,0:0|0:0,0:0:0:0:
278,299,51650,2,0,P|225:284|324:138,1,318,10|0,0:0|0:0,0:0:0:0:
70,206,52291,6,0,L|64:79,1,106,10|0,0:0|0:0,0:0:0:0:
204,40,52632,2,0,P|253:101|171:134,1,185.5,2|8,0:0|0:0,0:0:0:0:
85,123,53060,1,8,0:0:0:0:
197,202,53188,2,0,L|368:215,1,159,2|2,0:0|0:0,0:0:0:0:
268,254,53573,1,0,0:0:0:0:
155,282,53701,6,0,P|124:226|240:137,1,238.5,10|8,0:0|0:0,0:0:0:0:
464,305,54342,6,0,P|434:243|283:176,1,238.5,12|8,0:0|0:0,0:0:0:0:
244,174,54791,1,0,0:0:0:0:
197,184,54855,5,8,0:0:0:0:
155,95,55026,1,0,0:0:0:0:
197,184,55197,1,0,0:0:0:0:
323,230,55367,5,8,0:0:0:0:
457,246,55538,1,2,0:0:0:0:
325,248,55709,1,8,0:0:0:0:
194,290,55880,1,2,0:0:0:0:
338,346,56051,2,0,L|341:220,1,106,8|0,0:0|0:0,0:0:0:0:
280,220,56308,1,2,0:0:0:0:
101,111,56393,6,0,L|17:113,2,79.5,12|0|8,0:0|0:0|0:0,0:0:0:0:
217,38,56778,2,0,P|246:85|157:133,1,159,8|0,0:0|0:0,0:0:0:0:
86,185,57162,1,2,0:0:0:0:
310,104,57291,2,0,L|319:272,1,159,8|2,0:0|0:0,0:0:0:0:
221,299,57675,1,8,0:0:0:0:
114,340,57803,6,0,L|246:240,1,159,8|8,0:0|0:0,0:0:0:0:
365,242,58188,2,0,L|368:130,1,79.5,2|8,0:0|0:0,0:0:0:0:
133,97,58444,6,0,L|33:87,2,79.5,6|0|8,0:0|0:0|0:0,0:0:0:0:
232,105,58829,1,2,0:0:0:0:
338,111,58957,5,8,0:0:0:0:
287,118,59042,1,2,0:0:0:0:
264,163,59127,1,0,0:0:0:0:
287,209,59213,1,8,0:0:0:0:
342,218,59298,1,2,0:0:0:0:
279,237,59385,1,0,0:0:0:0:
215,246,59470,6,0,L|72:238,1,119.25,8|0,0:0|0:0,0:0:0:0:
248,345,59855,2,0,L|255:170,1,159,2|0,0:0|0:0,0:0:0:0:
342,142,60239,1,8,0:0:0:0:
442,136,60367,1,8,0:0:0:0:
215,63,60496,6,0,L|109:51,1,79.5,12|2,0:0|0:0,0:0:0:0:
346,22,60880,2,0,P|366:85|301:144,1,159,8|8,0:0|0:0,0:0:0:0:
209,159,61265,1,8,0:0:0:0:
110,178,61393,2,0,L|106:274,1,79.5,2|8,0:0|0:0,0:0:0:0:
219,260,61650,2,0,L|230:354,1,79.5,2|8,0:0|0:0,0:0:0:0:
353,349,61906,2,0,P|328:288|161:234,1,238.5,8|2,0:0|0:0,0:0:0:0:
393,56,62547,6,0,P|449:67|450:157,1,159,12|8,0:0|0:0,0:0:0:0:
401,188,62889,1,0,0:0:0:0:
348,206,62974,1,0,0:0:0:0:
291,194,63059,5,8,0:0:0:0:
267,148,63144,1,0,0:0:0:0:
292,102,63230,1,0,0:0:0:0:
354,94,63315,1,8,0:0:0:0:
298,74,63402,1,0,0:0:0:0:
235,69,63487,1,0,0:0:0:0:
302,45,63573,6,0,L|382:39,2,53,8|0|0,0:0|0:0|0:0,0:0:0:0:
232,38,63829,2,0,L|192:94,2,53,8|0|0,0:0|0:0|0:0,0:0:0:0:
302,31,64085,6,0,L|370:21,2,53,8|0|0,0:0|0:0|0:0,0:0:0:0:
133,192,64342,2,0,L|65:182,2,53,10|2|2,0:0|0:0|0:0,0:0:0:0:
325,269,64598,6,0,P|342:218|213:117,1,238.5,14|2,0:0|0:0,0:0:0:0:
177,112,65047,1,0,0:0:0:0:
132,130,65111,1,8,0:0:0:0:
87,228,65239,1,2,0:0:0:0:
142,327,65367,1,8,0:0:0:0:
249,353,65496,6,0,L|421:302,1,159,8|0,0:0|0:0,0:0:0:0:
308,213,65880,1,8,0:0:0:0:
208,197,66008,1,0,0:0:0:0:
434,37,66137,5,0,0:0:0:0:
487,146,66308,1,0,0:0:0:0:
434,37,66479,2,0,L|358:40,1,53,0|0,0:0|0:0,0:0:0:0:
205,47,66650,5,12,0:0:0:0:
122,108,66778,2,0,L|253:113,2,119.25,0|0|8,0:0|0:0|0:0,0:0:0:0:
210,186,67291,1,0,0:0:0:0:
309,200,67419,1,8,0:0:0:0:
202,269,67547,1,0,0:0:0:0:
414,290,67675,2,0,L|496:289,1,79.5,8|0,0:0|0:0,0:0:0:0:
454,270,67867,1,0,0:0:0:0:
308,148,67932,6,0,L|220:139,1,79.5,8|0,0:0|0:0,0:0:0:0:
347,77,68188,2,0,L|474:143,2,119.25,8|0|0,0:0|0:0|0:0,0:0:0:0:
134,73,68701,2,0,L|50:68,1,79.5,12|0,0:0|0:0,0:0:0:0:
96,45,68893,1,0,0:0:0:0:
252,46,68957,6,0,P|272:90|200:154,1,159,8|8,0:0|0:0,0:0:0:0:
159,160,69278,1,0,0:0:0:0:
58,207,69406,1,0,0:0:0:0:
161,253,69534,1,2,0:0:0:0:
200,255,69598,1,2,0:0:0:0:
240,258,69662,1,2,0:0:0:0:
106,349,69726,6,0,L|17:248,1,119.25,8|0,0:0|0:0,0:0:0:0:
71,221,69983,1,8,0:0:0:0:
164,196,70111,1,0,0:0:0:0:
376,72,70239,1,8,0:0:0:0:
413,81,70303,1,0,0:0:0:0:
429,116,70367,1,0,0:0:0:0:
414,151,70431,1,0,0:0:0:0:
377,162,70496,6,0,L|243:142,1,119.25,8|0,0:0|0:0,0:0:0:0:
400,268,70752,2,0,L|480:274,2,53,14|0|0,0:0|0:0|0:0,0:0:0:0:
226,346,71008,6,0,P|208:284|271:246,1,119.25,8|0,0:0|0:0,0:0:0:0:
284,237,71265,1,8,0:0:0:0:
379,221,71393,1,0,0:0:0:0:
165,183,71521,2,0,L|105:179,2,39.75,8|0|2,0:0|0:0|0:0,0:0:0:0:
225,150,71735,1,2,0:0:0:0:
165,183,71820,1,2,0:0:0:0:
106,217,71906,2,0,L|105:288,1,39.75,0|0,0:0|0:0,0:0:0:0:
255,290,72034,6,0,L|391:275,1,106,8|0,0:0|0:0,0:0:0:0:
295,228,72291,2,0,L|164:217,1,106,8|0,0:0|0:0,0:0:0:0:
365,78,72547,1,8,0:0:0:0:
385,110,72611,1,0,0:0:0:0:
368,144,72675,1,0,0:0:0:0:
330,147,72739,1,0,0:0:0:0:
179,128,72803,6,0,L|86:118,1,79.5,8|0,0:0|0:0,0:0:0:0:
208,52,73060,2,0,L|292:51,1,79.5,8|0,0:0|0:0,0:0:0:0:
68,233,73316,6,0,L|36:236,1,19.875,12|0,0:0|0:0,0:0:0:0:
115,304,73444,1,0,0:0:0:0:
330,327,73573,2,0,L|347:295,2,26.5,8|0|0,0:0|0:0|0:0,0:0:0:0:
266,342,73744,1,0,0:0:0:0:
101,351,73829,2,0,L|12:352,1,79.5,8|0,0:0|0:0,0:0:0:0:
240,255,74085,5,12,0:0:0:0:
300,212,74171,2,0,L|312:235,2,26.5,2|0|0,0:0|0:0|0:0,0:0:0:0:
137,170,74342,2,0,L|44:168,2,79.5,8|0|8,0:0|0:0|0:0,0:0:0:0:
353,103,74726,5,0,0:0:0:0:
413,73,74812,1,4,0:0:0:0:
249,91,74897,1,2,0:0:0:0:
233,64,74940,1,0,0:0:0:0:
249,91,74983,1,0,0:0:0:0:
295,106,75047,1,0,0:0:0:0:
432,150,75111,6,0,L|441:240,1,79.5,8|0,0:0|0:0,0:0:0:0:
339,291,75367,2,0,L|276:289,1,39.75,8|0,0:0|0:0,0:0:0:0:
344,277,75496,2,0,L|404:274,1,39.75,0|0,0:0|0:0,0:0:0:0:
236,208,75624,6,0,L|139:209,1,79.5,12|0,0:0|0:0,0:0:0:0:
262,242,75880,2,0,P|282:180|243:132,1,119.25,8|0,0:0|0:0,0:0:0:0:
205,126,76137,2,0,L|89:88,1,119.25,8|0,0:0|0:0,0:0:0:0:
225,251,76393,6,0,L|350:259,1,106,12|0,0:0|0:0,0:0:0:0:
162,344,76650,1,8,0:0:0:0:
102,302,76735,1,0,0:0:0:0:
162,344,76820,1,0,0:0:0:0:
334,357,76906,6,0,L|428:346,1,79.5,8|0,0:0|0:0,0:0:0:0:
308,268,77162,1,12,0:0:0:0:
268,264,77226,1,0,0:0:0:0:
228,260,77290,1,0,0:0:0:0:
446,195,77419,5,8,0:0:0:0:
477,118,77504,1,0,0:0:0:0:
446,195,77590,1,0,0:0:0:0:
390,249,77675,1,8,0:0:0:0:
303,191,77803,2,0,L|228:195,1,39.75,0|0,0:0|0:0,0:0:0:0:
402,98,77932,6,0,L|493:86,1,79.5,12|0,0:0|0:0,0:0:0:0:
272,52,78188,1,8,0:0:0:0:
240,99,78273,1,0,0:0:0:0:
272,52,78359,1,0,0:0:0:0:
329,40,78444,1,8,0:0:0:0:
423,118,78573,1,0,0:0:0:0:
210,319,78701,5,12,0:0:0:0:
149,332,78786,1,0,0:0:0:0:
210,319,78872,1,0,0:0:0:0:
378,309,78957,5,8,0:0:0:0:
393,273,79021,1,0,0:0:0:0:
379,236,79085,1,2,0:0:0:0:
345,219,79149,1,0,0:0:0:0:
123,199,79278,5,0,0:0:0:0:
102,158,79342,1,8,0:0:0:0:
123,122,79406,1,0,0:0:0:0:
157,105,79470,1,2,0:0:0:0:
201,104,79534,1,0,0:0:0:0:
423,124,79662,5,0,0:0:0:0:
444,165,79726,1,8,0:0:0:0:
423,201,79790,1,0,0:0:0:0:
389,218,79854,1,2,0:0:0:0:
345,219,79918,1,0,0:0:0:0:
192,275,79983,5,8,0:0:0:0:
154,265,80047,1,0,0:0:0:0:
138,230,80111,1,0,0:0:0:0:
156,196,80175,1,0,0:0:0:0:
194,189,80239,2,0,L|259:187,1,39.75,8|0,0:0|0:0,0:0:0:0:
89,142,80367,5,8,0:0:0:0:
51,132,80431,1,0,0:0:0:0:
35,97,80495,1,8,0:0:0:0:
53,63,80559,1,0,0:0:0:0:
91,56,80623,2,0,L|155:53,1,39.75,8|0,0:0|0:0,0:0:0:0:
277,82,80752,2,0,L|328:84,1,39.75,8|0,0:0|0:0,0:0:0:0:
176,201,80880,2,0,L|119:201,1,39.75,8|0,0:0|0:0,0:0:0:0:
295,277,81008,5,2,0:0:0:0:
456,315,81393,1,2,0:0:0:0:
288,365,81650,2,0,L|266:313,5,39.75,8|0|0|0|0|0,0:0|0:0|0:0|0:0|0:0|0:0,0:0:0:0:
223,315,82034,6,0,L|8:170,1,238.5,2|2,0:0|0:0,0:0:0:0:
204,140,82675,2,0,L|220:72,5,39.75,8|0|0|0|0|0,0:0|0:0|0:0|0:0|0:0|0:0,0:0:0:0:
266,83,83060,6,0,L|461:73,1,159,2|0,0:0|0:0,0:0:0:0:
319,119,83444,2,0,L|308:291,1,159,2|0,0:0|0:0,0:0:0:0:
202,326,83829,2,0,L|174:278,2,39.75,8|0|0,0:0|0:0|0:0,0:0:0:0:
311,328,84085,5,0,0:0:0:0:
357,248,84214,1,0,0:0:0:0:
311,328,84342,1,10,0:0:0:0:
209,356,84470,1,0,0:0:0:0:
311,328,84598,1,0,0:0:0:0:
357,248,84726,1,0,0:0:0:0:
311,328,84855,1,8,0:0:0:0:
209,356,84983,1,0,0:0:0:0:
95,366,85111,6,0,L|93:122,1,238.5,2|0,0:0|0:0,0:0:0:0:
270,146,85752,1,8,0:0:0:0:
270,106,85816,1,0,0:0:0:0:
271,66,85880,1,0,0:0:0:0:
367,40,86008,1,0,0:0:0:0:
268,191,86137,6,0,L|162:206,2,79.5,2|0|0,0:0|0:0|0:0,0:0:0:0:
380,189,86521,2,0,P|404:244|334:306,1,159,2|8,0:0|0:0,0:0:0:0:
301,319,86842,1,0,0:0:0:0:
258,321,86906,2,0,L|250:229,1,79.5,0|0,0:0|0:0,0:0:0:0:
368,229,87162,6,0,P|380:179|234:89,1,238.5,2|0,0:0|0:0,0:0:0:0:
137,105,87675,2,0,P|161:160|323:231,1,238.5,8|0,0:0|0:0,0:0:0:0:
213,264,88188,1,2,0:0:0:0:
169,175,88316,1,0,0:0:0:0:
213,264,88444,1,0,0:0:0:0:
321,321,88573,6,0,L|326:147,1,159,2|2,0:0|0:0,0:0:0:0:
286,148,88893,1,0,0:0:0:0:
241,144,88957,1,2,0:0:0:0:
346,89,89085,1,0,0:0:0:0:
130,220,89214,6,0,P|77:207|98:109,1,159,10|0,3:2|0:0,0:0:0:0:
186,95,89598,2,0,L|194:267,1,159,2|8,0:0|0:0,0:0:0:0:
292,286,89983,1,8,0:0:0:0:
195,327,90111,1,8,0:0:0:0:
87,335,90239,6,0,P|70:278|165:231,1,159,2|0,0:0|0:0,0:0:0:0:
250,225,90624,2,0,L|258:57,1,159,2|8,0:0|0:0,0:0:0:0:
358,49,91008,1,8,0:0:0:0:
259,65,91137,1,8,0:0:0:0:
362,84,91265,6,0,L|508:188,1,159,2|8,0:0|0:0,0:0:0:0:
394,222,91650,2,0,L|233:253,1,159,2|0,0:0|0:0,0:0:0:0:
140,223,92034,2,0,L|115:178,2,39.75,8|0|0,0:0|0:0|0:0,0:0:0:0:
238,253,92291,5,2,0:0:0:0:
282,177,92419,1,0,0:0:0:0:
238,253,92547,1,8,0:0:0:0:
141,278,92675,1,2,0:0:0:0:
238,253,92803,1,8,0:0:0:0:
282,177,92932,1,0,0:0:0:0:
238,253,93060,1,0,0:0:0:0:
141,278,93188,1,0,0:0:0:0:
248,302,93316,6,0,L|254:109,1,159,2|0,0:0|0:0,0:0:0:0:
358,103,93701,2,0,L|148:84,1,198.75,2|0,0:0|0:0,0:0:0:0:
395,17,94342,2,0,L|407:195,1,159,6|0,0:0|0:0,0:0:0:0:
312,211,94726,1,8,0:0:0:0:
214,225,94855,1,0,0:0:0:0:
414,317,95111,1,0,0:0:0:0:
212,352,95367,5,0,0:0:0:0:
69,290,97419,6,0,P|52:237|135:185,1,159,6|0,0:0|0:0,0:0:0:0:
341,131,97803,2,0,L|164:110,1,159,8|0,0:0|0:0,0:0:0:0:
275,58,98188,1,0,0:0:0:0:
375,51,98316,1,0,0:0:0:0:
155,288,98444,6,0,P|149:227|246:192,1,159,2|0,0:0|0:0,0:0:0:0:
446,348,98829,2,0,P|452:287|355:252,1,159,8|0,0:0|0:0,0:0:0:0:
284,240,99214,1,0,0:0:0:0:
184,242,99342,1,0,0:0:0:0:
411,51,99470,6,0,L|420:218,1,159,6|0,0:0|0:0,0:0:0:0:
311,214,99855,2,0,L|299:22,1,159,8|0,0:0|0:0,0:0:0:0:
420,309,100239,2,0,L|325:300,1,79.5,0|0,0:0|0:0,0:0:0:0:
124,320,100496,6,0,L|104:214,1,79.5,0|0,0:0|0:0,0:0:0:0:
229,245,100752,2,0,L|228:148,1,79.5,0|0,0:0|0:0,0:0:0:0:
362,162,101008,2,0,L|371:61,1,79.5,0|0,0:0|0:0,0:0:0:0:
261,78,101265,1,2,0:0:0:0:
368,56,101393,2,0,L|310:55,1,39.75,0|0,0:0|0:0,0:0:0:0:
187,317,101521,6,0,L|34:246,1,159,12|0,0:0|0:0,0:0:0:0:
150,208,101906,2,0,L|303:167,1,159,2|0,0:0|0:0,0:0:0:0:
190,137,102291,2,0,L|185:44,1,79.5,0|0,3:0|3:0,0:0:0:0:
405,267,102547,6,0,P|425:207|339:162,1,159,8|0,0:0|0:0,0:0:0:0:
234,19,102932,2,0,P|214:79|300:124,1,159,2|0,0:0|0:0,0:0:0:0:
402,56,103316,2,0,L|310:44,1,79.5,0|0,0:0|0:0,0:0:0:0:
100,95,103573,6,0,P|81:153|165:182,1,159,12|0,0:0|0:0,0:0:0:0:
198,192,103893,1,0,0:0:0:0:
242,191,103957,1,0,0:0:0:0:
35,285,104085,2,0,L|30:186,1,79.5,0|0,0:0|0:0,0:0:0:0:
145,202,104342,2,0,L|146:115,1,79.5,0|0,0:0|0:0,0:0:0:0:
373,157,104598,6,0,L|377:50,1,79.5,0|0,0:0|0:0,0:0:0:0:
261,97,104855,2,0,L|262:4,1,79.5,0|0,0:0|0:0,0:0:0:0:
140,38,105111,2,0,L|132:148,1,79.5,0|0,0:0|0:0,0:0:0:0:
179,142,105303,1,0,0:0:0:0:
227,157,105367,2,0,L|312:150,1,79.5,0|0,0:0|0:0,0:0:0:0:
73,311,105624,6,0,P|51:250|135:210,1,159,6|0,0:0|0:0,0:0:0:0:
341,96,106008,2,0,L|163:77,1,159,8|0,0:0|0:0,0:0:0:0:
79,40,106393,2,0,L|165:22,1,79.5,0|0,0:0|0:0,0:0:0:0:
377,115,106650,6,0,P|399:176|315:216,1,159,2|0,0:0|0:0,0:0:0:0:
107,310,107034,2,0,L|285:329,1,159,8|0,0:0|3:0,0:0:0:0:
152,306,107419,2,0,L|143:215,1,79.5,0|0,3:0|3:0,0:0:0:0:
368,195,107675,6,0,P|337:152|206:131,1,159,6|0,0:0|0:0,0:0:0:0:
357,71,108060,2,0,L|372:249,1,159,8|0,0:0|0:0,0:0:0:0:
246,233,108444,2,0,L|240:333,1,79.5,0|0,0:0|0:0,0:0:0:0:
468,342,108701,6,0,L|476:248,1,79.5,0|0,0:0|0:0,0:0:0:0:
361,264,108957,1,0,0:0:0:0:
359,224,109021,1,0,0:0:0:0:
358,184,109085,1,0,0:0:0:0:
234,149,109214,5,0,0:0:0:0:
272,140,109278,1,0,0:0:0:0:
311,132,109342,1,0,0:0:0:0:
435,126,109470,1,2,0:0:0:0:
451,91,109534,1,0,0:0:0:0:
434,56,109598,1,0,0:0:0:0:
397,47,109662,1,0,0:0:0:0:
252,54,109726,6,0,L|74:86,1,159,12|0,0:0|0:0,0:0:0:0:
202,141,110111,2,0,L|371:144,1,159,2|0,0:0|3:0,0:0:0:0:
270,233,110496,1,0,3:0:0:0:
169,238,110624,1,0,3:0:0:0:
392,334,110752,6,0,P|403:282|294:235,1,159,8|0,0:0|0:0,0:0:0:0:
207,210,111137,2,0,P|196:158|305:111,1,159,2|0,0:0|3:0,0:0:0:0:
386,42,111521,2,0,L|292:37,1,79.5,0|0,3:0|3:0,0:0:0:0:
75,278,111778,6,0,P|118:228|229:216,1,159,12|0,0:0|0:0,0:0:0:0:
247,213,112098,1,0,0:0:0:0:
108,136,112162,2,0,L|-5:128,1,79.5,0|0,0:0|0:0,0:0:0:0:
135,71,112419,2,0,L|160:31,2,39.75,0|0|0,0:0|0:0|0:0,0:0:0:0:
28,130,112675,1,0,0:0:0:0:
258,167,112803,5,0,0:0:0:0:
360,197,112932,2,0,L|379:243,2,39.75,0|0|0,0:0|0:0|0:0,0:0:0:0:
242,259,113188,2,0,L|243:322,2,39.75,0|0|0,0:0|0:0|0:0,0:0:0:0:
119,215,113444,1,0,0:0:0:0:
157,204,113508,1,0,0:0:0:0:
195,193,113572,1,0,0:0:0:0:
417,85,113701,2,0,L|366:85,1,39.75,0|0,0:0|0:0,0:0:0:0:
229,36,113829,6,0,L|27:167,2,238.5,10|8|8,3:2|2:3|3:3,0:0:0:0:
432,154,114855,2,0,L|249:219,1,159,2|0,2:3|2:3,0:0:0:0:
189,337,115239,2,0,L|234:310,1,39.75,8|0,0:0|0:0,0:0:0:0:
268,306,115367,1,0,0:0:0:0:
308,231,115496,1,0,0:0:0:0:
268,306,115624,1,0,0:0:0:0:
162,346,115752,2,0,L|97:346,1,39.75,0|0,0:0|0:0,0:0:0:0:
281,217,115880,6,0,L|382:211,2,79.5,6|0|0,0:0|0:0|0:0,0:0:0:0:
64,205,116265,2,0,L|55:106,1,79.5,8|0,0:0|0:0,0:0:0:0:
174,55,116521,2,0,L|88:49,1,79.5,0|0,0:0|0:0,0:0:0:0:
312,122,116778,6,0,L|421:106,2,79.5,0|4|0,0:0|3:0|0:0,0:0:0:0:
197,199,117162,2,0,L|281:213,1,79.5,0|0,0:0|0:0,0:0:0:0:
393,220,117419,1,0,0:0:0:0:
410,254,117483,1,0,0:0:0:0:
394,289,117547,1,0,0:0:0:0:
357,298,117611,1,0,0:0:0:0:
215,325,117675,2,0,L|164:318,1,39.75,2|0,0:0|0:0,0:0:0:0:
314,253,117803,2,0,L|359:252,1,39.75,0|0,0:0|0:0,0:0:0:0:
210,169,117932,6,0,L|105:169,2,79.5,12|0|0,0:0|0:0|0:0,0:0:0:0:
435,167,118316,2,0,L|441:78,1,79.5,2|0,0:0|3:0,0:0:0:0:
323,107,118573,2,0,L|317:1,1,79.5,0|0,3:0|3:0,0:0:0:0:
428,22,118829,1,0,3:0:0:0:
200,113,118957,6,0,L|208:211,1,79.5,12|0,0:0|0:0,0:0:0:0:
315,213,119214,1,0,0:0:0:0:
100,293,119342,2,0,L|14:301,2,79.5,2|0|0,0:0|0:0|0:0,0:0:0:0:
321,268,119726,1,8,0:0:0:0:
339,302,119790,1,0,0:0:0:0:
322,337,119854,1,0,0:0:0:0:
283,346,119918,1,0,0:0:0:0:
123,204,119983,6,0,L|119:114,1,79.5,6|0,0:0|0:0,0:0:0:0:
216,96,120239,1,0,0:0:0:0:
443,59,120367,2,0,L|334:49,1,79.5,2|0,0:0|0:0,0:0:0:0:
257,178,120624,2,0,L|363:163,1,79.5,0|0,0:0|0:0,0:0:0:0:
441,191,120880,1,0,0:0:0:0:
235,315,121008,6,0,L|130:312,2,79.5,12|0|0,0:0|0:0|0:0,0:0:0:0:
30,204,121393,1,8,0:0:0:0:
117,196,121521,1,0,0:0:0:0:
154,183,121585,1,0,0:0:0:0:
169,147,121649,1,0,0:0:0:0:
152,113,121713,1,0,0:0:0:0:
115,102,121778,2,0,L|46:101,1,39.75,0|0,3:0|3:0,0:0:0:0:
220,44,121906,2,0,L|289:44,1,39.75,0|0,3:0|3:0,0:0:0:0:
102,303,122034,6,0,L|8:313,2,79.5,6|0|0,0:0|0:0|0:0,0:0:0:0:
327,111,122419,1,8,0:0:0:0:
363,123,122483,1,0,0:0:0:0:
378,158,122547,1,0,0:0:0:0:
362,193,122611,1,0,0:0:0:0:
325,204,122675,1,0,0:0:0:0:
232,226,122803,1,0,0:0:0:0:
131,233,122932,1,0,0:0:0:0:
377,309,123060,6,0,L|473:307,2,79.5,6|0|0,0:0|0:0|0:0,0:0:0:0:
172,334,123444,2,0,L|265:330,1,79.5,8|0,0:0|0:0,0:0:0:0:
288,320,123637,1,0,0:0:0:0:
304,285,123701,1,0,0:0:0:0:
288,250,123765,1,0,0:0:0:0:
246,230,123829,2,0,L|301:224,1,39.75,0|0,0:0|0:0,0:0:0:0:
427,189,123957,2,0,L|499:186,1,39.75,0|0,0:0|0:0,0:0:0:0:
311,124,124085,6,0,L|232:127,2,79.5,6|0|0,0:0|0:0|0:0,0:0:0:0:
99,69,124470,1,2,0:0:0:0:
186,93,124598,1,0,0:0:0:0:
199,129,124662,1,0,0:0:0:0:
188,167,124726,1,0,0:0:0:0:
159,192,124790,1,0,0:0:0:0:
120,196,124855,2,0,L|13:195,1,79.5,0|0,0:0|0:0,0:0:0:0:
263,329,125111,5,4,0:0:0:0:
176,332,125239,1,0,0:0:0:0:
138,323,125303,1,0,0:0:0:0:
121,288,125367,1,0,0:0:0:0:
137,253,125431,1,0,0:0:0:0:
174,244,125495,1,0,0:0:0:0:
403,243,125624,5,0,0:0:0:0:
441,234,125688,1,0,0:0:0:0:
458,199,125752,1,0,0:0:0:0:
442,164,125816,1,0,0:0:0:0:
303,138,125880,2,0,L|234:132,1,39.75,2|0,0:0|0:0,0:0:0:0:
404,71,126008,2,0,L|454:75,1,39.75,0|0,0:0|0:0,0:0:0:0:
284,44,126137,6,0,L|60:151,1,238.5,12|2,0:0|0:0,0:0:0:0:
366,342,127162,2,0,L|378:84,1,238.5,8|2,0:0|0:0,0:0:0:0:
54,67,128188,1,8,0:0:0:0:
256,192,128316,12,0,129983,0:0:0:0:
236,121,130239,6,0,L|95:118,2,119.25,2|0|2,0:0|0:0|0:0,0:0:0:0:
347,229,130752,2,0,L|254:235,1,79.5,0|8,0:0|0:0,0:0:0:0:
151,265,131008,2,0,L|128:218,2,39.75,8|0|8,0:0|0:0|0:0,0:0:0:0:
377,338,131265,5,2,0:0:0:0:
470,251,131393,1,0,0:0:0:0:
430,249,131457,1,0,0:0:0:0:
390,248,131521,1,8,0:0:0:0:
298,213,131650,1,2,0:0:0:0:
76,88,131778,5,2,0:0:0:0:
172,89,131906,2,0,L|215:93,1,39.75,8|0,0:0|0:0,0:0:0:0:
172,89,132034,2,0,L|125:93,2,39.75,8|0|8,0:0|0:0|0:0,0:0:0:0:
398,42,132291,6,0,P|424:89|367:145,1,119.25,2|0,0:0|0:0,0:0:0:0:
351,150,132547,1,8,0:0:0:0:
251,168,132675,1,2,0:0:0:0:
468,205,132803,2,0,L|474:291,1,79.5,0|8,0:0|0:0,0:0:0:0:
357,293,133060,2,0,L|348:377,1,79.5,8|8,0:0|0:0,0:0:0:0:
121,305,133316,6,0,L|239:258,1,119.25,2|0,0:0|0:0,0:0:0:0:
274,253,133573,1,8,0:0:0:0:
173,210,133701,1,2,0:0:0:0:
390,149,133829,2,0,L|494:145,1,79.5,8|8,0:0|0:0,0:0:0:0:
358,73,134085,2,0,L|447:66,1,79.5,4|0,0:0|0:0,0:0:0:0:
210,116,134342,6,0,L|67:108,1,119.25,2|0,0:0|0:0,0:0:0:0:
133,82,134598,1,8,0:0:0:0:
230,58,134726,1,2,0:0:0:0:
115,222,134855,2,0,L|3:237,1,79.5,8|2,0:0|0:0,0:0:0:0:
152,303,135111,2,0,L|196:304,1,39.75,2|0,0:0|0:0,0:0:0:0:
152,303,135239,2,0,L|94:309,1,39.75,8|0,0:0|0:0,0:0:0:0:
267,256,135367,5,2,0:0:0:0:
361,245,135496,2,0,L|382:193,2,39.75,8|0|0,0:0|0:0|0:0,0:0:0:0:
267,256,135752,1,8,0:0:0:0:
50,184,135880,5,2,0:0:0:0:
54,84,136008,1,8,0:0:0:0:
91,69,136072,1,0,0:0:0:0:
128,55,136136,1,8,0:0:0:0:
165,40,136200,1,0,0:0:0:0:
202,26,136264,1,0,0:0:0:0:
434,81,136393,6,0,P|449:134|379:169,1,119.25,2|0,0:0|0:0,0:0:0:0:
363,180,136650,1,8,0:0:0:0:
265,193,136778,1,2,0:0:0:0:
157,270,136906,2,0,L|288:289,2,119.25,2|0|0,0:0|0:0|0:0,0:0:0:0:
374,94,137419,2,0,L|247:74,2,119.25,2|0|2,0:0|0:0|0:0,0:0:0:0:
148,180,137932,5,8,0:0:0:0:
51,172,138060,2,0,L|36:128,2,39.75,8|0|4,0:0|0:0|0:0,0:0:0:0:
148,180,138316,1,2,0:0:0:0:
384,319,138444,6,0,P|437:183|219:343,1,795,0|2,0:0|0:0,0:0:0:0:
384,342,140154,1,8,0:0:0:0:
208,252,140496,1,2,0:0:0:0:
38,220,140837,1,2,0:0:0:0:
214,163,141179,1,2,0:0:0:0:
423,70,141521,6,0,P|448:124|183:320,1,477,10|10,0:0|0:0,0:0:0:0:
102,236,142419,2,0,L|158:233,1,39.75,8|0,0:0|0:0,0:0:0:0:
295,222,142547,5,2,0:0:0:0:
385,195,142675,2,0,L|406:151,2,39.75,0|0|8,0:0|0:0|0:0,0:0:0:0:
295,222,142932,1,2,0:0:0:0:
84,113,143060,1,2,0:0:0:0:
177,37,143188,1,8,0:0:0:0:
180,76,143252,1,0,0:0:0:0:
184,116,143316,1,8,0:0:0:0:
283,137,143444,1,8,0:0:0:0:
63,209,143573,6,0,L|61:296,1,79.5,2|0,0:0|0:0,0:0:0:0:
176,326,143829,2,0,L|85:334,1,79.5,8|2,0:0|0:0,0:0:0:0:
310,338,144085,1,2,0:0:0:0:
397,274,144214,2,0,L|351:267,1,39.75,8|0,0:0|0:0,0:0:0:0:
203,175,144342,6,0,L|103:168,2,53,8|0|0,0:0|0:0|0:0,0:0:0:0:
394,106,144598,2,0,L|476:98,2,53,2|2|2,3:2|3:2|3:2,0:0:0:0:
325,107,144855,6,0,L|270:102,2,53,2|2|2,3:2|3:2|3:2,0:0:0:0:
155,41,145111,1,2,3:2:0:0:
102,41,145196,1,2,3:2:0:0:
49,42,145281,1,2,3:2:0:0:
234,196,145367,2,0,L|297:195,2,53,2|2|2,3:2|3:2|3:2,0:0:0:0:
35,189,145624,5,8,3:2:0:0:
