osu file format v14

[General]
AudioFilename: audio.mp3
AudioLeadIn: 0
PreviewTime: 95293
Countdown: 0
SampleSet: Soft
StackLeniency: 0.7
Mode: 2
LetterboxInBreaks: 0
WidescreenStoryboard: 1

[Editor]
Bookmarks: 9204,19140,20486,23370,25614,33819,35870,37922,39973,42024,50229,64588,80998,97409,113819,130229,138434,145614
DistanceSpacing: 1
BeatDivisor: 4
GridSize: 4
TimelineZoom: 3.199999

[Metadata]
Title:Aegleseeker
TitleUnicode:Aegleseeker
Artist:Silentroom vs. Frums
ArtistUnicode:Silentroom vs. Frums
Creator:Jemzuu
Version:Kukkai's Overdose
Source:Arcaea
Tags:ajamez gigas [_-Kukkai-_] autofanboy alienflybot bunnrei -plus- ster osu_gangster chara razor sharp lowiro esoteric order electronic instrumental video game Song Contest 2020
BeatmapID:3024975
BeatmapSetID:1460413

[Difficulty]
HPDrainRate:5
CircleSize:4
OverallDifficulty:9.5
ApproachRate:9.5
SliderMultiplier:1.7
SliderTickRate:2

[Events]
//Background and Video events
0,0,"86238824_p0.jpg",0,0
//Break Periods
2,95439,96894
//Storyboard Layer 0 (Background)
//Storyboard Layer 1 (Fail)
//Storyboard Layer 2 (Pass)
//Storyboard Layer 3 (Foreground)
//Storyboard Layer 4 (Overlay)
//Storyboard Sound Samples

[TimingPoints]
1009,256.410256410256,4,2,1,60,1,0
1137,-100,4,2,1,30,0,0
9214,-100,4,2,1,20,0,0
11265,-100,4,2,1,30,0,0
12803,-100,4,2,1,35,0,0
13316,-100,4,2,1,40,0,0
14342,-100,4,2,1,45,0,0
15367,-100,4,2,1,60,0,0
16393,-100,4,2,1,10,0,0
16521,-100,4,2,1,60,0,0
17419,-83.3333333333333,4,2,6,60,0,0
17547,-83.3333333333333,4,2,2,60,0,0
18316,-83.3333333333333,4,2,2,60,0,0
18444,-83.3333333333333,4,2,2,70,0,0
19470,-83.3333333333333,4,2,2,75,0,0
19598,-83.3333333333333,4,2,2,75,0,0
20239,-83.3333333333333,4,2,2,80,0,0
21265,-83.3333333333333,4,2,2,80,0,0
21521,-83.3333333333333,4,2,6,80,0,0
21650,-83.3333333333333,4,2,2,60,0,0
22547,-83.3333333333333,4,2,2,65,0,0
22803,-83.3333333333333,4,2,2,70,0,0
23316,-83.3333333333333,4,2,2,75,0,0
23444,-83.3333333333333,4,2,2,75,0,0
24085,-83.3333333333333,4,2,2,80,0,0
24598,-83.3333333333333,4,2,3,80,0,0
24854,-83.3333333333333,4,2,3,80,0,0
25367,-83.3333333333333,4,2,4,65,0,0
25624,-83.3333333333333,4,1,1,70,0,0
26393,-83.3333333333333,4,1,1,70,0,0
26649,-83.3333333333333,4,1,1,70,0,0
27418,-83.3333333333333,4,1,1,70,0,0
27675,-83.3333333333333,4,1,1,70,0,0
28444,-83.3333333333333,4,1,1,70,0,0
28701,-83.3333333333333,4,1,1,70,0,0
29342,-83.3333333333333,4,1,1,70,0,0
29598,-83.3333333333333,4,1,1,70,0,0
29726,-83.3333333333333,4,1,1,60,0,0
30495,-83.3333333333333,4,1,1,60,0,0
30624,-83.3333333333333,4,1,2,60,0,0
30752,-83.3333333333333,4,1,1,60,0,0
31521,-83.3333333333333,4,1,1,60,0,0
31650,-83.3333333333333,4,1,2,60,0,0
31777,-83.3333333333333,4,1,1,65,0,0
32547,-83.3333333333333,4,1,1,60,0,0
32675,-83.3333333333333,4,1,2,60,0,0
32803,-83.3333333333333,4,1,1,60,0,0
33444,-83.3333333333333,4,1,2,60,0,0
33829,-83.3333333333333,4,1,4,80,0,0
33957,-83.3333333333333,4,1,4,65,0,0
34342,-83.3333333333333,4,1,4,65,0,0
34534,-83.3333333333333,4,1,4,65,0,0
34854,-83.3333333333333,4,1,4,70,0,0
35047,-83.3333333333333,4,1,4,70,0,0
35367,-83.3333333333333,4,1,4,70,0,0
35880,-83.3333333333333,4,1,4,75,0,0
36649,-83.3333333333333,4,1,4,75,0,0
37034,-83.3333333333333,4,1,4,75,0,0
37162,-83.3333333333333,4,1,4,80,0,0
37418,-83.3333333333333,4,1,4,65,0,0
37931,-83.3333333333333,4,1,4,80,0,0
38060,-83.3333333333333,4,1,4,65,0,0
38636,-83.3333333333333,4,1,4,65,0,0
38829,-83.3333333333333,4,1,4,65,0,0
38957,-83.3333333333333,4,1,4,70,0,0
39021,-83.3333333333333,4,1,4,70,0,0
39213,-83.3333333333333,4,1,4,70,0,0
39470,-83.3333333333333,4,1,4,75,0,0
40047,-83.3333333333333,4,1,4,75,0,0
41008,-83.3333333333333,4,1,4,75,0,0
41265,-83.3333333333333,4,1,4,80,0,0
42034,-83.3333333333333,4,1,1,70,0,0
42675,-83.3333333333333,4,1,1,70,0,0
42803,-83.3333333333333,4,1,1,70,0,0
43060,-83.3333333333333,4,1,1,70,0,0
43701,-83.3333333333333,4,1,1,70,0,0
43829,-83.3333333333333,4,1,1,70,0,0
44085,-83.3333333333333,4,1,1,70,0,0
44726,-83.3333333333333,4,1,1,70,0,0
44854,-83.3333333333333,4,1,1,70,0,0
45111,-83.3333333333333,4,1,1,70,0,0
45880,-83.3333333333333,4,1,1,70,0,0
46136,-83.3333333333333,4,1,1,60,0,0
46777,-83.3333333333333,4,1,1,60,0,0
46906,-83.3333333333333,4,1,2,60,0,0
47162,-83.3333333333333,4,1,1,60,0,0
47803,-83.3333333333333,4,1,1,60,0,0
47931,-83.3333333333333,4,1,2,60,0,0
48188,-83.3333333333333,4,1,1,60,0,0
48829,-83.3333333333333,4,1,1,60,0,0
48957,-83.3333333333333,4,1,2,60,0,0
49213,-83.3333333333333,4,1,1,60,0,0
49470,-83.3333333333333,4,1,5,60,0,0
49598,-83.3333333333333,4,1,5,60,0,0
50239,-100,4,2,5,60,0,0
51649,-100,4,2,5,60,0,0
52290,-100,4,2,5,60,0,0
52931,-100,4,2,5,60,0,0
54342,-100,4,2,5,60,0,0
54854,-100,4,2,5,60,0,0
55880,-100,4,2,5,60,0,0
56393,-100,4,2,5,60,0,0
57034,-100,4,2,5,60,0,0
57290,-100,4,2,5,60,0,0
58701,-100,4,2,5,65,0,0
58957,-100,4,2,5,65,0,0
59213,-100,4,2,5,65,0,0
59470,-100,4,2,5,65,0,0
61393,-100,4,2,5,65,0,0
61649,-100,4,2,5,65,0,0
61906,-100,4,2,5,65,0,0
63572,-100,4,2,5,70,0,0
64085,-100,4,2,5,75,0,0
64342,-100,4,2,5,80,0,0
64598,-83.3333333333333,4,2,5,85,0,0
64983,-83.3333333333333,4,2,5,80,0,0
65111,-83.3333333333333,4,2,5,80,0,0
65880,-83.3333333333333,4,2,5,80,0,0
66136,-83.3333333333333,4,1,6,70,0,0
66649,-83.3333333333333,4,1,6,80,0,0
66906,-83.3333333333333,4,1,6,80,0,0
67675,-83.3333333333333,4,1,6,80,0,0
67931,-83.3333333333333,4,1,6,80,0,0
68188,-83.3333333333333,4,1,6,80,0,0
68380,-83.3333333333333,4,1,6,80,0,0
68572,-83.3333333333333,4,1,6,80,0,0
68701,-83.3333333333333,4,1,6,80,0,0
68957,-83.3333333333333,4,1,6,80,0,0
69213,-83.3333333333333,4,1,6,80,0,0
69726,-83.3333333333333,4,1,6,80,0,0
70495,-83.3333333333333,4,1,6,80,0,0
71008,-83.3333333333333,4,1,6,80,0,0
72290,-83.3333333333333,4,1,6,80,0,0
73316,256.410256410256,3,1,6,80,1,0
73316,-83.3333333333333,4,1,6,80,0,0
73572,-83.3333333333333,4,1,6,80,0,0
76393,-83.3333333333333,4,1,6,80,0,0
76906,-83.3333333333333,4,1,6,80,0,0
77162,-83.3333333333333,4,1,6,80,0,0
77418,-83.3333333333333,4,1,6,80,0,0
77675,-83.3333333333333,4,1,6,80,0,0
77931,-83.3333333333333,4,1,6,80,0,0
78188,-83.3333333333333,4,1,6,80,0,0
78701,-83.3333333333333,4,1,6,80,0,0
78957,-83.3333333333333,4,1,6,80,0,0
81008,256.410256410256,4,2,73,80,1,0
81008,-100,4,2,73,80,0,0
81136,-100,4,2,1,40,0,0
81584,-100,4,2,1,40,0,0
84212,-100,4,2,1,40,0,0
87161,-100,4,2,1,40,0,0
89213,-100,4,2,1,40,0,0
93572,-100,4,2,1,60,0,0
94341,-100,4,2,10,60,0,0
94597,-100,4,2,1,60,0,0
97418,-83.3333333333333,4,3,1,80,0,1
97802,-83.3333333333333,4,3,1,80,0,1
98059,-83.3333333333333,4,3,1,80,0,1
98443,-83.3333333333333,4,3,1,80,0,1
98828,-83.3333333333333,4,3,1,80,0,1
99084,-83.3333333333333,4,3,1,80,0,1
99469,-83.3333333333333,4,3,2,80,0,1
99854,-83.3333333333333,4,3,2,80,0,1
100238,-83.3333333333333,4,3,2,80,0,1
100495,-83.3333333333333,4,3,2,80,0,1
101264,-83.3333333333333,4,3,3,80,0,1
101520,-83.3333333333333,4,3,3,80,0,1
101905,-83.3333333333333,4,3,4,80,0,1
102161,-83.3333333333333,4,2,1,60,0,1
102546,-83.3333333333333,4,3,4,80,0,1
102931,-83.3333333333333,4,3,5,80,0,1
103187,-83.3333333333333,4,3,2,60,0,1
103572,-83.3333333333333,4,3,2,80,0,1
103956,-83.3333333333333,4,3,2,80,0,1
105495,-83.3333333333333,4,3,2,80,0,0
105623,-83.3333333333333,4,3,1,80,0,1
106007,-83.3333333333333,4,3,1,80,0,1
106264,-83.3333333333333,4,3,1,80,0,1
106649,-83.3333333333333,4,3,1,80,0,1
107033,-83.3333333333333,4,3,1,80,0,1
107290,-83.3333333333333,4,2,1,60,0,1
107674,-83.3333333333333,4,3,2,80,0,1
108059,-83.3333333333333,4,3,2,80,0,1
108315,-83.3333333333333,4,3,2,80,0,1
109469,-83.3333333333333,4,3,3,80,0,1
109725,-83.3333333333333,4,3,3,80,0,1
110110,-83.3333333333333,4,3,4,80,0,1
110366,-83.3333333333333,4,2,1,60,0,1
110751,-83.3333333333333,4,3,4,80,0,1
111136,-83.3333333333333,4,3,5,80,0,1
111392,-83.3333333333333,4,2,1,60,0,1
111777,-83.3333333333333,4,3,2,80,0,1
112161,-83.3333333333333,4,3,2,80,0,1
113828,-100,4,3,73,80,0,0
113892,-100,4,3,1,60,0,0
115879,-83.3333333333333,4,3,1,80,0,1
116264,-83.3333333333333,4,3,2,80,0,1
116777,-83.3333333333333,4,3,99,80,0,1
116905,-83.3333333333333,4,3,55,80,0,1
117033,-83.3333333333333,4,3,98,80,0,1
117290,-83.3333333333333,4,3,97,80,0,1
117418,-83.3333333333333,4,3,98,80,0,1
117675,-83.3333333333333,4,3,98,80,0,1
117931,-83.3333333333333,4,3,97,80,0,1
118315,-83.3333333333333,4,3,96,80,0,1
118443,-83.3333333333333,4,2,1,60,0,1
118956,-83.3333333333333,4,3,55,80,0,1
119084,-83.3333333333333,4,3,99,80,0,1
119341,-83.3333333333333,4,3,95,80,0,1
119725,-83.3333333333333,4,3,96,80,0,1
119982,-83.3333333333333,4,3,94,80,0,1
120366,-83.3333333333333,4,3,97,80,0,1
121007,-83.3333333333333,4,3,56,80,0,1
121072,-83.3333333333333,4,3,95,80,0,1
121392,-83.3333333333333,4,3,94,80,0,1
121905,-83.3333333333333,4,2,1,80,0,0
122033,-83.3333333333333,4,3,80,85,0,1
122802,-83.3333333333333,4,3,80,85,0,1
123059,-83.3333333333333,4,3,57,85,0,1
123123,-83.3333333333333,4,3,70,85,0,1
123315,-83.3333333333333,4,3,80,85,0,1
124469,-83.3333333333333,4,3,79,85,0,1
125110,-83.3333333333333,4,3,55,85,0,1
125174,-83.3333333333333,4,3,79,85,0,1
125879,-83.3333333333333,4,3,98,85,0,1
126136,-83.3333333333333,4,3,97,70,0,0
126520,-83.3333333333333,4,3,96,70,0,0
127161,-83.3333333333333,4,3,99,70,0,0
128187,-83.3333333333333,4,3,99,70,0,0
129982,-83.3333333333333,4,1,6,50,0,0
130110,-83.3333333333333,4,1,6,55,0,0
130495,-83.3333333333333,4,1,6,60,0,0
132290,-83.3333333333333,4,1,6,60,0,0
134084,-83.3333333333333,4,1,1,75,0,0
134341,-83.3333333333333,4,1,6,60,0,0
138187,-83.3333333333333,4,1,2,75,0,0
138251,-83.3333333333333,4,1,1,60,0,0
138443,-83.3333333333333,4,1,6,60,0,0
138572,-83.3333333333333,4,2,5,60,0,0
139725,-83.3333333333333,4,2,3,40,0,0
141520,-133.333333333333,4,2,3,50,0,0
142290,-83.3333333333333,4,1,6,50,0,0
142418,-83.3333333333333,4,1,6,60,0,0
142546,-83.3333333333333,4,1,6,70,0,0
144597,-83.3333333333333,4,2,3,70,0,0
145623,-83.3333333333333,4,2,3,60,0,0

[Colours]
Combo1 : 132,193,255
Combo2 : 151,151,255
Combo3 : 255,145,255

[HitObjects]
280,320,9214,5,2,3:2:0:0:
228,320,9855,1,0,3:2:0:0:
228,320,10239,1,0,3:2:0:0:
276,320,10880,1,0,3:2:0:0:
276,320,11137,1,0,3:2:0:0:
228,320,11265,1,2,3:2:0:0:
276,320,11906,5,0,3:2:0:0:
276,320,12291,1,0,3:2:0:0:
228,320,12675,1,0,3:2:0:0:
228,320,12932,1,0,3:2:0:0:
276,320,13188,1,0,3:2:0:0:
276,320,13316,1,2,3:2:0:0:
228,320,13957,5,0,3:2:0:0:
228,320,14342,1,0,3:2:0:0:
276,320,14983,1,0,3:2:0:0:
228,320,15239,1,2,3:2:0:0:
256,192,16393,12,0,17291,0:0:0:0:
164,320,17419,5,4,1:0:0:0:
264,320,17547,5,2,0:0:0:0:
316,320,17611,2,0,L|316:256,3,50.9999984436036,0|2|0|0,0:0|0:0|0:0|0:0,0:0:0:0:
264,264,17867,5,0,0:0:0:0:
212,264,17931,2,0,L|212:200,3,50.9999984436036,2|0|0|0,0:0|0:0|0:0|0:0,0:0:0:0:
268,220,18188,5,2,0:0:0:0:
324,220,18252,2,0,L|324:156,3,50.9999984436036,0|0|0|2,0:0|0:0|0:0|0:0,0:0:0:0:
264,168,18508,5,0,0:0:0:0:
200,168,18573,2,0,L|200:88,3,50.9999984436036,0|0|2|0,0:0|0:0|0:0|0:0,0:0:0:0:
260,124,18829,5,0,0:0:0:0:
320,124,18893,2,0,L|320:56,3,50.9999984436036,0|2|0|0,0:0|0:0|0:0|0:0,0:0:0:0:
188,232,19150,5,0,0:0:0:0:
136,232,19214,1,2,0:0:0:0:
84,232,19278,2,0,L|84:172,2,50.9999984436036,0|0|0,0:0|0:0|0:0,0:0:0:0:
316,232,19470,5,2,0:0:0:0:
368,232,19534,1,0,0:0:0:0:
420,232,19598,2,0,L|420:172,2,50.9999984436036,0|0|2,0:0|0:0|0:0,0:0:0:0:
188,136,19791,5,0,0:0:0:0:
136,136,19855,1,0,0:0:0:0:
84,136,19919,1,0,0:0:0:0:
32,136,19983,2,0,L|32:200,1,50.9999984436036,2|0,0:0|0:0,0:0:0:0:
316,136,20111,5,0,0:0:0:0:
368,136,20175,1,0,0:0:0:0:
420,136,20239,1,2,0:0:0:0:
472,136,20303,2,0,L|472:200,1,50.9999984436036,0|0,0:0|0:0,0:0:0:0:
344,304,20432,1,0,0:0:0:0:
220,308,20496,5,2,0:0:0:0:
408,332,20624,2,0,L|408:224,1,101.999996887207,8|8,0:0|0:0,0:0:0:0:
356,232,20816,1,0,0:0:0:0:
168,220,20880,5,8,0:0:0:0:
244,220,20966,1,0,0:0:0:0:
320,220,21051,1,8,0:0:0:0:
164,152,21137,2,0,L|136:152,2,25.4999992218018,0|0|0,0:0|0:0|0:0,0:0:0:0:
348,152,21265,5,8,0:0:0:0:
372,147,21297,1,0,0:0:0:0:
390,130,21329,1,0,0:0:0:0:
396,105,21361,1,0,0:0:0:0:
387,81,21393,1,0,0:0:0:0:
367,67,21425,1,0,0:0:0:0:
342,66,21457,1,0,0:0:0:0:
200,76,21521,5,4,1:0:0:0:
308,364,21650,2,0,L|308:304,3,50.9999984436036,2|0|2|0,0:0|0:0|0:0|0:0,0:0:0:0:
256,320,21906,1,0,0:0:0:0:
204,324,21970,6,0,L|204:264,3,50.9999984436036,0|2|0|0,0:0|0:0|0:0|0:0,0:0:0:0:
260,276,22226,1,0,0:0:0:0:
316,276,22291,6,0,L|316:204,3,50.9999984436036,2|0|0|0,0:0|0:0|0:0|0:0,0:0:0:0:
256,232,22547,1,2,0:0:0:0:
116,232,22611,6,0,L|116:156,3,50.9999984436036,0|0|0|2,0:0|0:0|0:0|0:0,0:0:0:0:
176,184,22867,1,0,0:0:0:0:
396,232,22932,6,0,L|396:156,3,50.9999984436036,0|0|2|0,0:0|0:0|0:0|0:0,0:0:0:0:
336,184,23188,1,0,0:0:0:0:
80,136,23252,6,0,L|80:84,2,50.9999984436036,0|2|0,0:0|0:0|0:0,0:0:0:0:
132,136,23444,1,0,0:0:0:0:
184,136,23509,1,0,0:0:0:0:
432,136,23573,6,0,L|432:84,2,50.9999984436036,2|0|0,0:0|0:0|0:0,0:0:0:0:
380,136,23765,1,0,0:0:0:0:
328,136,23830,1,2,0:0:0:0:
48,224,23893,6,0,L|48:164,1,50.9999984436036,0|0,0:0|0:0,0:0:0:0:
100,172,24021,1,0,0:0:0:0:
152,172,24085,1,2,0:0:0:0:
204,172,24150,1,0,0:0:0:0:
464,224,24214,6,0,L|464:164,1,50.9999984436036,0|0,0:0|0:0,0:0:0:0:
412,172,24342,1,2,0:0:0:0:
360,172,24406,1,0,0:0:0:0:
308,172,24471,1,0,0:0:0:0:
180,324,24534,1,0,0:0:0:0:
48,328,24598,6,0,L|48:184,1,101.999996887207,2|2,0:0|0:0,0:0:0:0:
296,224,24855,1,8,0:0:0:0:
196,224,24983,1,2,0:0:0:0:
364,128,25047,1,8,0:0:0:0:
464,132,25175,1,2,0:0:0:0:
304,128,25239,2,0,L|240:128,1,50.9999984436036,8|8,0:0|0:0,0:0:0:0:
436,368,25367,5,4,3:2:0:0:
460,359,25399,1,0,0:0:0:0:
477,340,25431,1,0,0:0:0:0:
483,315,25463,1,0,0:0:0:0:
477,291,25495,1,0,0:0:0:0:
460,272,25527,1,0,0:0:0:0:
436,264,25559,1,0,0:0:0:0:
232,264,25624,5,12,0:0:0:0:
180,240,25688,1,0,0:0:0:0:
180,191,25752,1,0,0:0:0:0:
231,166,25816,1,0,0:0:0:0:
396,168,25880,1,2,0:0:0:0:
288,96,26008,1,8,0:0:0:0:
236,96,26073,1,0,0:0:0:0:
236,44,26137,1,8,0:0:0:0:
288,44,26201,1,0,0:0:0:0:
456,44,26265,1,2,0:0:0:0:
244,348,26393,6,0,L|140:348,1,101.999996887207,8|0,0:0|0:0,0:0:0:0:
348,276,26650,5,8,0:0:0:0:
400,276,26714,1,0,0:0:0:0:
400,224,26778,1,0,0:0:0:0:
348,224,26842,1,0,0:0:0:0:
184,224,26906,1,2,0:0:0:0:
292,144,27034,1,8,0:0:0:0:
344,144,27098,1,0,0:0:0:0:
344,92,27162,1,8,0:0:0:0:
292,92,27226,1,0,0:0:0:0:
120,88,27291,1,2,0:0:0:0:
332,360,27419,6,0,L|448:360,1,101.999996887207,4|0,0:0|0:0,0:0:0:0:
200,256,27675,5,8,0:0:0:0:
148,256,27739,1,0,0:0:0:0:
200,256,27803,1,0,0:0:0:0:
252,256,27867,1,0,0:0:0:0:
408,256,27932,1,2,0:0:0:0:
304,180,28060,1,8,0:0:0:0:
252,180,28124,1,0,0:0:0:0:
200,180,28188,1,8,0:0:0:0:
252,180,28252,1,0,0:0:0:0:
416,180,28316,1,2,0:0:0:0:
208,112,28444,6,0,L|88:112,1,101.999996887207,4|0,0:0|0:0,0:0:0:0:
312,44,28701,5,8,0:0:0:0:
364,44,28765,1,0,0:0:0:0:
416,44,28829,1,0,0:0:0:0:
364,44,28893,1,0,0:0:0:0:
196,40,28957,1,2,0:0:0:0:
300,360,29085,1,8,0:0:0:0:
352,360,29150,1,0,0:0:0:0:
300,360,29214,1,8,0:0:0:0:
248,360,29278,1,0,0:0:0:0:
84,356,29342,1,2,0:0:0:0:
312,288,29470,6,0,L|400:288,2,67.9999979248048,2|2|2,0:0|0:0|0:0,0:0:0:0:
152,192,29726,5,8,0:0:0:0:
152,140,29791,1,0,0:0:0:0:
204,140,29855,1,0,0:0:0:0:
256,140,29919,1,0,0:0:0:0:
416,144,29983,1,2,0:0:0:0:
316,144,30111,1,8,0:0:0:0:
264,144,30175,1,0,0:0:0:0:
264,92,30239,1,8,0:0:0:0:
316,92,30303,1,0,0:0:0:0:
480,92,30367,1,2,0:0:0:0:
252,352,30496,6,0,L|252:220,1,101.999996887207,0|4,0:0|0:0,0:0:0:0:
464,248,30752,5,8,0:0:0:0:
412,248,30816,1,0,0:0:0:0:
360,248,30880,1,0,0:0:0:0:
308,248,30944,1,0,0:0:0:0:
144,244,31008,1,2,0:0:0:0:
248,192,31137,1,8,0:0:0:0:
300,192,31201,1,0,0:0:0:0:
248,192,31265,1,8,0:0:0:0:
196,192,31329,1,0,0:0:0:0:
32,188,31393,1,2,0:0:0:0:
244,356,31521,6,0,L|244:240,1,101.999996887207,0|4,0:0|0:0,0:0:0:0:
36,256,31778,5,8,0:0:0:0:
36,204,31842,1,0,0:0:0:0:
88,204,31906,1,0,0:0:0:0:
140,204,31970,1,0,0:0:0:0:
308,204,32034,1,2,0:0:0:0:
408,204,32162,1,8,0:0:0:0:
408,152,32226,1,0,0:0:0:0:
356,152,32291,1,8,0:0:0:0:
304,152,32355,1,0,0:0:0:0:
140,144,32419,1,2,0:0:0:0:
348,360,32547,6,0,L|464:360,1,101.999996887207,8|4,0:0|0:0,0:0:0:0:
200,300,32803,5,8,0:0:0:0:
200,248,32867,1,0,0:0:0:0:
252,248,32932,1,0,0:0:0:0:
252,196,32996,1,0,0:0:0:0:
108,200,33060,2,0,L|40:200,1,50.9999984436036,8|0,0:0|0:0,0:0:0:0:
252,140,33188,2,0,L|388:140,1,101.999996887207,8|0,0:0|0:0,0:0:0:0:
132,372,33444,5,0,0:0:0:0:
107,369,33476,1,0,0:0:0:0:
84,358,33508,1,0,0:0:0:0:
66,340,33540,1,0,0:0:0:0:
55,318,33572,1,0,0:0:0:0:
52,292,33604,1,0,0:0:0:0:
58,268,33636,1,0,0:0:0:0:
72,246,33668,1,0,0:0:0:0:
92,231,33700,1,0,0:0:0:0:
116,223,33732,1,0,0:0:0:0:
141,223,33764,1,0,0:0:0:0:
268,224,33829,5,4,0:0:0:0:
368,224,33957,1,0,0:0:0:0:
316,224,34021,1,0,0:0:0:0:
268,224,34085,1,8,0:0:0:0:
268,172,34150,1,0,0:0:0:0:
320,172,34214,1,0,0:0:0:0:
320,120,34278,1,0,0:0:0:0:
164,124,34342,5,8,0:0:0:0:
112,124,34406,1,0,0:0:0:0:
164,124,34470,1,0,0:0:0:0:
216,124,34534,1,8,0:0:0:0:
268,124,34598,1,0,0:0:0:0:
216,124,34662,1,0,0:0:0:0:
164,124,34726,1,8,0:0:0:0:
164,180,34791,1,0,0:0:0:0:
216,180,34855,1,0,0:0:0:0:
268,180,34919,1,8,0:0:0:0:
320,180,34983,1,0,0:0:0:0:
320,128,35047,1,0,0:0:0:0:
268,132,35111,1,8,0:0:0:0:
216,132,35175,1,0,0:0:0:0:
164,132,35239,1,0,0:0:0:0:
216,132,35303,1,0,0:0:0:0:
372,352,35367,5,8,0:0:0:0:
424,352,35432,1,0,0:0:0:0:
424,300,35496,1,0,0:0:0:0:
372,300,35560,1,8,0:0:0:0:
320,300,35624,1,0,0:0:0:0:
320,248,35688,1,0,0:0:0:0:
372,248,35752,1,8,0:0:0:0:
424,248,35816,1,0,0:0:0:0:
372,248,35880,1,0,0:0:0:0:
320,248,35944,1,8,0:0:0:0:
268,248,36008,1,0,0:0:0:0:
320,248,36073,1,0,0:0:0:0:
372,248,36137,1,8,0:0:0:0:
424,248,36201,1,0,0:0:0:0:
424,196,36265,1,0,3:0:0:0:
372,196,36329,1,0,0:0:0:0:
192,136,36393,5,8,0:0:0:0:
140,136,36457,1,0,0:0:0:0:
88,136,36521,1,0,0:0:0:0:
140,136,36585,1,8,0:0:0:0:
192,136,36650,1,2,0:0:0:0:
192,84,36714,1,0,0:0:0:0:
132,80,36778,1,0,3:0:0:0:
80,80,36842,1,0,0:0:0:0:
80,80,36906,1,2,0:0:0:0:
140,80,36970,1,0,3:0:0:0:
192,84,37034,1,0,0:0:0:0:
140,84,37098,1,0,0:0:0:0:
80,84,37162,1,10,0:0:0:0:
80,80,37226,1,0,0:0:0:0:
140,80,37291,1,0,0:0:0:0:
192,80,37355,1,0,0:0:0:0:
376,292,37419,5,10,0:0:0:0:
428,292,37483,1,0,0:0:0:0:
376,292,37547,1,0,0:0:0:0:
244,296,37611,1,10,0:0:0:0:
192,296,37675,1,0,0:0:0:0:
244,296,37739,1,0,0:0:0:0:
376,292,37803,1,10,0:0:0:0:
376,240,37867,1,0,0:0:0:0:
176,176,37932,5,4,0:0:0:0:
76,176,38060,1,0,0:0:0:0:
76,124,38124,1,0,0:0:0:0:
128,124,38188,1,8,0:0:0:0:
180,124,38252,1,0,0:0:0:0:
128,124,38316,1,0,0:0:0:0:
76,124,38380,1,0,0:0:0:0:
328,124,38444,5,8,0:0:0:0:
380,124,38508,1,0,0:0:0:0:
380,72,38573,1,0,0:0:0:0:
328,72,38637,1,8,0:0:0:0:
276,72,38701,1,0,0:0:0:0:
224,72,38765,1,0,0:0:0:0:
276,72,38829,1,8,0:0:0:0:
328,72,38893,1,0,0:0:0:0:
380,72,38957,1,0,0:0:0:0:
328,72,39021,1,8,0:0:0:0:
276,72,39085,1,0,0:0:0:0:
276,20,39150,1,0,0:0:0:0:
328,20,39214,1,8,0:0:0:0:
276,20,39278,1,0,0:0:0:0:
224,20,39342,1,8,0:0:0:0:
172,20,39406,1,0,0:0:0:0:
328,224,39470,5,8,0:0:0:0:
380,224,39534,1,0,0:0:0:0:
328,224,39598,1,0,0:0:0:0:
276,224,39662,1,8,0:0:0:0:
224,224,39726,1,0,0:0:0:0:
276,224,39791,1,0,0:0:0:0:
328,224,39855,1,8,0:0:0:0:
328,172,39919,1,0,0:0:0:0:
276,172,39983,1,0,0:0:0:0:
224,172,40047,1,8,0:0:0:0:
224,120,40111,1,0,0:0:0:0:
276,120,40175,1,0,0:0:0:0:
328,120,40239,1,8,0:0:0:0:
328,68,40303,1,0,0:0:0:0:
276,68,40367,1,0,0:0:0:0:
224,68,40432,1,0,0:0:0:0:
376,328,40496,5,8,0:0:0:0:
376,328,40560,1,0,0:0:0:0:
324,328,40624,1,0,0:0:0:0:
272,328,40688,1,8,0:0:0:0:
220,328,40752,1,0,0:0:0:0:
220,276,40816,1,0,0:0:0:0:
272,276,40880,1,8,0:0:0:0:
272,224,40944,1,0,0:0:0:0:
220,224,41008,1,0,0:0:0:0:
168,224,41073,1,8,0:0:0:0:
116,224,41137,1,0,0:0:0:0:
168,224,41201,1,0,0:0:0:0:
220,224,41265,1,8,0:0:0:0:
272,224,41329,1,0,0:0:0:0:
332,224,41393,1,0,0:0:0:0:
280,224,41457,1,0,0:0:0:0:
124,128,41521,6,0,L|56:128,2,50.9999984436036,2|0|0,0:0|0:0|0:0,0:0:0:0:
264,128,41714,2,0,L|344:128,2,50.9999984436036,2|0|0,0:0|0:0|0:0,0:0:0:0:
124,128,41906,2,0,L|124:56,1,50.9999984436036,2|0,0:0|0:0,0:0:0:0:
368,132,42034,5,12,0:0:0:0:
420,132,42098,1,0,0:0:0:0:
368,132,42162,1,0,0:0:0:0:
316,132,42226,1,0,0:0:0:0:
144,128,42291,1,2,0:0:0:0:
252,64,42419,1,8,0:0:0:0:
304,64,42483,1,0,0:0:0:0:
356,64,42547,1,8,0:0:0:0:
304,64,42611,1,0,0:0:0:0:
140,60,42675,1,2,0:0:0:0:
392,356,42803,6,0,L|392:232,1,101.999996887207,2|0,0:0|0:0,0:0:0:0:
168,256,43060,5,12,0:0:0:0:
116,256,43124,1,0,0:0:0:0:
64,256,43188,1,0,0:0:0:0:
64,204,43252,1,0,0:0:0:0:
236,204,43316,1,2,0:0:0:0:
136,204,43444,1,8,0:0:0:0:
136,152,43508,1,0,0:0:0:0:
188,152,43573,1,8,0:0:0:0:
240,152,43637,1,0,0:0:0:0:
404,148,43701,1,2,0:0:0:0:
168,358,43829,6,0,L|168:242,1,101.999996887207,10|0,0:0|0:0,0:0:0:0:
376,200,44085,5,12,0:0:0:0:
324,200,44150,1,0,0:0:0:0:
272,200,44214,1,0,0:0:0:0:
220,200,44278,1,0,0:0:0:0:
56,204,44342,1,2,0:0:0:0:
160,128,44470,1,8,0:0:0:0:
212,128,44534,1,0,0:0:0:0:
264,128,44598,1,8,0:0:0:0:
264,76,44662,1,0,0:0:0:0:
100,76,44726,1,2,0:0:0:0:
340,348,44855,6,0,L|464:348,1,101.999996887207,10|0,0:0|0:0,0:0:0:0:
204,276,45111,5,12,0:0:0:0:
152,276,45175,1,0,0:0:0:0:
152,224,45239,1,0,0:0:0:0:
204,224,45303,1,0,0:0:0:0:
368,224,45367,1,2,0:0:0:0:
264,148,45496,1,8,0:0:0:0:
212,148,45560,1,0,0:0:0:0:
160,148,45624,1,8,0:0:0:0:
212,148,45688,1,0,0:0:0:0:
384,144,45752,1,2,0:0:0:0:
144,52,45880,6,0,L|56:52,2,67.9999979248048,2|2|2,0:0|0:0|0:0,0:0:0:0:
328,356,46137,5,12,0:0:0:0:
328,304,46201,1,0,0:0:0:0:
276,304,46265,1,0,0:0:0:0:
224,304,46329,1,0,0:0:0:0:
76,304,46393,1,2,0:0:0:0:
176,208,46521,1,8,0:0:0:0:
228,208,46585,1,0,0:0:0:0:
280,208,46650,1,8,0:0:0:0:
228,208,46714,1,0,0:0:0:0:
72,204,46778,1,2,0:0:0:0:
304,136,46906,6,0,L|452:136,1,101.999996887207,4|0,0:0|0:0,0:0:0:0:
172,64,47162,5,12,0:0:0:0:
120,64,47226,1,0,0:0:0:0:
172,64,47291,1,0,0:0:0:0:
224,64,47355,1,0,0:0:0:0:
372,64,47419,1,2,0:0:0:0:
268,312,47547,1,8,0:0:0:0:
216,312,47611,1,0,0:0:0:0:
164,312,47675,1,8,0:0:0:0:
164,260,47739,1,0,0:0:0:0:
324,260,47803,1,2,0:0:0:0:
96,268,47932,6,0,L|96:156,1,101.999996887207,4|0,0:0|0:0,0:0:0:0:
340,160,48188,5,12,0:0:0:0:
392,160,48252,1,0,0:0:0:0:
392,108,48316,1,0,0:0:0:0:
340,108,48380,1,0,0:0:0:0:
180,108,48444,1,2,0:0:0:0:
76,108,48573,1,8,0:0:0:0:
24,108,48637,1,0,0:0:0:0:
24,56,48701,1,8,0:0:0:0:
76,56,48765,1,0,0:0:0:0:
228,52,48829,1,2,0:0:0:0:
24,356,48957,6,0,L|24:232,1,101.999996887207,4|0,0:0|0:0,0:0:0:0:
304,248,49214,5,6,0:0:0:0:
328,240,49246,1,0,0:0:0:0:
348,224,49278,1,0,0:0:0:0:
360,202,49310,1,0,0:0:0:0:
363,177,49342,1,2,0:0:0:0:
357,153,49374,1,0,0:0:0:0:
342,133,49406,1,0,0:0:0:0:
320,119,49438,1,0,0:0:0:0:
295,115,49470,1,12,0:0:0:0:
160,356,49598,6,0,P|96:320|188:56,1,407.999987548829,0|0,0:0|0:0,0:0:0:0:
392,364,50239,6,0,P|436:304|376:240,1,170,12|2,3:2|0:0,0:0:0:0:
324,244,50581,1,0,0:0:0:0:
268,244,50667,1,0,0:0:0:0:
360,160,50752,1,2,0:0:0:0:
416,160,50838,1,0,0:0:0:0:
360,160,50923,1,0,0:0:0:0:
272,164,51008,1,2,0:0:0:0:
216,164,51094,1,0,0:0:0:0:
272,164,51179,1,0,0:0:0:0:
440,336,51265,6,0,L|440:200,1,127.5,8|0,0:0|0:0,0:0:0:0:
144,356,51650,2,0,P|132:268|356:164,1,340,10|0,0:0|0:0,0:0:0:0:
64,240,52291,6,0,L|64:116,1,113.333333333333,10|0,0:0|0:0,0:0:0:0:
300,128,52632,2,0,L|436:128,1,113.333333333333,2|2,0:0|0:0,0:0:0:0:
192,344,52932,6,0,P|144:316|204:240,1,170,8|2,0:0|0:0,0:0:0:0:
408,272,53444,2,0,L|500:272,1,85,2|0,0:0|0:0,0:0:0:0:
276,272,53701,2,0,L|4:272,1,255,10|8,0:0|0:0,0:0:0:0:
424,344,54342,2,0,L|424:160,1,170,12|0,0:0|0:0,0:0:0:0:
340,176,54726,1,8,0:0:0:0:
296,176,54791,1,0,0:0:0:0:
104,104,54855,5,8,0:0:0:0:
216,104,55026,1,0,0:0:0:0:
104,104,55197,1,0,0:0:0:0:
384,36,55367,5,8,0:0:0:0:
272,36,55538,1,2,0:0:0:0:
160,36,55709,1,8,0:0:0:0:
424,312,55880,5,2,0:0:0:0:
192,308,56051,1,8,0:0:0:0:
192,308,56222,1,0,0:0:0:0:
248,308,56308,1,2,0:0:0:0:
456,228,56393,6,0,L|456:128,1,85,12|0,0:0|0:0,0:0:0:0:
372,148,56650,1,8,0:0:0:0:
144,76,56778,2,0,L|328:76,2,170,8|0|8,0:0|0:0|0:0,0:0:0:0:
316,68,57547,2,0,L|408:68,1,85,2|8,0:0|0:0,0:0:0:0:
148,344,57803,6,0,P|92:308|160:248,1,170,8|8,0:0|0:0,0:0:0:0:
380,236,58188,2,0,L|380:140,1,85,2|8,0:0|0:0,0:0:0:0:
160,88,58444,1,6,0:0:0:0:
244,88,58573,1,0,0:0:0:0:
328,88,58701,1,8,0:0:0:0:
69,345,58829,5,2,0:0:0:0:
167,236,58957,1,8,0:0:0:0:
223,236,59043,1,2,0:0:0:0:
223,180,59128,1,0,0:0:0:0:
140,132,59214,1,8,0:0:0:0:
84,132,59299,1,2,0:0:0:0:
140,132,59385,1,0,0:0:0:0:
336,128,59470,6,0,L|476:128,1,127.5,8|0,0:0|0:0,0:0:0:0:
336,128,59855,2,0,L|152:128,1,170,2|0,0:0|0:0,0:0:0:0:
80,132,60239,1,8,0:0:0:0:
164,132,60367,1,8,0:0:0:0:
360,344,60496,5,12,0:0:0:0:
264,344,60624,2,0,L|264:232,1,85,2|0,0:0|0:0,0:0:0:0:
484,208,60880,2,0,L|484:108,1,85,8|0,0:0|0:0,0:0:0:0:
400,128,61137,1,8,0:0:0:0:
444,128,61201,1,0,0:0:0:0:
488,128,61265,1,8,0:0:0:0:
184,348,61393,6,0,L|88:348,1,85,2|8,0:0|0:0,0:0:0:0:
312,264,61650,2,0,L|408:264,1,85,2|8,0:0|0:0,0:0:0:0:
120,264,61906,2,0,P|60:240|148:40,1,340,8|2,0:0|0:0,0:0:0:0:
368,350,62547,6,0,L|368:238,1,85,12|0,0:0|0:0,0:0:0:0:
260,208,62803,2,0,L|188:208,2,56.6666666666667,8|0|0,0:0|0:0|0:0,0:0:0:0:
368,128,63060,2,0,L|440:128,2,56.6666666666667,8|0|0,0:0|0:0|0:0,0:0:0:0:
264,56,63316,1,8,0:0:0:0:
208,56,63402,1,0,0:0:0:0:
208,112,63487,1,0,0:0:0:0:
396,348,63573,6,0,L|468:348,2,56.6666666666667,8|0|0,0:0|0:0|0:0,0:0:0:0:
300,344,63829,2,0,L|232:344,2,56.6666666666667,8|0|0,0:0|0:0|0:0,0:0:0:0:
488,252,64085,2,0,L|488:176,1,56.6666666666667,8|0,0:0|0:0,0:0:0:0:
420,196,64256,1,0,0:0:0:0:
228,120,64342,1,10,0:0:0:0:
296,120,64427,1,2,0:0:0:0:
364,116,64513,1,2,0:0:0:0:
140,352,64598,6,0,P|40:284|156:184,1,305.999990661621,14|2,0:0|0:0,0:0:0:0:
194,180,65047,1,0,0:0:0:0:
244,180,65111,1,8,0:0:0:0:
144,180,65239,1,2,0:0:0:0:
376,180,65367,1,8,0:0:0:0:
144,180,65496,6,0,L|144:60,1,101.999996887207,8|0,0:0|0:0,0:0:0:0:
376,64,65752,2,0,L|496:64,2,101.999996887207,0|8|0,0:0|0:0|0:0,0:0:0:0:
76,308,66137,5,0,0:0:0:0:
212,308,66308,1,0,0:0:0:0:
76,308,66479,1,0,0:0:0:0:
144,308,66564,1,0,0:0:0:0:
348,212,66650,6,0,L|444:212,2,67.9999979248048,12|0|0,0:0|0:0|0:0,0:0:0:0:
152,176,66906,1,8,0:0:0:0:
101,176,66970,1,0,0:0:0:0:
50,176,67034,1,0,0:0:0:0:
52,125,67098,1,0,0:0:0:0:
184,120,67162,2,0,L|184:40,1,50.9999984436036,8|0,0:0|0:0,0:0:0:0:
131,72,67291,2,0,L|51:72,1,50.9999984436036
216,356,67419,2,0,L|216:276,1,50.9999984436036,8|0,0:0|0:0,0:0:0:0:
164,306,67548,2,0,L|84:306,1,50.9999984436036
248,188,67675,6,0,L|248:260,1,50.9999984436036,8|0,0:0|0:0,0:0:0:0:
188,236,67803,2,0,L|188:172,1,50.9999984436036
324,188,67932,1,8,0:0:0:0:
376,188,67996,1,0,0:0:0:0:
324,188,68060,1,0,0:0:0:0:
272,188,68124,1,0,0:0:0:0:
140,188,68188,6,0,L|140:116,1,50.9999984436036,8|0,0:0|0:0,0:0:0:0:
192,140,68316,1,0,0:0:0:0:
244,140,68380,1,0,0:0:0:0:
112,136,68444,1,8,0:0:0:0:
60,136,68508,1,0,0:0:0:0:
60,136,68573,1,0,0:0:0:0:
60,136,68637,1,0,0:0:0:0:
192,140,68701,6,0,L|192:72,1,50.9999984436036,12|0,0:0|0:0,0:0:0:0:
140,92,68829,2,0,L|60:92,1,50.9999984436036
220,92,68957,2,0,L|296:92,1,50.9999984436036,8|0,0:0|0:0,0:0:0:0:
220,92,69085,2,0,L|148:92,1,50.9999984436036
36,80,69214,1,8,0:0:0:0:
36,80,69278,1,0,0:0:0:0:
32,28,69342,1,0,0:0:0:0:
84,28,69406,1,0,0:0:0:0:
220,364,69470,2,0,L|220:284,1,50.9999984436036,8|2,0:0|0:0,0:0:0:0:
156,304,69598,2,0,L|156:228,1,50.9999984436036,2|2,0:0|0:0,0:0:0:0:
288,252,69726,5,8,0:0:0:0:
340,252,69791,1,0,0:0:0:0:
392,252,69855,1,0,0:0:0:0:
340,252,69919,1,0,0:0:0:0:
208,253,69983,1,8,0:0:0:0:
208,200,70047,1,0,0:0:0:0:
260,200,70111,1,0,0:0:0:0:
260,140,70175,1,0,0:0:0:0:
128,136,70239,2,0,L|60:136,1,50.9999984436036,8|0,0:0|0:0,0:0:0:0:
77,136,70367,2,0,L|165:136,1,50.9999984436036
264,136,70496,1,8,0:0:0:0:
212,136,70560,1,0,0:0:0:0:
160,136,70624,1,0,0:0:0:0:
160,84,70688,1,0,0:0:0:0:
292,84,70752,6,0,L|376:84,1,50.9999984436036,14|0,0:0|0:0,0:0:0:0:
394,84,70880,2,0,L|314:84,1,50.9999984436036
212,172,71008,1,8,0:0:0:0:
160,172,71073,1,0,0:0:0:0:
160,120,71137,1,0,0:0:0:0:
160,68,71201,1,0,0:0:0:0:
292,336,71265,6,0,L|360:336,1,50.9999984436036,8|0,0:0|0:0,0:0:0:0:
343,336,71393,2,0,L|344:248,1,50.9999984436036
212,288,71521,2,0,L|212:228,1,50.9999984436036,8|0,0:0|0:0,0:0:0:0:
276,236,71650,2,0,L|276:160,1,50.9999984436036,2|0,0:0|0:0,0:0:0:0:
144,192,71778,6,0,L|84:192,1,50.9999984436036,8|0,0:0|0:0,0:0:0:0:
93,192,71906,2,0,L|181:192,1,50.9999984436036
276,185,72034,1,8,0:0:0:0:
327,185,72098,1,0,0:0:0:0:
379,185,72162,1,0,0:0:0:0:
379,133,72226,1,0,0:0:0:0:
240,136,72291,1,8,0:0:0:0:
188,136,72355,1,0,0:0:0:0:
136,136,72419,1,0,0:0:0:0:
136,84,72483,1,0,0:0:0:0:
268,80,72547,1,8,0:0:0:0:
320,80,72611,1,0,0:0:0:0:
268,80,72675,1,0,0:0:0:0:
216,80,72739,1,0,0:0:0:0:
352,260,72803,6,0,L|448:260,1,50.9999984436036,8|0,0:0|0:0,0:0:0:0:
408,204,72932,2,0,L|320:204,1,50.9999984436036
224,204,73060,1,8,0:0:0:0:
172,204,73124,1,0,0:0:0:0:
172,204,73188,1,0,0:0:0:0:
224,204,73252,1,0,0:0:0:0:
357,204,73316,1,12,0:0:0:0:
409,204,73380,1,0,0:0:0:0:
409,152,73444,1,0,0:0:0:0:
357,152,73508,1,0,0:0:0:0:
224,152,73573,1,8,0:0:0:0:
276,152,73637,1,0,0:0:0:0:
328,152,73701,1,0,0:0:0:0:
380,152,73765,1,0,0:0:0:0:
248,156,73829,5,8,0:0:0:0:
196,156,73893,1,0,0:0:0:0:
144,156,73957,1,0,0:0:0:0:
144,104,74021,1,0,0:0:0:0:
280,236,74085,1,12,0:0:0:0:
228,236,74150,1,0,0:0:0:0:
176,312,74214,1,0,0:0:0:0:
176,312,74278,1,0,0:0:0:0:
300,316,74342,6,0,L|364:316,1,50.9999984436036,8|0,0:0|0:0,0:0:0:0:
472,320,74470,2,0,L|472:252,1,50.9999984436036
348,264,74598,1,8,0:0:0:0:
296,264,74662,1,0,0:0:0:0:
172,260,74726,1,0,0:0:0:0:
224,260,74791,1,0,0:0:0:0:
348,264,74855,6,0,L|408:264,1,50.9999984436036,12|0,0:0|0:0,0:0:0:0:
399,264,74983,2,0,L|332:264,1,50.9999984436036
224,260,75111,2,0,L|156:260,1,50.9999984436036,8|0,0:0|0:0,0:0:0:0:
52,260,75239,1,0,0:0:0:0:
52,260,75303,1,0,0:0:0:0:
173,260,75367,2,0,L|237:260,1,50.9999984436036,8|0,0:0|0:0,0:0:0:0:
348,264,75496,2,0,L|348:204,1,50.9999984436036
224,208,75624,1,12,0:0:0:0:
172,208,75688,1,0,0:0:0:0:
172,156,75752,1,0,0:0:0:0:
224,156,75816,1,0,0:0:0:0:
348,160,75880,5,8,0:0:0:0:
400,160,75944,1,0,0:0:0:0:
276,164,76008,1,0,0:0:0:0:
224,164,76073,1,0,0:0:0:0:
102,153,76137,1,8,0:0:0:0:
102,101,76201,1,0,0:0:0:0:
228,96,76265,1,0,0:0:0:0:
280,96,76329,1,0,0:0:0:0:
404,96,76393,6,0,L|496:96,1,50.9999984436036,12|0,0:0|0:0,0:0:0:0:
404,96,76521,2,0,L|320:96,1,50.9999984436036
228,364,76650,2,0,L|228:304,1,50.9999984436036,8|0,0:0|0:0,0:0:0:0:
352,312,76778,2,0,L|412:312,1,50.9999984436036
280,308,76906,5,8,0:0:0:0:
228,308,76970,1,0,0:0:0:0:
104,308,77034,1,0,0:0:0:0:
156,308,77098,1,0,0:0:0:0:
280,308,77162,1,12,0:0:0:0:
332,308,77226,1,0,0:0:0:0:
332,308,77291,1,0,0:0:0:0:
280,308,77355,1,0,0:0:0:0:
156,308,77419,6,0,L|80:308,1,50.9999984436036,8|0,0:0|0:0,0:0:0:0:
228,308,77547,2,0,L|308:308,1,50.9999984436036
400,304,77675,2,0,L|400:228,1,50.9999984436036,8|0,0:0|0:0,0:0:0:0:
276,248,77803,2,0,L|196:248,1,50.9999984436036
103,220,77932,1,12,0:0:0:0:
51,220,77996,1,0,0:0:0:0:
51,220,78060,1,0,0:0:0:0:
51,220,78124,1,0,0:0:0:0:
173,221,78188,6,0,L|261:221,1,50.9999984436036,8|0,0:0|0:0,0:0:0:0:
346,225,78316,2,0,L|346:145,1,50.9999984436036
225,154,78444,2,0,L|137:154,1,50.9999984436036,8|0,0:0|0:0,0:0:0:0:
52,162,78572,2,0,L|53:82,1,50.9999984436036
176,99,78701,2,0,L|250:99,1,50.9999984436036,12|0,0:0|0:0,0:0:0:0:
349,95,78829,2,0,L|349:15,1,50.9999984436036
188,356,78957,5,0,0:0:0:0:
140,343,79021,1,0,0:0:0:0:
120,298,79085,1,0,0:0:0:0:
141,254,79149,1,0,0:0:0:0:
189,243,79213,1,0,0:0:0:0:
315,239,79278,5,0,0:0:0:0:
362,222,79342,1,0,0:0:0:0:
389,180,79406,1,0,0:0:0:0:
384,130,79470,1,0,0:0:0:0:
349,95,79534,1,0,0:0:0:0:
299,88,79598,1,0,0:0:0:0:
176,178,79662,5,0,0:0:0:0:
128,164,79726,1,0,0:0:0:0:
107,119,79790,1,0,0:0:0:0:
128,74,79854,1,0,0:0:0:0:
175,61,79918,1,0,0:0:0:0:
300,353,79983,5,8,0:0:0:0:
352,353,80047,1,0,0:0:0:0:
352,301,80111,1,0,0:0:0:0:
300,301,80175,1,0,0:0:0:0:
172,244,80239,1,8,0:0:0:0:
120,244,80303,1,0,0:0:0:0:
120,192,80367,1,8,0:0:0:0:
172,192,80432,1,0,0:0:0:0:
294,190,80496,6,0,L|210:190,1,50.9999984436036,8|0,0:0|0:0,0:0:0:0:
120,192,80624,2,0,L|204:192,1,50.9999984436036,8|0,0:0|0:0,0:0:0:0:
294,190,80752,1,8,0:0:0:0:
346,190,80816,1,0,0:0:0:0:
223,192,80880,1,8,0:0:0:0:
171,192,80944,1,0,0:0:0:0:
48,64,81008,6,0,L|48:256,1,170,2|0,0:0|0:0,0:0:0:0:
48,280,81393,2,0,L|220:280,1,170,2|8,0:0|0:0,0:0:0:0:
218,280,81714,1,0,0:0:0:0:
218,280,81778,1,0,0:0:0:0:
218,280,81842,1,0,0:0:0:0:
216,280,81906,1,0,0:0:0:0:
218,280,81970,1,0,0:0:0:0:
218,280,82034,6,0,L|428:280,1,170,2|0,0:0|0:0,0:0:0:0:
388,280,82419,2,0,L|388:80,1,170,2|8,0:0|0:0,0:0:0:0:
344,112,82739,1,0,0:0:0:0:
300,112,82803,1,0,0:0:0:0:
256,112,82867,1,0,0:0:0:0:
300,112,82932,1,0,0:0:0:0:
344,112,82996,1,0,0:0:0:0:
388,112,83060,6,0,L|388:308,1,170,2|0,0:0|0:0,0:0:0:0:
388,368,83444,2,0,L|188:368,1,170,2|0,0:0|0:0,0:0:0:0:
132,368,83829,2,0,L|76:368,2,42.5,8|0|0,0:0|0:0|0:0,0:0:0:0:
216,368,84085,1,0,0:0:0:0:
304,368,84214,6,0,L|304:264,1,85,0|10,0:0|0:0,0:0:0:0:
220,292,84470,2,0,L|220:176,1,85,0|0,0:0|0:0,0:0:0:0:
304,204,84726,1,0,0:0:0:0:
436,204,84855,2,0,L|436:88,1,85,8|0,0:0|0:0,0:0:0:0:
176,340,85111,6,0,L|364:340,1,170,2|0,0:0|0:0,0:0:0:0:
348,272,85496,2,0,L|160:272,1,170,0|8,0:0|0:0,0:0:0:0:
136,272,85816,1,0,0:0:0:0:
180,272,85880,1,0,0:0:0:0:
264,276,86008,1,0,0:0:0:0:
348,276,86137,6,0,L|472:276,2,85,2|0|0,0:0|0:0|0:0,0:0:0:0:
264,276,86521,2,0,P|224:212|284:136,1,170,2|8,0:0|0:0,0:0:0:0:
312,144,86842,1,0,0:0:0:0:
356,144,86906,1,0,0:0:0:0:
440,144,87034,1,0,0:0:0:0:
204,352,87162,6,0,L|24:352,1,170,2|0,0:0|0:0,0:0:0:0:
28,268,87547,1,0,0:0:0:0:
112,264,87675,2,0,L|208:264,1,85,8|0,0:0|0:0,0:0:0:0:
112,264,87932,2,0,L|112:152,1,85,0|0,0:0|0:0,0:0:0:0:
156,180,88124,1,0,0:0:0:0:
200,180,88188,5,2,0:0:0:0:
284,180,88316,1,0,0:0:0:0:
200,180,88444,1,0,0:0:0:0:
328,352,88573,2,0,P|380:304|324:240,1,170,2|2,0:0|0:0,0:0:0:0:
284,240,88893,1,0,0:0:0:0:
244,240,88957,1,2,0:0:0:0:
200,240,89021,1,0,0:0:0:0:
156,240,89085,1,0,0:0:0:0:
200,240,89150,1,0,0:0:0:0:
396,348,89214,6,0,P|444:320|372:256,1,170,10|0,3:2|0:0,0:0:0:0:
260,284,89598,2,0,L|260:188,1,85,2|0,0:0|0:0,0:0:0:0:
388,288,89855,1,8,0:0:0:0:
425,268,89919,1,0,0:0:0:0:
450,235,89983,1,8,0:0:0:0:
457,193,90047,1,0,0:0:0:0:
445,153,90111,1,8,0:0:0:0:
416,122,90175,1,0,0:0:0:0:
377,108,90239,6,0,L|168:108,1,170,2|0,0:0|0:0,0:0:0:0:
344,128,90624,2,0,L|344:36,1,85,2|0,0:0|0:0,0:0:0:0:
216,276,90880,1,8,0:0:0:0:
174,268,90944,1,0,0:0:0:0:
144,239,91008,1,8,0:0:0:0:
133,199,91072,1,0,0:0:0:0:
146,159,91136,1,8,0:0:0:0:
178,132,91200,1,0,0:0:0:0:
220,127,91265,6,0,L|408:128,1,170,2|8,0:0|0:0,0:0:0:0:
252,128,91650,2,0,L|156:128,1,85,2|0,0:0|0:0,0:0:0:0:
305,127,91906,1,0,0:0:0:0:
389,127,92034,2,0,L|461:127,2,42.5,8|0|0,0:0|0:0|0:0,0:0:0:0:
196,352,92291,6,0,L|196:228,1,85,2|0,0:0|0:0,0:0:0:0:
292,264,92547,2,0,L|292:176,1,85,8|2,0:0|0:0,0:0:0:0:
196,180,92803,2,0,L|80:180,1,85,8|0,0:0|0:0,0:0:0:0:
248,176,93060,2,0,L|360:176,1,85,0|0,0:0|0:0,0:0:0:0:
96,364,93316,6,0,P|48:328|104:252,1,170,2|0,0:0|0:0,0:0:0:0:
236,248,93701,2,0,L|340:248,2,85,2|0|0,0:0|0:0|0:0,0:0:0:0:
98,252,94085,2,0,L|98:144,1,85,0|0,0:0|0:0,0:0:0:0:
400,248,94342,6,0,P|448:220|392:144,1,170,6|0,0:0|0:0,0:0:0:0:
264,148,94726,2,0,L|156:148,2,85,8|0|0,0:0|0:0|0:0,0:0:0:0:
400,148,95111,2,0,L|400:48,1,85,0|0,0:0|0:0,0:0:0:0:
184,208,97419,6,0,L|416:208,1,203.999993774414,6|0,0:0|0:0,0:0:0:0:
152,216,97803,2,0,P|88:148|176:96,1,203.999993774414,8|0,0:0|0:0,0:0:0:0:
404,104,98188,2,0,L|404:-36,1,101.999996887207
176,280,98444,6,0,P|112:216|192:148,1,203.999993774414,2|0,0:0|0:0,0:0:0:0:
412,148,98829,2,0,L|188:148,1,203.999993774414,8|0,0:0|0:0,0:0:0:0:
444,148,99214,2,0,L|444:8,1,101.999996887207
208,48,99470,6,0,L|436:48,1,203.999993774414,6|0,0:0|0:0,0:0:0:0:
176,352,99855,2,0,P|72:336|16:232,1,203.999993774414,8|0,0:0|0:0,0:0:0:0:
264,124,100239,2,0,L|400:124,1,101.999996887207,0|0,0:0|0:0,0:0:0:0:
116,328,100496,6,0,L|116:208,1,101.999996887207
224,204,100752,1,0,0:0:0:0:
116,200,100880,1,0,0:0:0:0:
368,208,101008,2,0,L|368:100,1,101.999996887207
316,104,101201,1,0,0:0:0:0:
193,104,101265,2,0,L|333:104,1,101.999996887207,2|0,0:0|0:0,0:0:0:0:
345,104,101457,1,0,0:0:0:0:
181,353,101521,6,0,P|117:320|193:233,1,203.999993774414,12|0,0:0|0:0,0:0:0:0:
376,220,101906,2,0,P|440:188|360:112,1,203.999993774414,2|0,0:0|3:0,0:0:0:0:
140,108,102291,2,0,L|16:108,1,101.999996887207,0|0,3:0|3:0,0:0:0:0:
272,344,102547,6,0,L|24:344,1,203.999993774414,8|0,0:0|0:0,0:0:0:0:
304,348,102932,2,0,P|376:300|292:248,1,203.999993774414,2|0,0:0|0:0,0:0:0:0:
56,236,103316,2,0,L|56:116,1,101.999996887207
288,356,103573,6,0,L|512:356,1,203.999993774414,12|0,0:0|0:0,0:0:0:0:
232,272,103957,1,0,0:0:0:0:
332,272,104085,2,0,L|332:180,1,50.9999984436036,0|0,0:0|0:0,0:0:0:0:
280,220,104214,2,0,L|192:220,1,50.9999984436036,0|0,0:0|0:0,0:0:0:0:
351,220,104342,1,0,0:0:0:0:
403,220,104406,1,0,0:0:0:0:
455,220,104470,1,0,0:0:0:0:
403,220,104534,1,0,0:0:0:0:
280,220,104598,5,0,0:0:0:0:
229,216,104662,1,0,0:0:0:0:
182,196,104726,1,0,0:0:0:0:
144,163,104790,1,0,0:0:0:0:
267,157,104855,1,0,0:0:0:0:
317,152,104919,1,0,0:0:0:0:
362,129,104983,1,0,0:0:0:0:
396,91,105047,1,0,0:0:0:0:
272,203,105111,6,0,L|272:135,1,50.9999984436036
332,151,105239,2,0,L|332:75,1,50.9999984436036,0|0,0:0|0:0,0:0:0:0:
209,98,105367,2,0,L|153:98,1,50.9999984436036
282,92,105496,2,0,L|370:92,1,50.9999984436036,0|0,0:0|0:0,0:0:0:0:
154,349,105624,6,0,P|90:289|162:221,1,203.999993774414,6|0,0:0|0:0,0:0:0:0:
360,220,106008,2,0,L|136:220,1,203.999993774414,8|0,0:0|0:0,0:0:0:0:
360,220,106393,2,0,L|508:220,1,101.999996887207
220,360,106650,6,0,B|66:357|66:357|68:296,1,203.999993774414,2|0,0:0|0:0,0:0:0:0:
272,288,107034,2,0,B|426:288|426:288|424:228,1,203.999993774414,8|0,0:0|3:0,0:0:0:0:
204,204,107419,2,0,L|56:204,1,101.999996887207,0|0,3:0|3:0,0:0:0:0:
332,128,107675,6,0,L|108:128,1,203.999993774414,6|0,0:0|0:0,0:0:0:0:
368,360,108060,2,0,P|420:332|344:240,1,203.999993774414,8|0,0:0|0:0,0:0:0:0:
152,232,108444,2,0,L|24:232,1,101.999996887207
324,144,108701,6,0,L|184:144,1,101.999996887207
172,144,108893,1,0,0:0:0:0:
320,360,108957,2,0,L|320:288,1,50.9999984436036
256,292,109085,2,0,L|256:224,1,50.9999984436036
380,239,109214,2,0,L|440:239,1,50.9999984436036
307,241,109342,2,0,L|235:241,1,50.9999984436036
133,244,109470,2,0,L|65:244,1,50.9999984436036,2|0,0:0|0:0,0:0:0:0:
82,244,109598,2,0,L|158:244,1,50.9999984436036,0|0,0:0|0:0,0:0:0:0:
258,372,109726,6,0,P|314:336|234:244,1,203.999993774414,12|0,0:0|0:0,0:0:0:0:
57,230,110111,2,0,L|201:230,2,101.999996887207,2|0|0,0:0|0:0|3:0,0:0:0:0:
260,192,110496,2,0,L|408:192,1,101.999996887207,0|0,3:0|3:0,0:0:0:0:
152,200,110752,6,0,P|88:164|168:88,1,203.999993774414,8|0,0:0|0:0,0:0:0:0:
384,80,111137,2,0,L|152:80,1,203.999993774414,2|0,0:0|3:0,0:0:0:0:
436,368,111521,2,0,L|436:244,1,101.999996887207,0|0,3:0|3:0,0:0:0:0:
208,276,111778,5,12,0:0:0:0:
108,280,111906,1,0,0:0:0:0:
56,280,111970,1,0,0:0:0:0:
56,228,112034,1,0,0:0:0:0:
108,228,112098,1,0,0:0:0:0:
230,225,112162,5,0,0:0:0:0:
334,229,112291,1,0,0:0:0:0:
386,233,112355,1,0,0:0:0:0:
386,181,112419,1,0,0:0:0:0:
334,181,112483,1,0,0:0:0:0:
211,182,112547,2,0,L|83:182,1,101.999996887207
352,100,112803,6,0,L|468:100,1,101.999996887207,0|0,0:0|0:0,0:0:0:0:
504,100,112996,1,0,0:0:0:0:
381,100,113060,2,0,L|269:100,1,101.999996887207,0|0,0:0|0:0,0:0:0:0:
229,100,113252,1,0,0:0:0:0:
354,258,113316,2,0,L|354:150,1,101.999996887207,0|0,0:0|0:0,0:0:0:0:
302,162,113508,1,0,0:0:0:0:
178,168,113573,2,0,L|98:168,1,50.9999984436036
251,162,113701,2,0,L|250:88,1,50.9999984436036
88,348,113829,6,0,P|36:312|104:244,1,170,10|0,3:2|2:0,0:0:0:0:
172,244,114214,2,0,L|368:244,1,170,8|0,2:3|0:0,0:0:0:0:
428,244,114598,1,8,3:3:0:0:
256,240,114855,6,0,P|200:200|268:144,1,170,2|0,2:3|2:3,0:0:0:0:
340,140,115239,1,8,0:0:0:0:
424,140,115367,1,0,0:0:0:0:
468,140,115432,1,0,0:0:0:0:
468,96,115496,1,0,0:0:0:0:
424,96,115560,1,0,0:0:0:0:
268,100,115624,1,0,0:0:0:0:
268,48,115688,1,0,0:0:0:0:
320,48,115752,1,0,0:0:0:0:
372,48,115816,1,0,0:0:0:0:
204,288,115880,6,0,L|64:288,2,101.999996887207,6|0|0,0:0|0:0|0:0,0:0:0:0:
412,288,116265,1,8,0:0:0:0:
204,212,116393,2,0,L|136:212,2,50.9999984436036,0|0|0,0:0|0:0|0:0,0:0:0:0:
504,220,116650,2,0,L|400:220,1,101.999996887207,0|0,0:0|0:0,0:0:0:0:
168,340,116906,6,0,L|288:340,1,101.999996887207,4|0,3:0|0:0,0:0:0:0:
56,240,117162,2,0,L|176:240,1,101.999996887207,0|0,0:0|0:0,0:0:0:0:
368,236,117419,2,0,L|296:236,1,50.9999984436036,0|0,0:0|0:0,0:0:0:0:
194,232,117547,2,0,L|194:152,1,50.9999984436036
315,172,117675,1,2,0:0:0:0:
339,165,117707,1,0,0:0:0:0:
356,146,117739,1,0,0:0:0:0:
360,121,117771,1,0,0:0:0:0:
352,98,117803,1,0,0:0:0:0:
332,82,117835,1,0,0:0:0:0:
307,80,117867,1,0,0:0:0:0:
92,220,117932,6,0,L|216:220,2,101.999996887207,12|0|0,0:0|0:0|0:0,0:0:0:0:
344,132,118316,1,2,0:0:0:0:
242,132,118444,1,0,3:0:0:0:
140,132,118572,1,0,3:0:0:0:
376,52,118701,2,0,L|236:52,1,101.999996887207,0|0,3:0|3:0,0:0:0:0:
484,212,118957,6,0,L|360:212,2,101.999996887207,12|0|0,0:0|0:0|0:0,0:0:0:0:
216,368,119342,2,0,L|216:248,1,101.999996887207,2|0,0:0|0:0,0:0:0:0:
340,264,119598,1,0,0:0:0:0:
112,264,119726,2,0,L|112:196,1,50.9999984436036,8|0,0:0|0:0,0:0:0:0:
236,211,119855,2,0,L|304:211,1,50.9999984436036,0|0,0:0|0:0,0:0:0:0:
112,128,119983,6,0,L|232:128,2,101.999996887207,6|0|0,0:0|0:0|0:0,0:0:0:0:
316,68,120367,2,0,L|456:68,2,101.999996887207,2|0|0,0:0|0:0|0:0,0:0:0:0:
52,300,120752,2,0,L|52:176,1,101.999996887207,0|0,0:0|0:0,0:0:0:0:
112,200,120944,1,0,0:0:0:0:
352,128,121008,5,12,0:0:0:0:
250,128,121136,1,0,0:0:0:0:
148,128,121264,1,0,0:0:0:0:
400,324,121393,1,8,0:0:0:0:
276,328,121521,2,0,L|276:244,1,50.9999984436036,0|0,0:0|0:0,0:0:0:0:
399,261,121650,2,0,L|467:261,1,50.9999984436036
327,263,121778,2,0,L|251:263,1,50.9999984436036,0|0,3:0|3:0,0:0:0:0:
153,267,121906,2,0,L|153:187,1,50.9999984436036,0|0,3:0|3:0,0:0:0:0:
332,112,122034,6,0,L|460:112,2,101.999996887207,6|0|0,0:0|0:0|0:0,0:0:0:0:
100,116,122419,2,0,L|216:116,2,101.999996887207,8|0|0,0:0|0:0|0:0,0:0:0:0:
352,316,122803,2,0,L|216:316,1,101.999996887207,0|0,0:0|0:0,0:0:0:0:
488,192,123060,6,0,L|352:192,2,101.999996887207,6|0|0,0:0|0:0|0:0,0:0:0:0:
220,124,123444,1,8,0:0:0:0:
322,124,123572,1,0,0:0:0:0:
424,124,123700,1,0,0:0:0:0:
164,240,123829,2,0,L|28:240,1,101.999996887207,0|0,0:0|0:0,0:0:0:0:
124,240,124021,1,0,0:0:0:0:
284,248,124085,6,0,L|424:248,2,101.999996887207,6|0|0,0:0|0:0|0:0,0:0:0:0:
56,236,124470,2,0,L|56:116,1,101.999996887207,2|0,0:0|0:0,0:0:0:0:
156,136,124726,1,0,0:0:0:0:
352,136,124855,2,0,L|492:136,1,101.999996887207,0|0,0:0|0:0,0:0:0:0:
172,344,125111,6,0,L|172:224,1,101.999996887207,4|0,0:0|0:0,0:0:0:0:
272,244,125367,2,0,L|416:244,1,101.999996887207,0|0,0:0|0:0,0:0:0:0:
144,176,125624,6,0,L|236:176,1,50.9999984436036,0|0,0:0|0:0,0:0:0:0:
317,176,125752,2,0,L|317:104,1,50.9999984436036
194,121,125880,1,2,0:0:0:0:
168,120,125912,1,0,0:0:0:0:
148,105,125944,1,0,0:0:0:0:
140,81,125976,1,0,0:0:0:0:
146,57,126008,1,0,0:0:0:0:
165,41,126040,1,0,0:0:0:0:
190,38,126072,1,0,0:0:0:0:
392,348,126137,6,0,P|448:312|368:216,1,203.999993774414,12|0,0:0|0:0,0:0:0:0:
284,352,126521,2,0,P|184:324|304:136,1,407.999987548829,2|0,0:0|0:0,0:0:0:0:
416,136,127162,6,0,L|200:136,1,203.999993774414,8|0,0:0|0:0,0:0:0:0:
320,368,127547,2,0,P|456:280|308:156,1,407.999987548829,2|0,0:0|0:0,0:0:0:0:
156,160,128188,5,8,0:0:0:0:
256,192,128316,12,0,129726,0:0:0:0:
148,288,129983,5,0,0:0:0:0:
105,264,130047,1,0,0:0:0:0:
107,215,130111,1,0,0:0:0:0:
150,194,130175,1,0,0:0:0:0:
336,124,130239,5,2,0:0:0:0:
436,124,130367,1,0,0:0:0:0:
220,348,130496,1,8,0:0:0:0:
332,348,130624,2,0,L|332:232,1,101.999996887207,2|0,0:0|0:0,0:0:0:0:
120,244,130880,1,8,0:0:0:0:
332,246,131008,2,0,L|220:246,1,101.999996887207,8|8,0:0|0:0,0:0:0:0:
440,248,131265,6,0,L|440:120,1,101.999996887207,2|0,0:0|0:0,0:0:0:0:
232,152,131521,2,0,L|352:152,2,101.999996887207,8|2|2,0:0|0:0|0:0,0:0:0:0:
456,352,131906,2,0,L|336:352,2,101.999996887207,8|8|8,0:0|0:0|0:0,0:0:0:0:
196,156,132291,6,0,L|64:156,1,101.999996887207,2|0,0:0|0:0,0:0:0:0:
300,88,132547,2,0,L|196:88,2,101.999996887207,8|2|0,0:0|0:0|0:0,0:0:0:0:
32,328,132932,1,8,0:0:0:0:
260,328,133060,2,0,L|392:328,1,101.999996887207,8|8,0:0|0:0,0:0:0:0:
140,244,133316,6,0,L|140:128,1,101.999996887207,2|0,0:0|0:0,0:0:0:0:
352,144,133573,1,8,0:0:0:0:
148,64,133701,2,0,L|264:64,1,101.999996887207,2|8,0:0|0:0,0:0:0:0:
28,240,133957,2,0,L|148:240,2,101.999996887207,8|4|0,0:0|0:0|0:0,0:0:0:0:
292,164,134342,6,0,L|168:164,1,101.999996887207,2|0,0:0|0:0,0:0:0:0:
396,92,134598,1,8,0:0:0:0:
284,92,134726,2,0,L|284:212,1,101.999996887207,2|8,0:0|0:0,0:0:0:0:
496,192,134983,1,2,0:0:0:0:
284,194,135111,2,0,L|412:194,1,101.999996887207,2|8,0:0|0:0,0:0:0:0:
132,232,135367,6,0,L|24:232,1,101.999996887207,2|8,0:0|0:0,0:0:0:0:
236,236,135624,1,0,0:0:0:0:
348,236,135752,2,0,L|348:124,1,101.999996887207,8|2,0:0|0:0,0:0:0:0:
140,144,136008,2,0,L|280:144,2,101.999996887207,8|8|0,0:0|0:0|0:0,0:0:0:0:
352,328,136393,6,0,L|212:328,1,101.999996887207,2|0,0:0|0:0,0:0:0:0:
456,256,136650,2,0,L|344:256,2,101.999996887207,8|2|2,0:0|0:0|0:0,0:0:0:0:
208,264,137034,1,8,0:0:0:0:
420,192,137162,2,0,L|420:64,1,101.999996887207,8|0,0:0|0:0,0:0:0:0:
208,88,137419,6,0,L|336:88,1,101.999996887207,2|0,0:0|0:0,0:0:0:0:
76,344,137675,1,8,0:0:0:0:
178,344,137803,2,0,L|42:344,1,101.999996887207,2|8,0:0|0:0,0:0:0:0:
320,216,138060,1,8,0:0:0:0:
218,216,138188,1,4,0:0:0:0:
116,216,138316,1,2,0:0:0:0:
364,140,138444,5,0,0:0:0:0:
256,192,138573,12,2,139726,0:0:0:0:
136,176,140154,6,0,L|348:-8,2,271.999991699219,8|2|2,0:0|0:0|0:0,0:0:0:0:
408,172,141179,1,2,0:0:0:0:
156,352,141521,6,0,P|52:292|176:124,1,382.500014591218,10|10,0:0|0:0,0:0:0:0:
224,124,142355,1,0,0:0:0:0:
172,124,142419,1,8,0:0:0:0:
120,124,142483,1,0,0:0:0:0:
320,292,142547,6,0,L|448:292,1,101.999996887207,2|0,0:0|0:0,0:0:0:0:
164,288,142803,1,8,0:0:0:0:
376,192,142932,2,0,L|236:192,1,101.999996887207,2|2,0:0|0:0,0:0:0:0:
476,116,143188,1,8,0:0:0:0:
268,64,143316,2,0,L|392:64,1,101.999996887207,8|8,0:0|0:0,0:0:0:0:
152,352,143573,6,0,L|24:352,1,101.999996887207,2|0,0:0|0:0,0:0:0:0:
304,352,143829,1,8,0:0:0:0:
88,272,143957,2,0,L|88:136,1,101.999996887207,2|2,0:0|0:0,0:0:0:0:
312,172,144214,1,8,0:0:0:0:
88,88,144342,2,0,L|224:88,1,101.999996887207,8|8,0:0|0:0,0:0:0:0:
424,352,144598,6,0,L|336:352,2,67.9999979248048,2|2|2,3:2|3:2|3:2,0:0:0:0:
240,276,144855,1,2,3:2:0:0:
172,276,144940,1,2,3:2:0:0:
172,208,145025,1,2,3:2:0:0:
356,204,145111,6,0,L|428:204,2,67.9999979248048,2|2|2,3:2|3:2|3:2,0:0:0:0:
172,128,145367,2,0,L|72:128,2,67.9999979248048,2|2|2,3:2|3:2|3:2,0:0:0:0:
380,68,145624,1,8,3:2:0:0:
