osu file format v14

[General]
AudioFilename: audio.mp3
AudioLeadIn: 0
PreviewTime: 95293
Countdown: 0
SampleSet: Normal
StackLeniency: 0.7
Mode: 2
LetterboxInBreaks: 0
WidescreenStoryboard: 1

[Editor]
Bookmarks: 9204,25614,29204,42024,50229,64588,80998,95101,95229,95357,96383,97409,113819,130229,138434,145614
DistanceSpacing: 1
BeatDivisor: 4
GridSize: 32
TimelineZoom: 4.199998

[Metadata]
Title:Aegleseeker
TitleUnicode:Aegleseeker
Artist:Silentroom vs. Frums
ArtistUnicode:Silentroom vs. Frums
Creator:Jemzuu
Version:Cup
Source:Arcaea
Tags:ajamez gigas [_-Kukkai-_] autofanboy alienflybot bunnrei -plus- ster osu_gangster chara razor sharp lowiro esoteric order electronic instrumental video game Song Contest 2020
BeatmapID:3024974
BeatmapSetID:1460413

[Difficulty]
HPDrainRate:2
CircleSize:2.5
OverallDifficulty:6.5
ApproachRate:6.5
SliderMultiplier:1.04
SliderTickRate:0.5

[Events]
//Background and Video events
0,0,"86238824_p0.jpg",0,0
//Break Periods
2,81208,86158
2,95567,96415
//Storyboard Layer 0 (Background)
//Storyboard Layer 1 (Fail)
//Storyboard Layer 2 (Pass)
//Storyboard Layer 3 (Foreground)
//Storyboard Layer 4 (Overlay)
//Storyboard Sound Samples

[TimingPoints]
1009,256.410256410256,4,2,1,60,1,0
1137,-100,4,2,1,30,0,0
9214,-100,4,2,1,20,0,0
11265,-100,4,2,1,30,0,0
12803,-100,4,2,1,35,0,0
13316,-100,4,2,1,40,0,0
14342,-100,4,2,1,45,0,0
15367,-100,4,2,1,60,0,0
16393,-100,4,2,1,10,0,0
17419,-100,4,2,6,60,0,0
17547,-100,4,2,2,60,0,0
18444,-100,4,2,2,70,0,0
19470,-100,4,2,2,75,0,0
20239,-100,4,2,2,80,0,0
21521,-100,4,2,6,80,0,0
21650,-100,4,2,2,60,0,0
22547,-100,4,2,2,65,0,0
22803,-100,4,2,2,70,0,0
23316,-100,4,2,2,75,0,0
24085,-100,4,2,2,80,0,0
24598,-100,4,2,3,80,0,0
25367,-100,4,2,4,65,0,0
25624,-100,4,1,1,70,0,0
29726,-100,4,1,1,60,0,0
30624,-100,4,1,2,60,0,0
30752,-100,4,1,1,60,0,0
31650,-100,4,1,2,60,0,0
31777,-100,4,1,1,65,0,0
32547,-100,4,1,1,60,0,0
32675,-100,4,1,2,60,0,0
32803,-100,4,1,1,60,0,0
33444,-100,4,1,2,60,0,0
33829,-100,4,1,4,80,0,0
33957,-100,4,1,4,65,0,0
34854,-100,4,1,4,70,0,0
35880,-100,4,1,4,75,0,0
37162,-100,4,1,4,80,0,0
37418,-100,4,1,4,65,0,0
37931,-100,4,1,4,80,0,0
38060,-100,4,1,4,65,0,0
38957,-100,4,1,4,70,0,0
39470,-100,4,1,4,75,0,0
41265,-100,4,1,4,80,0,0
42034,-100,4,1,1,70,0,0
46136,-100,4,1,1,60,0,0
46906,-100,4,1,2,60,0,0
47162,-100,4,1,1,60,0,0
47931,-100,4,1,2,60,0,0
48188,-100,4,1,1,60,0,0
48957,-100,4,1,2,60,0,0
49213,-100,4,1,1,60,0,0
49470,-100,4,1,5,60,0,0
50239,-100,4,2,5,60,0,0
58701,-100,4,2,5,65,0,0
63572,-100,4,2,5,70,0,0
64085,-100,4,2,5,75,0,0
64342,-100,4,2,5,80,0,0
64598,-100,4,2,5,85,0,0
64983,-100,4,2,5,80,0,0
66136,-100,4,1,6,70,0,0
66649,-100,4,1,6,80,0,0
73316,256.410256410256,3,1,6,80,1,0
81008,256.410256410256,4,2,73,80,1,0
81008,-100,4,2,73,80,0,0
81136,-100,4,2,1,40,0,0
93572,-100,4,2,1,60,0,0
94341,-100,4,2,10,60,0,0
94597,-100,4,2,1,60,0,0
97418,-100,4,3,1,80,0,1
99469,-100,4,3,2,80,0,1
101264,-100,4,3,3,80,0,1
101905,-100,4,3,4,80,0,1
102161,-100,4,2,1,60,0,1
102546,-100,4,3,4,80,0,1
102931,-100,4,3,5,80,0,1
103187,-100,4,3,2,60,0,1
103572,-100,4,3,2,80,0,1
105495,-100,4,3,2,80,0,0
105623,-100,4,3,1,80,0,1
107290,-100,4,2,1,60,0,1
107674,-100,4,3,2,80,0,1
109469,-100,4,3,3,80,0,1
110110,-100,4,3,4,80,0,1
110366,-100,4,2,1,60,0,1
110751,-100,4,3,4,80,0,1
111136,-100,4,3,5,80,0,1
111392,-100,4,2,1,60,0,1
111777,-100,4,3,2,80,0,1
113828,-100,4,3,73,80,0,0
113892,-100,4,3,1,60,0,0
115879,-100,4,3,1,80,0,1
116264,-100,4,3,2,80,0,1
116777,-100,4,3,99,80,0,1
116905,-100,4,3,55,80,0,1
117033,-100,4,3,98,80,0,1
117290,-100,4,3,97,80,0,1
117418,-100,4,3,98,80,0,1
117931,-100,4,3,97,80,0,1
118315,-100,4,3,96,80,0,1
118443,-100,4,2,1,60,0,1
118956,-100,4,3,55,80,0,1
119084,-100,4,3,99,80,0,1
119341,-100,4,3,95,80,0,1
119725,-100,4,3,96,80,0,1
119982,-100,4,3,94,80,0,1
120366,-100,4,3,97,80,0,1
121007,-100,4,3,56,80,0,1
121072,-100,4,3,95,80,0,1
121392,-100,4,3,94,80,0,1
121905,-100,4,2,1,80,0,0
122033,-100,4,3,80,85,0,1
123059,-100,4,3,57,85,0,1
123123,-100,4,3,70,85,0,1
123315,-100,4,3,80,85,0,1
124469,-100,4,3,79,85,0,1
125110,-100,4,3,55,85,0,1
125174,-100,4,3,79,85,0,1
125879,-100,4,3,98,85,0,1
126136,-100,4,3,97,70,0,0
126520,-100,4,3,96,70,0,0
127161,-100,4,3,99,70,0,0
129982,-100,4,1,6,50,0,0
130110,-100,4,1,6,55,0,0
130495,-100,4,1,6,60,0,0
134084,-100,4,1,1,75,0,0
134341,-100,4,1,6,60,0,0
138187,-100,4,1,2,75,0,0
138251,-100,4,1,1,60,0,0
138443,-100,4,1,6,60,0,0
138572,-100,4,2,5,60,0,0
139725,-100,4,2,3,40,0,0
141520,-100,4,2,3,50,0,0
142290,-100,4,1,6,50,0,0
142418,-100,4,1,6,60,0,0
142546,-100,4,1,6,70,0,0
144597,-100,4,2,3,70,0,0
145623,-100,4,2,3,60,0,0

[Colours]
Combo1 : 132,193,255
Combo2 : 151,151,255
Combo3 : 255,145,255

[HitObjects]
258,196,9214,5,2,3:2:0:0:
258,196,9855,1,0,3:2:0:0:
384,196,10239,1,0,3:2:0:0:
258,196,10880,1,0,3:2:0:0:
258,196,11137,1,0,3:2:0:0:
258,196,11265,5,2,3:2:0:0:
258,196,11906,1,0,3:2:0:0:
136,199,12291,1,0,3:2:0:0:
258,196,12675,1,0,3:2:0:0:
258,196,12932,1,0,3:2:0:0:
258,196,13188,1,0,3:2:0:0:
258,196,13316,5,2,3:2:0:0:
258,196,13957,1,0,3:2:0:0:
395,197,14342,1,0,3:2:0:0:
258,196,14983,1,0,3:2:0:0:
140,199,15239,1,2,3:2:0:0:
256,192,16393,12,0,17162,0:0:0:0:
259,247,17419,6,0,L|257:129,1,104,4|2,1:0|0:0,0:0:0:0:
146,100,17932,2,0,L|27:95,1,104,2|2,0:0|0:0,0:0:0:0:
155,63,18444,6,0,L|162:175,1,104,2|2,0:0|0:0,0:0:0:0:
272,200,18957,2,0,L|398:215,1,104,2|2,0:0|0:0,0:0:0:0:
262,287,19470,6,0,L|258:397,1,104,2|2,0:0|0:0,0:0:0:0:
143,360,19983,2,0,L|29:345,1,104,2|2,0:0|0:0,0:0:0:0:
159,286,20496,5,2,0:0:0:0:
161,234,20624,1,8,0:0:0:0:
164,182,20752,1,8,0:0:0:0:
278,140,21008,1,0,0:0:0:0:
163,101,21265,1,8,0:0:0:0:
286,78,21521,6,0,L|393:69,1,104,4|2,1:0|0:0,0:0:0:0:
491,245,22034,2,0,L|375:230,1,104,2|2,0:0|0:0,0:0:0:0:
277,264,22547,6,0,L|272:142,1,104,2|2,0:0|0:0,0:0:0:0:
159,166,23060,2,0,L|152:60,1,104,2|2,0:0|0:0,0:0:0:0:
272,52,23573,6,0,L|381:70,1,104,2|2,0:0|0:0,0:0:0:0:
263,177,24085,2,0,L|148:199,1,104,2|2,0:0|0:0,0:0:0:0:
42,272,24598,6,0,P|29:220|105:142,1,156,2|2,0:0|0:0,0:0:0:0:
168,116,25175,1,2,0:0:0:0:
249,109,25367,1,4,3:2:0:0:
123,27,25624,6,0,L|110:154,1,104,12|2,0:0|0:0,0:0:0:0:
166,163,26008,2,0,L|280:184,1,104,8|2,0:0|0:0,0:0:0:0:
321,190,26393,1,8,0:0:0:0:
201,284,26650,6,0,L|96:320,1,104,8|2,0:0|0:0,0:0:0:0:
160,346,27034,2,0,L|266:346,1,104,8|2,0:0|0:0,0:0:0:0:
319,328,27419,1,4,0:0:0:0:
441,247,27675,6,0,L|334:200,1,104,8|2,0:0|0:0,0:0:0:0:
289,202,28060,2,0,L|286:83,1,104,8|2,0:0|0:0,0:0:0:0:
343,84,28444,1,4,0:0:0:0:
463,51,28701,6,0,L|465:161,1,104,8|2,0:0|0:0,0:0:0:0:
409,181,29085,2,0,L|298:192,1,104,8|2,0:0|0:0,0:0:0:0:
253,193,29470,1,2,0:0:0:0:
135,261,29726,6,0,L|133:156,1,104,8|2,0:0|0:0,0:0:0:0:
190,143,30111,2,0,L|306:136,1,104,8|2,0:0|0:0,0:0:0:0:
241,115,30496,1,0,0:0:0:0:
121,86,30752,6,0,L|24:140,1,104,8|2,0:0|0:0,0:0:0:0:
84,173,31137,2,0,L|208:199,1,104,8|2,0:0|0:0,0:0:0:0:
239,201,31521,1,0,0:0:0:0:
118,311,31778,6,0,L|113:191,1,104,8|2,0:0|0:0,0:0:0:0:
172,188,32162,2,0,L|283:172,1,104,8|2,0:0|0:0,0:0:0:0:
331,158,32547,1,8,0:0:0:0:
212,100,32803,6,0,L|94:97,1,104,8|8,0:0|0:0,0:0:0:0:
159,62,33188,1,8,0:0:0:0:
277,45,33444,1,0,0:0:0:0:
443,138,33829,6,0,L|325:163,1,104,4|8,0:0|0:0,0:0:0:0:
230,193,34342,2,0,L|227:314,1,104,8|0,0:0|0:0,0:0:0:0:
339,327,34855,6,0,L|451:313,1,104,0|8,0:0|0:0,0:0:0:0:
326,232,35367,2,0,L|206:228,1,104,8|0,0:0|0:0,0:0:0:0:
103,162,35880,6,0,L|221:137,1,104,0|8,0:0|0:0,0:0:0:0:
322,140,36393,2,0,L|326:20,1,104,8|0,0:0|0:0,0:0:0:0:
202,28,36906,6,0,L|88:46,1,104,0|8,0:0|0:0,0:0:0:0:
215,118,37419,2,0,L|219:226,1,104,10|0,0:0|0:0,0:0:0:0:
90,242,37932,6,0,L|82:353,1,104,4|8,0:0|0:0,0:0:0:0:
195,359,38444,2,0,L|311:349,1,104,8|0,0:0|0:0,0:0:0:0:
411,266,38957,6,0,L|293:247,1,104,0|8,0:0|0:0,0:0:0:0:
190,236,39470,2,0,L|184:120,1,104,8|0,0:0|0:0,0:0:0:0:
301,104,39983,6,0,L|181:104,1,104,0|8,0:0|0:0,0:0:0:0:
79,95,40496,2,0,L|72:206,1,104,8|0,0:0|0:0,0:0:0:0:
196,235,41008,6,0,L|310:251,1,104,0|8,0:0|0:0,0:0:0:0:
180,344,41521,2,0,L|150:293,2,52,2|0|0,0:0|0:0|0:0,0:0:0:0:
308,355,42034,6,0,L|421:343,1,104,12|2,0:0|0:0,0:0:0:0:
467,298,42419,2,0,L|350:281,1,104,8|2,0:0|0:0,0:0:0:0:
308,274,42803,1,2,0:0:0:0:
185,210,43060,6,0,L|296:174,1,104,12|2,0:0|0:0,0:0:0:0:
340,175,43444,2,0,L|344:60,1,104,8|2,0:0|0:0,0:0:0:0:
288,59,43829,1,10,0:0:0:0:
167,122,44085,6,0,L|61:142,1,104,12|2,0:0|0:0,0:0:0:0:
121,185,44470,2,0,L|246:198,1,104,8|2,0:0|0:0,0:0:0:0:
283,200,44855,1,10,0:0:0:0:
165,304,45111,6,0,L|48:317,1,104,12|2,0:0|0:0,0:0:0:0:
119,281,45496,2,0,L|231:271,1,104,8|2,0:0|0:0,0:0:0:0:
279,265,45880,1,2,0:0:0:0:
157,232,46137,6,0,L|147:122,1,104,12|2,0:0|0:0,0:0:0:0:
206,112,46521,2,0,L|325:88,1,104,8|2,0:0|0:0,0:0:0:0:
254,59,46906,1,4,0:0:0:0:
134,65,47162,6,0,L|29:101,1,104,12|2,0:0|0:0,0:0:0:0:
92,137,47547,2,0,L|204:171,1,104,8|2,0:0|0:0,0:0:0:0:
250,170,47932,1,4,0:0:0:0:
375,225,48188,6,0,L|297:299,1,104,12|2,0:0|0:0,0:0:0:0:
241,317,48573,2,0,L|238:201,1,104,8|2,0:0|0:0,0:0:0:0:
294,199,48957,1,4,0:0:0:0:
419,156,49214,6,0,L|485:148,2,52,6|2|12,0:0|0:0|0:0,0:0:0:0:
363,153,49598,1,0,0:0:0:0:
128,291,50239,6,0,L|235:268,1,104,12|2,3:2|0:0,0:0:0:0:
328,202,50752,2,0,L|210:179,1,104,2|2,0:0|0:0,0:0:0:0:
109,189,51265,6,0,L|102:97,1,78,8|0,0:0|0:0,0:0:0:0:
183,74,51650,2,0,L|335:168,1,156,10|0,0:0|0:0,0:0:0:0:
194,248,52291,6,0,L|119:260,2,69.3333333333333,10|0|2,0:0|0:0|0:0,0:0:0:0:
316,300,52932,1,8,0:0:0:0:
196,348,53188,2,0,L|74:324,1,104,2|2,0:0|0:0,0:0:0:0:
215,264,53701,2,0,P|288:238|265:158,1,156,10|8,0:0|0:0,0:0:0:0:
157,170,54342,6,0,P|99:162|105:69,1,156,12|8,0:0|0:0,0:0:0:0:
147,57,54855,1,8,0:0:0:0:
216,47,55026,1,0,0:0:0:0:
255,129,55197,1,0,0:0:0:0:
216,47,55367,5,8,0:0:0:0:
151,68,55538,1,2,0:0:0:0:
113,120,55709,1,8,0:0:0:0:
151,68,55880,1,2,0:0:0:0:
216,47,56051,1,8,0:0:0:0:
377,102,56393,6,0,L|385:218,1,104,12|8,0:0|0:0,0:0:0:0:
331,226,56778,2,0,L|210:246,1,104,8|0,0:0|0:0,0:0:0:0:
340,322,57291,6,0,L|448:311,1,104,8|2,0:0|0:0,0:0:0:0:
330,237,57803,2,0,L|323:65,1,156,8|2,0:0|0:0,0:0:0:0:
195,60,58444,6,0,L|81:42,1,104,6|8,0:0|0:0,0:0:0:0:
155,22,58829,2,0,P|195:33|139:190,1,260,2|8,0:0|0:0,0:0:0:0:
73,224,59662,1,0,0:0:0:0:
158,284,59855,2,0,L|281:291,1,104,2|0,0:0|0:0,0:0:0:0:
98,358,60496,5,12,0:0:0:0:
42,354,60624,2,0,L|33:236,1,104,2|8,0:0|0:0,0:0:0:0:
131,209,61137,2,0,L|199:204,1,52,8|8,0:0|0:0,0:0:0:0:
237,206,61393,6,0,L|244:95,1,104,2|2,0:0|0:0,0:0:0:0:
131,75,61906,2,0,P|106:111|175:178,1,156,8|2,0:0|0:0,0:0:0:0:
288,223,62547,6,0,L|404:229,1,104,12|8,0:0|0:0,0:0:0:0:
286,328,63060,2,0,L|274:219,1,104,8|0,0:0|0:0,0:0:0:0:
383,197,63573,2,0,L|490:193,1,104,8|8,0:0|0:0,0:0:0:0:
374,93,64085,2,0,L|268:86,1,104,8|10,0:0|0:0,0:0:0:0:
146,111,64598,6,0,P|125:167|207:217,1,156,14|2,0:0|0:0,0:0:0:0:
244,228,65111,1,8,0:0:0:0:
136,331,65367,2,0,L|64:337,1,52,8|8,0:0|0:0,0:0:0:0:
193,264,65752,6,0,L|219:212,2,52,0|8|0,0:0|0:0|0:0,0:0:0:0:
138,272,66137,2,0,L|62:271,2,69.3333333333333,0|0|0,0:0|0:0|0:0,0:0:0:0:
215,300,66650,5,12,0:0:0:0:
328,311,66906,2,0,L|341:204,1,104,0|8,0:0|0:0,0:0:0:0:
238,175,67419,1,8,0:0:0:0:
128,161,67675,6,0,L|117:55,1,104,8|8,0:0|0:0,0:0:0:0:
225,44,68188,2,0,L|325:58,2,78,8|0|0,0:0|0:0|0:0,0:0:0:0:
164,52,68701,6,0,L|163:172,1,104,12|8,0:0|0:0,0:0:0:0:
270,211,69214,2,0,L|384:230,1,104,8|0,0:0|0:0,0:0:0:0:
483,306,69726,6,0,L|485:198,1,104,8|8,0:0|0:0,0:0:0:0:
376,172,70239,1,8,0:0:0:0:
370,120,70367,1,0,0:0:0:0:
365,68,70495,1,8,0:0:0:0:
249,45,70752,6,0,L|133:50,1,104,14|8,0:0|0:0,0:0:0:0:
260,140,71265,2,0,L|269:255,1,104,8|8,0:0|0:0,0:0:0:0:
146,261,71778,6,0,L|41:269,1,104,0|8,0:0|0:0,0:0:0:0:
159,348,72291,2,0,L|269:339,1,104,8|8,0:0|0:0,0:0:0:0:
293,296,72675,1,0,0:0:0:0:
263,340,72803,2,0,L|143:334,1,104,8|8,0:0|0:0,0:0:0:0:
283,245,73316,6,0,L|393:201,2,104,12|8|8,0:0|0:0|0:0,0:0:0:0:
159,158,74085,6,0,L|48:118,2,104,12|8|8,0:0|0:0|0:0,0:0:0:0:
291,107,74855,6,0,L|356:202,2,104,12|8|8,0:0|0:0|0:0,0:0:0:0:
162,155,75624,6,0,L|110:250,2,104,12|8|8,0:0|0:0|0:0,0:0:0:0:
290,201,76393,6,0,L|408:214,1,104,12|8,0:0|0:0,0:0:0:0:
399,325,76906,1,8,0:0:0:0:
274,187,77162,6,0,L|156:200,1,104,12|8,0:0|0:0,0:0:0:0:
165,311,77675,1,8,0:0:0:0:
290,334,77932,6,0,L|294:213,1,104,12|8,0:0|0:0,0:0:0:0:
186,200,78444,1,8,0:0:0:0:
65,135,78701,6,0,L|177:113,1,104,12|8,0:0|0:0,0:0:0:0:
279,66,79214,2,0,L|165:36,1,104,0|2,0:0|0:0,0:0:0:0:
298,104,79726,5,8,0:0:0:0:
256,192,79983,12,2,81008,0:0:0:0:
256,192,87162,12,2,88957,0:0:0:0:
252,313,89214,6,0,L|249:139,1,156,10|2,3:2|0:0,0:0:0:0:
136,145,89855,2,0,L|131:76,1,52,8|8,0:0|0:0,0:0:0:0:
248,58,90239,6,0,L|412:86,1,156,2|2,0:0|0:0,0:0:0:0:
292,160,90880,2,0,L|234:163,1,52,8|8,0:0|0:0,0:0:0:0:
359,226,91265,6,0,L|374:395,1,156,2|2,0:0|0:0,0:0:0:0:
260,355,91906,2,0,L|199:350,1,52,0|8,0:0|0:0,0:0:0:0:
155,342,92162,2,0,L|148:230,1,104,0|0,0:0|0:0,0:0:0:0:
203,215,92547,5,8,0:0:0:0:
312,184,92803,1,8,0:0:0:0:
204,136,93060,1,0,0:0:0:0:
83,195,93316,6,0,P|68:137|149:86,1,156,2|2,0:0|0:0,0:0:0:0:
265,73,94021,1,0,0:0:0:0:
398,216,94342,6,0,L|227:248,1,156,6|8,0:0|0:0,0:0:0:0:
192,246,94855,1,0,0:0:0:0:
307,329,95111,1,0,0:0:0:0:
192,246,95367,5,0,0:0:0:0:
86,253,97419,6,0,P|70:200|119:176,1,104,6|0,0:0|0:0,0:0:0:0:
161,157,97803,2,0,L|326:133,1,156,8|0,0:0|0:0,0:0:0:0:
435,155,98444,6,0,P|451:102|402:78,1,104,2|0,0:0|0:0,0:0:0:0:
360,59,98828,2,0,L|243:50,1,104,8|0,0:0|0:0,0:0:0:0:
199,45,99214,1,0,0:0:0:0:
325,229,99470,6,0,L|484:161,2,156,6|8|0,0:0|0:0|0:0,0:0:0:0:
207,248,100496,6,0,L|193:126,1,104
304,149,101008,2,0,L|305:36,1,104,0|2,0:0|0:0,0:0:0:0:
179,47,101521,6,0,L|69:61,1,104,12|0,0:0|0:0,0:0:0:0:
135,122,101906,2,0,L|299:161,1,156,2|0,0:0|3:0,0:0:0:0:
165,236,102547,6,0,L|28:319,1,156,8|2,0:0|0:0,0:0:0:0:
144,349,103188,2,0,L|215:346,1,52,0|0,0:0|0:0,0:0:0:0:
325,277,103573,6,0,L|175:217,2,156,12|0|0,0:0|0:0|0:0,0:0:0:0:
443,276,104598,2,0,L|448:158,1,104,0|0,0:0|0:0,0:0:0:0:
324,127,105111,2,0,L|203:132,1,104,0|0,0:0|0:0,0:0:0:0:
354,41,105624,6,0,L|472:62,1,104,6|0,0:0|0:0,0:0:0:0:
397,104,106008,2,0,L|231:128,1,156,8|0,0:0|0:0,0:0:0:0:
115,228,106650,6,0,L|222:266,1,104,2|0,0:0|0:0,0:0:0:0:
270,273,107034,2,0,L|276:157,1,104,8|0,0:0|3:0,0:0:0:0:
218,156,107419,1,0,3:0:0:0:
90,101,107675,6,0,L|241:32,2,156,6|8|0,0:0|0:0|0:0,0:0:0:0:
212,187,108701,6,0,L|338:204,1,104,0|0,0:0|0:0,0:0:0:0:
198,287,109214,2,0,L|74:286,1,104,0|2,0:0|0:0,0:0:0:0:
222,357,109726,6,0,L|225:249,1,104,12|0,0:0|0:0,0:0:0:0:
166,244,110111,2,0,P|107:232|125:136,1,156,2|0,0:0|3:0,0:0:0:0:
225,108,110752,6,0,L|397:89,1,156,8|2,0:0|0:0,0:0:0:0:
266,50,111393,2,0,L|259:119,1,52,0|0,3:0|3:0,0:0:0:0:
388,218,111778,6,0,L|236:289,2,156,12|0|0,0:0|0:0|0:0,0:0:0:0:
270,173,112803,6,0,L|165:144,1,104,0|0,0:0|0:0,0:0:0:0:
289,85,113316,2,0,L|297:208,1,104,0|0,0:0|0:0,0:0:0:0:
161,244,113829,5,10,3:2:0:0:
161,244,114214,1,8,2:3:0:0:
161,244,114598,1,8,3:3:0:0:
266,284,114855,6,0,L|431:225,1,156,2|8,2:3|0:0,0:0:0:0:
361,197,115367,1,0,0:0:0:0:
254,174,115624,1,0,0:0:0:0:
372,93,115880,6,0,L|490:77,1,104,6|0,0:0|0:0,0:0:0:0:
421,51,116265,2,0,L|300:52,1,104,8|0,0:0|0:0,0:0:0:0:
263,60,116650,1,0,0:0:0:0:
144,104,116906,6,0,L|139:212,1,104,4|0,3:0|0:0,0:0:0:0:
257,216,117419,2,0,L|268:325,1,104,0|2,0:0|0:0,0:0:0:0:
140,338,117932,6,0,L|23:309,1,104,12|0,0:0|0:0,0:0:0:0:
96,276,118316,2,0,L|205:252,1,104,2|0,0:0|3:0,0:0:0:0:
255,244,118701,1,0,3:0:0:0:
126,203,118957,6,0,L|121:98,1,104,12|0,0:0|0:0,0:0:0:0:
176,82,119342,2,0,L|290:60,1,104,2|0,0:0|0:0,0:0:0:0:
334,71,119726,1,8,0:0:0:0:
203,160,119983,6,0,L|212:272,1,104,6|0,0:0|0:0,0:0:0:0:
267,284,120367,2,0,L|387:287,1,104,2|0,0:0|0:0,0:0:0:0:
429,280,120752,1,0,0:0:0:0:
303,172,121008,6,0,L|194:156,1,104,12|0,0:0|0:0,0:0:0:0:
259,120,121393,2,0,L|384:101,1,104,8|0,0:0|0:0,0:0:0:0:
305,77,121778,1,0,3:0:0:0:
174,64,122034,6,0,L|59:87,1,104,6|0,0:0|0:0,0:0:0:0:
126,117,122419,2,0,L|239:133,1,104,8|0,0:0|0:0,0:0:0:0:
284,147,122803,1,0,0:0:0:0:
155,224,123060,6,0,L|37:252,1,104,6|0,0:0|0:0,0:0:0:0:
110,290,123444,2,0,L|224:302,1,104,8|0,0:0|0:0,0:0:0:0:
272,311,123829,1,0,0:0:0:0:
400,347,124085,6,0,L|399:230,1,104,6|0,0:0|0:0,0:0:0:0:
342,222,124470,2,0,L|222:203,1,104,2|0,0:0|0:0,0:0:0:0:
185,195,124855,1,0,0:0:0:0:
314,139,125111,6,0,L|423:120,1,104,4|0,0:0|0:0,0:0:0:0:
288,85,125624,2,0,L|258:32,2,52,0|0|2,0:0|0:0|0:0,0:0:0:0:
426,141,126137,6,0,P|458:201|396:254,1,156,12|2,0:0|0:0,0:0:0:0:
176,354,127162,6,0,L|332:310,1,156,8|2,0:0|0:0,0:0:0:0:
81,255,128188,5,8,0:0:0:0:
256,192,128444,12,0,129983,0:0:0:0:
207,199,130239,6,0,L|111:193,2,78,2|0|2,0:0|0:0|0:0,0:0:0:0:
261,207,130752,2,0,L|273:91,1,104,0|8,0:0|0:0,0:0:0:0:
388,105,131265,6,0,L|484:99,2,78,2|0|2,0:0|0:0|0:0,0:0:0:0:
334,113,131778,2,0,L|322:-3,1,104,2|8,0:0|0:0,0:0:0:0:
209,92,132291,6,0,L|108:94,2,78,2|0|2,0:0|0:0|0:0,0:0:0:0:
264,146,132803,2,0,L|152:161,1,104,0|8,0:0|0:0,0:0:0:0:
42,230,133316,6,0,L|173:290,2,138.666666666667,2|0|8,0:0|0:0|0:0,0:0:0:0:
183,189,134342,5,2,0:0:0:0:
260,179,134534,1,0,0:0:0:0:
338,174,134726,1,2,0:0:0:0:
285,135,134855,2,0,L|172:115,1,104,8|2,0:0|0:0,0:0:0:0:
306,40,135367,6,0,L|397:49,2,78,2|0|8,0:0|0:0|0:0,0:0:0:0:
250,51,135880,2,0,L|250:171,1,104,2|8,0:0|0:0,0:0:0:0:
371,195,136393,6,0,L|423:276,2,78,2|0|2,0:0|0:0|0:0,0:0:0:0:
316,184,136906,2,0,L|254:106,2,78,2|0|0,0:0|0:0|0:0,0:0:0:0:
369,197,137419,6,0,L|455:211,2,78,2|0|2,0:0|0:0|0:0,0:0:0:0:
312,198,137932,2,0,L|201:219,1,104,8|4,0:0|0:0,0:0:0:0:
338,311,138444,5,0,0:0:0:0:
256,192,138701,12,10,141521,0:0:0:0:
252,199,142291,5,10,0:0:0:0:
130,189,142547,6,0,L|47:153,2,78,2|0|2,0:0|0:0|0:0,0:0:0:0:
184,191,143060,2,0,L|194:306,1,104,2|8,0:0|0:0,0:0:0:0:
313,230,143573,6,0,L|396:194,2,78,2|0|2,0:0|0:0|0:0,0:0:0:0:
259,232,144084,2,0,L|249:347,1,104,2|8,0:0|0:0,0:0:0:0:
366,340,144598,5,2,3:2:0:0:
399,284,144769,1,2,3:2:0:0:
366,340,144940,1,2,3:2:0:0:
306,344,145111,5,2,3:2:0:0:
237,333,145282,1,2,3:2:0:0:
306,344,145453,1,2,3:2:0:0:
397,346,145624,5,8,3:2:0:0:
