osu file format v14

[General]
AudioFilename: audio.mp3
AudioLeadIn: 0
PreviewTime: 97310
Countdown: 0
SampleSet: Soft
StackLeniency: 0.2
Mode: 0
LetterboxInBreaks: 0
WidescreenStoryboard: 1

[Editor]
Bookmarks: 33816,50214,54460,66485,80976,89239,97373,108050,113899,130170
DistanceSpacing: 0.2
BeatDivisor: 4
GridSize: 32
TimelineZoom: 4.499998

[Metadata]
Title:Aegleseeker
TitleUnicode:Aegleseeker
Artist:Silentroom vs. Frums
ArtistUnicode:Silentroom vs. Frums
Creator:Cubby
Version:captin's deliverance
Source:Arcaea
Tags:lowiro 2020 song contest grand prize winner deliverance esoteric order LeCandy Amateurre Seros Kyutei Sunazuka Akira captin1 cubbby arronchu1207 thiev electronic instrumental -[pino]- bekko flask anya melfissa JeZag
BeatmapID:3085497
BeatmapSetID:1458224

[Difficulty]
HPDrainRate:5.4
CircleSize:4.2
OverallDifficulty:9.3
ApproachRate:9.7
SliderMultiplier:2
SliderTickRate:1

[Events]
//Background and Video events
0,0,"85232270_p0.jpg",0,0
//Break Periods
2,95300,96913
//Storyboard Layer 0 (Background)
//Storyboard Layer 1 (Fail)
//Storyboard Layer 2 (Pass)
//Storyboard Layer 3 (Foreground)
//Storyboard Layer 4 (Overlay)
//Storyboard Sound Samples

[TimingPoints]
999,256.410256410256,4,2,2,60,1,0
1127,-333.333333333333,4,2,2,40,0,0
17409,-333.333333333333,4,2,2,70,0,0
17793,-83.3333333333333,4,2,2,70,0,0
24845,-58.8235294117647,4,2,2,70,0,0
25037,-83.3333333333333,4,2,2,70,0,0
26383,-66.6666666666667,4,2,2,70,0,0
26575,-66.6666666666667,4,2,2,5,0,0
26640,-66.6666666666667,4,2,2,70,0,0
27601,-66.6666666666667,4,2,2,5,0,0
27665,-66.6666666666667,4,2,2,70,0,0
28626,-66.6666666666667,4,2,2,5,0,0
28691,-66.6666666666667,4,2,2,70,0,0
30678,-66.6666666666667,4,2,2,5,0,0
30742,-66.6666666666667,4,2,2,70,0,0
31703,-66.6666666666667,4,2,2,5,0,0
31768,-66.6666666666667,4,2,2,70,0,0
32729,-66.6666666666667,4,2,2,5,0,0
32793,-66.6666666666667,4,2,2,70,0,0
33754,-66.6666666666667,4,2,2,5,0,0
33819,-66.6666666666667,4,2,2,70,0,0
33947,-76.9230769230769,4,2,2,70,0,0
42793,-66.6666666666667,4,2,2,70,0,0
42985,-66.6666666666667,4,2,2,5,0,0
43050,-66.6666666666667,4,2,2,70,0,0
44011,-66.6666666666667,4,2,2,5,0,0
44075,-66.6666666666667,4,2,2,70,0,0
45037,-66.6666666666667,4,2,2,5,0,0
45101,-66.6666666666667,4,2,2,70,0,0
47088,-66.6666666666667,4,2,2,5,0,0
47152,-66.6666666666667,4,2,2,70,0,0
48114,-66.6666666666667,4,2,2,5,0,0
48178,-66.6666666666667,4,2,2,70,0,0
49139,-66.6666666666667,4,2,2,5,0,0
49204,-66.6666666666667,4,2,2,40,0,0
50229,-100,4,2,2,60,0,0
66127,-66.6666666666667,4,2,2,70,0,0
73306,256.410256410256,3,2,2,70,1,0
73370,-66.6666666666667,3,2,2,70,0,0
80485,-99.9999999999978,3,2,2,70,0,0
80998,256.410256410256,4,2,2,60,1,0
81639,-133.333333333333,4,2,2,60,0,0
97408,-133.333333333333,4,2,2,80,0,0
97792,-66.6666666666667,4,2,2,80,0,0
113818,-100,4,2,2,70,0,0
115869,-100,4,2,2,90,0,0
117151,-66.6666666666667,4,2,2,90,0,0
122023,-66.6666666666667,4,2,2,100,0,0
126126,-100,4,2,2,70,0,0
128177,-142.857142857143,4,2,2,70,0,0
129972,-100,4,2,2,60,0,0
130228,-100,4,2,2,80,0,0
130485,-76.9230769230769,4,2,2,80,0,0
133946,-62.5,4,2,2,80,0,0
134331,-76.9230769230769,4,2,2,80,0,0
138049,-62.5,4,2,2,80,0,0
141510,-333.333333333333,4,2,2,80,0,0
142280,-100,4,2,2,60,0,0
142536,-100,4,2,2,80,0,0
142792,-76.9230769230769,4,2,2,80,0,0
145613,-142.857142857143,4,2,2,80,0,0

[Colours]
Combo1 : 128,0,255
Combo2 : 128,128,255
Combo3 : 255,89,255

[HitObjects]
167,211,1127,6,0,B|195:138|207:45|207:45|248:44|289:26|289:26|274:187|202:316|202:316|110:278|21:265|21:265|68:189|82:111|82:111|214:169|340:180|340:180|361:116|367:40|367:40|405:44|453:24|453:24|430:223|365:349|365:349|333:332|291:326|291:326|304:301|317:263,1,1890,0|0,2:0|3:0,2:0:0:0:
449,318,9845,5,0,3:0:0:0:
457,348,10229,1,0,3:0:0:0:
365,340,10870,5,0,3:0:0:0:
373,370,11127,1,0,3:0:0:0:
373,370,11255,1,0,3:0:0:0:
270,282,11896,5,0,3:0:0:0:
278,312,12281,1,0,3:0:0:0:
286,342,12665,1,0,3:0:0:0:
201,349,12922,5,0,3:0:0:0:
209,379,13178,1,0,3:0:0:0:
209,379,13306,1,0,3:0:0:0:
110,275,13947,5,0,3:0:0:0:
118,305,14332,1,0,3:0:0:0:
34,354,14973,5,0,3:0:0:0:
42,384,15229,1,0,3:0:0:0:
256,192,15357,12,0,17281,2:0:0:0:
29,16,17409,5,4,3:2:0:0:
97,80,17537,1,2,2:0:0:0:
119,73,17601,1,2,2:0:0:0:
141,66,17665,1,2,2:0:0:0:
163,59,17729,1,2,2:0:0:0:
185,52,17793,2,0,L|254:63,1,60,2|0,2:0|2:0,2:0:0:0:
317,19,17922,5,2,2:0:0:0:
337,48,17986,1,2,2:0:0:0:
368,65,18050,1,2,2:0:0:0:
404,66,18114,1,2,2:0:0:0:
438,54,18178,2,0,L|449:117,1,60,2|0,2:0|2:0,2:0:0:0:
366,195,18306,2,0,B|354:177|354:177|367:119,3,60,2|0|2|0,2:0|2:0|2:0|2:0,2:0:0:0:
266,157,18563,5,2,2:0:0:0:
271,192,18627,1,2,2:0:0:0:
276,227,18691,1,2,2:0:0:0:
281,262,18755,1,2,2:0:0:0:
286,297,18819,2,0,L|346:315,1,60,2|0,2:0|2:0,2:0:0:0:
512,321,18947,5,2,2:0:0:0:
483,299,19011,1,2,2:0:0:0:
447,299,19075,1,2,2:0:0:0:
418,321,19140,1,2,2:0:0:0:
403,354,19204,2,0,L|338:339,1,60,2|0,2:0|2:0,2:0:0:0:
197,225,19332,5,2,2:0:0:0:
203,260,19396,1,2,2:0:0:0:
209,295,19460,2,0,L|193:357,1,60,2|0,2:0|2:0,2:0:0:0:
5,280,19588,5,2,2:0:0:0:
40,274,19652,1,2,2:0:0:0:
75,268,19716,2,0,L|137:284,1,60,2|0,2:0|2:0,2:0:0:0:
30,192,19845,5,2,2:0:0:0:
33,168,19909,1,2,2:0:0:0:
45,147,19973,1,2,2:0:0:0:
65,134,20037,1,2,2:0:0:0:
88,133,20101,2,0,L|170:149,1,60,2|0,2:0|2:0,2:0:0:0:
257,31,20229,5,2,2:0:0:0:
230,55,20293,1,2,2:0:0:0:
204,80,20357,2,0,L|126:65,1,60,2|0,2:0|2:0,2:0:0:0:
18,35,20486,6,0,L|96:20,1,60,2|0,3:2|2:0,2:0:0:0:
262,138,20614,2,0,L|340:123,1,60,10|0,2:1|2:0,2:0:0:0:
197,225,20742,1,10,2:1:0:0:
220,252,20806,1,0,3:0:0:0:
243,278,20870,2,0,L|321:263,1,60,8|8,2:1|2:1,2:0:0:0:
396,324,20999,5,0,3:0:0:0:
396,324,21063,1,0,3:0:0:0:
396,324,21127,1,0,3:0:0:0:
140,281,21255,1,8,1:0:0:0:
463,249,21511,5,4,3:2:0:0:
417,119,21640,1,2,2:0:0:0:
393,121,21704,1,0,2:0:0:0:
374,135,21768,1,2,2:0:0:0:
364,157,21832,1,2,2:0:0:0:
366,180,21896,2,0,L|381:250,1,60,2|0,2:0|2:0,2:0:0:0:
305,303,22024,5,2,2:0:0:0:
296,268,22088,1,2,2:0:0:0:
286,232,22152,1,2,2:0:0:0:
277,197,22216,1,2,2:0:0:0:
268,160,22281,2,0,L|293:68,1,60,2|0,2:0|2:0,2:0:0:0:
360,40,22409,2,0,B|375:29|375:29|436:45,3,60,2|0|2|0,2:0|2:0|2:0|2:0,2:0:0:0:
257,12,22665,5,2,2:0:0:0:
222,22,22729,1,2,2:0:0:0:
187,33,22793,1,2,2:0:0:0:
152,44,22857,1,2,2:0:0:0:
117,56,22922,2,0,L|54:44,1,60,2|0,2:0|2:0,2:0:0:0:
190,122,23050,5,2,2:0:0:0:
156,136,23114,1,2,2:0:0:0:
122,150,23178,2,0,L|59:136,1,60,2|0,2:0|2:0,2:0:0:0:
6,217,23306,5,2,2:0:0:0:
7,252,23370,1,2,2:0:0:0:
26,282,23434,1,2,2:0:0:0:
59,294,23499,1,2,2:0:0:0:
95,289,23563,2,0,L|108:216,1,60,2|0,2:0|2:0,2:0:0:0:
239,193,23691,5,2,2:0:0:0:
217,203,23755,1,2,2:0:0:0:
195,213,23819,2,0,L|183:280,1,60,2|0,2:0|2:0,2:0:0:0:
231,354,23947,5,2,2:0:0:0:
252,364,24011,1,2,2:0:0:0:
275,366,24075,1,2,2:0:0:0:
296,355,24140,1,2,2:0:0:0:
313,338,24204,1,2,2:0:0:0:
329,320,24268,1,2,2:0:0:0:
348,306,24332,1,2,2:0:0:0:
371,301,24396,1,2,2:0:0:0:
394,307,24460,2,0,L|466:329,1,60,2|0,2:0|2:0,2:0:0:0:
423,230,24588,6,0,L|412:172,1,60,0|0,3:0|2:0,2:0:0:0:
465,103,24716,2,0,L|452:34,1,60,0|0,1:0|2:0,2:0:0:0:
504,213,24845,6,0,B|422:202|422:202|414:204|414:204|319:191,1,170,8|0,2:1|3:0,2:0:0:0:
317,164,25037,6,0,L|302:90,1,60,8|0,2:1|2:0,2:0:0:0:
357,10,25165,1,0,3:0:0:0:
357,10,25229,1,8,2:1:0:0:
357,10,25293,1,8,2:1:0:0:
357,10,25357,2,2,L|365:57,6,30,2|2|2|2|2|2|2,2:3|2:3|2:3|2:3|2:3|2:3|2:3,2:3:0:0:
305,105,25614,5,2,3:1:0:0:
262,119,25678,1,2,3:0:0:0:
219,134,25742,1,2,3:0:0:0:
185,103,25806,1,2,3:0:0:0:
151,72,25870,1,2,3:0:0:0:
167,249,25999,5,2,3:1:0:0:
210,235,26063,1,2,3:0:0:0:
253,220,26127,1,2,3:0:0:0:
287,251,26191,1,2,3:0:0:0:
321,282,26255,1,2,3:0:0:0:
452,171,26383,6,0,B|484:167|484:167|388:136|388:136|407:232,1,225,8|0,1:0|2:0,2:0:0:0:
315,181,26640,5,2,3:1:0:0:
324,226,26704,1,2,3:0:0:0:
333,271,26768,1,2,3:0:0:0:
342,316,26832,1,2,3:0:0:0:
352,361,26896,1,2,3:0:0:0:
167,249,27024,5,2,3:1:0:0:
158,204,27088,1,2,3:0:0:0:
149,159,27152,1,2,3:0:0:0:
140,114,27216,1,2,3:0:0:0:
130,69,27281,1,2,3:0:0:0:
31,263,27409,6,0,B|-1:267|-1:267|95:298|95:298|76:202,1,225,8|0,1:0|2:0,2:0:0:0:
24,146,27665,5,2,3:1:0:0:
4,106,27729,1,2,3:0:0:0:
11,62,27793,1,2,3:0:0:0:
42,30,27857,1,2,3:0:0:0:
86,20,27922,1,2,3:0:0:0:
245,116,28050,5,2,3:1:0:0:
265,156,28114,1,2,3:0:0:0:
258,200,28178,1,2,3:0:0:0:
227,232,28242,1,2,3:0:0:0:
183,242,28306,1,2,3:0:0:0:
24,146,28434,6,0,B|131:130|131:130|146:135|146:135|262:113,1,225,8|0,1:0|2:0,2:0:0:0:
301,47,28691,5,2,3:1:0:0:
319,87,28755,1,2,3:0:0:0:
362,96,28819,1,2,3:0:0:0:
406,104,28883,1,2,3:0:0:0:
422,145,28947,1,2,3:0:0:0:
386,289,29075,5,2,3:1:0:0:
404,249,29140,1,2,3:0:0:0:
447,240,29204,1,2,3:0:0:0:
491,232,29268,1,2,3:0:0:0:
507,191,29332,1,8,3:1:0:0:
374,10,29460,5,8,1:0:0:0:
362,96,29546,1,8,1:0:0:0:
350,182,29631,1,8,1:0:0:0:
404,249,29716,5,2,3:1:0:0:
432,259,29781,1,2,3:0:0:0:
460,269,29845,1,2,3:0:0:0:
434,284,29909,1,2,3:0:0:0:
408,299,29973,1,2,3:0:0:0:
308,363,30101,5,2,3:1:0:0:
280,353,30165,1,2,3:0:0:0:
252,343,30229,1,2,3:0:0:0:
278,328,30293,1,2,3:0:0:0:
304,313,30357,1,2,3:0:0:0:
465,353,30486,6,0,B|386:329|386:329|360:276|360:276|264:245,1,225,8|0,1:0|2:0,2:0:0:0:
205,277,30742,5,2,3:1:0:0:
179,264,30806,1,2,3:0:0:0:
152,274,30870,1,2,3:0:0:0:
144,302,30934,1,2,3:0:0:0:
160,326,30999,1,2,3:0:0:0:
12,351,31127,5,2,3:1:0:0:
38,364,31191,1,2,3:0:0:0:
65,354,31255,1,2,3:0:0:0:
73,326,31319,1,2,3:0:0:0:
57,302,31383,1,2,3:0:0:0:
67,164,31511,6,0,B|21:215|21:215|200:174,1,225,8|0,1:0|2:0,2:0:0:0:
262,145,31768,5,2,3:1:0:0:
233,120,31832,1,2,3:0:0:0:
238,82,31896,1,2,3:0:0:0:
242,44,31960,1,2,3:0:0:0:
248,7,32024,1,2,3:0:0:0:
322,73,32152,5,2,3:1:0:0:
351,98,32216,1,2,3:0:0:0:
346,136,32281,1,2,3:0:0:0:
342,174,32345,1,2,3:0:0:0:
336,211,32409,1,2,3:0:0:0:
474,78,32537,6,0,P|449:6|485:71,1,225,8|0,1:0|2:0,2:0:0:0:
442,155,32793,6,0,L|451:204,1,37.5,2|0,3:1|2:0,2:0:0:0:
437,192,32857,2,0,L|446:241,1,37.5,2|0,3:0|2:0,2:0:0:0:
432,229,32922,2,0,L|441:278,1,37.5,2|0,3:0|2:0,2:0:0:0:
427,266,32986,2,0,L|436:315,1,37.5,2|0,3:0|2:0,2:0:0:0:
423,303,33050,1,2,3:0:0:0:
125,354,33178,5,0,3:0:0:0:
299,310,33434,6,2,B|344:323|344:323|231:363|231:363|272:134,1,375,10|0,2:1|2:0,2:1:0:0:
329,20,33819,5,2,3:0:0:0:
343,41,33883,1,2,2:0:0:0:
357,62,33947,2,0,L|342:147,1,65,2|0,2:0|2:0,2:0:0:0:
213,232,34075,5,2,3:0:0:0:
199,211,34140,1,2,2:0:0:0:
185,190,34204,2,0,L|200:105,1,65,2|0,2:0|2:0,2:0:0:0:
90,2,34332,5,10,3:2:0:0:
60,27,34396,1,2,2:0:0:0:
64,65,34460,1,2,2:0:0:0:
36,92,34524,5,2,3:0:0:0:
55,125,34588,1,2,2:0:0:0:
93,132,34652,1,2,2:0:0:0:
124,109,34716,6,0,L|209:95,1,65,2|0,3:0|2:0,2:0:0:0:
364,173,34845,1,2,2:0:0:0:
325,180,34909,1,2,2:0:0:0:
286,187,34973,2,0,L|211:200,1,65,2|0,3:0|2:0,2:0:0:0:
120,282,35101,6,0,B|106:266|106:266|119:208,3,65,2|0|0|0,3:0|2:0|2:0|2:0,2:0:0:0:
31,349,35357,5,10,3:2:0:0:
54,317,35422,1,2,2:0:0:0:
92,314,35486,1,2,2:0:0:0:
121,339,35550,5,2,3:0:0:0:
158,348,35614,1,2,2:0:0:0:
191,328,35678,1,2,2:0:0:0:
210,294,35742,6,0,B|223:281|223:281|281:270,1,65,2|0,3:0|2:0,2:0:0:0:
458,318,35870,1,2,2:0:0:0:
435,331,35934,1,2,2:0:0:0:
411,342,35999,2,0,L|324:324,1,65,2|0,3:0|2:0,2:0:0:0:
286,187,36127,6,0,L|373:205,3,65,2|0|0|0,3:0|2:0|2:0|2:0,2:0:0:0:
460,234,36383,5,10,3:2:0:0:
491,211,36447,1,2,2:0:0:0:
487,172,36511,1,2,2:0:0:0:
451,155,36575,5,2,3:0:0:0:
447,115,36640,1,2,2:0:0:0:
409,105,36704,1,2,2:0:0:0:
379,129,36768,6,0,L|310:115,1,65,2|0,3:0|2:0,2:0:0:0:
202,193,36896,1,2,2:0:0:0:
175,164,36960,1,2,2:0:0:0:
149,134,37024,2,0,B|141:118|141:118|156:51,1,65,2|0,3:0|2:0,2:0:0:0:
272,16,37152,5,2,3:0:0:0:
272,16,37216,1,2,2:0:0:0:
272,16,37281,1,2,2:0:0:0:
272,16,37345,1,2,2:0:0:0:
272,16,37409,6,2,L|262:65,4,32.5,10|2|2|2|2,3:2|2:0|2:0|2:0|2:0,2:0:0:0:
51,135,37665,2,2,L|41:184,4,32.5,2|2|2|2|2,3:0|2:0|2:0|2:0|3:0,2:0:0:0:
260,280,37922,5,2,3:0:0:0:
282,305,37986,1,2,2:0:0:0:
304,330,38050,2,0,L|386:317,1,65,2|0,2:0|2:0,2:0:0:0:
182,320,38178,5,2,3:0:0:0:
160,295,38242,1,2,2:0:0:0:
138,270,38306,2,0,L|56:283,1,65,2|0,2:0|2:0,2:0:0:0:
202,193,38434,5,10,3:2:0:0:
222,152,38499,1,2,2:0:0:0:
268,148,38563,1,2,2:0:0:0:
306,171,38627,5,2,3:0:0:0:
351,172,38691,1,2,2:0:0:0:
378,135,38755,1,2,2:0:0:0:
359,93,38819,6,0,L|349:25,1,65,2|0,3:0|2:0,2:0:0:0:
502,159,38947,1,2,2:0:0:0:
474,175,39011,1,2,2:0:0:0:
446,192,39075,2,0,L|433:260,1,65,2|0,3:0|2:0,2:0:0:0:
341,361,39204,5,2,3:0:0:0:
341,361,39268,1,2,2:0:0:0:
341,361,39332,2,0,L|323:274,1,65,2|0,2:0|2:0,2:0:0:0:
84,297,39460,5,10,3:2:0:0:
79,252,39524,1,2,2:0:0:0:
111,220,39588,1,2,2:0:0:0:
154,232,39652,5,2,3:0:0:0:
190,204,39716,1,2,2:0:0:0:
234,217,39781,1,2,2:0:0:0:
246,260,39845,6,0,L|257:324,1,65,2|0,3:0|2:0,2:0:0:0:
138,154,39973,5,2,2:0:0:0:
103,124,40037,1,2,2:0:0:0:
68,94,40101,2,0,L|81:13,1,65,2|0,3:0|2:0,2:0:0:0:
0,191,40229,5,2,3:0:0:0:
0,191,40293,1,2,2:0:0:0:
0,191,40357,2,0,L|12:272,1,65,2|0,2:0|2:0,2:0:0:0:
188,94,40486,5,10,3:2:0:0:
223,65,40550,1,2,2:0:0:0:
267,74,40614,1,2,2:0:0:0:
285,115,40678,5,2,3:0:0:0:
325,134,40742,1,2,2:0:0:0:
365,112,40806,1,2,2:0:0:0:
376,68,40870,6,0,B|395:50|395:50|457:38,1,65,2|0,3:0|2:0,2:0:0:0:
479,273,40999,5,2,2:0:0:0:
448,260,41063,1,2,2:0:0:0:
417,248,41127,2,0,L|403:159,1,65,2|0,3:0|2:0,2:0:0:0:
202,185,41255,5,2,3:0:0:0:
233,198,41319,1,2,2:0:0:0:
264,210,41383,2,0,L|278:299,1,65,2|0,2:0|2:0,2:0:0:0:
347,358,41511,5,8,3:2:0:0:
349,351,41575,1,0,1:0:0:0:
350,343,41640,1,2,1:2:0:0:
352,336,41704,1,2,3:2:0:0:
353,329,41768,1,2,1:2:0:0:
354,322,41832,1,2,1:2:0:0:
356,315,41896,1,0,3:0:0:0:
357,308,41960,1,2,1:2:0:0:
358,301,42024,5,2,3:1:0:0:
319,277,42088,1,2,3:0:0:0:
274,274,42152,1,2,3:0:0:0:
237,300,42216,1,2,3:0:0:0:
220,342,42281,1,2,3:0:0:0:
33,217,42409,5,2,3:1:0:0:
72,193,42473,1,2,3:0:0:0:
117,190,42537,1,2,3:0:0:0:
154,216,42601,1,2,3:0:0:0:
171,258,42665,1,2,3:0:0:0:
278,104,42793,6,0,B|259:41|259:41|228:224,1,225,8|0,1:0|2:0,2:0:0:0:
317,177,43050,5,2,3:1:0:0:
360,191,43114,1,2,3:0:0:0:
403,206,43178,1,2,3:0:0:0:
437,175,43242,1,2,3:0:0:0:
471,144,43306,1,2,3:0:0:0:
348,44,43434,5,2,3:1:0:0:
305,30,43499,1,2,3:0:0:0:
262,15,43563,1,2,3:0:0:0:
228,46,43627,1,2,3:0:0:0:
194,77,43691,1,2,3:0:0:0:
278,104,43819,6,0,L|54:146,1,225,8|0,1:0|2:0,2:0:0:0:
89,20,44075,5,2,3:1:0:0:
107,60,44140,1,2,3:0:0:0:
150,69,44204,1,2,3:0:0:0:
194,77,44268,1,2,3:0:0:0:
210,118,44332,1,2,3:0:0:0:
21,264,44460,5,2,3:1:0:0:
39,224,44524,1,2,3:0:0:0:
82,215,44588,1,2,3:0:0:0:
126,207,44652,1,2,3:0:0:0:
142,166,44716,1,2,3:0:0:0:
280,324,44845,6,0,B|258:227|258:227|235:214|235:214|210:118,1,225,8|0,1:0|2:0,2:0:0:0:
145,309,45101,5,2,3:1:0:0:
190,314,45165,1,2,3:0:0:0:
235,319,45229,1,2,3:0:0:0:
280,324,45293,1,2,3:0:0:0:
325,329,45357,1,2,3:0:0:0:
477,144,45486,5,2,3:1:0:0:
432,149,45550,1,2,3:0:0:0:
387,154,45614,1,2,3:0:0:0:
342,159,45678,1,2,3:0:0:0:
297,164,45742,1,8,3:1:0:0:
412,319,45870,5,8,1:0:0:0:
448,238,45956,1,8,1:0:0:0:
360,247,46041,1,8,1:0:0:0:
325,329,46127,5,2,3:1:0:0:
355,362,46191,1,2,3:0:0:0:
399,354,46255,1,2,3:0:0:0:
443,347,46319,1,2,3:0:0:0:
487,340,46383,1,2,3:0:0:0:
239,358,46511,5,2,3:1:0:0:
209,325,46575,1,2,3:0:0:0:
165,333,46640,1,2,3:0:0:0:
121,340,46704,1,2,3:0:0:0:
77,347,46768,1,2,3:0:0:0:
58,233,46896,6,0,B|3:242|3:242|-4:254|-4:254|169:225,1,225,8|0,1:0|2:0,2:0:0:0:
232,170,47152,5,2,3:1:0:0:
246,129,47216,1,2,3:0:0:0:
219,94,47281,1,2,3:0:0:0:
176,98,47345,1,2,3:0:0:0:
155,135,47409,1,2,3:0:0:0:
258,269,47537,5,2,3:1:0:0:
279,306,47601,1,2,3:0:0:0:
322,310,47665,1,2,3:0:0:0:
349,275,47729,1,2,3:0:0:0:
334,235,47793,1,2,3:0:0:0:
306,38,47922,6,0,B|296:9|296:9|415:49|415:49|340:98,1,225,8|0,1:0|2:0,2:0:0:0:
438,152,48178,5,2,3:1:0:0:
425,202,48242,1,2,3:0:0:0:
385,234,48306,1,2,3:0:0:0:
334,235,48370,1,2,3:0:0:0:
292,205,48434,1,2,3:0:0:0:
193,30,48563,5,2,3:1:0:0:
151,0,48627,1,2,3:0:0:0:
100,1,48691,1,2,3:0:0:0:
60,33,48755,1,2,3:0:0:0:
47,83,48819,1,2,3:0:0:0:
189,291,48947,6,0,B|166:191|166:191|153:183|153:183|122:54,1,225,8|0,1:0|2:0,2:0:0:0:
312,115,49204,6,2,L|352:124,8,37.5,2|2|2|2|2|2|2|2|2,3:0|3:0|3:0|3:0|3:0|3:0|3:0|3:0|3:0,3:0:0:0:
312,115,50229,6,0,P|258:170|288:263,1,166.666666666667,4|0,3:2|2:0,2:0:0:0:
344,197,50486,5,0,2:0:0:0:
418,225,50571,1,2,2:0:0:0:
482,183,50657,1,0,2:0:0:0:
482,207,50742,5,2,2:0:0:0:
420,257,50828,1,2,2:0:0:0:
425,333,50913,1,0,2:0:0:0:
404,321,50999,5,2,2:0:0:0:
392,242,51084,1,2,2:0:0:0:
323,209,51169,1,0,2:0:0:0:
255,250,51255,6,0,P|260:296|271:355,1,100,2|0,2:0|2:0,2:0:0:0:
140,292,51447,6,0,P|190:288|245:276,1,100,2|0,2:0|2:0,2:0:0:0:
119,375,51640,6,0,B|77:296|139:228|162:262|220:165|164:85|164:85|163:135|112:184,1,400,2|0,2:0|2:0,2:0:0:0:
49,186,52281,6,0,L|31:77,1,100,2|0,3:2|2:0,2:0:0:0:
10,70,52451,6,0,L|33:204,1,133.333333333333,2|0,2:0|2:0,2:0:0:0:
61,222,52665,6,0,B|106:232|162:188|135:167|187:122|249:148,1,200,2|0,2:0|2:0,2:0:0:0:
494,77,53178,6,0,P|416:108|337:29,1,200,2|0,2:0|2:0,2:0:0:0:
251,56,53563,1,2,2:0:0:0:
425,19,53691,6,0,L|403:232,1,200,2|0,2:0|2:0,2:0:0:0:
327,314,54075,2,0,B|343:281|343:281|421:263|421:263|463:292,1,150,2|0,2:0|2:0,2:0:0:0:
396,347,54332,6,0,B|348:319|348:319|324:161,1,200,2|0,3:2|2:0,2:0:0:0:
397,123,54716,5,2,2:0:0:0:
437,133,54781,1,2,2:0:0:0:
477,143,54845,1,2,2:0:0:0:
304,188,55016,1,2,2:0:0:0:
131,233,55187,1,2,2:0:0:0:
97,114,55357,5,2,2:0:0:0:
270,159,55528,1,2,2:0:0:0:
443,204,55699,1,2,2:0:0:0:
328,292,55870,5,2,2:0:0:0:
283,119,56041,1,2,2:0:0:0:
406,16,56212,5,2,2:0:0:0:
401,40,56298,1,2,2:0:0:0:
397,64,56383,1,2,3:2:0:0:
208,19,56511,1,2,2:0:0:0:
363,161,56640,1,2,2:0:0:0:
172,112,56768,6,0,L|67:128,1,100,2|0,2:0|2:0,2:0:0:0:
278,104,57024,2,0,L|300:55,3,50,2|0|0|0,2:0|2:0|2:0|2:0,2:0:0:0:
178,141,57281,6,0,B|197:248|197:248|163:304,1,150,2|0,2:0|2:0,2:0:0:0:
98,241,57537,1,2,2:0:0:0:
179,310,57665,1,2,2:0:0:0:
265,373,57793,2,0,L|380:351,1,100,2|0,2:0|2:0,2:0:0:0:
449,296,58050,6,0,L|478:303,2,25,0|0|0,2:0|2:0|2:0,2:0:0:0:
388,224,58178,1,2,2:0:0:0:
479,192,58306,2,0,L|508:199,2,25,0|0|0,2:0|2:0|2:0,2:0:0:0:
418,120,58434,5,2,3:2:0:0:
473,301,58563,1,0,2:0:0:0:
294,254,58691,5,2,2:0:0:0:
222,239,58776,1,2,2:0:0:0:
149,224,58862,1,0,2:0:0:0:
167,237,58947,5,2,2:0:0:0:
215,182,59033,1,2,2:0:0:0:
265,126,59118,1,0,2:0:0:0:
246,136,59204,5,2,2:0:0:0:
269,205,59289,1,2,2:0:0:0:
292,276,59375,1,0,2:0:0:0:
149,224,59460,6,0,P|99:233|49:248,1,100,2|0,2:0|2:0,2:0:0:0:
265,126,59652,2,0,P|316:135|366:152,1,100,2|0,2:0|2:0,2:0:0:0:
187,34,59845,6,0,P|204:103|216:204,1,150,2|0,2:0|2:0,2:0:0:0:
292,276,60101,1,2,2:0:0:0:
361,150,60229,1,2,2:0:0:0:
456,19,60357,6,0,P|404:32|351:54,1,100,2|0,2:0|3:0,2:0:0:0:
38,109,60614,2,0,P|90:122|143:144,1,100,2|0,2:0|2:0,2:0:0:0:
353,325,60870,6,0,P|321:261|290:153,1,150,2|0,2:0|2:0,2:0:0:0:
353,136,61127,1,2,2:0:0:0:
377,139,61191,1,2,2:0:0:0:
401,143,61255,1,2,2:0:0:0:
145,263,61383,6,0,P|194:273|242:288,1,100,2|0,3:2|2:0,2:0:0:0:
497,202,61640,2,0,P|447:211|400:226,1,100,2|0,3:2|2:0,2:0:0:0:
173,119,61896,1,2,3:2:0:0:
218,203,62024,6,0,P|243:133|265:43,1,150,2|0,3:2|2:0,2:0:0:0:
326,0,62281,2,0,P|340:56|357:99,1,100,2|0,3:2|2:0,2:0:0:0:
275,356,62537,2,0,P|289:300|306:257,1,100,0|0,3:0|2:0,2:0:0:0:
449,223,62793,5,2,2:0:0:0:
429,291,62879,1,2,2:0:0:0:
359,309,62964,1,0,2:0:0:0:
304,260,63050,6,0,B|255:268|255:268|235:300,2,66.6666666666667,2|0|0,2:0|2:0|2:0,2:0:0:0:
359,309,63306,5,2,2:0:0:0:
377,239,63392,1,2,2:0:0:0:
324,190,63477,1,0,2:0:0:0:
365,128,63563,5,2,2:0:0:0:
328,64,63648,1,2,2:0:0:0:
254,59,63734,1,2,2:0:0:0:
213,119,63819,1,2,2:0:0:0:
242,185,63904,1,2,2:0:0:0:
204,248,63990,1,2,2:0:0:0:
131,244,64075,5,2,2:0:0:0:
102,175,64161,1,2,2:0:0:0:
139,112,64246,1,2,2:0:0:0:
213,119,64332,1,2,2:0:0:0:
254,59,64417,1,2,2:0:0:0:
328,64,64503,1,2,2:0:0:0:
366,2,64588,6,0,B|499:31|499:31|422:32,1,200,2|0,3:2|2:0,2:0:0:0:
197,7,64973,1,2,2:0:0:0:
167,14,65037,1,2,2:0:0:0:
138,21,65101,1,2,2:0:0:0:
328,64,65229,1,2,2:0:0:0:
242,185,65357,1,2,2:0:0:0:
394,307,65486,6,0,P|372:250|359:190,1,100,2|0,3:2|2:0,2:0:0:0:
110,109,65742,1,2,3:2:0:0:
117,137,65806,1,2,2:0:0:0:
125,165,65870,1,2,2:0:0:0:
224,351,65999,5,2,3:2:0:0:
18,273,66127,6,0,L|183:243,1,150,0|0,3:0|2:0,2:0:0:0:
253,320,66319,2,0,B|233:305|233:305|371:330,1,150,0|0,3:0|2:0,2:0:0:0:
496,257,66511,5,2,3:0:0:0:
452,245,66575,1,2,3:0:0:0:
415,272,66640,2,0,L|399:188,1,75,2|0,3:0|2:0,2:0:0:0:
501,13,66768,6,0,B|489:82|489:82|479:91|479:91|466:172,1,150,2|0,3:0|2:0,2:0:0:0:
331,253,66960,2,0,B|381:299|381:299|397:300|397:300|460:357,1,150,2|0,3:0|2:0,2:0:0:0:
266,291,67152,6,0,L|173:278,1,75,2|0,3:0|2:0,2:0:0:0:
3,220,67281,2,0,L|96:233,1,75,2|0,3:0|2:0,2:0:0:0:
253,179,67409,6,0,B|221:186|221:186|219:192|219:192|159:212,1,75,2|0,3:0|2:0,2:0:0:0:
29,326,67537,2,0,B|61:319|61:319|63:313|63:313|123:293,1,75,2|0,3:0|2:0,2:0:0:0:
129,143,67665,6,0,L|143:55,1,75,2|0,3:0|2:0,2:0:0:0:
319,24,67793,1,2,3:0:0:0:
355,37,67857,1,2,3:0:0:0:
391,50,67922,2,0,B|405:142|405:142|397:171|397:171|413:279,1,225,2|0,3:0|2:0,2:0:0:0:
275,315,68178,6,0,B|198:287|198:287|265:290,1,150,2|0,3:0|2:0,2:0:0:0:
436,201,68370,2,0,B|498:148|498:148|461:205,1,150,2|0,3:0|2:0,2:0:0:0:
402,319,68563,2,0,B|409:359|409:359|393:329,1,75,2|0,3:0|2:0,2:0:0:0:
325,109,68691,5,2,3:0:0:0:
282,90,68755,1,0,3:0:0:0:
236,94,68819,1,2,3:0:0:0:
197,120,68883,1,2,3:0:0:0:
177,161,68947,2,0,B|197:240,3,75,2|0|0|0,3:0|2:0|2:0|2:0,2:0:0:0:
96,106,69204,5,2,3:0:0:0:
96,106,69268,2,0,L|110:15,1,75,2|0,3:0|2:0,2:0:0:0:
67,275,69396,2,0,L|81:366,1,75,2|0,3:0|2:0,2:0:0:0:
15,206,69524,5,2,3:0:0:0:
44,182,69588,1,2,3:0:0:0:
80,189,69652,1,2,3:0:0:0:
116,196,69716,2,0,L|268:223,1,150,2|0,3:0|2:0,2:0:0:0:
481,257,69909,1,2,3:0:0:0:
468,278,69973,6,0,B|393:290|393:290|384:303|384:303|300:319|300:319|338:278,1,225,2|0,3:0|2:0,2:0:0:0:
174,64,70229,5,2,3:0:0:0:
225,43,70293,1,2,3:0:0:0:
279,55,70357,1,2,3:0:0:0:
318,95,70422,1,2,3:0:0:0:
328,150,70486,1,2,3:0:0:0:
210,292,70614,6,0,L|201:243,1,37.5,2|0,2:0|2:0,2:0:0:0:
215,255,70678,2,0,L|206:206,1,37.5,2|0,3:0|2:0,2:0:0:0:
220,218,70742,2,0,L|196:154,1,37.5,2|0,3:0|2:0,2:0:0:0:
225,181,70806,2,0,L|216:132,1,37.5,2|0,3:0|2:0,2:0:0:0:
229,144,70870,1,2,3:0:0:0:
265,136,70934,1,2,3:0:0:0:
301,128,70999,6,0,L|464:96,1,150,2|0,3:0|2:0,2:0:0:0:
197,51,71191,1,2,3:0:0:0:
165,76,71255,2,0,B|82:57,1,75,2|0,3:0|2:0,2:0:0:0:
294,207,71383,2,0,L|308:296,1,75,2|0,3:0|2:0,2:0:0:0:
437,324,71511,5,2,3:0:0:0:
421,358,71575,1,2,3:0:0:0:
386,372,71640,1,2,3:0:0:0:
294,374,71725,6,0,L|277:267,1,100,2|2,3:0|3:0,2:0:0:0:
193,267,71896,5,2,3:0:0:0:
156,274,71960,1,2,3:0:0:0:
131,302,72024,2,0,L|302:271,1,150,2|0,3:0|2:0,2:0:0:0:
479,181,72195,5,2,3:0:0:0:
512,118,72281,2,0,P|427:112|388:171,1,150,2|0,3:0|2:0,2:0:0:0:
249,112,72451,5,2,3:0:0:0:
216,49,72537,1,2,3:0:0:0:
250,34,72601,1,2,3:0:0:0:
287,36,72665,1,2,3:0:0:0:
318,56,72729,1,2,3:0:0:0:
337,88,72793,2,0,L|330:169,1,75,2|0,3:0|2:0,2:0:0:0:
254,241,72922,2,0,L|246:321,1,75,2|0,3:0|2:0,2:0:0:0:
53,339,73050,6,0,B|13:322|13:322|164:279|164:279|134:316,1,225,2|0,3:0|2:0,2:0:0:0:
55,258,73306,1,2,3:0:0:0:
14,228,73370,2,0,B|24:159|24:159|35:146|35:146|44:74,1,150,2|0,3:0|2:0,2:0:0:0:
190,8,73562,5,2,3:0:0:0:
155,22,73626,2,0,L|146:97,1,75,2|0,3:0|2:0,2:0:0:0:
205,200,73754,1,2,3:0:0:0:
240,186,73818,2,0,L|249:111,3,75,2|0|0|0,3:0|2:0|2:0|2:0,2:0:0:0:
301,39,74075,6,0,L|350:30,1,37.5,2|0,3:0|2:0,2:0:0:0:
338,44,74139,2,0,L|387:35,1,37.5,2|0,3:0|2:0,2:0:0:0:
375,49,74203,2,0,L|439:25,1,37.5,2|0,3:0|2:0,2:0:0:0:
412,54,74267,2,0,L|461:45,1,37.5,2|0,3:0|2:0,2:0:0:0:
449,58,74331,2,0,L|440:135,1,75,2|0,3:0|2:0,2:0:0:0:
287,207,74459,6,0,P|355:296|468:267,1,225,2|0,3:0|2:0,2:0:0:0:
487,207,74716,1,2,3:0:0:0:
279,338,74844,6,0,L|230:347,1,37.5,2|0,3:0|2:0,2:0:0:0:
242,333,74908,2,0,L|193:342,1,37.5,2|0,3:0|2:0,2:0:0:0:
205,328,74972,2,0,L|141:352,1,37.5,2|0,3:0|2:0,2:0:0:0:
168,323,75036,2,0,L|119:332,1,37.5,2|0,3:0|2:0,2:0:0:0:
131,319,75100,2,0,B|114:340|114:340|130:198,1,150,2|0,3:0|2:0,2:0:0:0:
224,130,75293,5,2,2:0:0:0:
201,106,75357,2,0,L|203:68,6,37.5,2|0|2|0|2|0|2,3:0|2:0|3:0|2:0|3:0|2:0|3:0,2:0:0:0:
57,63,75613,6,0,B|90:71|90:71|94:76|94:76|133:86,1,75,2|0,3:0|2:0,2:0:0:0:
344,30,75741,2,0,B|311:38|311:38|307:43|307:43|268:53,1,75,2|0,3:0|2:0,2:0:0:0:
91,158,75870,6,0,P|124:198|234:186,1,150,2|0,3:0|2:0,2:0:0:0:
395,151,76041,1,2,3:0:0:0:
397,79,76126,6,0,P|345:87|301:188,1,150,2|0,3:0|2:0,2:0:0:0:
251,345,76297,1,2,3:0:0:0:
312,383,76382,6,0,P|330:334|264:245,1,150,2|0,3:0|2:0,2:0:0:0:
99,212,76553,1,2,3:0:0:0:
43,250,76639,5,2,3:0:0:0:
16,270,76703,2,0,L|92:283,1,75,2|0,3:0|2:0,2:0:0:0:
184,362,76831,1,2,3:0:0:0:
210,337,76895,2,0,L|393:309,1,150,2|0,3:0|2:0,2:0:0:0:
438,222,77088,5,2,2:0:0:0:
452,258,77152,2,0,L|500:266,6,37.5,2|0|2|0|2|0|0,3:0|2:0|3:0|2:0|3:0|2:0|2:0,2:0:0:0:
376,334,77408,5,2,3:0:0:0:
361,251,77511,1,2,3:0:0:0:
346,168,77613,1,2,3:0:0:0:
331,85,77716,1,2,3:0:0:0:
379,22,77793,5,2,3:0:0:0:
379,22,77857,1,2,3:0:0:0:
379,22,77921,2,0,P|355:98|213:100,1,225,2|0,3:0|2:0,2:0:0:0:
178,22,78177,6,0,L|102:11,1,75,2|0,3:0|2:0,2:0:0:0:
313,53,78306,1,2,3:0:0:0:
331,85,78370,1,2,3:0:0:0:
349,117,78434,2,0,L|425:128,1,75,2|0,3:0|2:0,2:0:0:0:
189,182,78562,2,0,L|113:171,1,75,2|0,3:0|2:0,2:0:0:0:
225,110,78690,5,2,3:0:0:0:
252,125,78754,2,0,B|273:150|273:150|262:244,1,112.5,2|2,3:0|3:0,2:0:0:0:
192,319,78947,5,2,3:0:0:0:
149,342,79011,1,2,3:0:0:0:
100,335,79075,1,2,3:0:0:0:
66,299,79139,2,0,L|78:216,1,75,2|0,3:0|2:0,2:0:0:0:
168,246,79267,5,2,3:0:0:0:
215,237,79331,1,2,3:0:0:0:
263,229,79395,1,2,3:0:0:0:
310,220,79459,1,2,3:0:0:0:
357,211,79523,2,0,L|440:194,1,75,2|0,3:0|2:0,2:0:0:0:
287,346,79630,5,2,3:0:0:0:
271,357,79716,2,0,L|284:288,6,37.5,2|0|0|0|2|0|2,3:0|2:0|2:0|2:0|3:0|2:0|3:0,2:0:0:0:
207,290,79972,6,0,L|168:324,4,37.5,2|0|2|0|2,3:0|2:0|3:0|2:0|3:0,2:0:0:0:
324,260,80164,6,0,L|357:295,2,37.5,2|0|2,3:0|2:0|3:0,2:0:0:0:
191,186,80293,6,0,L|158:221,2,37.5,2|0|2,3:0|2:0|3:0,2:0:0:0:
307,158,80421,5,2,3:0:0:0:
250,139,80485,6,0,L|244:107,1,25.0000000000006,2|0,3:0|2:0,2:0:0:0:
251,123,80549,2,0,L|245:91,1,25.0000000000006,2|0,3:0|2:0,2:0:0:0:
252,108,80613,2,0,L|246:76,1,25.0000000000006,2|0,3:0|2:0,2:0:0:0:
254,93,80677,2,0,L|248:61,1,25.0000000000006,2|0,3:0|2:0,2:0:0:0:
255,78,80741,2,0,L|249:46,1,25.0000000000006,2|0,3:0|2:0,2:0:0:0:
257,63,80806,2,0,L|251:31,1,25.0000000000006,2|0,3:0|2:0,2:0:0:0:
258,48,80870,2,0,L|252:16,1,25.0000000000006,2|0,3:0|2:0,2:0:0:0:
260,33,80934,2,0,L|254:1,1,25.0000000000006,2|0,3:0|2:0,2:0:0:0:
261,18,80998,1,2,2:0:0:0:
175,64,81382,5,2,2:0:0:0:
62,2,81639,2,0,L|105:10,5,37.5000000000001,2|2|2|2|2|2,2:0|2:0|2:0|2:0|2:0|2:0,2:0:0:0:
144,81,82023,6,0,P|138:116|135:161,1,75.0000000000002,2|0,2:0|2:0,2:0:0:0:
55,266,82280,1,2,2:0:0:0:
91,174,82408,2,0,P|149:178|211:194,1,112.5,2|0,2:0|2:0,2:0:0:0:
274,152,82664,5,2,2:0:0:0:
274,152,82728,1,2,2:0:0:0:
274,152,82792,2,0,L|269:107,3,37.5000000000001,2|2|2|2,2:0|2:0|2:0|2:0,2:0:0:0:
341,79,83049,5,2,2:0:0:0:
342,71,83113,1,2,2:0:0:0:
343,63,83177,1,2,2:0:0:0:
344,55,83241,1,2,2:0:0:0:
345,47,83305,1,2,2:0:0:0:
430,78,83433,6,0,P|418:144|409:247,1,150,2|0,2:0|2:0,2:0:0:0:
452,322,83818,1,2,2:0:0:0:
452,322,83882,1,2,2:0:0:0:
452,322,83946,1,2,2:0:0:0:
492,190,84203,1,2,2:0:0:0:
363,349,84331,6,0,L|324:341,1,37.5000000000001,2|2,2:0|2:0,2:0:0:0:
316,308,84459,2,0,L|269:320,1,37.5000000000001,2|2,2:0|2:0,2:0:0:0:
279,354,84587,2,0,L|240:346,1,37.5000000000001,2|2,2:0|2:0,2:0:0:0:
232,313,84715,2,0,L|185:325,1,37.5000000000001,2|2,2:0|2:0,2:0:0:0:
140,371,84844,5,2,2:0:0:0:
59,291,84972,1,0,2:0:0:0:
159,248,85100,6,0,P|220:241|334:209,1,150,2|0,2:0|2:0,2:0:0:0:
439,181,85485,2,0,P|390:171|365:163,1,75.0000000000002,2|0,2:0|2:0,2:0:0:0:
279,126,85741,1,0,2:0:0:0:
277,118,85805,1,2,2:0:0:0:
275,110,85869,1,2,2:0:0:0:
324,39,85998,1,2,2:0:0:0:
189,100,86126,6,0,P|178:136|172:173,1,75.0000000000002,2|0,2:0|2:0,2:0:0:0:
251,230,86382,1,2,2:0:0:0:
129,363,86510,2,0,P|119:303|86:207,1,150,2|0,2:0|2:0,2:0:0:0:
49,200,86831,2,0,L|10:211,1,37.5000000000001,2|2,2:0|2:0,2:0:0:0:
88,75,87023,1,2,2:0:0:0:
38,286,87151,6,0,P|104:265|215:251,1,150,2|0,2:0|2:0,2:0:0:0:
261,305,87536,1,0,2:0:0:0:
219,176,87664,2,0,P|258:188|316:197,1,75.0000000000002,2|0,2:0|2:0,2:0:0:0:
344,347,87921,1,2,2:0:0:0:
491,290,88049,5,2,2:0:0:0:
491,290,88113,1,2,2:0:0:0:
491,290,88177,2,0,P|480:248|474:211,1,75.0000000000002,2|0,2:0|2:0,2:0:0:0:
493,135,88433,1,2,2:0:0:0:
384,227,88562,2,0,P|400:171|415:83,1,112.5,2|0,2:0|2:0,2:0:0:0:
358,46,88818,5,2,2:0:0:0:
350,47,88882,1,2,2:0:0:0:
342,48,88946,1,2,2:0:0:0:
334,49,89010,1,2,2:0:0:0:
326,50,89074,1,2,2:0:0:0:
318,51,89139,1,2,2:0:0:0:
302,76,89203,6,0,P|265:57|229:50,1,75.0000000000002,2|0,3:2|2:0,2:0:0:0:
124,128,89459,1,0,2:0:0:0:
44,21,89587,2,0,P|94:41|168:50,1,112.5,2|0,2:0|2:0,2:0:0:0:
212,129,89844,1,2,2:0:0:0:
212,129,89908,1,2,2:0:0:0:
212,129,89972,2,0,L|219:172,2,37.5000000000001,2|2|2,2:0|2:0|2:0,2:0:0:0:
40,156,90228,5,2,2:0:0:0:
151,206,90356,1,2,2:0:0:0:
262,256,90485,1,2,2:0:0:0:
103,328,90613,2,0,P|158:304|256:279,1,150,2|2,2:0|2:0,2:0:0:0:
390,281,90998,5,2,2:0:0:0:
391,289,91062,1,2,2:0:0:0:
392,297,91126,1,2,2:0:0:0:
393,305,91190,1,2,2:0:0:0:
410,319,91254,5,2,2:0:0:0:
396,337,91318,1,2,2:0:0:0:
377,350,91382,1,2,2:0:0:0:
354,352,91446,1,2,2:0:0:0:
332,345,91510,1,2,2:0:0:0:
335,226,91639,6,0,L|360:48,1,150,2|2,2:0|2:0,2:0:0:0:
462,149,92023,1,2,2:0:0:0:
459,141,92087,1,2,2:0:0:0:
456,133,92151,2,0,P|458:84|468:40,1,75.0000000000002,2|0,2:0|2:0,2:0:0:0:
267,20,92408,6,0,L|282:64,1,37.5000000000001,2|2,2:0|2:0,2:0:0:0:
219,103,92536,2,0,L|209:147,1,37.5000000000001,2|2,2:0|2:0,2:0:0:0:
330,106,92664,6,0,L|345:150,1,37.5000000000001,2|2,2:0|2:0,2:0:0:0:
276,176,92792,2,0,L|266:220,1,37.5000000000001,2|2,2:0|2:0,2:0:0:0:
201,254,92921,2,0,L|216:298,1,37.5000000000001,2|2,2:0|2:0,2:0:0:0:
282,331,93049,5,2,2:0:0:0:
425,272,93177,1,2,2:0:0:0:
347,375,93305,6,0,P|266:353|177:341,1,150,2|0,2:0|2:0,2:0:0:0:
39,323,93690,2,0,P|104:316|262:260,1,225.000000000001,2|0,2:0|2:0,2:0:0:0:
252,60,94331,6,0,P|229:113|206:205,1,150,2|0,2:0|2:0,2:0:0:0:
374,382,94715,2,0,P|363:321|314:159,1,225.000000000001,2|0,2:0|2:0,2:0:0:0:
256,337,97408,5,6,3:1:0:0:
421,121,97536,1,2,2:0:0:0:
376,93,97600,1,2,2:0:0:0:
323,99,97664,1,2,2:0:0:0:
284,134,97728,1,2,2:0:0:0:
270,184,97792,6,0,B|281:269|281:269|293:285|293:285|307:371,1,187.5,2|0,3:1|2:0,2:0:0:0:
365,197,98049,1,2,2:0:0:0:
133,138,98177,1,2,3:0:0:0:
23,347,98305,5,2,2:0:0:0:
68,320,98369,1,2,2:0:0:0:
113,293,98433,2,0,L|125:209,1,75,2|0,3:1|2:0,2:0:0:0:
222,13,98562,5,2,2:0:0:0:
217,65,98626,1,2,2:0:0:0:
210,117,98690,1,2,2:0:0:0:
203,169,98754,1,2,2:0:0:0:
197,221,98818,2,0,B|31:254,1,150,2|0,3:1|2:0,2:0:0:0:
373,324,99074,6,0,B|290:307,1,75,2|0,3:0|2:0,2:0:0:0:
377,142,99203,1,2,3:2:0:0:
420,170,99267,1,2,2:0:0:0:
463,198,99331,2,0,B|380:214,1,75,2|2,2:0|2:0,2:0:0:0:
406,347,99459,5,2,3:1:0:0:
239,375,99587,1,2,2:0:0:0:
211,330,99651,1,2,2:0:0:0:
216,277,99715,1,2,2:0:0:0:
251,238,99780,1,2,2:0:0:0:
302,229,99844,2,0,B|368:245|368:245|376:257|376:257|449:274,1,150,2|0,3:1|2:0,2:0:0:0:
488,53,100100,5,2,2:0:0:0:
488,53,100164,1,2,2:0:0:0:
488,53,100228,2,0,L|407:68,1,75,2|0,3:0|2:0,2:0:0:0:
251,130,100356,5,2,2:0:0:0:
251,130,100421,1,2,2:0:0:0:
251,130,100485,2,0,B|237:91|237:91|250:45,3,75,2|0|0|0,3:0|2:0|2:0|2:0,2:0:0:0:
391,97,100741,6,0,L|310:83,1,75,2|0,3:0|2:0,2:0:0:0:
169,138,100869,2,0,L|88:124,1,75,2|0,2:0|2:0,2:0:0:0:
7,242,100998,5,2,3:0:0:0:
44,234,101062,1,2,2:0:0:0:
80,226,101126,1,2,3:0:0:0:
116,219,101190,1,2,3:0:0:0:
144,262,101254,1,2,3:1:0:0:
195,270,101318,1,2,2:0:0:0:
246,278,101382,1,2,3:0:0:0:
297,287,101446,1,2,2:0:0:0:
343,263,101510,5,2,3:1:0:0:
423,359,101639,1,2,2:0:0:0:
467,331,101703,1,2,2:0:0:0:
492,285,101767,1,2,2:0:0:0:
483,233,101831,1,2,2:0:0:0:
448,193,101895,6,0,B|342:181|342:181|302:139,1,150,2|0,3:1|2:0,2:0:0:0:
412,59,102151,1,2,2:0:0:0:
436,87,102215,1,2,2:0:0:0:
460,115,102280,2,0,L|372:105,1,75,0|0,3:0|2:0,2:0:0:0:
270,224,102408,2,0,B|250:206|250:206|183:219,1,75,2|0,2:0|2:0,2:0:0:0:
36,156,102536,5,2,3:1:0:0:
72,149,102600,1,2,2:0:0:0:
108,142,102664,1,2,2:0:0:0:
144,136,102728,1,2,2:0:0:0:
181,130,102792,2,0,L|192:44,1,75,2|0,2:0|2:0,2:0:0:0:
84,21,102921,6,0,B|102:115|102:115|89:151|89:151|109:254,1,225,2|0,3:1|2:0,2:0:0:0:
2,343,103177,2,0,L|14:262,1,75,2|0,3:0|2:0,2:0:0:0:
202,215,103305,1,2,3:0:0:0:
197,252,103369,1,2,2:0:0:0:
192,289,103433,2,0,L|183:364,1,75,2|0,2:0|2:0,2:0:0:0:
286,351,103562,5,2,3:1:0:0:
317,310,103626,1,2,2:0:0:0:
368,321,103690,1,2,2:0:0:0:
419,332,103754,1,2,2:0:0:0:
455,295,103818,1,2,2:0:0:0:
452,86,103946,5,2,3:0:0:0:
415,122,104010,1,2,2:0:0:0:
426,173,104074,1,2,2:0:0:0:
437,224,104139,1,2,2:0:0:0:
396,255,104203,1,2,2:0:0:0:
273,190,104331,5,2,3:0:0:0:
273,190,104395,1,2,2:0:0:0:
273,190,104459,2,2,B|295:177|295:177|374:199,1,75,0|0,2:0|2:0,2:0:0:0:
333,102,104587,5,2,3:0:0:0:
282,89,104651,1,2,2:0:0:0:
231,76,104715,1,2,2:0:0:0:
179,63,104780,1,2,2:0:0:0:
136,93,104844,2,0,L|122:16,3,75,2|0|2|0,3:0|2:0|2:0|2:0,2:0:0:0:
51,121,105100,5,2,3:0:0:0:
19,162,105164,1,2,2:0:0:0:
32,212,105228,1,2,3:0:0:0:
75,241,105292,1,2,3:0:0:0:
126,233,105356,1,2,3:0:0:0:
179,235,105421,1,2,2:0:0:0:
217,270,105485,1,2,3:0:0:0:
215,322,105549,1,2,3:0:0:0:
177,358,105613,6,0,L|80:344,1,75,6|0,3:1|2:0,2:0:0:0:
289,297,105741,1,2,2:0:0:0:
325,290,105805,1,2,2:0:0:0:
361,284,105869,1,2,2:0:0:0:
397,278,105933,1,2,2:0:0:0:
434,272,105998,2,0,B|442:206|442:206|454:192|454:192|466:109,1,150,2|0,3:1|2:0,2:0:0:0:
372,20,106254,5,2,2:0:0:0:
331,39,106318,1,2,2:0:0:0:
315,81,106382,1,2,3:0:0:0:
322,124,106446,1,2,2:0:0:0:
356,153,106510,2,0,L|429:137,1,75,2|0,2:0|2:0,2:0:0:0:
455,344,106639,5,2,3:1:0:0:
301,210,106767,1,2,2:0:0:0:
249,201,106831,1,2,2:0:0:0:
197,192,106895,1,2,2:0:0:0:
145,183,106959,1,2,2:0:0:0:
93,174,107023,2,0,L|71:8,1,150,2|0,3:1|2:0,2:0:0:0:
18,311,107280,6,0,L|31:224,1,75,2|0,3:0|2:0,2:0:0:0:
169,109,107408,1,2,3:0:0:0:
169,109,107472,1,2,2:0:0:0:
169,109,107536,1,2,2:0:0:0:
118,356,107664,5,2,3:1:0:0:
178,220,107792,1,2,2:0:0:0:
215,224,107856,1,2,2:0:0:0:
252,228,107921,1,2,2:0:0:0:
289,232,107985,1,2,2:0:0:0:
326,237,108049,6,0,B|336:166|336:166|350:152|350:152|360:79,1,150,2|0,3:1|2:0,2:0:0:0:
464,243,108305,1,2,2:0:0:0:
447,276,108369,1,2,2:0:0:0:
431,310,108433,2,0,L|417:232,2,75,2|0|0,3:0|2:0|2:0,2:0:0:0:
221,362,108690,5,0,3:0:0:0:
234,344,108754,1,2,2:0:0:0:
247,326,108818,2,0,L|334:309,1,75,2|0,2:0|2:0,2:0:0:0:
152,278,108946,5,2,3:0:0:0:
165,260,109010,1,2,2:0:0:0:
178,242,109074,2,0,L|265:225,1,75,2|0,2:0|2:0,2:0:0:0:
322,133,109203,5,2,3:0:0:0:
284,128,109267,1,2,2:0:0:0:
246,123,109331,1,2,3:0:0:0:
208,118,109395,1,2,3:0:0:0:
184,89,109459,1,2,3:1:0:0:
146,84,109523,1,2,2:0:0:0:
108,79,109587,1,2,3:0:0:0:
70,74,109651,1,2,2:0:0:0:
44,46,109715,5,2,3:1:0:0:
84,191,109844,1,2,2:0:0:0:
133,182,109908,1,2,2:0:0:0:
139,133,109972,1,2,2:0:0:0:
146,84,110036,1,2,2:0:0:0:
152,34,110100,2,0,L|310:12,1,150,2|0,3:1|2:0,2:0:0:0:
511,20,110356,5,2,2:0:0:0:
485,47,110421,1,2,2:0:0:0:
457,73,110485,2,0,L|377:59,1,75,2|0,3:0|2:0,2:0:0:0:
502,171,110613,2,0,L|422:157,1,75,2|0,2:0|2:0,2:0:0:0:
330,190,110741,5,2,3:1:0:0:
296,206,110805,1,2,2:0:0:0:
278,239,110869,1,2,2:0:0:0:
276,276,110933,1,2,2:0:0:0:
294,308,110998,1,2,2:0:0:0:
454,306,111126,2,0,B|512:288|512:288|343:259,1,225,2|0,3:1|2:0,2:0:0:0:
249,290,111382,6,2,B|240:309|240:309|249:366,1,75,2|2,3:0|2:0,2:0:0:0:
147,279,111510,1,2,3:0:0:0:
164,245,111574,1,2,2:0:0:0:
180,211,111639,2,0,B|189:192|189:192|180:135,1,75,2|0,2:0|2:0,2:0:0:0:
154,13,111767,5,2,3:1:0:0:
8,100,111895,1,2,2:0:0:0:
29,147,111959,1,2,2:0:0:0:
76,169,112023,1,2,2:0:0:0:
127,160,112087,1,2,2:0:0:0:
165,124,112151,2,0,B|229:110|229:110|245:98|245:98|312:85,1,150,2|0,3:0|2:0,2:0:0:0:
489,75,112408,5,2,2:0:0:0:
467,26,112472,1,2,2:0:0:0:
419,4,112536,1,2,3:0:0:0:
367,11,112600,1,2,2:0:0:0:
331,49,112664,1,2,2:0:0:0:
285,180,112792,6,0,L|369:162,1,75,2|0,3:0|2:0,2:0:0:0:
425,235,112921,2,0,L|509:253,1,75,2|0,2:0|2:0,2:0:0:0:
257,284,113049,6,0,L|341:266,1,75,2|0,3:0|2:0,2:0:0:0:
397,339,113177,2,0,L|481:357,1,75,2|0,2:0|2:0,2:0:0:0:
219,364,113305,5,2,3:0:0:0:
170,343,113369,1,2,3:0:0:0:
148,294,113433,1,2,3:0:0:0:
165,244,113498,1,2,3:0:0:0:
208,214,113562,1,2,3:0:0:0:
255,192,113626,1,2,3:0:0:0:
269,141,113690,1,2,3:0:0:0:
250,91,113754,1,2,3:0:0:0:
201,70,113818,6,2,P|132:104|12:129,1,200,2|0,2:1|2:0,2:1:0:0:
297,339,114203,2,2,P|366:305|486:280,1,200,2|0,2:1|2:0,2:1:0:0:
250,205,114587,1,0,2:0:0:0:
410,8,114844,6,2,P|394:69|375:212,1,200,2|0,2:1|2:0,2:1:0:0:
473,357,115228,1,2,2:0:0:0:
448,350,115292,1,2,2:0:0:0:
423,345,115356,1,2,3:0:0:0:
397,341,115421,1,2,2:0:0:0:
372,338,115485,1,2,3:0:0:0:
347,337,115549,1,2,2:0:0:0:
322,337,115613,1,2,3:0:0:0:
297,339,115677,1,2,2:0:0:0:
272,343,115741,1,2,3:0:0:0:
247,348,115805,1,2,2:0:0:0:
223,355,115869,5,6,3:1:0:0:
150,189,115998,1,2,3:0:0:0:
123,359,116126,1,2,3:0:0:0:
123,359,116190,1,2,2:0:0:0:
123,359,116254,1,2,3:1:0:0:
226,258,116382,5,2,3:0:0:0:
230,213,116446,1,2,3:0:0:0:
234,168,116510,1,2,3:0:0:0:
238,123,116574,1,2,3:0:0:0:
207,89,116639,1,2,3:0:0:0:
308,7,116767,1,2,3:0:0:0:
119,108,116895,5,2,3:0:0:0:
266,123,117023,1,2,3:0:0:0:
299,159,117087,1,2,3:0:0:0:
332,195,117151,2,0,B|345:130|345:130|357:119|357:119|371:42,1,150,2|0,3:0|3:0,2:0:0:0:
503,109,117408,5,2,3:0:0:0:
495,153,117472,1,2,3:0:0:0:
487,197,117536,1,2,3:0:0:0:
479,241,117600,1,2,3:0:0:0:
436,256,117664,2,0,L|446:300,6,37.5,2|0|0|0|0|0|0,3:1|2:0|3:0|2:0|3:0|2:0|3:0,2:0:0:0:
415,182,117921,5,2,3:1:0:0:
496,314,118049,1,2,3:0:0:0:
325,234,118177,1,2,3:0:0:0:
408,366,118305,1,2,3:1:0:0:
408,366,118369,1,2,3:0:0:0:
408,366,118433,2,2,L|246:342,1,150,2|0,3:0|3:0,2:0:0:0:
55,250,118690,5,2,3:0:0:0:
99,241,118754,1,2,2:0:0:0:
143,233,118818,1,2,3:0:0:0:
189,368,118946,5,2,3:1:0:0:
153,339,119010,1,2,2:0:0:0:
145,294,119074,1,2,3:0:0:0:
165,253,119139,1,2,2:0:0:0:
207,237,119203,1,2,3:0:0:0:
383,208,119331,5,2,3:1:0:0:
383,208,119395,1,2,2:0:0:0:
383,208,119459,2,0,L|288:193,1,75,2|0,3:0|2:0,2:0:0:0:
317,93,119587,2,0,L|222:78,1,75,2|0,3:0|2:0,2:0:0:0:
181,3,119715,5,2,3:1:0:0:
174,47,119780,1,2,3:0:0:0:
167,91,119844,1,2,3:0:0:0:
160,135,119908,1,2,3:0:0:0:
119,155,119972,6,0,L|23:143,1,75,2|0,3:1|2:0,2:0:0:0:
283,215,120100,2,0,L|271:312,1,75,2|0,3:0|2:0,2:0:0:0:
87,239,120228,2,0,L|-9:227,1,75,2|0,3:0|2:0,2:0:0:0:
165,334,120356,5,2,3:1:0:0:
213,297,120421,1,2,2:0:0:0:
271,307,120485,1,2,3:0:0:0:
329,317,120549,1,2,2:0:0:0:
387,327,120613,1,2,3:0:0:0:
497,145,120741,5,2,3:0:0:0:
484,203,120805,1,2,3:0:0:0:
439,242,120869,1,2,3:0:0:0:
379,242,120933,1,2,3:0:0:0:
327,210,120998,2,0,L|339:123,1,75,2|0,3:1|2:0,2:0:0:0:
454,1,121126,5,2,3:0:0:0:
454,1,121190,1,2,3:0:0:0:
454,1,121254,2,0,L|441:93,1,75,2|0,3:0|2:0,2:0:0:0:
211,212,121382,2,0,L|224:120,1,75,2|0,3:1|2:0,2:0:0:0:
93,22,121510,5,2,3:0:0:0:
33,31,121574,1,2,3:0:0:0:
0,82,121639,1,2,3:0:0:0:
11,140,121703,1,2,3:0:0:0:
61,172,121767,1,2,3:0:0:0:
120,161,121831,1,2,3:0:0:0:
153,111,121895,2,0,L|243:94,1,75,2|0,3:0|2:0,2:0:0:0:
424,178,122023,5,6,3:1:0:0:
448,226,122087,1,2,2:0:0:0:
438,278,122151,1,2,3:0:0:0:
399,316,122215,1,2,2:0:0:0:
344,319,122280,1,2,3:0:0:0:
295,295,122344,1,2,2:0:0:0:
271,246,122408,1,2,3:1:0:0:
227,213,122472,1,2,2:0:0:0:
174,209,122536,1,2,3:0:0:0:
126,234,122600,1,2,2:0:0:0:
102,282,122664,1,2,3:0:0:0:
114,333,122728,1,2,2:0:0:0:
155,367,122792,2,0,P|199:362|240:339,3,75,0|2|2|2,3:0|2:0|3:0|2:0,2:0:0:0:
360,232,123049,5,2,3:1:0:0:
363,200,123113,1,2,2:0:0:0:
366,169,123177,1,2,3:0:0:0:
369,138,123241,1,2,2:0:0:0:
372,107,123305,1,2,3:0:0:0:
375,76,123369,1,2,2:0:0:0:
378,45,123433,1,2,3:1:0:0:
418,23,123498,1,2,2:0:0:0:
449,64,123562,1,2,3:0:0:0:
437,115,123626,1,2,2:0:0:0:
397,148,123690,1,2,3:0:0:0:
343,143,123754,1,2,2:0:0:0:
305,105,123818,1,2,3:0:0:0:
284,56,123882,1,2,3:0:0:0:
240,26,123946,1,2,3:0:0:0:
188,36,124010,1,2,3:0:0:0:
150,73,124074,6,2,P|141:116|139:164,1,75,2|2,3:1|2:0,2:0:0:0:
46,170,124203,2,2,P|55:213|57:261,1,75,2|2,3:0|2:0,2:0:0:0:
162,320,124331,2,2,P|153:283|150:246,1,75,2|2,3:0|2:0,2:0:0:0:
232,156,124459,5,2,3:1:0:0:
268,150,124523,1,2,2:0:0:0:
303,162,124587,1,2,3:0:0:0:
327,189,124651,1,2,2:0:0:0:
334,225,124715,1,2,3:0:0:0:
326,262,124780,1,2,2:0:0:0:
315,297,124844,1,2,3:0:0:0:
321,333,124908,1,2,2:0:0:0:
352,353,124972,1,2,3:0:0:0:
389,353,125036,1,2,2:0:0:0:
422,335,125100,6,2,P|432:289|442:258,1,75,2|2,3:0|2:0,2:0:0:0:
396,90,125228,1,2,3:0:0:0:
396,90,125292,1,2,2:0:0:0:
396,90,125356,2,2,P|406:125|414:162,1,75,2|2,3:0|2:0,2:0:0:0:
334,225,125485,5,2,3:0:0:0:
304,221,125549,1,2,3:0:0:0:
274,217,125613,1,2,3:0:0:0:
244,213,125677,1,2,3:0:0:0:
214,209,125741,1,2,3:0:0:0:
184,205,125805,1,2,3:0:0:0:
154,201,125869,2,2,L|104:213,6,37.5,2|2|2|2|2|2|2,3:0|2:0|2:0|2:0|2:0|2:0|2:0,2:0:0:0:
56,282,126126,6,2,P|135:306|248:358,1,200,2|0,2:1|2:0,2:1:0:0:
508,117,126510,2,2,P|389:153|219:231,1,300,2|0,2:1|2:1,2:1:0:0:
56,282,127151,6,0,P|70:242|96:78,1,200,2|0,2:1|2:0,2:1:0:0:
349,0,127536,2,2,P|328:60|289:306,1,300,2|0,2:1|2:0,2:1:0:0:
21,201,128177,6,2,B|54:68|193:-4|305:9|369:54|440:145|428:218|377:338|305:360|236:351|177:328|141:289|125:198|192:153,1,909.999999999999,2|0,2:1|2:0,2:1:0:0:
265,166,129972,6,0,L|257:221,3,50,0|0|0|0,3:0|3:0|3:0|3:0,3:0:0:0:
317,260,130228,5,6,3:2:0:0:
79,204,130356,1,2,1:3:0:0:
97,186,130421,1,2,1:3:0:0:
115,168,130485,2,0,L|185:184,1,65,8|0,1:0|2:0,2:0:0:0:
318,104,130613,1,2,3:0:0:0:
194,331,130741,6,0,L|186:258,1,65,2|2,1:3|1:3,2:0:0:0:
381,299,130869,5,8,1:0:0:0:
406,269,130933,1,0,2:0:0:0:
400,230,130998,1,2,1:3:0:0:
393,190,131062,1,0,2:0:0:0:
387,151,131126,1,8,1:0:0:0:
315,14,131254,5,0,3:0:0:0:
495,22,131382,1,2,1:3:0:0:
476,40,131446,1,2,1:3:0:0:
459,59,131510,2,0,L|373:43,1,65,8|0,1:0|2:0,2:0:0:0:
230,20,131639,1,2,3:0:0:0:
387,151,131767,5,2,3:0:0:0:
195,125,131895,2,0,L|187:86,8,32.5,2|2|2|2|2|2|2|2|2,1:3|1:3|1:3|1:3|1:3|1:3|1:3|1:3|1:3,2:0:0:0:
437,265,132280,6,0,L|424:336,1,65,2|0,3:0|2:0,2:0:0:0:
268,193,132408,1,2,1:3:0:0:
290,169,132472,1,2,1:3:0:0:
311,144,132536,2,0,B|319:198|319:198|327:209|327:209|338:281,1,130,8|2,1:0|3:0,2:0:0:0:
217,292,132728,1,0,2:0:0:0:
248,309,132792,6,0,L|261:380,1,65,2|0,3:0|2:0,2:0:0:0:
135,258,132921,1,8,1:0:0:0:
135,258,132985,1,2,1:3:0:0:
135,258,133049,2,0,L|145:187,1,65,2|0,3:0|2:0,2:0:0:0:
59,110,133177,2,0,L|49:39,1,65,8|0,1:0|2:0,2:0:0:0:
0,198,133305,5,2,3:0:0:0:
17,163,133369,1,2,1:3:0:0:
52,144,133433,1,2,1:3:0:0:
90,144,133498,1,2,1:3:0:0:
121,167,133562,1,8,1:0:0:0:
266,138,133690,2,0,L|193:128,1,65,2|0,3:0|2:0,2:0:0:0:
76,243,133818,1,2,3:0:0:0:
173,52,133946,6,0,B|210:46|210:46|212:49|212:49|268:39,1,80,8|0,1:0|2:0,2:0:0:0:
425,97,134074,2,2,B|461:118|461:118|356:97|356:97|443:16,1,240,10|0,1:0|2:0,2:1:0:0:
494,151,134331,6,0,B|485:210|485:210|474:218|474:218|461:296,1,130,2|2,3:0|1:3,2:0:0:0:
336,347,134523,1,2,1:3:0:0:
361,321,134587,2,0,L|355:235,1,65,8|0,1:0|2:0,2:0:0:0:
490,362,134715,2,0,L|496:276,1,65,2|0,3:0|2:0,2:0:0:0:
392,177,134844,5,2,3:0:0:0:
280,287,134972,1,8,1:0:0:0:
241,293,135036,1,2,1:3:0:0:
202,299,135100,1,2,1:3:0:0:
163,305,135164,1,2,1:3:0:0:
124,311,135228,1,2,1:3:0:0:
17,363,135356,5,2,3:0:0:0:
140,219,135485,1,2,1:3:0:0:
118,203,135549,1,2,1:3:0:0:
96,188,135613,2,0,L|108:103,1,65,8|0,1:0|2:0,2:0:0:0:
13,98,135741,2,0,L|1:13,1,65,2|0,3:0|2:0,2:0:0:0:
187,4,135869,6,0,L|179:40,2,32.5,2|0|0,3:0|2:0|2:0,2:0:0:0:
262,103,135998,2,0,L|254:67,2,32.5,8|0|0,1:0|2:0|2:0,2:0:0:0:
338,4,136126,2,0,L|330:40,6,32.5,8|0|0|0|0|0|0,1:0|1:0|1:0|1:0|1:0|1:0|1:0,2:0:0:0:
393,94,136382,6,0,L|471:81,1,65,2|0,3:0|2:0,2:0:0:0:
291,181,136510,1,2,1:3:0:0:
309,199,136574,1,2,1:3:0:0:
327,217,136639,2,0,B|384:205|384:205|398:194|398:194|475:181,1,130,8|2,1:0|3:0,2:0:0:0:
512,290,136831,1,0,2:0:0:0:
490,303,136895,6,0,L|411:288,1,65,2|0,3:0|2:0,2:0:0:0:
259,276,137023,1,8,1:0:0:0:
259,276,137087,1,2,1:3:0:0:
259,276,137151,2,0,L|193:292,1,65,2|0,3:0|2:0,2:0:0:0:
61,217,137280,1,8,1:0:0:0:
134,360,137408,5,2,3:0:0:0:
140,321,137472,1,2,1:3:0:0:
146,282,137536,1,2,1:3:0:0:
152,243,137600,1,2,1:3:0:0:
158,204,137664,1,8,1:0:0:0:
317,180,137792,6,0,L|305:108,1,65,2|0,3:0|2:0,2:0:0:0:
215,77,137921,2,0,L|203:5,1,65,2|0,3:0|2:0,2:0:0:0:
42,140,138049,6,0,B|49:177|49:177|54:183|54:183|62:222,1,80,8|0,1:0|2:0,2:0:0:0:
235,325,138177,2,2,B|208:369|208:369|239:163,1,240,10|0,1:0|2:0,2:1:0:0:
306,115,138433,5,2,3:0:0:0:
487,166,139715,5,2,2:0:0:0:
426,113,140143,1,2,2:0:0:0:
350,138,140485,1,2,2:0:0:0:
331,215,140827,1,2,2:0:0:0:
255,242,141168,1,2,2:0:0:0:
193,191,141510,2,0,L|213:22,1,165,2|0,2:0|2:0,2:0:0:0:
189,2,142280,6,0,L|136:13,3,50,2|2|2|2,3:0|3:0|3:0|3:0,2:0:0:0:
262,79,142536,5,4,3:2:0:0:
76,182,142664,1,2,1:3:0:0:
96,167,142728,1,2,1:3:0:0:
116,152,142792,2,0,L|101:57,1,65,8|0,1:0|2:0,2:0:0:0:
23,64,142921,5,2,3:0:0:0:
193,191,143049,2,0,L|207:261,1,65,2|0,3:0|2:0,2:0:0:0:
181,346,143177,1,8,1:0:0:0:
6,311,143305,5,8,1:0:0:0:
14,286,143369,1,2,1:3:0:0:
31,267,143433,1,2,1:3:0:0:
55,258,143498,1,2,1:3:0:0:
80,262,143562,1,2,3:0:0:0:
275,221,143690,5,2,1:3:0:0:
290,242,143754,1,2,1:3:0:0:
305,263,143818,2,0,L|376:274,1,65,8|0,1:0|2:0,2:0:0:0:
426,342,143946,1,2,3:0:0:0:
346,181,144074,5,2,3:0:0:0:
334,159,144139,1,2,1:3:0:0:
343,134,144203,1,8,1:0:0:0:
504,13,144331,5,2,3:0:0:0:
497,51,144395,1,2,1:3:0:0:
490,89,144459,1,2,3:0:0:0:
483,127,144523,1,2,1:3:0:0:
476,165,144587,6,0,L|383:186,1,86.6666666666667,2|2,3:0|3:0,2:0:0:0:
236,0,144758,2,0,L|300:70,1,86.6666666666667,2|2,3:0|3:0,2:0:0:0:
214,291,144929,2,0,L|242:199,1,86.6666666666667,2|2,3:0|3:0,2:0:0:0:
391,83,145100,5,2,3:0:0:0:
376,160,145186,1,2,3:0:0:0:
362,236,145271,1,2,3:0:0:0:
348,312,145356,1,2,3:0:0:0:
404,366,145442,5,2,3:0:0:0:
389,289,145527,1,2,3:0:0:0:
375,213,145613,2,0,B|395:164|395:164|392:216,1,105,6|0,3:0|2:0,2:0:0:0:
