osu file format v14

[General]
AudioFilename: audio.mp3
AudioLeadIn: 0
PreviewTime: 97310
Countdown: 0
SampleSet: Soft
StackLeniency: 0.6
Mode: 0
LetterboxInBreaks: 0
WidescreenStoryboard: 1

[Editor]
Bookmarks: 17418,33816,50214,54460,66485,80976,89239,97373,108050,113899,130170
DistanceSpacing: 1.2
BeatDivisor: 3
GridSize: 8
TimelineZoom: 2.899999

[Metadata]
Title:Aegleseeker
TitleUnicode:Aegleseeker
Artist:Silentroom vs. Frums
ArtistUnicode:Silentroom vs. Frums
Creator:Cubby
Version:Flask's Normal
Source:Arcaea
Tags:lowiro 2020 song contest grand prize winner deliverance esoteric order LeCandy Amateurre Seros Kyutei Sunazuka Akira captin1 cubbby arronchu1207 thiev electronic instrumental -[pino]- bekko flask anya melfissa JeZag
BeatmapID:3085491
BeatmapSetID:1458224

[Difficulty]
HPDrainRate:3
CircleSize:3
OverallDifficulty:4
ApproachRate:5
SliderMultiplier:0.8
SliderTickRate:1

[Events]
//Background and Video events
0,0,"85232270_p0.jpg",0,0
//Break Periods
2,81198,88004
2,138634,141337
//Storyboard Layer 0 (Background)
//Storyboard Layer 1 (Fail)
//Storyboard Layer 2 (Pass)
//Storyboard Layer 3 (Foreground)
//Storyboard Layer 4 (Overlay)
//Storyboard Sound Samples

[TimingPoints]
999,256.410256410256,4,2,2,60,1,0
1127,-100,4,2,2,60,0,0
17409,-100,4,2,2,60,0,0
20486,-100,4,2,2,70,0,0
26575,-100,4,2,2,70,0,0
26640,-100,4,2,2,70,0,0
27601,-100,4,2,2,70,0,0
27665,-100,4,2,2,70,0,0
28627,-100,4,2,2,70,0,0
28691,-100,4,2,2,70,0,0
30678,-100,4,2,2,70,0,0
30742,-100,4,2,2,70,0,0
31704,-100,4,2,2,70,0,0
31768,-100,4,2,2,70,0,0
32729,-100,4,2,2,70,0,0
32793,-100,4,2,2,70,0,0
33755,-100,4,2,2,70,0,0
33819,-100,4,2,2,70,0,0
42986,-100,4,2,2,70,0,0
43050,-100,4,2,2,70,0,0
44011,-100,4,2,2,70,0,0
44075,-100,4,2,2,70,0,0
45037,-100,4,2,2,70,0,0
45101,-100,4,2,2,70,0,0
45486,-100,4,2,2,70,0,0
45870,-100,4,2,2,70,0,0
47088,-100,4,2,2,70,0,0
47152,-100,4,2,2,70,0,0
48114,-100,4,2,2,70,0,0
48178,-100,4,2,2,70,0,0
49140,-100,4,2,2,70,0,0
49204,-100,4,2,2,40,0,0
50229,-100,4,2,2,60,0,0
66127,-100,4,2,2,70,0,0
73306,256.410256410256,3,2,2,70,1,0
80998,256.410256410256,4,2,2,60,1,0
80998,-100,4,2,2,60,0,0
97409,-100,4,2,2,80,0,0
113819,-100,4,2,2,70,0,0
115870,-100,4,2,2,90,0,0
122024,-100,4,2,2,100,0,0
126127,-100,4,2,2,70,0,0
129973,-100,4,2,2,70,0,0
130229,-100,4,2,2,80,0,0
142281,-100,4,2,2,80,0,0
142537,-100,4,2,2,80,0,0

[Colours]
Combo1 : 128,0,255
Combo2 : 128,128,255
Combo3 : 255,89,255

[HitObjects]
256,192,17409,12,2,20486,3:2:0:0:
256,192,21511,12,0,24588,3:0:0:0:
294,153,25614,6,0,P|333:158|375:231,2,120,2|2|8,3:1|3:1|1:0,2:0:0:0:
201,179,26640,2,0,P|185:142|228:69,2,120,2|2|8,3:1|3:1|1:0,2:0:0:0:
270,246,27665,2,0,P|246:277|161:277,2,120,2|2|8,3:1|3:1|1:0,2:0:0:0:
351,195,28691,6,0,L|434:209,1,80,2|2,3:1|3:0,2:0:0:0:
473,188,29075,2,0,B|494:149|494:149|469:64,1,120,2|8,3:1|1:0,2:0:0:0:
387,32,29716,6,0,L|269:52,2,120,2|2|8,3:1|3:1|1:0,2:0:0:0:
365,125,30742,2,0,L|385:243,2,120,2|2|8,3:1|3:1|1:0,2:0:0:0:
278,168,31768,2,0,L|160:188,2,120,2|2|8,3:1|3:1|1:0,2:0:0:0:
301,260,32793,6,0,P|292:303|261:324,1,80,2|0,3:1|0:0,2:0:0:0:
216,333,33178,1,0,3:0:0:0:
122,355,33434,2,2,P|96:323|155:279,1,120,10|2,2:1|3:0,2:1:0:0:
256,192,33947,12,10,37409,3:2:0:0:
256,192,37922,12,8,41511,3:2:0:0:
362,357,42024,6,0,P|405:347|432:276,1,120,2|2,3:1|3:1,2:0:0:0:
374,205,42665,2,0,L|329:194,1,40,2|8,3:0|1:0,2:0:0:0:
260,256,43050,6,0,B|232:219|232:219|247:141,1,120,2|2,3:1|3:1,2:0:0:0:
166,92,43691,2,0,L|158:40,1,40,2|8,3:0|1:0,2:0:0:0:
242,4,44075,6,0,B|306:14|306:14|316:24|316:24|367:34,1,120,2|2,3:1|3:1,2:0:0:0:
452,31,44716,2,0,L|445:80,1,40,2|8,3:0|1:0,2:0:0:0:
480,160,45101,6,0,L|474:246,1,80,2|2,3:1|3:0,2:0:0:0:
496,283,45486,2,0,B|457:264|457:264|417:274,1,80,2|8,3:1|3:1,2:0:0:0:
376,290,45870,1,8,1:0:0:0:
309,220,46127,6,0,P|279:257|284:337,1,120,2|2,3:1|3:1,2:0:0:0:
190,365,46768,2,0,L|141:349,1,40,2|8,3:0|1:0,2:0:0:0:
56,363,47152,6,0,P|94:340|105:264,1,120,2|2,3:1|3:1,2:0:0:0:
38,202,47793,2,0,L|50:154,1,40,2|8,3:0|1:0,2:0:0:0:
123,103,48178,6,0,B|185:97|185:97|233:145,1,120,2|2,3:1|3:1,2:0:0:0:
281,216,48819,2,0,L|268:267,1,40,2|8,3:0|1:0,2:0:0:0:
240,346,49204,5,2,3:0:0:0:
481,48,50229,5,4,3:2:0:0:
427,128,50486,2,0,B|377:146|345:113|354:105|325:75|283:83,1,160,0|2,2:0|2:0,2:0:0:0:
200,132,51255,2,0,P|186:99|188:66,2,60,2|2|2,2:0|2:0|2:0,2:0:0:0:
255,365,52281,6,0,P|245:287|128:278,1,200,2|0,3:2|2:0,2:0:0:0:
59,322,53178,1,2,2:0:0:0:
13,237,53434,2,0,L|1:192,2,40,0|2|2,2:0|2:0|2:0,2:0:0:0:
21,93,54075,1,2,2:0:0:0:
108,128,54332,6,0,P|160:148|215:101,1,120,2|2,3:2|2:0,2:0:0:0:
245,81,54845,2,0,L|234:9,2,60,2|0|0,2:0|2:0|2:0,2:0:0:0:
288,100,55357,2,0,B|356:112|356:112|368:128|368:128|447:145,1,160,2|2,2:0|2:0,2:0:0:0:
441,335,56383,6,0,L|454:380,2,40,2|2|2,3:2|2:0|2:0,2:0:0:0:
407,299,56768,2,0,P|368:289|334:312,1,80,2|2,2:0|2:0,2:0:0:0:
242,329,57281,1,2,2:0:0:0:
168,267,57537,2,0,L|127:276,2,40,2|2|2,2:0|2:0|2:0,2:0:0:0:
252,150,58178,1,2,3:0:0:0:
331,96,58434,6,0,L|375:109,2,40,2|0|2,3:2|2:0|2:0,2:0:0:0:
295,63,58819,2,0,P|246:49|156:118,1,160,0|0,2:0|2:0,2:0:0:0:
128,141,59460,2,0,L|133:214,2,60,2|2|2,2:0|2:0|2:0,2:0:0:0:
47,88,60101,6,0,L|58:40,2,40,2|2|2,2:0|2:0|2:0,2:0:0:0:
9,176,60614,2,0,B|1:220|1:220|28:255,1,80,2|2,2:0|2:0,2:0:0:0:
94,312,61127,2,0,L|86:360,2,40,2|2|2,2:0|2:0|3:2,2:0:0:0:
176,261,61640,1,2,3:2:0:0:
242,330,61896,2,0,B|294:359|346:327|335:317|380:281|443:332,1,200,2|0,3:2|3:0,2:0:0:0:
480,187,62922,6,0,P|480:105|406:71,1,160,0|0,2:0|2:0,2:0:0:0:
375,92,63563,2,0,L|277:78,1,80,2|2,2:0|2:0,2:0:0:0:
299,176,64075,2,0,L|201:190,1,80,2|2,2:0|2:0,2:0:0:0:
169,269,64588,6,0,P|134:234|152:124,1,160,2|2,3:2|2:0,2:0:0:0:
150,35,65357,1,2,2:0:0:0:
150,35,65486,2,0,L|279:18,1,120,2|2,3:2|2:0,2:0:0:0:
347,74,66127,2,0,P|379:75|411:54,2,60,0|0|2,3:0|3:0|3:0,2:0:0:0:
316,111,66640,6,0,L|332:202,1,80,2|2,3:0|3:0,2:0:0:0:
234,191,67152,2,0,L|250:282,1,80,2|2,3:0|3:0,2:0:0:0:
152,271,67665,2,0,L|168:362,1,80,2|2,3:0|3:0,2:0:0:0:
69,356,68178,1,2,3:0:0:0:
7,282,68434,2,0,L|18:233,1,40,2|2,3:0|3:0,2:0:0:0:
15,194,68691,6,0,P|51:180|75:137,1,80,2|2,3:0|3:0,2:0:0:0:
113,58,69204,2,0,P|143:82|192:81,1,80,2|2,3:0|3:0,2:0:0:0:
279,74,69716,2,0,P|273:112|298:154,1,80,2|2,3:0|3:0,2:0:0:0:
361,213,70229,1,2,3:0:0:0:
450,176,70486,1,2,3:0:0:0:
488,263,70742,6,0,B|497:307|497:307|472:342,1,80,2|2,3:0|3:0,2:0:0:0:
388,373,71255,2,0,B|345:358|345:358|327:319,1,80,2|2,3:0|3:0,2:0:0:0:
342,231,71768,2,0,B|375:201|375:201|418:205,1,80,2|2,3:0|3:0,2:0:0:0:
486,145,72281,1,2,3:0:0:0:
436,62,72537,1,2,3:0:0:0:
341,77,72793,2,0,L|351:123,2,40,2|2|2,3:0|3:0|3:0,2:0:0:0:
234,82,73306,6,0,L|248:-3,2,80,2|2|2,3:0|3:0|3:0,2:0:0:0:
144,116,74075,2,0,L|77:61,2,80,2|2|2,3:0|3:0|3:0,2:0:0:0:
193,192,74845,2,0,L|273:222,2,80,2|2|2,3:0|3:0|3:0,2:0:0:0:
97,205,75614,2,0,P|66:233|56:269,1,80,2|2,3:0|3:0,2:0:0:0:
84,360,76127,1,2,3:0:0:0:
179,361,76383,6,0,P|219:355|246:318,2,80,2|2|2,3:0|3:0|3:0,2:0:0:0:
167,265,77152,2,0,P|154:227|169:191,2,80,2|2|2,3:0|3:0|3:0,2:0:0:0:
258,228,77922,2,0,P|296:235|320:266,2,80,2|2|2,3:0|3:0|3:0,2:0:0:0:
268,132,78691,6,0,P|299:107|305:26,1,120,2|2,3:0|3:0,2:0:0:0:
450,12,79460,1,2,3:0:0:0:
428,154,79845,2,0,P|424:200|439:232,1,80,2|2,3:0|3:0,2:0:0:0:
463,257,80229,2,0,B|485:281|515:279|515:279|326:306,1,240,2|2,3:0|2:0,2:0:0:0:
78,43,89204,6,0,P|117:68|130:142,1,120,2|2,3:2|2:0,2:0:0:0:
73,369,90229,2,0,L|199:336,1,120,2|2,2:0|2:0,2:0:0:0:
428,363,91255,2,0,P|450:338|448:255,1,120,2|2,2:0|2:0,2:0:0:0:
319,190,92024,1,2,2:0:0:0:
423,90,92408,2,0,L|467:100,2,40,2|2|2,2:0|2:0|2:0,2:0:0:0:
388,56,92793,2,0,L|300:73,1,80,2|2,2:0|2:0,2:0:0:0:
235,9,93306,6,0,P|209:49|219:120,1,120,2|2,2:0|2:0,2:0:0:0:
411,260,94332,2,0,P|437:220|427:149,1,120,2|2,2:0|2:0,2:0:0:0:
256,192,95357,12,0,96896,2:0:0:0:
132,57,97409,6,0,P|79:73|57:133,1,120,6|2,3:1|3:1,2:0:0:0:
115,205,98050,2,0,P|137:203|159:213,1,40,2|2,3:0|3:0,2:0:0:0:
217,273,98434,6,0,P|278:266|311:221,1,120,2|2,3:1|3:1,2:0:0:0:
397,179,99075,2,0,P|388:158|391:137,1,40,2|2,3:0|3:2,2:0:0:0:
457,68,99460,6,0,P|437:21|371:1,1,120,2|2,3:1|3:1,2:0:0:0:
294,53,100101,2,0,P|273:54|254:46,1,40,2|2,3:0|3:0,2:0:0:0:
183,110,100486,5,2,3:0:0:0:
93,76,100742,1,2,3:0:0:0:
40,156,100998,2,0,P|31:200|49:242,1,80,2|2,3:0|3:1,2:0:0:0:
13,322,101511,6,0,P|57:326|120:281,1,120,2|2,3:1|3:1,2:0:0:0:
198,336,102152,2,0,P|217:347|244:350,1,40,2|0,3:0|3:0,2:0:0:0:
327,323,102537,6,0,P|348:279|330:212,1,120,2|2,3:1|3:1,2:0:0:0:
251,160,103178,2,0,P|234:169|207:172,1,40,2|2,3:0|3:0,2:0:0:0:
129,220,103563,6,0,P|89:189|74:121,2,120,2|2|2,3:1|3:0|3:0,2:0:0:0:
193,290,104588,2,0,L|172:378,2,80,2|2|2,3:0|3:0|3:0,2:0:0:0:
277,243,105357,1,2,3:0:0:0:
351,303,105614,6,0,B|414:296|414:296|438:233,1,120,6|2,3:1|3:1,2:0:0:0:
479,158,106255,2,0,L|463:115,1,40,2|2,3:0|3:0,2:0:0:0:
378,79,106640,6,0,B|340:27|340:27|273:38,1,120,2|2,3:1|3:1,2:0:0:0:
188,41,107281,2,0,L|158:76,1,40,2|2,3:0|3:0,2:0:0:0:
170,167,107665,6,0,B|144:225|144:225|187:277,1,120,2|2,3:1|3:1,2:0:0:0:
232,351,108306,2,0,L|277:358,1,40,2|2,3:0|3:0,2:0:0:0:
358,317,108691,5,0,3:0:0:0:
307,235,108947,1,2,3:0:0:0:
371,163,109204,2,0,L|350:73,1,80,2|2,3:0|3:1,2:0:0:0:
276,26,109716,6,0,B|247:58|247:58|171:38,1,120,2|2,3:1|3:1,2:0:0:0:
76,45,110357,2,0,L|85:94,1,40,2|2,3:0|3:0,2:0:0:0:
33,166,110742,6,0,B|62:198|62:198|138:178,1,120,2|2,3:1|3:1,2:0:0:0:
233,185,111383,2,2,L|224:234,1,40,2|2,3:0|3:0,2:0:0:0:
253,316,111768,6,0,B|224:348|224:348|148:328,2,120,2|2|2,3:1|3:0|3:0,2:0:0:0:
347,332,112793,1,2,3:0:0:0:
342,235,113050,1,2,3:0:0:0:
421,181,113306,2,0,L|428:92,1,80,2|2,3:0|3:0,2:0:0:0:
374,20,113819,6,2,B|335:94|335:94|289:28|289:28|254:138|254:138|220:27|220:27|177:94|177:94|130:18,1,560,2|2,2:1|3:0,2:1:0:0:
40,50,115870,6,0,P|13:85|24:164,1,120,6|2,3:1|3:1,2:0:0:0:
29,252,116511,2,0,L|76:243,1,40,2|2,3:0|3:0,2:0:0:0:
149,193,116896,1,2,3:0:0:0:
207,269,117152,1,2,3:0:0:0:
296,234,117409,2,0,P|305:193|292:157,1,80,2|2,3:0|3:1,2:0:0:0:
236,80,117922,6,0,P|277:59|350:80,1,120,2|2,3:1|3:1,2:0:0:0:
441,80,118563,2,0,L|428:136,1,40,0|2,3:0|3:0,2:0:0:0:
486,197,118947,6,0,P|445:176|372:197,1,120,2|2,3:1|3:1,2:0:0:0:
281,197,119588,2,0,L|294:253,1,40,2|2,3:0|3:1,2:0:0:0:
245,321,119973,6,0,P|196:339|130:312,2,120,2|2|2,3:1|3:1|3:0,2:0:0:0:
331,361,120998,1,2,3:1:0:0:
458,293,121383,2,0,L|441:171,1,120,2|2,3:1|3:0,2:0:0:0:
497,95,122024,6,0,P|461:74|419:79,1,80,6|2,3:1|3:0,2:0:0:0:
381,99,122409,2,0,L|263:82,1,120,2|0,3:1|3:0,2:0:0:0:
179,31,123050,6,0,B|161:74|161:74|175:114,1,80,2|2,3:1|3:0,2:0:0:0:
196,146,123434,2,0,L|177:283,1,120,2|2,3:1|3:0,2:0:0:0:
87,293,124075,6,2,P|98:330|129:354,1,80,2|2,3:1|3:0,2:0:0:0:
177,363,124460,2,0,B|213:375|248:342|248:342|308:349,1,120,2|2,3:1|3:0,2:0:0:0:
373,299,125101,6,2,B|400:259|376:219|365:229|344:187|364:148,1,160,2|2,3:0|3:0,2:0:0:0:
447,99,125870,1,2,3:0:0:0:
388,22,126127,5,2,2:1:0:0:
34,172,127152,1,2,2:1:0:0:
256,192,128178,12,0,129716,2:0:0:0:
412,230,130229,6,0,L|429:106,2,120,6|2|10,3:2|3:0|1:0,2:0:0:0:
320,259,131255,2,8,L|337:383,2,120,10|8|8,3:0|3:0|1:0,2:0:0:0:
264,180,132281,2,0,L|137:164,2,120,2|2|2,3:0|3:0|3:0,2:0:0:0:
322,104,133306,2,0,P|321:64|255:10,1,120,2|2,3:0|3:0,2:0:0:0:
176,48,133947,1,8,1:0:0:0:
62,136,134332,6,0,P|20:117|0:46,2,120,2|2|8,3:0|3:0|1:0,2:0:0:0:
98,224,135357,2,0,P|102:269|51:322,2,120,2|2|8,3:0|3:0|1:0,2:0:0:0:
156,148,136383,2,0,P|193:121|264:139,2,120,2|2|2,3:0|3:0|3:0,2:0:0:0:
178,241,137409,6,0,L|247:299,1,80,2|8,3:0|1:0,2:0:0:0:
243,340,137793,2,0,P|286:317|361:338,1,120,2|10,3:0|1:0,2:0:0:0:
442,367,138434,5,2,3:0:0:0:
375,159,142537,6,0,B|390:210|390:210|381:229|381:229|398:288,2,120,4|2|8,3:2|3:0|1:0,2:0:0:0:
288,115,143563,2,0,B|303:63|303:63|294:45|294:45|311:-14,2,120,2|2|2,3:0|3:0|3:0,2:0:0:0:
208,168,144588,6,0,B|152:168|152:168|152:224|152:224|104:224|104:224|104:280|104:280|56:280|56:280|56:344,1,320,2|6,3:0|3:0,2:0:0:0:
