osu file format v14

[General]
AudioFilename: audio.mp3
AudioLeadIn: 0
PreviewTime: 97310
Countdown: 0
SampleSet: Soft
StackLeniency: 0.2
Mode: 0
LetterboxInBreaks: 0
WidescreenStoryboard: 1

[Editor]
Bookmarks: 17418,33816,50214,54460,66485,80976,89239,97373,108050,113899,130170
DistanceSpacing: 0.2
BeatDivisor: 8
GridSize: 32
TimelineZoom: 2.899999

[Metadata]
Title:Aegleseeker
TitleUnicode:Aegleseeker
Artist:Silentroom vs. Frums
ArtistUnicode:Silentroom vs. Frums
Creator:Cubby
Version:Extra
Source:Arcaea
Tags:lowiro 2020 song contest grand prize winner deliverance esoteric order LeCandy Amateurre Seros Kyutei Sunazuka Akira captin1 cubbby arronchu1207 thiev electronic instrumental -[pino]- bekko flask anya melfissa JeZag
BeatmapID:2996741
BeatmapSetID:1458224

[Difficulty]
HPDrainRate:5.4
CircleSize:3.9
OverallDifficulty:8.2
ApproachRate:9.6
SliderMultiplier:1.72
SliderTickRate:1

[Events]
//Background and Video events
0,0,"85232270_p0.jpg",0,0
//Break Periods
//Storyboard Layer 0 (Background)
//Storyboard Layer 1 (Fail)
//Storyboard Layer 2 (Pass)
//Storyboard Layer 3 (Foreground)
//Storyboard Layer 4 (Overlay)
//Storyboard Sound Samples

[TimingPoints]
999,256.410256410256,4,2,2,60,1,0
1127,-333.333333333333,4,2,2,40,0,0
15357,-76.9230769230769,4,2,2,40,0,0
16511,-133.333333333333,4,2,2,40,0,0
17409,-58.8235294117647,4,2,2,70,0,0
18306,-66.6666666666667,4,2,2,70,0,0
19588,-58.8235294117647,4,2,2,70,0,0
21255,-333.333333333333,4,2,2,70,0,0
21511,-58.8235294117647,4,2,2,70,0,0
22793,-66.6666666666667,4,2,2,70,0,0
23370,-58.8235294117647,4,2,2,70,0,0
24844,-333.333333333333,4,2,2,70,0,0
25357,-500,4,2,2,70,0,0
25614,-83.3333333333333,4,2,2,70,0,0
26383,-250,4,2,2,70,0,0
26575,-250,4,2,2,5,0,0
26639,-83.3333333333333,4,2,2,70,0,0
27408,-250.000000000001,4,2,2,70,0,0
27601,-250.000000000001,4,2,2,5,0,0
27665,-83.3333333333333,4,2,2,70,0,0
28434,-250,4,2,2,70,0,0
28627,-250,4,2,2,5,0,0
28691,-83.3333333333333,4,2,2,70,0,0
29332,-55.5555555555556,4,2,2,70,0,0
29588,-250,4,2,2,70,0,0
29716,-111.111111111111,4,2,2,70,0,0
30485,-250,4,2,2,70,0,0
30678,-250,4,2,2,5,0,0
30742,-111.111111111111,4,2,2,70,0,0
31511,-250,4,2,2,70,0,0
31704,-250,4,2,2,5,0,0
31767,-111.111111111111,4,2,2,70,0,0
32537,-250,4,2,2,70,0,0
32729,-250,4,2,2,5,0,0
32793,-111.111111111111,4,2,2,70,0,0
33434,-50,4,2,2,70,0,0
33755,-50,4,2,2,5,0,0
33819,-55.5555555555556,4,2,2,70,0,0
34332,-45.4545454545455,4,2,2,70,0,0
34524,-71.4285714285714,4,2,2,70,0,0
34844,-55.5555555555556,4,2,2,70,0,0
35037,-45.4545454545455,4,2,2,70,0,0
35357,-38.4615384615385,4,2,2,70,0,0
35806,-45.4545454545455,4,2,2,70,0,0
36639,-50,4,2,2,70,0,0
37024,-66.6666666666667,4,2,2,70,0,0
37409,-38.4615384615385,4,2,2,70,0,0
37601,-45.4545454545455,4,2,2,70,0,0
37921,-55.5555555555556,4,2,2,70,0,0
38626,-45.4545454545455,4,2,2,70,0,0
38819,-71.4285714285714,4,2,2,70,0,0
39011,-133.333333333333,4,2,2,70,0,0
39203,-45.4545454545455,4,2,2,70,0,0
39460,-55.5555555555556,4,2,2,70,0,0
40037,-50,4,2,2,70,0,0
40742,-62.5,4,2,2,70,0,0
40998,-83.3333333333333,4,2,2,70,0,0
41319,-50,4,2,2,70,0,0
41768,-200,4,2,2,70,0,0
42024,-66.6666666666667,4,2,2,70,0,0
42665,-133.333333333333,4,2,2,70,0,0
42793,-55.5555555555556,4,2,2,70,0,0
42986,-55.5555555555556,4,2,2,5,0,0
43050,-66.6666666666667,4,2,2,70,0,0
43691,-133.333333333333,4,2,2,70,0,0
43819,-55.5555555555556,4,2,2,70,0,0
44011,-55.5555555555556,4,2,2,5,0,0
44075,-66.6666666666667,4,2,2,70,0,0
44716,-133.333333333333,4,2,2,70,0,0
44844,-55.5555555555556,4,2,2,70,0,0
45037,-55.5555555555556,4,2,2,5,0,0
45101,-66.6666666666667,4,2,2,70,0,0
45870,-200,4,2,2,70,0,0
46126,-66.6666666666667,4,2,2,70,0,0
46767,-200,4,2,2,70,0,0
46896,-55.5555555555556,4,2,2,70,0,0
47088,-55.5555555555556,4,2,2,5,0,0
47152,-66.6666666666667,4,2,2,70,0,0
47793,-200,4,2,2,70,0,0
47921,-55.5555555555556,4,2,2,70,0,0
48114,-55.5555555555556,4,2,2,5,0,0
48178,-66.6666666666667,4,2,2,70,0,0
48819,-200,4,2,2,70,0,0
48947,-55.5555555555556,4,2,2,70,0,0
49140,-55.5555555555556,4,2,2,5,0,0
49203,-100,4,2,2,40,0,0
50229,-100,4,2,2,60,0,0
51639,-76.9230769230769,4,2,2,60,0,0
52280,-100,4,2,2,60,0,0
52921,-333.333333333333,4,2,2,60,0,0
54332,-100,4,2,2,60,0,0
54844,-76.9230769230769,4,2,2,60,0,0
55870,-333.333333333333,4,2,2,60,0,0
56383,-100,4,2,2,60,0,0
57024,-200,4,2,2,60,0,0
57280,-100,4,2,2,60,0,0
58947,-133.333333333333,4,2,2,60,0,0
59203,-200,4,2,2,60,0,0
59460,-76.9230769230769,4,2,2,60,0,0
61383,-181.818181818181,4,2,2,60,0,0
61639,-66.6666666666667,4,2,2,60,0,0
61896,-100,4,2,2,60,0,0
63562,-83.3333333333333,4,2,2,60,0,0
64588,-66.6666666666667,4,2,2,60,0,0
65101,-100,4,2,2,60,0,0
65870,-333.333333333333,4,2,2,60,0,0
66126,-50,4,2,2,70,0,0
66639,-100,4,2,2,70,0,0
66896,-40,4,2,2,70,0,0
67665,-50,4,2,2,70,0,0
67921,-200,4,2,2,70,0,0
68178,-50,4,2,2,70,0,0
68370,-44.4444444444445,4,2,2,70,0,0
68562,-40,4,2,2,70,0,0
68691,-50,4,2,2,70,0,0
68947,-400,4,2,2,70,0,0
69203,-66.6666666666667,4,2,2,70,0,0
69716,-50,4,2,2,70,0,0
70485,-200,4,2,2,70,0,0
70998,-50,4,2,2,70,0,0
72280,-200,4,2,2,70,0,0
73306,256.410256410256,3,2,2,70,1,0
73306,-333.333333333333,4,2,2,70,0,0
73562,-66.6666666666667,4,2,2,70,0,0
76383,-50,4,2,2,70,0,0
76896,-200,4,2,2,70,0,0
77152,-66.6666666666667,4,2,2,70,0,0
77408,-40,4,2,2,70,0,0
77665,-66.6666666666667,4,2,2,70,0,0
77921,-200,4,2,2,70,0,0
78178,-100,4,2,2,70,0,0
78691,-66.6666666666667,4,2,2,70,0,0
78947,-66.6666666666667,4,2,2,70,0,0
80998,256.410256410256,4,2,2,60,1,0
80998,-66.6666666666667,4,2,2,60,0,0
81575,-333.333333333333,4,2,2,60,0,0
84203,-166.666666666667,4,2,2,60,0,0
87152,-125,4,2,2,60,0,0
89204,-100,4,2,2,60,0,0
97409,-100,4,2,2,80,0,0
97793,-58.8235294117647,4,2,2,80,0,0
98434,-100,4,2,2,80,0,0
98819,-58.8235294117647,4,2,2,80,0,0
99460,-100,4,2,2,80,0,0
99845,-58.8235294117647,4,2,2,80,0,0
100229,-133.333333333333,4,2,2,80,0,0
100486,-58.8235294117647,4,2,2,80,0,0
101511,-100,4,2,2,80,0,0
101896,-58.8235294117647,4,2,2,80,0,0
102537,-100,4,2,2,80,0,0
102922,-58.8235294117647,4,2,2,80,0,0
103563,-100,4,2,2,80,0,0
103947,-58.8235294117647,4,2,2,80,0,0
105614,-100,4,2,2,80,0,0
105998,-58.8235294117647,4,2,2,80,0,0
106640,-100,4,2,2,80,0,0
107024,-58.8235294117647,4,2,2,80,0,0
107665,-100,4,2,2,80,0,0
108050,-58.8235294117647,4,2,2,80,0,0
109716,-100,4,2,2,80,0,0
110101,-58.8235294117647,4,2,2,80,0,0
110742,-100,4,2,2,80,0,0
111127,-58.8235294117647,4,2,2,80,0,0
111768,-100,4,2,2,80,0,0
112152,-58.8235294117647,4,2,2,80,0,0
113819,-100,4,2,2,70,0,0
115870,-52.6315789473684,4,2,2,90,0,0
117409,-100,4,2,2,90,0,0
117664,-66.6666666666667,4,2,2,90,0,0
118434,-52.6315789473684,4,2,2,90,0,0
120998,-43.4782608695652,4,2,2,90,0,0
122024,-45.4545454545455,4,2,2,100,0,0
122793,-100,4,2,2,100,0,0
123050,-66.6666666666667,4,2,2,100,0,0
126127,-100,4,2,2,70,0,0
128178,-200,4,2,2,70,0,0
129973,-133.333333333333,4,2,2,60,0,0
130229,-133.333333333333,4,2,2,80,0,0
130486,-166.666666666667,4,2,2,80,0,0
132281,-66.6666666666667,4,2,2,80,0,0
134075,-50,4,2,2,80,0,0
134332,-66.6666666666667,4,2,2,80,0,0
137922,-50,4,2,2,80,0,0
138178,-66.6666666666667,4,2,2,80,0,0
138434,-200,4,2,2,80,0,0
141511,-200,4,2,2,80,0,0
142281,-200,4,2,2,60,0,0
142537,-66.6666666666667,4,2,2,80,0,0
145614,-200,4,2,2,80,0,0

[Colours]
Combo1 : 128,0,255
Combo2 : 128,128,255
Combo3 : 255,89,255

[HitObjects]
322,166,1127,6,0,B|353:105|308:26|185:-15|96:81|108:165|108:165|22:191|22:191|-18:200|-42:271|7:324|56:313|56:313|141:297|141:297|174:368|286:404|372:322|364:242|364:242|474:218|474:218|521:208|559:110|476:46|427:60|427:60|206:131,1,1625.39995039673,0|0,2:0|3:0,2:0:0:0:
37,47,9844,5,0,3:0:0:0:
37,47,10229,5,0,3:0:0:0:
46,127,10870,5,0,3:0:0:0:
110,79,11127,5,0,3:0:0:0:
110,79,11255,1,0,3:0:0:0:
31,337,11896,5,0,3:0:0:0:
115,316,12280,5,0,3:0:0:0:
199,295,12665,5,0,3:0:0:0:
283,274,12921,1,0,3:0:0:0:
367,253,13178,1,0,3:0:0:0:
367,253,13306,1,0,3:0:0:0:
256,16,13947,5,0,3:0:0:0:
256,192,14011,12,0,15229,3:0:0:0:
0,153,15357,6,0,B|-12:83|-12:83|110:62|110:62|145:79|145:79|167:202|167:202|28:227|28:227|9:206|9:206|4:176,1,558.999974411012
248,344,16511,6,0,B|248:288|248:288|256:296|256:296|256:232,1,129.00000492096
252,30,16896,6,0,L|196:20,7,32.2500012302399,0|0|0|0|0|0|0|0,0:0|0:0|0:0|0:0|0:0|0:0|2:0|0:0,0:0:0:0:
161,0,17409,6,0,B|227:376|227:376|246:382|246:382|446:267|446:267|442:241|442:241|16:196|16:196|12:172|12:172|304:31|304:31|334:202,1,1608.20003067398,4|2,3:2|2:0,0:0:0:0:
339,149,18947,6,0,L|325:70,3,64.5000024604798,2|2|2|2,2:0|2:0|2:0|2:0,0:0:0:0:
507,126,19203,1,2,2:0:0:0:
512,118,19267,2,0,L|498:39,3,64.5000024604798,0|2|2|2,2:0|2:0|2:0|2:0,0:0:0:0:
405,217,19588,6,0,L|483:203,3,73.1000013942719,2|2|2|0,2:0|2:0|2:0|2:0,0:0:0:0:
369,20,19844,1,2,2:0:0:0:
374,12,19908,2,0,L|445:0,3,73.1000013942719,2|2|2|2,2:0|2:0|2:0|2:0,0:0:0:0:
430,104,20229,6,0,P|426:122|427:101,3,73.1000013942719,2|2|2|0,2:0|2:0|2:0|2:0,0:0:0:0:
219,103,20485,5,2,3:2:0:0:
296,126,20614,2,0,P|259:126|227:144,1,73.1000013942719,10|0,2:1|2:0,2:0:0:0:
166,188,20742,6,0,L|130:191,1,36.5500006971359,10|0,2:1|0:0,0:0:0:0:
169,199,20806,1,0,3:0:0:0:
172,210,20870,2,0,P|154:241|153:277,1,73.1000013942719,8|8,2:1|2:1,2:0:0:0:
251,363,20998,6,0,P|255:385|255:361,3,73.1000013942719,0|0|0|0,3:0|3:0|3:0|0:0,0:0:0:0:
256,288,21255,6,0,L|256:238,1,38.6999988189698,8|0,1:0|0:0,0:0:0:0:
160,64,21511,6,0,B|218:64|218:64|271:-10|271:-10|405:-10|405:-10|507:147|507:147|492:172|492:172|36:172|36:172|-4:131|-4:131|88:32|88:32|182:32|182:32|272:175|272:175,1,1388.90002649117,4|2,3:2|0:0,0:0:0:0:
189,253,22793,6,0,P|177:282|184:313,3,64.5000024604798,2|2|2|0,0:0|0:0|0:0|0:0,0:0:0:0:
273,270,23050,1,2,0:0:0:0:
277,262,23114,2,0,P|284:292|272:322,3,64.5000024604798,2|2|0|2,0:0|0:0|0:0|0:0,0:0:0:0:
75,288,23434,6,0,P|79:319|115:357,3,73.1000013942719,2|2|2|0,0:0|0:0|0:0|0:0,0:0:0:0:
368,319,23691,1,2,0:0:0:0:
373,311,23755,2,0,P|362:345|333:368,3,73.1000013942719,2|2|0|2,0:0|0:0|0:0|0:0,0:0:0:0:
500,258,24011,5,2,0:0:0:0:
507,248,24075,2,0,P|474:235|439:244,3,73.1000013942719,2|2|2|2,0:0|0:0|0:0|0:0,0:0:0:0:
321,147,24332,2,0,P|326:182|350:208,3,73.1000013942719,2|2|2|0,0:0|0:0|0:0|0:0,0:0:0:0:
504,72,24588,5,0,3:0:0:0:
416,16,24716,1,0,1:0:0:0:
352,64,24845,2,0,L|336:64,1,12.8999996063233,8|0,0:1|0:0,0:0:0:0:
288,32,24973,1,0,3:0:0:0:
224,96,25101,2,0,L|208:96,1,12.8999996063233,0|0,0:0|3:0,0:0:0:0:
120,44,25229,2,0,L|104:44,1,12.8999996063233,8|8,0:1|0:1,0:0:0:0:
32,112,25357,6,2,B|22:109|22:109|22:114|22:114|17:112|17:112|11:112,1,25.8,2|2,0:3|0:3,0:3:0:0:
20,344,25614,5,2,3:1:0:0:
36,320,25678,1,2,3:0:0:0:
60,344,25742,1,2,3:0:0:0:
84,320,25806,1,2,3:0:0:0:
100,344,25870,1,2,3:0:0:0:
160,256,25998,5,2,3:1:0:0:
165,247,26062,1,2,3:0:0:0:
173,256,26126,1,2,3:0:0:0:
182,247,26190,1,2,3:0:0:0:
187,256,26254,1,2,3:0:0:0:
256,384,26383,6,0,L|256:320,1,51.6,8|0,1:0|0:0,0:0:0:0:
317,267,26640,5,2,3:1:0:0:
333,243,26704,1,2,3:0:0:0:
357,267,26768,1,2,3:0:0:0:
381,243,26832,1,2,3:0:0:0:
397,267,26896,1,2,3:0:0:0:
448,352,27024,5,2,3:1:0:0:
453,343,27088,1,2,3:0:0:0:
461,352,27152,1,2,3:0:0:0:
470,343,27216,1,2,3:0:0:0:
475,352,27280,1,2,3:0:0:0:
488,248,27409,6,0,L|488:184,1,51.6,8|0,1:0|0:0,0:0:0:0:
480,76,27665,5,2,3:1:0:0:
464,52,27729,1,2,3:0:0:0:
440,76,27793,1,2,3:0:0:0:
416,52,27857,1,2,3:0:0:0:
400,76,27921,1,2,3:0:0:0:
336,144,28050,5,2,3:1:0:0:
331,135,28114,1,2,3:0:0:0:
323,144,28178,1,2,3:0:0:0:
314,135,28242,1,2,3:0:0:0:
309,144,28306,1,2,3:0:0:0:
256,32,28434,6,0,P|254:13|260:31,1,51.599998425293,8|0,1:0|0:0,0:0:0:0:
160,64,28691,5,2,3:1:0:0:
144,40,28755,1,2,3:0:0:0:
120,64,28819,1,2,3:0:0:0:
96,40,28883,1,2,3:0:0:0:
80,64,28947,1,2,3:0:0:0:
7,192,29075,6,0,P|48:194|66:209,3,51.599998425293,2|2|2|2,3:1|3:0|3:0|3:0,0:0:0:0:
132,167,29332,6,0,P|155:197|162:235,1,77.3999976379395,8|0,3:1|0:0,0:0:0:0:
230,277,29460,2,0,P|215:312|185:337,1,77.3999976379395,8|0,1:0|0:0,0:0:0:0:
101,364,29588,6,0,L|103:395,1,17.2
330,359,29716,6,0,L|333:321,3,38.6999988189698,2|2|2|2,3:1|3:0|3:0|3:0,0:0:0:0:
337,240,29973,1,2,3:0:0:0:
428,363,30101,6,0,L|431:325,3,38.6999988189698,2|2|2|2,3:1|3:0|3:0|3:0,0:0:0:0:
439,247,30358,1,2,3:0:0:0:
256,144,30486,6,0,L|256:88,1,51.6,8|0,1:0|0:0,0:0:0:0:
43,143,30742,6,0,P|65:135|80:117,3,38.6999988189698,2|2|2|2,3:1|3:0|3:0|3:0,0:0:0:0:
119,199,30998,1,2,3:0:0:0:
113,296,31126,6,0,P|94:281|71:276,3,38.6999988189698,2|2|2|2,3:1|3:0|3:0|3:0,0:0:0:0:
119,199,31382,1,2,3:0:0:0:
209,158,31511,6,0,P|203:183|208:209,1,51.6,8|0,1:0|0:0,0:0:0:0:
33,237,31767,6,0,P|37:214|29:192,3,38.6999988189698,2|2|2|2,3:1|3:0|3:0|3:0,0:0:0:0:
119,199,32023,1,2,3:0:0:0:
200,253,32152,6,0,P|177:262|162:279,3,38.6999988189698,2|2|2|2,3:1|3:0|3:0|3:0,0:0:0:0:
119,199,32409,1,2,3:0:0:0:
130,101,32537,6,0,P|146:117|177:121,1,51.6,8|0,1:0|0:0,0:0:0:0:
113,296,32793,6,0,P|94:281|71:276,3,38.6999988189698,2|2|2|2,3:1|3:0|3:0|3:0,0:0:0:0:
119,199,33050,1,2,3:0:0:0:
200,300,33178,6,0,L|206:363,1,51.6,0|0,3:0|0:0,0:0:0:0:
445,198,33434,6,2,B|505:245|456:304|456:304|231:222|231:222|273:241|282:277,1,430,10|0,0:1|0:0,0:1:0:0:
113,296,33819,6,0,P|10:294|25:193,1,232.199992913819,2|0,3:0|0:0,0:0:0:0:
71,91,34075,6,0,B|129:134|182:93|182:93|240:52|296:97,1,232.199992913819,2|0,3:0|0:0,0:0:0:0:
447,30,34332,6,0,B|448:2|498:-11|498:-11|377:22,1,189.200005773926,10|2,3:2|0:0,0:0:0:0:
377,113,34524,6,0,P|393:168|449:183,1,120.399996325684,2|2,3:0|0:0,0:0:0:0:
486,331,34716,5,2,3:0:0:0:
486,331,34780,1,0,0:0:0:0:
487,303,34844,2,0,P|492:353|492:304,1,154.799995275879,2|2,0:0|3:0,0:0:0:0:
340,312,35037,5,0,0:0:0:0:
345,277,35101,2,0,P|347:341|352:278,1,189.200005773926,2|0,3:0|0:0,0:0:0:0:
183,289,35293,5,0,0:0:0:0:
183,289,35357,1,10,3:2:0:0:
189,250,35421,2,0,P|181:323|197:251,1,223.599989764405,2|2,0:0|3:0,0:0:0:0:
3,106,35614,5,2,0:0:0:0:
6,119,35678,1,2,0:0:0:0:
9,133,35742,1,2,3:0:0:0:
13,146,35806,2,0,B|39:150|57:173|57:173|315:147,1,283.800008660889,0|2,0:0|3:0,0:0:0:0:
225,37,36063,5,0,0:0:0:0:
225,37,36127,2,0,P|174:-5|136:130,1,283.800008660889,2|0,3:0|0:0,0:0:0:0:
377,138,36383,6,0,B|427:140|427:140|379:148,3,94.600002886963,10|2|2|2,3:2|0:0|0:0|3:0,0:0:0:0:
338,57,36640,6,0,P|301:78|284:117,3,86,2|2|2|0,0:0|0:0|3:0|0:0,0:0:0:0:
256,296,36896,5,2,0:0:0:0:
248,312,36960,1,2,0:0:0:0:
264,312,37024,1,2,3:0:0:0:
256,332,37088,1,0,0:0:0:0:
288,368,37152,6,0,L|224:368,3,64.5000024604798,2|2|2|2,3:0|0:0|0:0|0:0,0:0:0:0:
473,234,37409,6,2,B|410:223|410:223|429:42,1,223.599989764405,10|2,3:2|0:0,0:0:0:0:
414,0,37601,6,0,B|411:52|455:74|455:74|509:103|496:165,1,189.200005773926,0|2,0:0|0:0,0:0:0:0:
503,165,37793,1,2,3:0:0:0:
447,375,37921,6,0,P|402:313|317:309,1,154.799995275879,2|2,3:0|0:0,0:0:0:0:
248,343,38114,5,0,0:0:0:0:
256,332,38178,2,0,L|144:341,2,77.3999976379395,2|2|2,3:0|0:0|0:0,0:0:0:0:
368,178,38370,5,0,0:0:0:0:
365,170,38434,2,0,P|288:177|242:249,1,154.799995275879,10|2,3:2|0:0,0:0:0:0:
0,306,38626,6,0,B|8:351|8:351|60:366|118:330|101:258,1,189.200005773926,2|2,3:0|0:0,0:0:0:0:
114,150,38819,2,0,P|126:177|149:195,1,60.1999981628419,2|0,3:0|0:0,0:0:0:0:
213,112,38947,5,2,0:0:0:0:
214,99,39011,2,0,L|216:67,2,32.2500012302399,2|2|0,0:0|3:0|0:0,0:0:0:0:
329,247,39203,6,0,B|514:215|514:215|448:227|427:266,1,283.800008660889,2|0,3:0|0:0,0:0:0:0:
479,375,39460,5,10,3:2:0:0:
486,373,39524,1,2,0:0:0:0:
493,370,39588,2,0,P|512:331|496:286,2,77.3999976379395,2|2|2,0:0|3:0|0:0,0:0:0:0:
383,293,39781,5,2,0:0:0:0:
372,269,39845,1,2,3:0:0:0:
352,253,39909,1,0,0:0:0:0:
329,247,39973,2,0,L|335:167,1,77.3999976379395,2|2,0:0|0:0,0:0:0:0:
350,81,40101,5,2,3:0:0:0:
350,62,40165,1,0,0:0:0:0:
351,44,40229,2,0,P|457:28|420:129,1,258,2|0,3:0|0:0,0:0:0:0:
216,296,40485,6,0,P|186:265|179:223,3,86,10|2|2|2,3:2|0:0|0:0|3:0,0:0:0:0:
48,223,40742,6,0,P|56:190|78:164,3,68.8,2|2|2|0,0:0|0:0|3:0|0:0,0:0:0:0:
0,76,40998,6,0,P|24:66|49:66,3,51.599998425293,2|2|2|0,0:0|0:0|3:0|0:0,0:0:0:0:
162,131,41255,5,2,3:0:0:0:
175,122,41319,2,0,P|269:131|277:195,1,172,2|0,0:0|0:0,0:0:0:0:
336,352,41511,5,8,3:2:0:0:
352,336,41575,1,0,1:0:0:0:
368,352,41639,1,2,1:2:0:0:
384,336,41703,1,2,3:2:0:0:
400,352,41768,1,2,1:2:0:0:
416,336,41832,1,2,1:2:0:0:
432,352,41896,1,0,3:0:0:0:
448,336,41960,1,2,1:2:0:0:
464,352,42024,6,0,L|464:272,3,64.5000024604798,2|2|2|2,3:1|3:0|3:0|3:0,0:0:0:0:
464,208,42280,1,2,3:0:0:0:
432,112,42408,6,0,L|512:112,3,64.5000024604798,2|2|2|2,3:1|3:0|3:0|3:0,0:0:0:0:
301,234,42665,6,0,P|301:217|306:202,1,32.2500012302399,2|0,3:0|0:0,0:0:0:0:
336,352,42793,6,0,P|273:244|187:167,1,232.199992913819,8|0,1:0|0:0,0:0:0:0:
232,85,43050,6,0,L|226:20,3,64.5000024604798,2|2|2|2,3:1|3:0|3:0|3:0,0:0:0:0:
304,1,43306,1,2,3:0:0:0:
432,112,43434,6,0,L|426:47,3,64.5000024604798,2|2|2|2,3:1|3:0|3:0|3:0,0:0:0:0:
302,233,43691,6,0,P|315:225|326:213,1,32.2500012302399,2|0,3:0|0:0,0:0:0:0:
182,263,43819,6,0,P|306:262|415:299,1,232.199992913819,8|0,1:0|0:0,0:0:0:0:
497,227,44075,6,0,P|496:195|512:167,3,64.5000024604798,2|2|2|2,3:1|3:0|3:0|3:0,0:0:0:0:
469,102,44332,1,2,3:0:0:0:
498,235,44460,6,0,P|482:207|454:190,3,64.5000024604798,2|2|2|2,3:1|3:0|3:0|3:0,0:0:0:0:
302,233,44716,6,0,P|315:240|331:243,1,32.2500012302399,2|0,3:0|0:0,0:0:0:0:
216,144,44844,6,0,P|278:250|301:363,1,232.199992913819,8|0,1:0|0:0,0:0:0:0:
116,244,45101,6,0,P|146:258|172:277,3,64.5000024604798,2|2|2|2,3:1|3:0|3:0|3:0,0:0:0:0:
204,348,45357,1,2,3:0:0:0:
22,262,45485,5,2,3:1:0:0:
20,245,45549,1,2,3:0:0:0:
19,229,45613,1,2,3:0:0:0:
17,213,45677,1,2,3:0:0:0:
16,197,45742,2,0,P|45:184|71:165,1,64.5000024604798,8|0,3:1|0:0,0:0:0:0:
101,328,45870,6,0,L|98:356,2,28.6666666666667,8|8|8,1:0|1:0|1:0,0:0:0:0:
115,83,46126,6,0,L|121:18,3,64.5000024604798,2|2|2|2,3:1|3:0|3:0|3:0,0:0:0:0:
198,0,46383,1,2,3:0:0:0:
310,84,46511,6,0,L|304:148,3,64.5000024604798,2|2|2|2,3:1|3:0|3:0|3:0,0:0:0:0:
347,284,46767,6,0,L|352:322,1,21.5,2|0,3:0|0:0,0:0:0:0:
439,351,46896,6,0,B|281:323|281:323|247:348|195:324,1,232.199992913819,8|0,1:0|0:0,0:0:0:0:
86,348,47152,6,0,P|116:355|137:379,3,64.5000024604798,2|2|2|2,3:1|3:0|3:0|3:0,0:0:0:0:
241,254,47408,1,2,3:0:0:0:
10,289,47537,6,0,P|31:265|63:259,3,64.5000024604798,2|2|2|2,3:1|3:0|3:0|3:0,0:0:0:0:
67,47,47793,6,0,L|63:79,1,21.5,2|0,3:0|0:0,0:0:0:0:
227,122,47921,6,0,B|339:103|339:103|340:95|340:95|245:38,1,232.199992913819,8|0,1:0|0:0,0:0:0:0:
158,39,48178,6,0,L|152:103,3,64.5000024604798,2|2|2|2,3:1|3:0|3:0|3:0,0:0:0:0:
144,179,48434,1,2,3:0:0:0:
43,343,48562,6,0,B|22:314|22:314|36:279,3,64.5000024604798,2|2|2|2,3:1|3:0|3:0|3:0,0:0:0:0:
250,275,48819,6,0,P|240:280|230:284,1,21.5,2|0,3:0|0:0,0:0:0:0:
336,372,48947,6,0,P|233:318|118:306,1,232.199992913819,8|0,1:0|0:0,0:0:0:0:
144,179,49203,6,2,P|144:189|142:200,8,21.5,2|2|2|2|2|2|2|2|2,3:0|3:0|3:0|3:0|3:0|3:0|3:0|3:0|3:0,3:0:0:0:
256,192,49524,12,4,50229,3:2:0:0:
102,112,50486,6,0,P|100:83|111:56,2,57.3333333333333,0|2|0,0:0|0:0|0:0,0:0:0:0:
185,126,50742,2,0,P|195:99|194:70,2,57.3333333333333,2|2|0,0:0|0:0|0:0,0:0:0:0:
2,123,50998,2,0,P|14:149|35:169,2,57.3333333333333,2|2|0,0:0|0:0|0:0,0:0:0:0:
257,263,51255,5,2,0:0:0:0:
257,263,51426,5,0,0:0:0:0:
330,252,51639,6,0,P|202:314|331:263,1,447.19997952881,2|0,0:0|0:0,0:0:0:0:
442,8,52280,6,0,P|491:32|499:87,1,114.666666666667,2|2,3:2|0:0,0:0:0:0:
467,158,52622,2,0,L|340:146,1,114.666666666667
467,346,52921,6,0,L|468:358,3,12.8999996063233
455,272,53178,5,2,0:0:0:0:
82,329,53434,5,0,0:0:0:0:
312,285,53691,5,2,0:0:0:0:
218,270,53819,5,0,0:0:0:0:
39,28,54075,6,0,L|42:66,1,38.6999988189698,2|0,0:0|0:0,0:0:0:0:
238,89,54332,6,0,P|136:102|102:199,1,215,2|0,3:2|0:0,0:0:0:0:
0,271,54716,5,2,0:0:0:0:
0,271,54780,1,2,0:0:0:0:
0,271,54845,2,0,B|31:269|59:302|59:302|138:288,2,149.066659842937,2|2|2,0:0|0:0|0:0,0:0:0:0:
260,242,55357,6,0,P|302:184|374:185,2,149.066659842937,2|2|2,0:0|0:0|0:0,0:0:0:0:
220,321,55870,6,0,L|217:355,1,34.3999989501953,2|2,0:0|0:0,0:0:0:0:
429,264,56212,5,0,0:0:0:0:
440,280,56298,1,0,0:0:0:0:
418,282,56383,2,0,P|429:241|466:220,2,86,2|2|2,3:2|0:0|0:0,0:0:0:0:
449,364,56767,6,0,P|404:319|341:314,1,129,2|0,0:0|0:0,0:0:0:0:
176,332,57024,6,0,L|112:326,1,64.5,2|0,0:0|0:0,0:0:0:0:
252,363,57280,6,0,B|270:319|243:281|243:281|250:196,1,172,2|2,0:0|0:0,0:0:0:0:
255,115,57665,5,2,0:0:0:0:
263,36,57793,1,2,0:0:0:0:
85,88,57921,6,0,L|86:109,6,21.5
0,134,58178,6,0,P|62:146|101:196,1,129,2|0,0:0|0:0,0:0:0:0:
70,270,58434,1,2,3:2:0:0:
41,303,58691,5,2,0:0:0:0:
51,282,58776,5,2,0:0:0:0:
70,269,58861,5,0,0:0:0:0:
126,327,58947,5,2,0:0:0:0:
141,317,59032,5,2,0:0:0:0:
160,315,59117,5,0,0:0:0:0:
207,378,59204,5,2,0:0:0:0:
222,377,59289,5,2,0:0:0:0:
236,384,59374,5,0,0:0:0:0:
355,322,59460,6,0,B|334:277|370:239|370:239|407:202|384:149,2,167.699992323304,2|0|0,0:0|0:0|0:0,0:0:0:0:
344,89,60101,5,2,0:0:0:0:
346,78,60229,5,2,0:0:0:0:
354,86,60357,5,2,0:0:0:0:
512,0,60485,6,0,P|461:0|422:60,2,111.799994882202,0|2|0,3:0|0:0|0:0,0:0:0:0:
335,185,60870,6,0,P|319:104|256:51,1,167.699992323304,2|0,0:0|0:0,0:0:0:0:
174,21,61126,2,0,P|165:54|176:87,2,55.8999974411012,2|2|2,0:0|0:0|0:0,0:0:0:0:
112,228,61383,6,0,P|106:249|115:228,1,70.9500021652222,2|0,3:2|0:0,0:0:0:0:
58,165,61639,6,0,B|113:132|166:162|166:162|265:137,1,193.50000738144,2|0,3:2|0:0,0:0:0:0:
437,28,61896,6,0,P|341:-1|253:72,1,215,2|0,3:2|0:0,0:0:0:0:
243,142,62280,1,2,3:2:0:0:
394,325,62537,6,0,L|406:202,1,114.666666666667,0|0,3:0|0:0,0:0:0:0:
371,140,62793,2,0,P|370:111|355:87,2,57.3333333333333,2|2|0,0:0|0:0|0:0,0:0:0:0:
491,306,63050,6,0,L|503:183,1,114.666666666667,2|0,0:0|0:0,0:0:0:0:
446,48,63306,2,0,P|431:23|406:9,2,57.3333333333333,2|2|0,0:0|0:0|0:0,0:0:0:0:
243,142,63563,6,0,P|259:112|259:78,2,68.7999979003907,2|2|2,0:0|0:0|0:0,0:0:0:0:
21,109,63819,5,2,0:0:0:0:
21,95,63904,5,2,0:0:0:0:
32,102,63990,5,2,0:0:0:0:
103,152,64075,5,2,0:0:0:0:
116,142,64160,5,2,0:0:0:0:
116,157,64246,5,2,0:0:0:0:
140,234,64332,5,2,0:0:0:0:
158,241,64417,5,2,0:0:0:0:
142,249,64503,5,2,0:0:0:0:
228,262,64588,6,0,B|181:261|145:309|145:309|222:241|302:269,1,258.000009841919,2|0,3:2|0:0,0:0:0:0:
337,166,64973,1,2,0:0:0:0:
359,182,65037,1,2,0:0:0:0:
337,191,65101,2,0,P|338:133|309:108,1,86,2|2,0:0|0:0,0:0:0:0:
241,346,65357,5,2,0:0:0:0:
421,245,65485,2,0,P|393:282|491:287,1,172,2|2,3:2|3:2,0:0:0:0:
512,242,65870,6,0,B|508:231|508:231|513:231|513:231|512:226|512:226|512:219,1,25.7999992126465,2|2,0:0|3:2,0:0:0:0:
450,69,66126,6,0,B|453:98|453:98|474:75|474:75|468:47|468:47|450:67,1,114.666666666667,0|0,3:0|0:0,0:0:0:0:
339,55,66297,6,0,B|342:84|342:84|363:61|363:61|357:33|357:33|339:53,1,114.666666666667
229,238,66468,5,0,0:0:0:0:
232,270,66553,1,0,0:0:0:0:
236,303,66639,2,0,L|241:347,3,43,2|0|2|0,3:0|0:0|3:0|0:0,0:0:0:0:
80,224,66896,6,0,B|121:220|121:220|127:293|127:293|116:313|116:313|42:319|42:319|35:236|35:236|48:226|48:226|66:225,1,322.5
48,96,67152,5,2,3:0:0:0:
81,26,67280,1,2,3:0:0:0:
144,72,67408,1,2,3:0:0:0:
215,38,67537,1,2,3:0:0:0:
284,72,67665,2,0,L|476:72,1,172,2|2,3:0|3:0,0:0:0:0:
464,64,67857,1,2,3:0:0:0:
472,72,67921,2,0,L|472:136,1,64.5,2|0,3:0|0:0,0:0:0:0:
448,346,68178,6,0,B|460:275|460:275|517:317|517:317|509:364,1,172,2|0,3:0|0:0,0:0:0:0:
294,334,68370,6,0,B|307:255|307:255|369:302|369:302|361:353,1,193.500007381439,2|0,3:0|0:0,0:0:0:0:
40,253,68562,6,0,B|-11:269|-11:269|42:263,1,107.5,2|0,3:0|0:0,0:0:0:0:
120,318,68691,6,0,B|137:216|137:216|218:276|218:276|209:329,1,258,2|2,3:0|3:0,0:0:0:0:
101,72,68947,6,0,L|66:79,1,32.25,2|0,3:0|0:0,0:0:0:0:
182,55,69203,2,0,L|250:44,3,64.5000024604798,2|2|0|2,3:0|3:0|0:0|3:0,0:0:0:0:
44,7,69460,6,0,L|13:0,2,32.2500012302399,0|0|2,0:0|0:0|3:0,0:0:0:0:
211,131,69588,2,0,L|258:138,2,32.2500012302399,2|0|2,3:0|0:0|3:0,0:0:0:0:
101,72,69716,6,0,B|72:93|72:93|105:282|105:282|149:299,1,258,2|2,3:0|3:0,0:0:0:0:
198,339,69973,2,0,B|218:363|218:363|261:355|261:355|283:253|283:253|247:228|247:228|207:249,1,258,2|0,3:0|0:0,0:0:0:0:
356,324,70229,5,2,3:0:0:0:
396,296,70293,1,2,3:0:0:0:
448,320,70357,1,2,3:0:0:0:
464,308,70421,1,2,3:0:0:0:
488,320,70485,2,0,L|488:392,1,64.5,2|2,3:0|3:0,0:0:0:0:
383,139,70742,6,0,L|366:143,6,10.75,2|0|2|0|2|0|2,3:0|0:0|3:0|0:0|3:0|0:0|3:0,0:0:0:0:
512,74,70998,6,0,B|393:53|393:53|388:56|388:56|258:33,1,258,2|2,3:0|3:0,0:0:0:0:
156,47,71255,6,0,B|144:38|144:38|148:6|148:6|168:30|168:30|164:46,1,86,2|0,3:0|0:0,0:0:0:0:
49,69,71383,6,0,B|37:60|37:60|41:28|41:28|61:52|61:52|57:68,1,86,2|0,3:0|0:0,0:0:0:0:
44,200,71511,5,2,3:0:0:0:
84,172,71575,1,2,3:0:0:0:
136,196,71639,1,2,3:0:0:0:
152,184,71703,1,2,3:0:0:0:
167,192,71767,1,2,3:0:0:0:
90,298,71896,5,2,3:0:0:0:
106,282,71960,1,2,3:0:0:0:
122,298,72024,1,2,3:0:0:0:
353,278,72195,5,2,3:0:0:0:
353,278,72280,2,0,L|345:349,1,64.5,2|0,3:0|0:0,0:0:0:0:
437,323,72537,6,0,L|437:312,6,10.75,2|0|2|0|2|0|2,3:0|0:0|3:0|0:0|3:0|0:0|3:0,0:0:0:0:
481,194,72793,5,2,3:0:0:0:
451,25,72921,1,2,3:0:0:0:
428,112,73050,6,0,L|500:108,1,64.5,2|0,3:0|0:0,0:0:0:0:
256,0,73306,1,2,3:0:0:0:
93,104,73562,6,0,L|61:98,1,32.2500012302399,2|0,3:0|0:0,0:0:0:0:
95,89,73626,2,0,L|100:57,1,32.2500012302399,2|0,3:0|0:0,0:0:0:0:
110,91,73691,2,0,L|141:96,1,32.2500012302399
107,106,73755,2,0,L|101:137,1,32.2500012302399,2|0,3:0|0:0,0:0:0:0:
26,163,73819,5,2,3:0:0:0:
286,262,74075,6,0,L|254:267,1,32.2500012302399,2|0,3:0|0:0,0:0:0:0:
288,277,74139,2,0,L|293:308,1,32.2500012302399,2|0,3:0|0:0,0:0:0:0:
303,275,74204,2,0,L|334:269,1,32.2500012302399,2|0,3:0|0:0,0:0:0:0:
300,260,74267,2,0,L|294:228,1,32.2500012302399,2|0,3:0|0:0,0:0:0:0:
219,182,74332,6,0,P|233:120|306:119,1,129.00000492096,2|2,3:0|3:0,0:0:0:0:
387,0,74716,5,2,3:0:0:0:
460,73,74844,2,0,L|428:68,1,32.2500012302399,2|0,3:0|0:0,0:0:0:0:
462,58,74908,2,0,L|467:27,1,32.2500012302399,2|0,3:0|0:0,0:0:0:0:
477,60,74973,2,0,L|508:66,1,32.2500012302399,2|0,3:0|0:0,0:0:0:0:
474,75,75037,2,0,L|468:107,1,32.2500012302399,2|0,3:0|0:0,0:0:0:0:
403,148,75101,5,2,3:0:0:0:
460,311,75357,6,0,L|428:316,1,32.2500012302399,2|0,3:0|0:0,0:0:0:0:
462,326,75421,2,0,L|467:357,1,32.2500012302399,2|0,3:0|0:0,0:0:0:0:
477,324,75486,2,0,L|508:318,1,32.2500012302399,2|0,3:0|0:0,0:0:0:0:
474,309,75550,2,0,L|468:277,1,32.2500012302399,2|0,3:0|0:0,0:0:0:0:
499,210,75614,5,2,3:0:0:0:
351,345,75742,2,0,L|261:359,2,64.5000024604798,2|0|2,3:0|0:0|3:0,0:0:0:0:
11,228,76041,5,2,3:0:0:0:
11,228,76127,2,0,P|32:305|113:313,1,172.00000656128,2|2,3:0|3:0,0:0:0:0:
196,364,76383,6,0,L|199:321,6,43,2|0|0|0|0|0|0,3:0|0:0|0:0|0:0|0:0|0:0|0:0,0:0:0:0:
265,249,76639,6,0,P|286:198|341:189,2,114.666666666667,2|0|0,3:0|0:0|0:0,0:0:0:0:
113,312,76896,2,0,L|108:369,1,57.3333333333333,2|0,3:0|0:0,0:0:0:0:
191,88,77152,6,0,L|159:88,1,32.2500012302399,2|0,3:0|0:0,0:0:0:0:
200,87,77216,2,0,L|215:114,1,32.2500012302399,2|0,3:0|0:0,0:0:0:0:
195,79,77280,2,0,L|211:51,1,32.2500012302399,2|0,3:0|0:0,0:0:0:0:
5,216,77408,6,0,B|18:294|18:294|28:301|28:301|169:276|169:276|176:267|176:267|163:192,1,322.5,2|0,3:0|0:0,0:0:0:0:
256,218,77665,6,0,L|339:233,2,86.0000032806398,2|0|0,3:0|0:0|0:0,0:0:0:0:
135,302,77921,6,0,L|67:315,1,64.5,2|0,3:0|0:0,0:0:0:0:
16,48,78178,6,0,L|59:48,1,43,2|0,3:0|0:0,0:0:0:0:
112,128,78306,6,0,L|155:128,1,43,2|2,3:0|3:0,0:0:0:0:
192,48,78434,6,0,L|235:48,1,43,2|0,3:0|0:0,0:0:0:0:
295,94,78562,6,0,L|338:94,1,43,2|0,3:0|0:0,0:0:0:0:
432,64,78691,6,0,L|432:32,6,32.2500012302399,2|0|2|0|0|2|0,3:0|0:0|3:0|0:0|0:0|3:0|0:0,0:0:0:0:
464,206,78947,6,0,L|432:201,1,32.2500012302399,2|0,3:0|0:0,0:0:0:0:
466,191,79011,2,0,L|471:160,1,32.2500012302399,2|0,3:0|0:0,0:0:0:0:
481,193,79076,2,0,L|512:199,1,32.2500012302399,2|0,3:0|0:0,0:0:0:0:
478,208,79139,2,0,L|472:240,1,32.2500012302399,2|0,3:0|0:0,0:0:0:0:
463,275,79203,5,2,3:0:0:0:
469,280,79289,2,0,L|452:379,2,86.0000032806398,2|0|2,3:0|0:0|3:0,0:0:0:0:
287,330,79524,6,0,L|255:335,1,32.2500012302399,2|0,3:0|0:0,0:0:0:0:
289,345,79588,2,0,L|294:376,1,32.2500012302399
304,343,79653,2,0,L|335:337,1,32.2500012302399
301,328,79717,2,0,L|295:296,1,32.2500012302399,2|0,3:0|0:0,0:0:0:0:
252,160,79844,5,2,3:0:0:0:
268,148,79908,1,2,3:0:0:0:
250,135,79972,1,2,3:0:0:0:
271,127,80036,1,2,3:0:0:0:
252,112,80100,1,2,3:0:0:0:
268,100,80164,1,2,3:0:0:0:
252,88,80228,1,2,3:0:0:0:
268,76,80292,1,2,3:0:0:0:
252,64,80357,1,2,3:0:0:0:
268,52,80421,1,2,3:0:0:0:
251,42,80485,2,0,L|250:-2,16,32.2500012302399,2|0|2|0|2|0|2|0|2|0|2|0|2|0|2|0|2,3:0|0:0|3:0|0:0|3:0|0:0|3:0|0:0|3:0|0:0|3:0|0:0|3:0|0:0|3:0|0:0|0:0,0:0:0:0:
18,57,81639,6,0,L|19:41,2,12.8999996063233,2|2|2,0:0|0:0|0:0,0:0:0:0:
93,63,81832,2,0,L|94:47,2,12.8999996063233,2|2|2,0:0|0:0|0:0,0:0:0:0:
0,193,82024,6,0,L|76:182,1,77.3999976379395,2|2,0:0|0:0,0:0:0:0:
82,305,82665,6,0,L|80:320,2,12.8999996063233,2|2|2,0:0|0:0|0:0,0:0:0:0:
4,299,82857,2,0,L|2:314,2,12.8999996063233,2|2|2,0:0|0:0|0:0,0:0:0:0:
159,224,83050,6,0,L|235:235,1,77.3999976379395,2|2,0:0|0:0,0:0:0:0:
422,359,83691,5,0,0:0:0:0:
428,279,83819,2,0,L|429:263,3,12.8999996063233,2|2|2|0,0:0|0:0|0:0|0:0,0:0:0:0:
65,324,84204,5,2,0:0:0:0:
49,249,84332,1,2,0:0:0:0:
126,270,84460,1,2,0:0:0:0:
110,191,84588,1,2,0:0:0:0:
65,324,84716,1,2,0:0:0:0:
65,324,84845,6,0,L|73:396,1,51.599998425293,2|0,0:0|0:0,0:0:0:0:
181,356,85101,6,0,B|259:342|259:342|266:296|315:277,1,154.799995275879,2|2,0:0|0:0,0:0:0:0:
335,353,85742,5,0,0:0:0:0:
350,362,85806,1,2,0:0:0:0:
335,371,85870,1,2,0:0:0:0:
219,238,85998,1,2,0:0:0:0:
301,283,86127,6,0,P|369:258|392:174,1,154.799995275879,2|2,0:0|0:0,0:0:0:0:
379,77,86768,5,0,0:0:0:0:
387,54,86832,1,2,0:0:0:0:
364,58,86896,2,0,L|373:0,1,51.599998425293,2|2,0:0|0:0,0:0:0:0:
285,0,87152,6,0,B|234:41|187:33|187:33|234:41|272:93,1,206.4,2|0,0:0|0:0,0:0:0:0:
439,167,87665,2,0,P|413:103|363:57,1,137.6,2|2,0:0|0:0,0:0:0:0:
175,113,88050,5,2,0:0:0:0:
190,122,88114,1,2,0:0:0:0:
175,131,88178,2,0,L|181:214,2,68.8,2|0|2,0:0|0:0|0:0,0:0:0:0:
439,167,88563,6,0,L|431:64,1,103.2,2|0,0:0|0:0,0:0:0:0:
353,121,88819,5,2,0:0:0:0:
331,119,88883,5,2,0:0:0:0:
309,126,88947,5,2,0:0:0:0:
293,142,89011,5,2,0:0:0:0:
286,164,89075,5,2,0:0:0:0:
289,186,89139,5,2,0:0:0:0:
304,200,89204,6,0,P|235:248|156:225,1,172,2|0,3:2|0:0,0:0:0:0:
34,67,89588,2,0,P|93:87|122:143,1,129,2|0,0:0|0:0,0:0:0:0:
66,210,89845,6,0,L|60:256,1,43,2|2,0:0|0:0,0:0:0:0:
44,273,89973,6,0,L|38:319,1,43,2|2,0:0|0:0,0:0:0:0:
22,336,90101,6,0,L|16:382,1,43,2|0,0:0|0:0,0:0:0:0:
209,363,90229,6,0,P|180:332|175:290,2,86,2|2|2,0:0|0:0|0:0,0:0:0:0:
380,258,90614,2,0,P|317:272|252:301,1,129,2|0,0:0|0:0,0:0:0:0:
219,216,90870,6,0,L|224:169,1,43,2|0,0:0|0:0,0:0:0:0:
241,153,90998,6,0,L|246:106,1,43,2|2,0:0|0:0,0:0:0:0:
263,90,91126,6,0,L|268:43,1,43,2|2,0:0|0:0,0:0:0:0:
369,20,91255,6,0,P|374:62|403:92,2,86,2|2|2,0:0|0:0|0:0,0:0:0:0:
512,117,91640,2,0,P|417:121|365:187,1,172,2|2,0:0|0:0,0:0:0:0:
380,258,92024,5,2,0:0:0:0:
380,284,92088,1,2,0:0:0:0:
402,271,92152,1,2,0:0:0:0:
301,375,92281,5,0,0:0:0:0:
303,300,92409,2,0,P|321:338|359:356,2,86,2|2|2,0:0|0:0|0:0,0:0:0:0:
402,184,92793,2,0,P|359:180|324:204,1,86,2|2,0:0|0:0,0:0:0:0:
457,326,93050,2,0,P|480:291|477:248,1,86,2|2,0:0|0:0,0:0:0:0:
105,5,93306,6,0,B|130:141|130:141|115:158|108:182,1,172,2|0,0:0|0:0,0:0:0:0:
218,372,93691,2,0,L|186:202,1,172,2|0,0:0|0:0,0:0:0:0:
112,169,94074,2,0,P|71:178|48:213,1,86
22,356,94332,6,0,B|72:367|98:330|98:330|131:283|179:295,1,172,2|0,0:0|0:0,0:0:0:0:
234,245,94716,2,0,B|283:233|309:270|309:270|342:317|381:307,1,172,2|0,0:0|0:0,0:0:0:0:
512,221,95101,6,0,P|471:296|451:380,1,172
198,204,97409,6,0,P|221:152|202:204,1,172,6|2,3:1|0:0,0:0:0:0:
2,109,97793,6,0,B|96:125|96:125|139:59|212:41|297:96,1,292.400005577087,2|2,3:1|0:0,0:0:0:0:
506,41,98178,2,0,P|446:129|341:137,1,219.300004182816,2|2,3:0|0:0,0:0:0:0:
198,204,98434,6,0,B|222:253|184:289|184:289|152:317|165:361,1,172,2|2,3:1|0:0,0:0:0:0:
261,364,98819,6,0,P|183:288|77:267,1,219.300004182816,2|0,3:1|0:0,0:0:0:0:
37,186,99075,2,0,P|17:202|39:191,1,73.1000013942719,2|0,3:0|0:0,0:0:0:0:
216,100,99204,6,0,B|231:157|294:168|294:168|231:157|198:204,1,219.300004182816,2|2,3:2|0:0,0:0:0:0:
123,139,99460,6,0,L|134:10,1,129,2|2,3:1|0:0,0:0:0:0:
131,0,99716,1,2,0:0:0:0:
306,66,99845,6,0,P|404:106|435:208,1,219.300004182816,2|0,3:1|0:0,0:0:0:0:
437,228,100101,1,2,0:0:0:0:
322,300,100229,6,0,B|349:259|349:259|314:220,1,96.7500036907198,2|2,3:0|0:0,0:0:0:0:
49,361,100486,6,0,P|132:291|238:269,1,219.300004182816,2|0,3:0|0:0,0:0:0:0:
183,139,100742,6,0,P|216:151|240:178,1,73.1000013942719,2|0,3:0|0:0,0:0:0:0:
323,153,100870,2,0,P|329:188|317:222,1,73.1000013942719,2|0,0:0|0:0,0:0:0:0:
322,300,100998,1,2,3:0:0:0:
437,228,101127,5,2,3:0:0:0:
437,228,101191,1,2,3:0:0:0:
437,228,101255,2,0,L|443:148,1,73.1000013942719,2|2,3:1|0:0,0:0:0:0:
449,75,101383,2,0,L|455:2,1,73.1000013942719,2|2,3:0|0:0,0:0:0:0:
308,56,101511,6,0,B|276:36|276:36|345:83|320:159,1,172,2|2,3:1|0:0,0:0:0:0:
244,264,101896,6,0,P|163:226|244:170,1,219.300004182816,2|0,3:1|0:0,0:0:0:0:
322,152,102152,1,2,0:0:0:0:
147,351,102281,6,0,P|233:286|340:290,1,219.300004182816,0|0,3:0|0:0,0:0:0:0:
512,313,102537,6,0,P|456:362|425:295,1,172,2|2,3:1|0:0,0:0:0:0:
322,152,102922,6,0,B|379:137|390:74|390:74|379:137|426:170,1,219.300004182816,2|0,3:1|0:0,0:0:0:0:
316,257,103178,6,0,L|243:263,1,73.1000013942719,2|0,3:0|0:0,0:0:0:0:
127,27,103306,6,0,B|64:38|64:38|91:191,1,219.300004182816,2|0,3:0|0:0,0:0:0:0:
90,251,103563,6,0,B|88:205|126:186|126:186|173:161|162:107,1,172,2|2,3:1|0:0,0:0:0:0:
126,27,103947,6,0,P|97:47|85:81,1,73.1000013942719,2|2,3:0|0:0,0:0:0:0:
208,15,104075,2,0,P|248:121|216:230,1,219.300004182816,2|0,0:0|0:0,0:0:0:0:
210,349,104332,6,0,B|336:326|336:326|372:384|438:366,1,219.300004182816,2|0,3:0|0:0,0:0:0:0:
512,253,104588,2,0,P|446:197|416:297,1,219.300004182816,2|2,3:0|0:0,0:0:0:0:
411,370,104845,6,0,L|433:114,1,219.300004182816,2|0,3:0|0:0,0:0:0:0:
288,13,105101,2,0,B|336:9|380:61|380:61|504:39,2,219.300004182816,2|2|2,3:0|3:0|3:0,0:0:0:0:
172,36,105550,5,2,3:0:0:0:
172,36,105614,2,0,P|116:27|123:82,1,129,6|2,3:1|0:0,0:0:0:0:
159,152,105870,1,2,0:0:0:0:
295,93,105998,6,0,P|201:146|152:243,1,219.300004182816,2|0,3:1|0:0,0:0:0:0:
83,285,106255,2,0,P|61:256|64:220,1,73.1000013942719,2|2,0:0|0:0,0:0:0:0:
203,368,106383,6,0,P|106:322|0:337,1,219.300004182816,2|0,3:0|0:0,0:0:0:0:
340,212,106640,6,0,P|394:238|441:314,1,129,2|2,3:1|0:0,0:0:0:0:
451,321,106896,1,2,0:0:0:0:
419,190,107024,2,0,B|432:254|371:286|371:286|321:311|324:371,1,219.300004182816,2|0,3:1|0:0,0:0:0:0:
340,212,107281,6,0,P|332:176|353:137,1,73.1000013942719,2|0,3:0|0:0,0:0:0:0:
415,7,107409,2,0,B|438:24|485:15|485:15|312:46,1,219.300004182816,2|0,3:0|0:0,0:0:0:0:
235,116,107665,6,0,P|259:59|219:13,1,129,2|2,3:1|0:0,0:0:0:0:
157,64,107922,1,2,0:0:0:0:
340,212,108050,6,0,P|248:153|140:151,1,219.300004182816,2|0,3:1|0:0,0:0:0:0:
65,178,108306,1,2,0:0:0:0:
302,324,108434,2,0,B|299:265|349:240|349:240|410:208|397:144,1,219.300004182816,2|0,3:0|0:0,0:0:0:0:
453,51,108691,6,0,B|387:24|330:64|330:64|203:53,1,219.300004182816,0|0,3:0|0:0,0:0:0:0:
157,64,108947,6,0,P|163:99|143:129,1,73.1000013942719,2|2,3:0|0:0,0:0:0:0:
80,43,109075,2,0,P|57:70|58:106,1,73.1000013942719,2|0,0:0|0:0,0:0:0:0:
125,265,109204,6,0,P|64:224|0:191,2,146.200002788544,2|2|2,3:0|3:0|3:1,0:0:0:0:
412,167,109588,5,2,3:0:0:0:
412,167,109652,1,2,0:0:0:0:
412,167,109716,2,0,P|358:189|360:99,1,172,2|2,3:1|0:0,0:0:0:0:
510,222,110101,6,0,P|389:141|245:129,1,292.400005577087,2|2,3:1|0:0,0:0:0:0:
35,94,110486,2,0,P|116:141|139:50,1,219.300004182816,2|0,3:0|0:0,0:0:0:0:
289,221,110742,6,0,B|301:266|351:275|351:275|301:266|274:304,1,172,2|2,3:1|0:0,0:0:0:0:
14,331,111127,2,0,P|102:267|209:248,1,219.300004182816,2|0,3:1|0:0,0:0:0:0:
229,139,111383,6,2,P|214:163|231:141,1,73.1000013942719,2|2,3:0|0:0,0:0:0:0:
385,97,111511,2,0,B|306:110|306:110|282:58|229:43|169:70,1,219.300004182816,2|0,3:0|0:0,0:0:0:0:
39,132,111768,6,0,B|5:145|7:176|7:176|40:116|104:123,1,172,2|2,3:1|0:0,0:0:0:0:
126,260,112152,6,0,P|98:236|88:201,1,73.1000013942719,2|0,3:0|0:0,0:0:0:0:
186,164,112281,2,0,P|206:193|207:230,3,73.1000013942719,0|0|2|2,0:0|0:0|0:0|0:0,0:0:0:0:
86,345,112537,6,0,B|50:359|50:359|92:353,2,73.1000013942719,2|2|2,3:0|0:0|0:0,0:0:0:0:
377,351,112793,2,0,B|311:324|254:364|254:364|127:353,1,219.300004182816,2|0,3:0|0:0,0:0:0:0:
114,225,113050,6,0,L|126:260,1,36.5500006971359,2|0,3:0|0:0,0:0:0:0:
84,126,113178,2,0,L|72:91,1,36.5500006971359,2|0,0:0|0:0,0:0:0:0:
30,252,113306,6,0,L|18:286,1,36.5500006971359,2|0,3:0|0:0,0:0:0:0:
142,43,113434,2,0,L|153:8,1,36.5500006971359,2|0,3:0|0:0,0:0:0:0:
335,117,113563,5,2,3:0:0:0:
352,14,113691,5,2,3:0:0:0:
352,14,113755,1,2,3:0:0:0:
352,14,113819,2,2,P|240:70|365:17,1,645,2|0,0:1|0:0,0:1:0:0:
125,141,114845,6,2,P|152:205|140:124,1,258,2|2,0:1|0:0,0:1:0:0:
0,304,115357,6,0,P|17:316|31:332,1,43,2|2,3:0|0:0,0:0:0:0:
108,340,115486,2,0,P|105:361|98:381,5,43,2|2|2|2|2|2,3:0|0:0|3:0|0:0|3:0|0:0,0:0:0:0:
181,172,115870,5,6,3:1:0:0:
213,60,115998,1,2,3:0:0:0:
293,143,116127,5,2,3:0:0:0:
405,114,116254,1,2,3:1:0:0:
405,114,116319,1,0,0:0:0:0:
405,114,116383,2,0,L|393:220,1,81.6999978183747,2|2,3:0|3:0,0:0:0:0:
381,317,116511,2,0,L|275:329,1,81.6999978183747,2|2,3:0|3:0,0:0:0:0:
46,306,116640,6,0,B|94:307|117:360|117:360|185:372,1,163.399995636749,2|2,3:0|3:0,0:0:0:0:
110,235,116896,5,2,3:0:0:0:
34,384,117024,1,2,3:0:0:0:
183,288,117152,2,0,L|193:180,2,81.6999978183747,2|0|0,3:0|0:0|3:0,0:0:0:0:
37,182,117345,5,0,0:0:0:0:
25,104,117409,2,0,L|21:61,3,43,2|2|2|2,3:0|3:0|3:0|3:0,0:0:0:0:
37,182,117664,2,0,L|45:233,6,32.2500012302399,2|0|0|0|0|0|0,3:1|0:0|3:0|0:0|3:0|0:0|3:0,0:0:0:0:
103,133,117922,5,2,3:1:0:0:
135,21,118050,1,2,3:0:0:0:
215,104,118177,5,2,3:0:0:0:
327,75,118306,1,2,3:1:0:0:
327,75,118370,1,2,3:0:0:0:
327,75,118434,6,2,P|326:35|299:7,1,81.6999978183747,2|0,3:0|0:0,0:0:0:0:
482,143,118563,2,0,P|484:183|512:212,1,81.6999978183747,0|0,3:0|0:0,0:0:0:0:
463,45,118691,2,0,P|405:101|389:180,1,163.399995636749,2|2,3:0|3:0,0:0:0:0:
455,366,118947,6,0,P|366:281|240:259,1,245.099993455124,2|2,3:1|0:0,0:0:0:0:
187,299,119204,1,2,3:0:0:0:
338,357,119332,2,0,P|327:318|298:290,1,81.6999978183747,2|2,3:1|0:0,0:0:0:0:
111,227,119460,6,0,P|150:321|48:314,1,245.099993455124,2|0,3:0|0:0,0:0:0:0:
15,239,119716,1,2,3:1:0:0:
13,219,119780,5,2,3:0:0:0:
11,198,119844,1,2,3:0:0:0:
9,178,119908,1,2,3:0:0:0:
7,160,119973,5,2,3:1:0:0:
136,51,120101,2,0,B|102:64|104:95|104:95|137:35|201:42,1,163.399995636749,2|2,3:0|3:0,0:0:0:0:
386,74,120293,5,0,0:0:0:0:
387,86,120357,2,0,B|410:103|457:94|457:94|284:125,1,245.099993455124,2|2,3:1|0:0,0:0:0:0:
187,139,120614,6,0,L|178:234,1,81.6999978183747,2|0,3:0|0:0,0:0:0:0:
171,295,120742,1,2,3:0:0:0:
169,311,120806,1,2,3:0:0:0:
167,327,120870,1,2,3:0:0:0:
329,317,120998,6,0,B|348:298|385:299|385:299|411:108|411:108|385:72,1,296.700005659104,2|2,3:1|3:0,0:0:0:0:
329,19,121255,5,2,3:0:0:0:
486,175,121383,2,0,L|474:290,1,98.9000018863678,2|0,3:1|0:0,0:0:0:0:
312,214,121511,5,2,3:0:0:0:
299,213,121575,1,2,3:0:0:0:
287,211,121639,1,2,3:0:0:0:
275,210,121703,1,2,3:0:0:0:
262,208,121768,2,0,L|267:151,6,49.4500009431839,2|0|2|0|2|0|0,3:0|0:0|3:0|0:0|3:0|0:0|0:0,0:0:0:0:
33,170,122024,5,6,3:1:0:0:
44,302,122152,1,2,3:0:0:0:
176,291,122281,1,2,3:0:0:0:
164,159,122409,1,2,3:1:0:0:
107,226,122537,5,2,3:0:0:0:
107,226,122665,2,0,L|93:319,1,94.600002886963,2|2,3:0|0:0,0:0:0:0:
23,163,122793,1,0,3:0:0:0:
186,298,122922,1,2,3:0:0:0:
317,149,123050,5,2,3:1:0:0:
322,67,123178,2,0,L|328:-12,2,64.5000024604798,2|2|2,3:0|0:0|3:0,0:0:0:0:
311,237,123434,1,2,3:1:0:0:
211,76,123563,6,0,L|238:17,1,64.5000024604798,2|2,3:0|0:0,0:0:0:0:
408,32,123691,2,0,L|435:90,1,64.5000024604798,2|2,3:0|0:0,0:0:0:0:
469,184,123819,5,2,3:0:0:0:
469,184,123883,1,2,3:0:0:0:
469,184,123947,2,0,L|389:177,1,64.5000024604798,2|2,3:0|3:0,0:0:0:0:
311,237,124075,5,2,3:1:0:0:
323,369,124203,1,2,3:0:0:0:
191,380,124332,1,2,3:0:0:0:
180,248,124460,1,2,3:1:0:0:
179,239,124524,1,2,0:0:0:0:
178,231,124588,1,2,3:0:0:0:
56,96,124716,5,2,3:0:0:0:
47,217,124845,2,0,L|40:297,2,64.5000024604798,2|2|2,3:0|0:0|3:0,0:0:0:0:
59,80,125101,5,2,3:0:0:0:
180,89,125228,2,0,L|260:96,2,64.5000024604798,2|2|2,3:0|0:0|3:0,0:0:0:0:
43,85,125486,5,2,3:0:0:0:
10,359,125614,1,2,3:0:0:0:
147,236,125742,5,2,3:0:0:0:
162,233,125806,1,2,3:0:0:0:
178,231,125870,2,2,L|225:222,6,32.2500012302399,2|2|2|2|2|2|2,3:0|0:0|0:0|0:0|0:0|0:0|0:0,0:0:0:0:
321,248,126127,6,2,B|304:296|357:294|350:352|350:352|346:355|346:355|404:329|420:262|384:224,1,258,2|0,0:1|0:0,0:1:0:0:
281,87,127152,6,0,B|245:47|221:94|174:59|174:59|173:54|173:54|166:118|218:166|270:154,1,258,2|0,0:1|0:0,0:1:0:0:
431,141,128178,6,2,B|492:127|457:74|522:46|522:46|528:49|528:49|466:3|376:23|361:112,1,344,2|0,0:1|0:0,0:1:0:0:
8,152,130229,5,6,3:2:0:0:
104,152,130357,1,2,1:3:0:0:
104,145,130422,1,2,1:3:0:0:
109,148,130486,2,0,L|134:148,1,25.7999992126465,8|0,1:0|0:0,0:0:0:0:
208,176,130614,2,0,L|233:176,1,25.7999992126465,2|0,3:0|0:0,0:0:0:0:
272,152,130742,1,2,1:3:0:0:
368,176,130870,2,0,L|393:176,1,25.7999992126465,8|0,1:0|0:0,0:0:0:0:
435,113,130998,2,0,L|515:113,1,77.3999976379395,2|0,1:3|0:0,0:0:0:0:
480,240,131255,6,0,L|480:304,1,51.599998425293,0|2,3:0|1:3,0:0:0:0:
480,320,131447,1,2,1:3:0:0:
480,336,131511,1,8,1:0:0:0:
392,336,131640,1,2,3:0:0:0:
312,280,131768,6,0,L|272:280,1,25.7999992126465,2|0,3:0|0:0,0:0:0:0:
216,320,131896,2,0,L|192:320,10,12.8999996063233,2|2|2|2|2|2|2|2|2|0|0,1:3|1:3|1:3|1:3|1:3|1:3|1:3|1:3|1:3|0:0|0:0,0:0:0:0:
101,241,132281,6,0,P|99:176|116:114,1,129.00000492096,2|2,3:0|1:3,0:0:0:0:
196,145,132473,1,2,1:3:0:0:
194,153,132537,2,0,P|188:184|190:216,2,64.5000024604798,8|0|2,1:0|0:0|3:0,0:0:0:0:
405,217,132793,6,0,P|403:281|420:343,1,129.00000492096,2|2,3:0|1:3,0:0:0:0:
496,290,132985,1,2,1:3:0:0:
498,297,133050,2,0,P|491:265|493:233,2,64.5000024604798,2|0|8,3:0|0:0|1:0,0:0:0:0:
460,159,133306,6,0,B|409:120|352:156|352:156|253:131,1,193.50000738144,2|2,3:0|1:3,0:0:0:0:
216,72,133563,5,8,1:0:0:0:
208,66,133627,2,0,L|203:3,2,64.5000024604798,0|2|0,0:0|3:0|0:0,0:0:0:0:
210,196,133819,2,0,L|215:260,1,64.5000024604798,2|0,3:0|0:0,0:0:0:0:
216,281,133947,1,8,1:0:0:0:
53,147,134075,6,2,B|51:107|-18:89|-18:89|151:135,1,258,10|0,1:0|0:0,0:1:0:0:
125,290,134332,6,0,P|64:293|49:351,1,129.00000492096,2|2,3:0|1:3,0:0:0:0:
126,376,134524,1,2,1:3:0:0:
128,384,134588,2,0,L|191:378,2,64.5000024604798,8|0|2,1:0|0:0|3:0,0:0:0:0:
352,352,134845,6,0,L|352:288,1,64.5000024604798,2|0,3:0|0:0,0:0:0:0:
448,224,134973,2,0,L|448:160,1,64.5000024604798,8|2,1:0|1:3,0:0:0:0:
402,96,135101,1,2,1:3:0:0:
402,79,135165,1,2,1:3:0:0:
402,63,135229,1,2,1:3:0:0:
260,129,135357,6,0,P|320:132|335:190,1,129.00000492096,2|2,3:0|1:3,0:0:0:0:
267,223,135549,1,2,1:3:0:0:
269,231,135613,2,0,L|205:225,1,64.5000024604798,8|0,1:0|0:0,0:0:0:0:
0,208,135742,1,2,3:0:0:0:
85,159,135870,6,0,L|82:126,6,32.2500012302399,2|0|0|0|8|0|0,3:0|0:0|0:0|0:0|1:0|0:0|0:0,0:0:0:0:
123,249,136127,6,0,L|121:265,12,16.12500061512,8|0|0|0|0|0|0|0|0|0|0|0|0,1:0|0:0|1:0|0:0|1:0|0:0|1:0|0:0|1:0|0:0|1:0|0:0|1:0,0:0:0:0:
271,241,136383,6,0,P|269:306|286:368,1,129.00000492096,2|2,3:0|1:3,0:0:0:0:
362,321,136575,1,2,1:3:0:0:
364,329,136639,2,0,P|358:298|360:266,2,64.5000024604798,8|0|2,1:0|0:0|3:0,0:0:0:0:
512,22,136896,6,0,P|514:87|497:149,1,129.00000492096,2|2,3:0|1:3,0:0:0:0:
421,92,137088,1,2,1:3:0:0:
423,100,137152,2,0,P|429:69|427:37,2,64.5000024604798,2|0|8,3:0|0:0|1:0,0:0:0:0:
440,225,137409,6,0,P|394:181|328:180,1,129.00000492096,2|2,3:0|1:3,0:0:0:0:
273,117,137601,1,2,1:3:0:0:
275,125,137665,2,0,P|251:146|244:177,2,64.5000024604798,8|0|2,1:0|0:0|3:0,0:0:0:0:
225,332,137922,6,0,B|303:318|303:318|314:262|380:243,1,172,2|8,3:0|1:0,0:0:0:0:
457,336,138114,1,0,0:0:0:0:
457,336,138178,2,2,B|494:350|492:384|492:384|455:318|385:326,1,193.50000738144,10|0,1:0|0:0,0:1:0:0:
98,340,138434,6,0,P|190:329|186:264,1,172,2|0,3:0|0:0,0:0:0:0:
132,345,139715,5,0,0:0:0:0:
388,241,140143,5,0,0:0:0:0:
176,143,140485,5,2,0:0:0:0:
326,74,140827,5,0,0:0:0:0:
213,17,141168,5,0,0:0:0:0:
281,251,141511,6,0,P|249:228|282:251,1,215,2|0,0:0|0:0,0:0:0:0:
465,332,142281,6,0,L|462:363,3,21.5,2|2|2|2,3:0|3:0|3:0|3:0,0:0:0:0:
418,251,142537,6,0,P|477:230|511:176,1,129.00000492096,4|2,3:2|1:3,0:0:0:0:
429,93,142729,1,2,1:3:0:0:
431,100,142793,2,0,P|432:132|421:162,2,64.5000024604798,8|0|2,1:0|0:0|3:0,0:0:0:0:
314,83,143050,5,2,3:0:0:0:
173,104,143178,1,8,1:0:0:0:
32,125,143306,1,8,1:0:0:0:
17,134,143370,1,2,1:3:0:0:
32,149,143434,1,2,1:3:0:0:
17,163,143498,1,2,1:3:0:0:
32,173,143563,6,0,P|24:265|127:233,1,193.50000738144,2|2,3:0|1:3,0:0:0:0:
188,292,143819,2,0,L|183:357,1,64.5000024604798,8|0,1:0|0:0,0:0:0:0:
329,357,143947,6,0,L|323:292,1,64.5000024604798,2|0,3:0|0:0,0:0:0:0:
480,173,144075,2,0,P|488:265|385:233,1,193.50000738144,2|0,3:0|0:0,0:0:0:0:
237,103,144332,6,0,P|330:118|394:188,1,193.50000738144,2|2,3:0|1:3,0:0:0:0:
496,336,144588,5,2,3:0:0:0:
480,368,144674,1,2,3:0:0:0:
464,336,144759,1,2,3:0:0:0:
384,304,144845,5,2,3:0:0:0:
376,288,144929,1,2,3:0:0:0:
368,304,145016,1,2,3:0:0:0:
272,336,145101,5,2,3:0:0:0:
256,368,145187,1,2,3:0:0:0:
240,336,145272,1,2,3:0:0:0:
144,304,145357,5,2,3:0:0:0:
136,288,145442,1,2,3:0:0:0:
128,304,145528,1,2,3:0:0:0:
56,356,145614,6,0,B|24:356|24:356|40:352|40:352|-8:352,1,86,6|0,3:0|0:0,0:0:0:0:
