osu file format v14

[General]
AudioFilename: audio.mp3
AudioLeadIn: 0
PreviewTime: 97310
Countdown: 0
SampleSet: Soft
StackLeniency: 0.2
Mode: 0
LetterboxInBreaks: 0
WidescreenStoryboard: 1

[Editor]
Bookmarks: 17418,33816,50214,54460,66485,80976,89239,97373,108050,113899,130170
DistanceSpacing: 1.4
BeatDivisor: 4
GridSize: 32
TimelineZoom: 2.899999

[Metadata]
Title:Aegleseeker
TitleUnicode:Aegleseeker
Artist:Silentroom vs. Frums
ArtistUnicode:Silentroom vs. Frums
Creator:Cubby
Version:Chu's Hard
Source:Arcaea
Tags:lowiro 2020 song contest grand prize winner deliverance esoteric order LeCandy Amateurre Seros Kyutei Sunazuka Akira captin1 cubbby arronchu1207 thiev electronic instrumental -[pino]- bekko flask anya melfissa JeZag
BeatmapID:3006221
BeatmapSetID:1458224

[Difficulty]
HPDrainRate:4
CircleSize:3.8
OverallDifficulty:6.5
ApproachRate:8.2
SliderMultiplier:1.42
SliderTickRate:1

[Events]
//Background and Video events
0,0,"85232270_p0.jpg",0,0
//Break Periods
2,81198,88454
2,138634,141531
//Storyboard Layer 0 (Background)
//Storyboard Layer 1 (Fail)
//Storyboard Layer 2 (Pass)
//Storyboard Layer 3 (Foreground)
//Storyboard Layer 4 (Overlay)
//Storyboard Sound Samples

[TimingPoints]
999,256.410256410256,4,2,2,60,1,0
1127,-100,4,2,2,40,0,0
9845,-166.666666666667,4,2,2,40,0,0
17409,-166.666666666667,4,2,2,70,0,0
20486,-105.263157894737,4,2,2,70,0,0
49204,-105.263157894737,4,2,2,40,0,0
50229,-105.263157894737,4,2,2,60,0,0
50486,-125,4,2,2,60,0,0
51640,-166.666666666667,4,2,2,60,0,0
52281,-125,4,2,2,60,0,0
66127,-125,4,2,2,70,0,0
66640,-105.263157894737,4,2,2,70,0,0
73306,256.410256410256,3,2,2,70,1,0
73306,-105.263157894737,3,2,2,70,0,0
80998,256.410256410256,4,2,2,60,1,0
89203,-166.666666666667,4,2,2,60,0,0
97408,-95.2380952380952,4,2,2,80,0,0
113818,-95.2380952380952,4,2,2,70,0,0
115869,-95.2380952380952,4,2,2,90,0,0
122023,-95.2380952380952,4,2,2,100,0,0
126125,-95.2380952380952,4,2,2,70,0,0
127151,-125,4,2,2,70,0,0
128177,-200,4,2,2,70,0,0
129203,-125,4,2,2,70,0,0
129972,-125,4,2,2,60,0,0
130228,-125,4,2,2,80,0,0
130356,-105.263157894737,4,2,2,80,0,0
142280,-105.263157894737,4,2,2,60,0,0
142536,-105.263157894737,4,2,2,80,0,0

[Colours]
Combo1 : 128,0,255
Combo2 : 128,128,255
Combo3 : 255,89,255

[HitObjects]
256,192,999,12,0,9204,3:0:0:0:
44,364,9845,6,0,P|82:326|160:336,1,127.8,0|0,3:0|3:0,2:0:0:0:
162,339,10870,2,0,L|154:246,1,85.1999999999998,0|0,3:0|3:0,2:0:0:0:
203,181,11255,5,0,3:0:0:0:
209,173,11896,2,0,L|221:44,2,127.8,0|0|0,3:0|3:0|3:0,2:0:0:0:
295,267,12922,2,0,P|331:250|383:261,1,85.1999999999998,0|0,3:0|3:0,2:0:0:0:
444,309,13306,5,0,3:0:0:0:
451,304,13947,2,0,L|459:175,1,127.8,0|0,3:0|3:0,2:0:0:0:
364,78,14973,2,0,L|276:91,1,85.1999999999998,0|0,3:0|3:0,2:0:0:0:
206,44,15357,5,0,3:0:0:0:
199,35,16383,2,0,P|214:71|209:121,1,85.1999999999998,0|0,2:0|2:0,2:0:0:0:
228,213,16896,2,0,P|204:243|158:264,1,85.1999999999998,0|0,2:0|2:0,2:0:0:0:
76,228,17409,5,4,3:2:0:0:
256,192,17473,12,2,20229,2:0:0:0:
184,238,20486,6,0,L|189:168,1,67.4499999999999,2|10,3:2|2:1,2:0:0:0:
249,98,20742,2,0,B|281:91|281:91|314:104,1,67.4499999999999,10|8,2:1|2:1,2:0:0:0:
372,176,20999,2,0,B|405:184|405:184|437:170,1,67.4499999999999,0|0,3:0|3:0,2:0:0:0:
496,96,21255,1,8,1:0:0:0:
484,284,21511,5,4,3:2:0:0:
256,192,21575,12,2,24332,2:0:0:0:
200,126,24588,6,0,L|191:55,2,67.4499999999999,0|0|8,3:0|1:0|2:1,2:0:0:0:
264,195,24973,2,0,L|260:236,1,33.725,0|0,3:0|2:0,2:0:0:0:
202,302,25165,2,0,L|206:343,1,33.725,0|8,3:0|2:1,2:0:0:0:
289,378,25357,2,2,B|317:362|317:362|360:369,1,67.4499999999999,2|0,2:3|2:0,2:0:0:0:
465,302,25614,6,0,L|478:162,1,134.9,2|2,3:1|3:0,2:0:0:0:
412,99,25999,1,2,3:1:0:0:
400,101,26063,1,2,3:0:0:0:
389,103,26127,2,0,B|317:111,1,67.4499999999999,2|0,3:0|3:0,2:0:0:0:
238,66,26383,1,8,1:0:0:0:
55,115,26640,6,0,P|101:101|140:184,1,134.9,2|2,3:1|3:0,2:0:0:0:
66,210,27024,2,0,L|84:355,1,134.9,2|2,3:1|3:0,2:0:0:0:
169,382,27409,1,8,1:0:0:0:
337,296,27665,6,0,P|356:251|322:178,1,134.9,2|2,3:1|3:0,2:0:0:0:
232,210,28050,2,0,L|249:63,1,134.9,2|2,3:1|3:0,2:0:0:0:
318,13,28434,1,8,1:0:0:0:
483,104,28691,6,0,P|509:138|485:243,1,134.9,2|2,3:1|3:0,2:0:0:0:
426,283,29075,1,2,3:1:0:0:
426,283,29204,2,0,L|354:272,1,67.4499999999999,2|8,3:0|3:1,2:0:0:0:
283,329,29460,1,8,1:0:0:0:
157,188,29716,6,0,B|137:148|154:113|154:113|189:117|217:95,1,134.9,2|2,3:1|3:0,2:0:0:0:
164,16,30101,1,2,3:1:0:0:
153,11,30165,1,2,3:0:0:0:
142,9,30229,2,0,P|104:11|79:36,1,67.4499999999999,2|2,3:0|3:0,2:0:0:0:
29,108,30486,1,8,1:0:0:0:
96,284,30742,6,0,P|135:323|226:337,1,134.9,2|2,3:1|3:0,2:0:0:0:
227,246,31127,2,0,P|185:249|194:162,1,134.9,2|0,3:1|3:0,2:0:0:0:
265,157,31511,1,8,1:0:0:0:
388,13,31768,6,0,B|414:46|448:52|448:52|465:79|463:130,1,134.9,2|0,3:1|3:0,2:0:0:0:
492,200,32152,2,0,B|452:212|421:195|421:195|384:204|372:244,1,134.9,2|2,3:1|3:0,2:0:0:0:
446,297,32537,1,8,1:0:0:0:
274,375,32793,6,0,L|204:362,1,67.4499999999999,2|2,3:1|3:0,2:0:0:0:
137,298,33050,1,2,3:0:0:0:
137,298,33178,2,0,P|122:249|156:172,1,134.9,0|10,3:0|2:1,2:0:0:0:
245,153,33563,1,0,2:0:0:0:
408,247,33819,6,0,L|419:95,1,134.9,2|2,3:0|3:0,2:0:0:0:
371,35,34204,1,0,2:0:0:0:
371,35,34332,2,0,P|314:18|269:39,2,101.175,10|2|2,3:2|3:0|3:0,2:0:0:0:
265,147,34909,6,0,L|155:158,1,101.175,0|2,3:0|3:0,2:0:0:0:
88,211,35229,1,0,2:0:0:0:
88,211,35357,2,0,B|66:165|66:165|84:103,2,101.175,10|2|2,3:2|3:0|3:0,2:0:0:0:
192,307,35934,6,0,L|297:318,1,101.175,0|2,3:0|3:0,2:0:0:0:
377,370,36255,1,0,2:0:0:0:
377,370,36383,2,0,P|418:340|470:354,2,101.175,10|2|2,3:2|3:0|3:0,2:0:0:0:
308,208,36960,6,0,B|295:159|295:159|318:109,1,101.175,2|2,3:0|3:0,2:0:0:0:
374,38,37281,1,2,2:0:0:0:
374,38,37409,2,2,P|419:55|478:7,2,101.175,10|0|2,3:2|3:0|3:0,2:0:0:0:
316,113,37922,6,0,L|175:126,1,134.9,2|2,3:0|3:0,2:0:0:0:
98,92,38306,1,2,2:0:0:0:
98,92,38434,2,0,P|82:50|106:-1,2,101.175,10|2|2,3:2|3:0|3:0,2:0:0:0:
188,218,39011,6,0,B|206:263|206:263|190:317,1,101.175,2|2,3:0|3:0,2:0:0:0:
115,371,39332,1,0,2:0:0:0:
115,371,39460,2,0,L|12:359,2,101.175,10|2|2,3:2|3:0|3:0,2:0:0:0:
287,301,40037,6,0,L|397:291,1,101.175,2|2,3:0|3:0,2:0:0:0:
450,221,40357,1,0,2:0:0:0:
450,221,40486,2,0,P|466:177|436:117,2,101.175,10|2|2,3:2|3:0|3:0,2:0:0:0:
296,139,41063,6,0,B|248:154|248:154|199:135,1,101.175,2|2,3:0|3:0,2:0:0:0:
123,190,41383,1,0,2:0:0:0:
123,190,41511,2,0,L|131:239,3,33.725,8|0|2|2,3:2|1:0|1:2|3:2,2:0:0:0:
159,259,41768,2,0,L|151:308,3,33.725,2|2|0|2,1:2|1:2|3:0|1:2,2:0:0:0:
119,325,42024,6,0,P|185:315|237:369,1,134.9,2|2,3:1|3:0,2:0:0:0:
296,287,42409,1,2,3:1:0:0:
308,286,42473,1,2,3:0:0:0:
320,285,42537,2,0,L|388:278,1,67.4499999999999,2|2,3:0|3:0,2:0:0:0:
464,331,42793,1,8,1:0:0:0:
471,140,43050,6,0,P|409:158|346:111,1,134.9,2|2,3:1|3:0,2:0:0:0:
311,37,43434,2,0,B|256:70|256:70|179:55,1,134.9,2|2,3:1|3:0,2:0:0:0:
93,36,43819,1,8,1:0:0:0:
23,211,44075,6,0,P|38:173|135:170,1,134.9,2|2,3:1|3:0,2:0:0:0:
106,253,44460,2,0,P|146:246|197:329,1,134.9,2|2,3:1|3:0,2:0:0:0:
111,347,44845,1,8,1:0:0:0:
297,376,45101,6,0,L|308:232,1,134.9,2|2,3:1|3:0,2:0:0:0:
384,185,45486,1,2,3:1:0:0:
384,185,45614,2,0,L|378:112,1,67.4499999999999,2|8,3:0|3:1,2:0:0:0:
311,51,45870,2,0,L|317:7,2,44.9666666666666,8|8|8,1:0|1:0|1:0,2:0:0:0:
290,84,46127,6,0,B|265:110|229:104|229:104|194:72|154:82,1,134.9,2|2,3:1|3:0,2:0:0:0:
103,148,46511,1,2,3:1:0:0:
104,160,46575,1,2,3:0:0:0:
105,172,46640,2,0,B|110:244,1,67.4499999999999,2|0,3:0|3:0,2:0:0:0:
89,331,46896,1,8,1:0:0:0:
277,340,47152,6,0,L|430:366,1,134.9,2|2,3:1|3:0,2:0:0:0:
444,273,47537,2,0,L|311:250,1,134.9,2|2,3:1|3:0,2:0:0:0:
266,166,47922,1,8,1:0:0:0:
167,326,48178,6,0,P|173:269|96:266,1,134.9,2|2,3:1|3:0,2:0:0:0:
40,187,48563,2,0,P|34:130|111:127,1,134.9,2|2,3:1|3:0,2:0:0:0:
178,164,48947,1,8,1:0:0:0:
321,40,49204,6,2,L|345:43,8,16.8625,2|2|2|2|2|2|2|2|2,3:0|3:0|3:0|3:0|3:0|3:0|3:0|3:0|3:0,2:0:0:0:
321,40,50229,5,4,3:2:0:0:
184,122,50486,2,0,L|176:165,2,37.8666666666667,0|2|0,2:0|2:0|2:0,2:0:0:0:
190,174,50742,2,0,L|182:217,2,37.8666666666667,2|2|0,2:0|2:0|2:0,2:0:0:0:
196,226,50999,2,0,L|188:269,2,37.8666666666667,2|2|0,2:0|2:0|2:0,2:0:0:0:
199,279,51255,6,0,P|154:273|118:302,1,85.2,2|0,2:0|2:0,2:0:0:0:
263,345,51640,6,0,P|303:384|267:339,1,170.4,2|0,2:0|2:0,2:0:0:0:
199,279,52281,6,0,L|115:290,1,75.7333333333333,2|2,3:2|2:0,2:0:0:0:
32,221,52622,2,0,P|13:172|46:101,1,132.533333333333,0|0,2:0|2:0,2:0:0:0:
119,58,53050,1,0,2:0:0:0:
119,58,53178,2,0,L|244:72,1,113.6,2|0,2:0|2:0,2:0:0:0:
293,130,53563,2,0,L|358:122,1,56.8,0|2,2:0|2:0,2:0:0:0:
415,69,53819,1,0,2:0:0:0:
467,230,54075,2,0,P|454:273|466:323,1,85.2,2|0,2:0|2:0,2:0:0:0:
471,325,54332,6,0,P|418:311|356:351,1,113.6,2|0,3:2|2:0,2:0:0:0:
297,286,54716,2,0,L|303:246,1,28.4,2|2,2:0|2:0,2:0:0:0:
288,237,54845,2,0,L|280:148,2,75.7333333333333,2|2|2,2:0|2:0|2:0,2:0:0:0:
203,243,55357,6,0,L|195:155,2,75.7333333333333,2|2|2,2:0|2:0|2:0,2:0:0:0:
139,300,55870,2,0,P|98:301|66:275,1,75.7333333333333,2|2,2:0|2:0,2:0:0:0:
13,188,56212,2,0,L|18:131,1,37.8666666666667,0|0,2:0|2:0,2:0:0:0:
41,123,56383,6,0,L|35:60,2,56.8,2|2|2,3:2|2:0|2:0,2:0:0:0:
121,153,56768,1,2,2:0:0:0:
121,153,57024,2,0,L|181:144,1,56.8,2|0,2:0|2:0,2:0:0:0:
233,79,57281,6,0,P|272:59|345:104,1,113.6,2|2,2:0|2:0,2:0:0:0:
388,154,57665,1,2,2:0:0:0:
388,154,57793,2,0,L|380:277,1,113.6,2|0,2:0|2:0,2:0:0:0:
439,329,58178,1,2,2:0:0:0:
270,307,58434,6,0,L|277:371,2,56.8,2|0|2,3:2|2:0|2:0,2:0:0:0:
207,247,58819,2,0,P|168:275|101:253,1,113.6,0|0,2:0|2:0,2:0:0:0:
38,209,59204,2,0,L|0:216,2,37.8666666666667,2|2|0,2:0|2:0|2:0,2:0:0:0:
56,189,59460,6,0,L|45:95,2,85.2,2|0|0,2:0|2:0|2:0,2:0:0:0:
212,120,60101,2,0,L|218:62,1,56.8,2|2,2:0|2:0,2:0:0:0:
291,20,60357,2,0,P|310:48|388:49,2,113.6,2|2|2,2:0|2:0|2:0,2:0:0:0:
169,141,61127,2,0,L|104:147,1,56.8,2|2,2:0|2:0,2:0:0:0:
46,200,61383,6,0,B|20:150|20:150|47:84,2,113.6,2|2|2,3:2|3:2|3:2,2:0:0:0:
90,273,62024,1,0,3:0:0:0:
90,273,62281,2,0,L|152:282,1,56.8,2|0,3:2|2:0,2:0:0:0:
206,340,62537,5,0,3:0:0:0:
349,248,62793,2,0,P|355:220|351:200,2,37.8666666666667,2|2|0,2:0|2:0|2:0,2:0:0:0:
365,192,63050,2,0,P|356:164|342:149,2,37.8666666666667,2|0|0,2:0|2:0|2:0,2:0:0:0:
350,135,63306,2,0,P|328:115|309:109,2,37.8666666666667,2|2|0,2:0|2:0|2:0,2:0:0:0:
308,93,63563,6,0,P|280:87|260:91,2,37.8666666666667,2|2|2,2:0|2:0|2:0,2:0:0:0:
251,99,63819,2,0,P|223:105|203:101,2,37.8666666666667,2|2|2,2:0|2:0|2:0,2:0:0:0:
194,93,64075,2,0,P|166:87|146:91,2,37.8666666666667,2|2|2,2:0|2:0|2:0,2:0:0:0:
137,99,64332,2,0,P|109:105|89:101,2,37.8666666666667,2|2|2,2:0|2:0|2:0,2:0:0:0:
79,95,64588,6,0,L|97:220,1,113.6,2|0,3:2|2:0,2:0:0:0:
62,285,64973,1,2,2:0:0:0:
57,289,65037,1,2,2:0:0:0:
52,293,65101,2,0,P|15:297|-1:284,2,56.8,2|2|2,2:0|2:0|2:0,2:0:0:0:
135,323,65486,6,0,P|186:317|239:356,1,113.6,2|2,3:2|3:2,2:0:0:0:
304,301,65870,2,0,L|296:238,1,56.8,2|2,2:0|3:2,2:0:0:0:
239,181,66127,2,0,L|248:83,2,85.2,0|0|0,3:0|3:0|3:0,2:0:0:0:
158,231,66640,6,0,P|113:222|48:284,1,134.9,2|0,3:0|3:0,2:0:0:0:
91,360,67024,1,0,3:0:0:0:
91,360,67152,2,0,L|158:370,1,67.4499999999999,2|2,3:0|3:0,2:0:0:0:
225,302,67409,2,0,L|292:292,1,67.4499999999999,2|2,3:0|3:0,2:0:0:0:
382,316,67665,6,0,B|399:249|399:249|368:179,1,134.9,2|2,3:0|3:0,2:0:0:0:
301,125,68050,1,0,3:0:0:0:
301,125,68178,2,0,L|311:52,1,67.4499999999999,2|0,3:0|2:0,2:0:0:0:
217,42,68434,2,0,L|207:108,1,67.4499999999999,0|2,3:0|3:0,2:0:0:0:
140,175,68691,6,0,P|99:159|27:214,1,134.9,2|2,3:0|3:0,2:0:0:0:
10,298,69075,1,0,3:0:0:0:
10,298,69204,2,0,P|25:340|28:369,1,67.4499999999999,2|0,3:0|2:0,2:0:0:0:
119,382,69460,2,0,P|124:348|136:317,1,67.4499999999999,0|2,3:0|3:0,2:0:0:0:
227,290,69716,6,0,L|217:220,2,67.4499999999999,2|0|2,3:0|2:0|3:0,2:0:0:0:
305,352,70101,1,0,3:0:0:0:
305,352,70229,2,0,P|332:335|367:334,1,67.4499999999999,2|2,3:0|3:0,2:0:0:0:
356,239,70486,2,0,P|387:237|418:254,1,67.4499999999999,2|0,3:0|2:0,2:0:0:0:
496,201,70742,6,0,P|506:142|473:66,1,134.9,2|2,3:0|3:0,2:0:0:0:
401,18,71127,1,0,2:0:0:0:
350,97,71255,2,0,P|307:108|283:103,1,67.4499999999999,2|2,3:0|3:0,2:0:0:0:
219,36,71511,2,0,P|176:25|152:30,1,67.4499999999999,2|2,3:0|3:0,2:0:0:0:
80,89,71768,6,0,L|97:223,1,134.9,0|2,2:0|3:0,2:0:0:0:
53,306,72152,1,0,3:0:0:0:
138,346,72281,2,0,P|169:331|207:327,1,67.4499999999999,2|0,3:0|3:0,2:0:0:0:
279,380,72537,2,0,P|291:348|294:315,1,67.4499999999999,2|2,3:0|3:0,2:0:0:0:
239,238,72793,6,0,L|232:167,2,67.4499999999999,2|2|2,3:0|3:0|3:0,2:0:0:0:
421,188,73306,2,0,P|435:150|427:113,1,67.4499999999999,2|0,3:0|2:0,2:0:0:0:
358,63,73562,2,0,P|332:31|296:20,1,67.4499999999999,2|0,3:0|2:0,2:0:0:0:
218,55,73818,2,0,P|178:61|150:87,1,67.4499999999999,2|0,3:0|2:0,2:0:0:0:
121,165,74075,6,0,L|132:245,1,67.4499999999999,2|2,3:0|3:0,2:0:0:0:
217,195,74331,2,0,L|228:275,1,67.4499999999999,2|2,3:0|2:0,2:0:0:0:
313,225,74588,2,0,L|324:305,1,67.4499999999999,0|2,3:0|3:0,2:0:0:0:
265,368,74844,6,0,B|233:377|233:377|188:360,1,67.4499999999999,2|2,3:0|3:0,2:0:0:0:
107,372,75100,2,0,B|83:348|83:348|75:301,1,67.4499999999999,2|0,3:0|2:0,2:0:0:0:
24,237,75357,2,0,B|32:204|32:204|69:174,1,67.4499999999999,2|2,3:0|3:0,2:0:0:0:
146,148,75613,6,0,L|137:76,1,67.4499999999999,2|2,3:0|3:0,2:0:0:0:
234,121,75870,2,0,L|225:49,1,67.4499999999999,2|0,3:0|2:0,2:0:0:0:
322,94,76126,2,0,L|313:22,1,67.4499999999999,2|0,3:0|2:0,2:0:0:0:
402,146,76382,6,0,L|389:288,1,134.9,2|2,3:0|3:0,2:0:0:0:
319,344,76767,1,0,2:0:0:0:
247,282,76895,2,0,P|206:276|178:294,1,67.4499999999999,2|0,3:0|2:0,2:0:0:0:
45,237,77152,6,0,P|17:202|37:115,1,134.9,2|2,3:0|3:0,2:0:0:0:
101,52,77536,1,0,3:0:0:0:
172,113,77664,2,0,L|244:107,1,67.4499999999999,0|0,3:0|3:0,2:0:0:0:
332,12,77921,6,0,L|467:23,1,134.9,2|2,3:0|3:0,2:0:0:0:
510,106,78306,1,2,3:0:0:0:
428,152,78434,2,0,P|421:189|434:218,1,67.4499999999999,2|2,3:0|3:0,2:0:0:0:
362,324,78690,6,0,L|318:319,2,44.9666666666666,2|0|0,3:0|2:0|2:0,2:0:0:0:
304,296,78947,2,0,L|260:301,2,44.9666666666666,2|0|0,3:0|2:0|2:0,2:0:0:0:
243,318,79203,2,0,P|253:264|233:213,1,101.175,0|0,3:0|3:0,2:0:0:0:
150,193,79523,2,0,P|139:133|159:86,1,101.175,2|2,3:0|3:0,2:0:0:0:
217,29,79844,1,2,3:0:0:0:
217,29,79972,6,0,L|258:36,3,33.725,2|0|0|0,3:0|2:0|2:0|2:0,2:0:0:0:
285,66,80229,2,0,L|326:59,3,33.725,2|0|2|2,3:0|2:0|3:0|3:0,2:0:0:0:
355,30,80485,2,0,L|396:37,3,33.725,2|2|2|2,3:0|3:0|3:0|3:0,2:0:0:0:
423,67,80741,2,0,L|464:60,4,33.8565265994454,2|2|2|2|2,3:0|3:0|3:0|3:0|2:0,2:0:0:0:
114,73,89203,6,0,L|123:168,1,85.1999999999998,2|0,3:2|2:0,2:0:0:0:
205,170,89587,2,0,L|191:35,1,127.8,2|2,2:0|2:0,2:0:0:0:
345,54,90228,6,0,P|371:44|346:55,1,85.1999999999998,2|2,2:0|2:0,2:0:0:0:
343,138,90613,2,0,P|384:137|447:77,1,127.8,2|2,2:0|2:0,2:0:0:0:
512,233,91254,6,0,P|504:273|505:329,1,85.1999999999998,2|2,2:0|2:0,2:0:0:0:
419,330,91639,2,0,P|420:263|435:189,1,127.8,2|2,2:0|2:0,2:0:0:0:
326,122,92280,5,0,2:0:0:0:
315,128,92536,1,2,2:0:0:0:
221,202,92792,5,2,2:0:0:0:
210,196,93049,1,2,2:0:0:0:
111,120,93305,6,0,P|82:115|110:124,1,85.1999999999998,2|0,2:0|2:0,2:0:0:0:
0,130,93690,2,0,P|11:72|62:29,1,127.8,2|0,2:0|2:0,2:0:0:0:
267,13,94331,6,0,L|356:22,1,85.1999999999998,2|0,2:0|2:0,2:0:0:0:
363,106,94715,2,0,L|236:92,1,127.8,2|0,2:0|2:0,2:0:0:0:
141,208,95356,5,0,2:0:0:0:
141,208,97408,6,0,P|210:189|277:229,1,149.1,6|2,3:1|2:0,2:0:0:0:
260,328,97792,2,0,P|191:347|124:307,1,149.1,2|2,3:1|2:0,2:0:0:0:
45,244,98177,1,2,3:0:0:0:
45,244,98433,6,0,L|25:88,1,149.1,2|2,3:1|2:0,2:0:0:0:
101,23,98818,2,0,B|162:33|162:33|175:46|175:46|243:57,1,149.1,2|2,3:1|3:0,2:0:0:0:
334,4,99203,1,2,3:2:0:0:
334,4,99459,6,0,P|382:3|425:95,1,149.1,2|2,3:1|2:0,2:0:0:0:
346,147,99844,2,0,P|298:146|255:238,1,149.1,2|2,3:1|2:0,2:0:0:0:
352,251,100228,1,2,3:0:0:0:
176,364,100485,5,2,3:0:0:0:
176,364,100613,1,0,2:0:0:0:
176,364,100741,2,0,L|99:355,1,74.55,2|2,3:0|2:0,2:0:0:0:
56,272,100998,1,2,3:0:0:0:
56,272,101126,1,2,3:0:0:0:
56,272,101254,2,0,L|133:263,1,74.55,2|2,3:1|3:0,2:0:0:0:
221,162,101510,6,0,P|195:123|215:22,1,149.1,2|2,3:1|2:0,2:0:0:0:
315,19,101895,2,0,P|341:58|321:159,1,149.1,2|2,3:1|2:0,2:0:0:0:
284,250,102280,1,0,3:0:0:0:
284,250,102536,6,0,B|322:229|322:229|440:255,1,149.1,2|2,3:1|2:0,2:0:0:0:
448,354,102921,2,0,B|410:375|410:375|292:349,1,149.1,2|2,3:1|3:0,2:0:0:0:
207,321,103305,1,2,3:0:0:0:
207,321,103562,6,0,P|152:341|121:271,1,149.1,2|2,3:1|2:0,2:0:0:0:
208,215,103946,2,0,P|163:177|208:115,1,149.1,2|0,3:0|2:0,2:0:0:0:
300,165,104331,1,2,3:0:0:0:
434,5,104587,5,2,3:0:0:0:
434,5,104715,1,0,3:0:0:0:
434,5,104844,2,0,P|445:46|448:87,1,74.55,2|0,3:0|2:0,2:0:0:0:
512,170,105100,1,2,3:0:0:0:
512,170,105228,1,0,3:0:0:0:
512,170,105356,2,0,P|501:211|498:252,1,74.55,0|2,3:0|3:0,2:0:0:0:
393,331,105613,6,0,P|347:315|263:364,1,149.1,6|2,3:1|2:0,2:0:0:0:
191,287,105998,2,0,L|212:129,1,149.1,2|2,3:1|2:0,2:0:0:0:
142,59,106382,1,2,3:0:0:0:
142,59,106639,6,0,P|90:31|15:78,1,149.1,2|2,3:1|2:0,2:0:0:0:
63,162,107023,2,0,L|217:138,1,149.1,2|2,3:1|3:0,2:0:0:0:
272,54,107408,1,2,3:0:0:0:
272,54,107664,6,0,P|306:30|332:110,1,149.1,2|2,3:1|2:0,2:0:0:0:
430,156,108049,2,0,P|464:180|490:100,1,149.1,2|2,3:1|2:0,2:0:0:0:
454,13,108433,1,2,3:0:0:0:
349,197,108690,5,0,3:0:0:0:
349,197,108818,1,0,2:0:0:0:
349,197,108946,2,0,P|356:247|366:282,1,74.55,2|2,3:0|2:0,2:0:0:0:
248,321,109203,1,2,3:0:0:0:
248,321,109331,1,2,3:0:0:0:
248,321,109459,2,0,P|257:284|262:248,1,74.55,2|2,3:1|3:0,2:0:0:0:
182,177,109715,6,0,P|137:140|49:152,1,149.1,2|2,3:1|2:0,2:0:0:0:
32,253,110100,2,0,P|77:290|165:278,1,149.1,2|2,3:1|2:0,2:0:0:0:
262,247,110485,1,2,3:0:0:0:
262,247,110741,6,0,L|277:97,1,149.1,2|2,3:1|2:0,2:0:0:0:
361,36,111126,2,0,P|395:17|478:80,1,149.1,2|2,3:1|3:0,2:0:0:0:
395,136,111510,1,2,3:0:0:0:
395,136,111767,6,0,B|402:202|402:202|408:208|408:208|418:288,1,149.1,2|2,3:1|2:0,2:0:0:0:
324,328,112151,2,0,B|314:254|314:254|308:248|308:248|301:182,1,149.1,2|2,3:0|2:0,2:0:0:0:
217,120,112536,1,2,3:0:0:0:
40,231,112792,5,2,3:0:0:0:
40,231,112921,1,0,3:0:0:0:
40,231,113049,2,0,P|49:274|51:306,1,74.55,2|2,3:0|2:0,2:0:0:0:
153,269,113305,2,0,P|144:312|142:344,1,74.55,2|2,3:0|3:0,2:0:0:0:
242,311,113562,2,0,P|251:354|253:386,1,74.55,2|2,3:0|3:0,2:0:0:0:
249,300,113818,5,2,2:1:0:0:
249,300,115356,2,0,L|288:309,3,37.275,2|2|2|2,3:0|2:0|3:0|2:0,2:0:0:0:
310,290,115613,2,0,L|349:281,3,37.275,2|2|2|2,3:0|2:0|3:0|2:0,2:0:0:0:
374,297,115869,6,0,P|347:237|382:164,1,149.1,6|2,3:1|3:0,2:0:0:0:
451,89,116254,1,2,3:1:0:0:
451,89,116382,2,0,P|391:116|318:81,1,149.1,2|2,3:0|3:0,2:0:0:0:
228,30,116767,1,2,3:0:0:0:
228,30,116895,6,0,L|154:40,2,74.55,2|2|2,3:0|3:0|3:0,2:0:0:0:
17,145,117408,2,0,L|91:155,2,74.55,2|2|2,3:0|3:0|3:1,2:0:0:0:
208,227,117921,6,0,L|361:213,1,149.1,2|0,3:1|2:0,2:0:0:0:
423,133,118305,1,2,3:1:0:0:
423,133,118433,2,2,B|390:185|390:185|419:277,1,149.1,2|2,3:0|3:0,2:0:0:0:
501,325,118818,1,2,3:0:0:0:
501,325,118946,6,0,P|457:308|371:371,1,149.1,2|2,3:1|3:0,2:0:0:0:
276,323,119331,2,0,B|211:331|211:331|200:341|200:341|123:351,1,149.1,2|0,3:1|2:0,2:0:0:0:
43,293,119715,1,2,3:1:0:0:
11,86,119972,6,0,P|39:58|77:137,1,149.1,2|2,3:1|3:0,2:0:0:0:
10,189,120356,2,0,L|160:172,1,149.1,2|2,3:1|3:0,2:0:0:0:
220,87,120741,2,0,L|297:92,1,74.55,2|2,3:0|3:0,2:0:0:0:
396,71,120998,6,0,P|412:31|406:1,2,74.55,2|0|2,3:1|2:0|3:0,2:0:0:0:
446,162,121382,2,0,P|488:155|511:135,2,74.55,2|2|2,3:1|3:0|3:0,2:0:0:0:
362,225,121767,2,0,L|370:270,3,37.275,2|2|2|0,3:0|3:0|3:0|2:0,2:0:0:0:
372,279,122023,6,0,L|362:364,1,74.55,6|2,3:1|3:0,2:0:0:0:
258,364,122280,2,0,L|266:289,1,74.55,2|2,3:0|3:1,2:0:0:0:
205,218,122536,1,2,3:0:0:0:
205,218,122664,1,2,3:0:0:0:
205,218,122792,1,0,3:0:0:0:
305,34,123049,6,0,P|340:27|384:44,1,74.55,2|2,3:1|3:0,2:0:0:0:
370,142,123305,2,0,P|335:149|291:132,1,74.55,2|2,3:0|3:1,2:0:0:0:
211,79,123562,1,2,3:0:0:0:
211,79,123690,1,2,3:0:0:0:
211,79,123818,1,2,3:0:0:0:
31,185,124074,6,2,P|38:222|41:260,1,74.55,2|2,3:1|3:0,2:0:0:0:
134,306,124331,2,2,P|137:268|143:232,1,74.55,2|2,3:0|3:1,2:0:0:0:
240,192,124587,1,2,3:0:0:0:
240,192,124715,1,2,3:0:0:0:
240,192,124844,1,2,3:0:0:0:
377,348,125100,6,2,L|386:271,1,74.55,2|0,3:0|3:0,2:0:0:0:
467,209,125356,2,2,L|458:132,1,74.55,2|2,3:0|3:0,2:0:0:0:
387,57,125613,1,2,3:0:0:0:
387,57,125741,1,2,3:0:0:0:
387,57,125869,2,2,L|393:12,4,37.275,2|2|2|2|2,3:0|2:0|2:0|2:0|2:1,2:0:0:0:
379,70,127151,6,0,B|339:71|311:82|311:82|289:65|261:56|261:56|228:68|198:66,1,170.4,2|2,2:1|2:0,2:0:0:0:
203,62,128177,6,2,P|269:38|208:80,1,213,2|0,2:1|2:0,2:1:0:0:
76,186,129203,6,0,B|114:166|162:180|162:180|209:217|209:217|249:196|303:200,1,227.2,0|0,2:0|2:0,2:0:0:0:
434,254,129972,2,0,L|431:299,3,28.4,0|0|0|0,2:0|3:0|3:0|3:0,2:0:0:0:
430,297,130228,5,6,3:2:0:0:
348,344,130356,2,0,L|351:392,2,33.725,2|2|8,1:3|1:3|1:0,2:0:0:0:
267,292,130613,2,0,P|198:277|153:327,1,134.9,2|8,3:0|1:0,2:0:0:0:
226,379,130998,1,2,1:3:0:0:
37,365,131254,6,0,L|29:293,1,67.4499999999999,0|2,3:0|1:3,2:0:0:0:
24,288,131446,1,2,1:3:0:0:
18,280,131510,1,8,1:0:0:0:
51,190,131639,2,0,L|194:175,1,134.9,2|2,3:0|1:3,2:0:0:0:
249,106,132023,2,0,L|299:110,3,33.725,0|2|2|0,2:0|1:3|1:3|2:0,2:0:0:0:
294,109,132280,6,0,P|334:94|370:94,1,67.4499999999999,2|2,3:0|1:3,2:0:0:0:
434,38,132536,2,0,P|449:78|449:114,1,67.4499999999999,8|2,1:0|3:0,2:0:0:0:
398,181,132792,2,0,P|401:214|414:245,1,67.4499999999999,2|2,3:0|1:3,2:0:0:0:
492,299,133049,2,0,P|488:332|475:363,1,67.4499999999999,2|8,3:0|1:0,2:0:0:0:
382,378,133305,5,2,3:0:0:0:
320,306,133433,2,0,L|316:264,2,33.725,0|2|8,2:0|1:3|1:0,2:0:0:0:
239,357,133690,1,0,3:0:0:0:
239,357,133818,2,0,L|170:346,1,67.4499999999999,2|8,3:0|1:0,2:0:0:0:
80,369,134074,1,10,1:0:0:0:
19,189,134331,5,2,3:0:0:0:
63,105,134459,2,0,L|66:58,2,33.725,0|2|8,2:0|1:3|1:0,2:0:0:0:
145,151,134715,2,0,L|291:136,1,134.9,2|8,3:0|1:0,2:0:0:0:
343,67,135100,1,2,1:3:0:0:
452,219,135356,5,2,3:0:0:0:
443,313,135485,2,0,L|439:359,2,33.725,2|2|8,1:3|1:3|1:0,2:0:0:0:
366,256,135741,2,0,L|228:276,1,134.9,2|8,3:0|1:0,2:0:0:0:
142,246,136126,2,0,L|105:241,3,33.725,8|0|0|0,1:0|1:0|1:0|1:0,2:0:0:0:
98,240,136382,6,0,L|91:172,1,67.4499999999999,2|2,3:0|1:3,2:0:0:0:
168,118,136639,2,0,L|174:50,1,67.4499999999999,8|2,1:0|3:0,2:0:0:0:
257,4,136895,2,0,P|309:8|329:29,1,67.4499999999999,2|8,3:0|1:0,2:0:0:0:
373,94,137151,2,0,P|425:90|445:69,1,67.4499999999999,2|8,3:0|1:0,2:0:0:0:
506,143,137408,5,2,3:0:0:0:
433,203,137536,2,0,L|397:193,2,33.725,0|2|8,2:0|1:3|1:0,2:0:0:0:
497,271,137792,1,0,3:0:0:0:
412,365,137921,2,0,P|418:328|412:314,3,33.725,2|0|8|0,3:0|2:0|1:0|2:0,2:0:0:0:
415,325,138177,2,2,P|347:327|304:268,1,134.9,10|2,1:0|3:0,2:0:0:0:
444,77,142280,6,0,L|451:123,3,33.725,2|2|2|2,3:0|3:0|3:0|3:0,2:0:0:0:
461,129,142536,6,0,P|420:114|351:185,1,134.9,4|8,3:2|1:0,2:0:0:0:
393,250,142921,1,2,3:0:0:0:
393,250,143049,2,0,L|471:243,1,67.4499999999999,2|8,3:0|1:0,2:0:0:0:
468,337,143305,2,0,L|390:344,1,67.4499999999999,8|2,1:0|1:3,2:0:0:0:
312,307,143562,6,0,L|172:290,1,134.9,2|8,3:0|1:0,2:0:0:0:
115,220,143946,1,2,3:0:0:0:
115,220,144074,2,0,P|105:178|117:151,1,67.4499999999999,2|0,3:0|2:0,2:0:0:0:
187,97,144331,2,0,P|197:55|185:28,1,67.4499999999999,2|0,3:0|2:0,2:0:0:0:
99,2,144587,6,0,P|74:18|66:31,2,44.9666666666666,2|2|2,3:0|3:0|3:0,2:0:0:0:
48,42,144844,2,0,P|34:68|33:83,2,44.9666666666666,2|0|2,3:0|2:0|3:0,2:0:0:0:
23,102,145100,2,0,P|24:131|31:145,2,44.9666666666666,2|2|2,3:0|3:0|3:0,2:0:0:0:
31,166,145356,2,0,P|47:191|60:199,2,44.9666666666666,2|2|2,3:0|3:0|3:0,2:0:0:0:
69,217,145613,6,0,B|106:217|124:209|124:209|83:231|82:284,1,134.9,6|0,3:0|2:0,2:0:0:0:
