osu file format v14

[General]
AudioFilename: audio.mp3
AudioLeadIn: 0
PreviewTime: 97310
Countdown: 0
SampleSet: Soft
StackLeniency: 0.2
Mode: 0
LetterboxInBreaks: 0
WidescreenStoryboard: 1

[Editor]
Bookmarks: 25614,33816,50214,66640,80976,89204,97373,113819,130170
DistanceSpacing: 0.2
BeatDivisor: 8
GridSize: 32
TimelineZoom: 4.599998

[Metadata]
Title:Aegleseeker
TitleUnicode:Aegleseeker
Artist:Silentroom vs. Frums
ArtistUnicode:Silentroom vs. Frums
Creator:Cubby
Version:AmaCandy's Expert
Source:Arcaea
Tags:lowiro 2020 song contest grand prize winner deliverance esoteric order LeCandy Amateurre Seros Kyutei Sunazuka Akira captin1 cubbby arronchu1207 thiev electronic instrumental -[pino]- bekko flask anya melfissa JeZag
BeatmapID:3004854
BeatmapSetID:1458224

[Difficulty]
HPDrainRate:5
CircleSize:3
OverallDifficulty:8
ApproachRate:9.4
SliderMultiplier:2.24
SliderTickRate:1

[Events]
//Background and Video events
0,0,"85232270_p0.jpg",0,0
//Break Periods
2,95557,96869
//Storyboard Layer 0 (Background)
//Storyboard Layer 1 (Fail)
//Storyboard Layer 2 (Pass)
//Storyboard Layer 3 (Foreground)
//Storyboard Layer 4 (Overlay)
//Storyboard Sound Samples

[TimingPoints]
999,256.410256410256,4,2,2,60,1,0
999,-296.474469628305,4,2,2,60,0,0
1127,-296.474469628305,4,2,2,40,0,0
9845,-135.630521692055,4,2,2,40,0,0
16511,-95.9079896402488,4,2,2,40,0,0
16896,-135.630521692055,4,2,2,40,0,0
17409,-161.095402382575,4,2,2,70,0,0
19460,-100,4,2,2,70,0,0
21511,-199.432496056149,4,2,2,70,0,0
23563,-100,4,2,2,70,0,0
25614,-125,4,2,2,70,0,0
26575,-125,4,2,2,5,0,0
26640,-125,4,2,2,70,0,0
27601,-125,4,2,2,5,0,0
27665,-125,4,2,2,70,0,0
28627,-125,4,2,2,5,0,0
28691,-125,4,2,2,70,0,0
30678,-125,4,2,2,5,0,0
30742,-125,4,2,2,70,0,0
31704,-125,4,2,2,5,0,0
31768,-125,4,2,2,70,0,0
32729,-125,4,2,2,5,0,0
32793,-125,4,2,2,70,0,0
33755,-125,4,2,2,5,0,0
33819,-100,4,2,2,70,0,0
37409,-62.5,4,2,2,70,0,0
37922,-100,4,2,2,70,0,0
42024,-125,4,2,2,70,0,0
42986,-125,4,2,2,5,0,0
43050,-125,4,2,2,70,0,0
44011,-125,4,2,2,5,0,0
44075,-125,4,2,2,70,0,0
45037,-125,4,2,2,5,0,0
45101,-125,4,2,2,70,0,0
47088,-125,4,2,2,5,0,0
47152,-125,4,2,2,70,0,0
48114,-125,4,2,2,5,0,0
48178,-125,4,2,2,70,0,0
49140,-125,4,2,2,5,0,0
49204,-125,4,2,2,40,0,0
50229,-125,4,2,2,60,0,0
51640,-166.666666666667,4,2,2,60,0,0
60870,-125,4,2,2,60,0,0
61127,-166.666666666667,4,2,2,60,0,0
66127,-166.666666666667,4,2,2,70,0,0
66640,-111.111111111111,4,2,2,70,0,0
68178,-100,4,2,2,70,0,0
68370,-90.9090909090909,4,2,2,70,0,0
68563,-71.4285714285714,4,2,2,70,0,0
68691,-66.6666666666667,4,2,2,70,0,0
68947,-100,4,2,2,70,0,0
69204,-111.111111111111,4,2,2,70,0,0
70486,-83.3333333333333,4,2,2,70,0,0
70742,-142.857142857143,4,2,2,70,0,0
70998,-125,4,2,2,70,0,0
73050,-166.666666666666,4,2,2,70,0,0
73306,256.410256410256,3,2,2,70,1,0
73306,-68.9655172413793,4,2,2,70,0,0
73563,-111.111111111111,4,2,2,70,0,0
77152,-95.2380952380952,4,2,2,70,0,0
77409,-111.111111111111,4,2,2,70,0,0
77922,-83.3333333333333,4,2,2,70,0,0
78178,-111.111111111111,4,2,2,70,0,0
78691,-111.111111111111,4,2,2,70,0,0
80486,-71.4285714285714,4,2,2,70,0,0
80998,256.410256410256,4,2,2,60,1,0
80998,-71.4285714285714,4,2,2,60,0,0
81640,-250,4,2,2,60,0,0
85101,-166.666666666667,4,2,2,60,0,0
89204,-125,4,2,2,60,0,0
95101,-200,4,2,2,60,0,0
97409,-66.6666666666667,4,2,2,80,0,0
97793,-76.9230769230769,4,2,2,80,0,0
98178,-66.6666666666667,4,2,2,80,0,0
100486,-100,4,2,2,80,0,0
101511,-66.6666666666667,4,2,2,80,0,0
105101,-100,4,2,2,80,0,0
105614,-66.6666666666667,4,2,2,80,0,0
105998,-76.9230769230769,4,2,2,80,0,0
106640,-66.6666666666667,4,2,2,80,0,0
108691,-100,4,2,2,80,0,0
109716,-66.6666666666667,4,2,2,80,0,0
113819,-103.670643025657,4,2,2,70,0,0
114845,-125,4,2,2,70,0,0
115870,-66.6666666666667,4,2,2,90,0,0
119973,-60.6060606060606,4,2,2,90,0,0
120357,-66.6666666666667,4,2,2,90,0,0
120742,-66.6666666666667,4,2,2,90,0,0
122024,-66.6666666666667,4,2,2,100,0,0
126127,-108.005936051502,4,2,2,70,0,0
128178,-180.816260267226,4,2,2,70,0,0
129973,-180.816260267226,4,2,2,60,0,0
130229,-100,4,2,2,80,0,0
142281,-100,4,2,2,60,0,0
142537,-100,4,2,2,80,0,0

[Colours]
Combo1 : 128,0,255
Combo2 : 128,128,255
Combo3 : 255,89,255

[HitObjects]
123,189,999,6,0,B|65:235|78:340|78:340|7:250|53:177|114:161|114:161|157:216|238:211|238:211|243:203|243:203|331:229|329:124|454:169|454:169|459:157|470:146|470:146|377:125|288:8|288:8|274:16|261:19|261:19|341:180|332:280|292:379|292:379|301:379|310:381|310:381|348:316|428:282|428:282|409:268|399:249|399:249|314:317|258:283|214:328|214:328|243:256|243:202|206:140|206:140|214:131|214:131|194:69|154:17|154:17|110:51|49:75|49:75|56:84|56:84|112:58|163:78,1,2417.74622936476,0|0,0:0|3:0,0:0:0:0:
458,12,9845,5,0,3:0:0:0:
458,12,10229,1,0,3:0:0:0:
42,94,10870,5,0,3:0:0:0:
139,71,11127,1,0,3:0:0:0:
139,71,11255,1,0,3:0:0:0:
500,343,11896,5,0,3:0:0:0:
500,343,12281,1,0,3:0:0:0:
500,343,12665,1,0,3:0:0:0:
403,320,12922,1,0,3:0:0:0:
306,297,13178,1,0,3:0:0:0:
306,297,13306,1,0,3:0:0:0:
49,364,13947,5,0,3:0:0:0:
49,364,14332,1,0,3:0:0:0:
166,128,14973,5,0,3:0:0:0:
166,128,15229,1,0,3:0:0:0:
225,46,15357,6,0,B|272:46|299:77|299:77|333:49|314:14|314:14|216:31|216:31|212:38|212:38|148:48|148:48|120:53|83:94|124:147|124:147|150:128|181:124,1,495.463691917429
463,64,16383,5,0,0:0:0:0:
474,53,16511,2,0,B|496:34|529:26|529:26|412:40,1,175.16788838179
5,77,16896,2,0,P|-9:86|6:94,7,41.2886409931191,0|0|0|0|0|0|0|0,0:0|0:0|0:0|0:0|0:0|0:0|2:0|0:0,0:0:0:0:
225,241,17409,6,0,B|298:208|366:266|346:304|401:332|401:332|299:354|168:258|245:124|352:99|352:99|248:-13|95:65|88:159|88:159|138:122|183:138,1,1042.86033082682,4|2,3:2|2:0,0:0:0:0:
387,190,19460,6,0,P|414:194|440:203,3,56,2|0|2|2,2:0|2:0|2:0|2:0,2:0:0:0:
352,100,19716,2,0,P|377:89|404:84,3,56,2|0|2|2,2:0|2:0|2:0|2:0,2:0:0:0:
238,191,19973,6,0,P|265:187|291:178,3,56,2|2|2|0,2:0|2:0|2:0|2:0,0:0:0:0:
203,281,20229,2,0,P|228:291|255:296,3,56,2|2|2|0,2:0|2:0|2:0|2:0,0:0:0:0:
101,184,20486,6,0,P|113:208|119:236,1,56,2|0,3:2|2:0,2:0:0:0:
120,326,20614,1,10,2:1:0:0:
175,117,20742,2,0,B|187:90|187:90|168:71,3,56,10|0|8|8,2:1|3:0|2:1|2:1,0:0:0:0:
11,148,20998,2,0,B|-8:129|-8:129|4:102,3,56,0|0|0|0,3:0|3:0|3:0|0:0,0:0:0:0:
90,16,21255,2,0,B|-14:-1|-14:-1|74:22,1,168,8|0,1:0|0:0,0:0:0:0:
442,90,21511,6,0,B|461:43|514:24|514:24|456:-27|367:21|367:21|373:25|374:36|374:36|304:88|214:36|214:36|192:53|197:81|197:81|299:100|348:164|348:164|318:246|263:239|263:239|256:211|241:194,1,842.390303051077,4|2,3:2|0:0,0:0:0:0:
67,119,23563,6,0,P|63:91|54:64,3,56,2|0|2|2,0:0|0:0|0:0|0:0,0:0:0:0:
162,163,23819,2,0,P|139:179|120:200,3,56,2|0|2|2,0:0|0:0|0:0|0:0,0:0:0:0:
39,273,24075,2,0,P|35:245|26:218,3,56,2|2|2|2,0:0|0:0|0:0|0:0,0:0:0:0:
134,317,24331,2,0,P|111:333|92:354,3,56,2|2|2|0,0:0|0:0|0:0|0:0,0:0:0:0:
438,280,24588,6,0,P|355:289|278:321,1,168,0|0,3:0|0:0,0:0:0:0:
175,217,24845,2,0,P|195:247|231:252,1,56,8|0,0:1|0:0,0:0:0:0:
293,220,24973,1,0,3:0:0:0:
300,208,25037,1,8,0:1:0:0:
512,371,25165,1,0,3:0:0:0:
503,360,25229,2,0,P|467:362|444:390,1,56,8|8,0:1|0:1,0:0:0:0:
389,193,25357,2,2,B|405:162|405:162|385:195,2,56,2|2|2,0:3|0:3|0:3,0:3:0:0:
317,95,25614,5,2,3:1:0:0:
303,92,25678,1,2,3:0:0:0:
289,90,25742,2,0,L|242:84,2,44.8,2|2|2,3:0|3:0|3:0,0:0:0:0:
386,33,25998,1,2,3:1:0:0:
386,20,26062,1,2,3:0:0:0:
382,8,26126,1,2,3:0:0:0:
317,95,26254,1,2,3:0:0:0:
292,179,26383,2,0,P|279:229|276:272,1,89.6,8|0,1:0|0:0,0:0:0:0:
397,357,26640,5,2,3:1:0:0:
411,360,26704,1,2,3:0:0:0:
425,362,26768,2,0,L|472:368,2,44.8,2|2|2,3:0|3:0|3:0,0:0:0:0:
364,270,27024,1,2,3:1:0:0:
376,263,27088,1,2,3:0:0:0:
388,261,27152,1,2,3:0:0:0:
397,357,27280,1,2,3:0:0:0:
297,357,27409,2,0,P|252:352|209:340,1,89.6,8|0,1:0|0:0,0:0:0:0:
49,367,27665,5,2,3:1:0:0:
52,353,27729,1,2,3:0:0:0:
54,339,27793,2,0,L|60:292,2,44.8,2|2|2,3:0|3:0|3:0,0:0:0:0:
150,274,28049,1,2,3:1:0:0:
154,262,28113,1,2,3:0:0:0:
154,249,28177,1,2,3:0:0:0:
114,163,28305,1,2,3:0:0:0:
10,123,28434,2,0,P|21:166|26:210,1,89.6,8|0,1:0|0:0,0:0:0:0:
219,171,28691,5,2,3:1:0:0:
232,168,28755,1,2,3:0:0:0:
247,166,28819,2,0,L|294:160,2,44.8,2|2|2,3:0|3:0|3:0,0:0:0:0:
337,235,29075,1,2,3:1:0:0:
348,243,29139,1,2,3:0:0:0:
360,247,29203,1,2,3:0:0:0:
475,163,29332,6,0,P|493:169|511:204,1,44.8,8|0,3:1|0:0,0:0:0:0:
445,265,29460,2,0,P|439:297|396:324,2,59.7333333333333,8|8|8,1:0|1:0|1:0,0:0:0:0:
381,140,29716,6,0,L|389:63,2,44.8,2|2|2,3:1|3:0|3:0,0:0:0:0:
398,12,29973,1,2,3:0:0:0:
283,140,30101,2,0,L|291:63,2,44.8,2|2|2,3:1|3:0|3:0,0:0:0:0:
295,12,30358,1,2,3:0:0:0:
190,112,30486,2,0,P|124:118|73:129,1,89.6,8|0,1:0|0:0,0:0:0:0:
21,205,30742,6,0,P|-1:164|8:141,2,44.8,2|2|2,3:1|3:0|3:0,0:0:0:0:
90,141,30998,1,2,3:0:0:0:
177,194,31127,2,0,P|152:233|128:237,2,44.8,2|2|2,3:1|3:0|3:0,0:0:0:0:
95,162,31383,1,2,3:0:0:0:
79,274,31511,2,0,P|73:312|60:385,1,89.6,8|0,1:0|0:0,0:0:0:0:
192,335,31768,6,0,P|215:331|237:329,2,44.8,2|2|2,3:1|3:0|3:0,0:0:0:0:
329,346,32024,1,2,3:0:0:0:
310,244,32152,2,0,P|287:240|265:238,2,44.8,2|2|2,3:1|3:0|3:0,0:0:0:0:
402,271,32408,1,2,3:0:0:0:
487,171,32537,2,0,P|444:176|379:180,1,89.6,8|0,1:0|0:0,0:0:0:0:
315,65,32793,6,0,L|324:10,2,44.8,2|2|2,3:1|3:0|3:0,0:0:0:0:
299,154,33050,1,2,3:0:0:0:
411,85,33178,2,0,P|455:81|500:76,1,89.6,0|0,3:0|0:0,0:0:0:0:
218,92,33434,6,2,B|181:89|150:43|150:43|149:98|92:143,1,179.2,10|0,0:1|0:0,0:1:0:0:
0,285,33819,6,0,B|69:272|69:272|79:278|79:278|164:263,1,168,2|0,3:0|0:0,0:0:0:0:
227,185,34075,2,0,B|291:235|291:235|251:312,1,168,2|0,3:0|0:0,0:0:0:0:
53,281,34332,2,0,L|164:262,1,112,10|2,3:2|0:0,0:0:0:0:
347,356,34588,2,0,L|457:337,1,112,2|2,0:0|3:0,0:0:0:0:
415,91,34845,6,0,P|413:59|379:30,2,56,2|2|2,0:0|0:0|3:0,0:0:0:0:
460,176,35101,2,0,P|488:189|531:174,2,56,2|0|0,3:0|0:0|0:0,0:0:0:0:
364,172,35357,2,0,P|338:188|329:232,2,56,10|2|2,3:2|0:0|0:0,0:0:0:0:
511,74,35614,6,0,P|498:99|475:113,2,56,2|2|2,0:0|0:0|3:0,0:0:0:0:
427,267,35870,2,0,P|411:243|410:216,2,56,2|2|2,0:0|0:0|3:0,0:0:0:0:
303,100,36127,2,0,P|330:97|354:111,2,56,2|0|0,3:0|0:0|0:0,0:0:0:0:
295,324,36383,6,0,P|275:242|240:166,1,168,10|2,3:2|3:0,0:0:0:0:
102,25,36640,2,0,P|134:89|213:56,1,168,2|0,0:0|0:0,0:0:0:0:
347,0,36896,2,0,P|321:49|302:102,1,112,2|2,0:0|3:0,0:0:0:0:
150,205,37152,2,0,P|175:254|194:307,1,112,2|2,3:0|0:0,0:0:0:0:
410,175,37409,6,2,B|402:74|496:21|496:21|480:83|513:139,2,268.8,10|0|2,3:2|0:0|3:0,0:0:0:0:
512,342,37922,2,0,P|445:297|345:260,1,168,2|0,3:0|0:0,0:0:0:0:
201,208,38178,2,0,B|234:216|265:258|265:258|269:207|307:182,1,168,2|0,3:0|0:0,0:0:0:0:
440,68,38434,2,0,P|422:119|408:191,1,112,10|2,3:2|0:0,0:0:0:0:
262,3,38691,2,0,P|250:57|231:110,1,112,2|2,0:0|3:0,0:0:0:0:
309,361,38947,6,0,L|363:378,2,56,2|2|2,0:0|0:0|3:0,0:0:0:0:
479,310,39204,2,0,L|425:293,2,56,2|2|2,3:0|0:0|0:0,0:0:0:0:
330,229,39460,2,0,B|316:254|316:254|334:274,2,56,10|2|2,3:2|0:0|0:0,0:0:0:0:
479,170,39716,2,0,B|497:190|497:190|483:215,2,56,2|2|2,0:0|0:0|3:0,0:0:0:0:
216,337,39973,6,0,P|188:342|161:336,2,56,2|2|2,0:0|0:0|3:0,0:0:0:0:
85,384,40229,2,0,P|72:360|70:332,2,56,2|2|2,3:0|0:0|0:0,0:0:0:0:
0,275,40486,2,0,P|19:256|45:245,2,56,10|2|2,3:2|0:0|0:0,0:0:0:0:
79,161,40742,2,0,P|103:174|121:195,2,56,2|2|2,0:0|0:0|3:0,0:0:0:0:
211,201,40998,2,0,P|206:229|192:253,2,56,2|2|2,0:0|0:0|3:0,0:0:0:0:
308,101,41255,2,0,P|297:126|292:154,3,56,2|2|2|0,3:0|0:0|0:0|0:0,0:0:0:0:
185,96,41511,5,8,3:2:0:0:
185,96,41575,2,0,L|167:27,2,56,0|2|2,1:0|1:2|3:2,0:0:0:0:
211,201,41768,2,0,L|239:309,1,112,2|0,1:2|3:0,0:0:0:0:
460,350,42024,5,2,3:1:0:0:
469,339,42088,1,2,3:0:0:0:
478,328,42152,2,0,L|512:285,2,44.8,2|2|2,3:0|3:0|3:0,0:0:0:0:
341,384,42409,1,2,3:1:0:0:
343,370,42473,1,2,3:0:0:0:
346,357,42537,1,2,3:0:0:0:
349,344,42601,1,2,3:0:0:0:
352,331,42665,1,2,3:0:0:0:
390,169,42793,2,0,P|421:197|412:260,1,89.6,8|0,1:0|0:0,0:0:0:0:
261,272,43050,5,2,3:1:0:0:
246,269,43114,1,2,3:0:0:0:
232,267,43178,2,0,L|177:259,2,44.8,2|2|2,3:0|3:0|3:0,0:0:0:0:
247,163,43434,1,2,3:1:0:0:
259,165,43498,1,2,3:0:0:0:
272,167,43563,1,2,3:0:0:0:
285,169,43627,1,2,3:0:0:0:
298,171,43691,1,2,3:0:0:0:
62,155,43819,2,0,L|150:169,1,89.6,8|0,1:0|0:0,0:0:0:0:
291,72,44075,5,2,3:1:0:0:
282,62,44140,1,2,3:0:0:0:
281,50,44204,2,0,P|282:28|292:8,2,44.8,2|2|2,3:0|3:0|3:0,0:0:0:0:
395,51,44460,1,2,3:1:0:0:
407,49,44524,1,2,3:0:0:0:
420,47,44588,1,2,3:0:0:0:
432,42,44652,1,2,3:0:0:0:
442,34,44716,1,2,3:0:0:0:
492,207,44844,2,0,P|496:159|507:116,1,89.6,8|0,1:0|0:0,0:0:0:0:
403,256,45101,5,2,3:1:0:0:
398,268,45166,1,2,3:0:0:0:
388,275,45230,2,0,P|368:285|346:286,2,44.8,2|2|2,3:0|3:0|3:0,0:0:0:0:
329,189,45485,1,2,3:1:0:0:
323,176,45549,1,2,3:0:0:0:
315,167,45613,1,2,3:0:0:0:
254,310,45742,6,0,P|253:286|246:262,1,44.8,8|0,3:1|0:0,0:0:0:0:
126,185,45870,2,0,P|157:184|199:217,2,59.7333333333333,8|8|8,1:0|1:0|1:0,0:0:0:0:
29,41,46126,6,0,P|15:14|-11:8,2,44.8,2|2|2,3:1|3:0|3:0,0:0:0:0:
48,133,46383,1,2,3:0:0:0:
125,70,46511,2,0,P|145:55|186:49,2,44.8,2|2|2,3:1|3:0|3:0,0:0:0:0:
43,145,46768,1,2,3:0:0:0:
15,249,46896,2,0,P|27:295|32:344,1,89.6,8|0,1:0|0:0,0:0:0:0:
196,380,47152,6,0,P|221:368|228:326,2,44.8,2|2|2,3:1|3:0|3:0,0:0:0:0:
227,256,47408,1,2,3:0:0:0:
328,333,47537,2,0,P|330:305|297:278,2,44.8,2|2|2,3:1|3:0|3:0,0:0:0:0:
236,244,47793,1,2,3:0:0:0:
402,209,47921,2,0,P|374:191|306:206,1,89.6,8|0,1:0|0:0,0:0:0:0:
189,78,48178,6,0,P|188:56|182:32,2,44.8,2|2|2,3:1|3:0|3:0,0:0:0:0:
155,178,48434,1,2,3:0:0:0:
292,67,48563,2,0,P|286:45|285:22,2,44.8,2|2|2,3:1|3:0|3:0,0:0:0:0:
240,152,48819,1,2,3:0:0:0:
86,97,48947,2,0,P|57:119|59:191,1,89.6,8|0,1:0|0:0,0:0:0:0:
119,298,49203,6,2,L|130:262,8,22.4,2|2|2|2|2|2|2|2|2,3:0|3:0|3:0|3:0|3:0|3:0|3:0|3:0|3:0,3:0:0:0:
256,192,49524,12,4,50229,3:2:0:0:
156,70,50486,6,0,L|223:74,2,59.7333333333333,0|2|0,0:0|0:0|0:0,0:0:0:0:
130,159,50742,2,0,L|92:215,2,59.7333333333333,2|2|0,0:0|0:0|0:0,0:0:0:0:
67,94,50998,2,0,L|37:33,2,59.7333333333333,2|2|0,0:0|0:0|0:0,0:0:0:0:
119,103,51255,5,2,0:0:0:0:
249,81,51447,1,2,0:0:0:0:
403,57,51640,2,0,B|350:16|350:16|373:137|373:137|414:158|412:200,1,268.799991796875,2|0,0:0|0:0,0:0:0:0:
330,310,52281,6,0,P|315:261|343:209,2,89.5999972656251,2|2|0,3:2|0:0|0:0,0:0:0:0:
428,346,52922,1,0,0:0:0:0:
233,316,53178,2,0,B|153:298|191:377|94:351,1,134.399995898438,2|0,0:0|0:0,0:0:0:0:
108,365,53563,1,2,0:0:0:0:
24,314,53691,2,0,P|5:284|51:196,1,134.399995898438,2|0,0:0|0:0,0:0:0:0:
16,121,54075,1,2,0:0:0:0:
176,208,54332,6,0,B|275:195|275:195|281:198|281:198|387:180,1,201.599993847656,2|2,3:2|0:0,0:0:0:0:
410,203,54781,1,2,0:0:0:0:
410,203,54845,2,0,L|419:113,2,89.5999972656251,2|2|2,0:0|0:0|0:0,0:0:0:0:
307,13,55357,2,0,L|298:103,2,89.5999972656251,2|2|2,0:0|0:0|0:0,0:0:0:0:
419,113,55870,5,2,0:0:0:0:
213,135,56041,2,0,L|107:150,1,89.5999972656251,2|0,0:0|0:0,0:0:0:0:
103,133,56298,6,0,L|112:74,1,44.7999986328126,0|2,0:0|3:2,0:0:0:0:
126,3,56511,1,2,0:0:0:0:
126,3,56640,1,2,0:0:0:0:
103,133,56768,2,0,L|84:223,1,67.1999979492188,2|0,0:0|0:0,0:0:0:0:
189,297,57024,2,0,L|202:231,1,67.1999979492188,2|0,0:0|0:0,0:0:0:0:
0,367,57281,6,0,P|51:316|121:342,1,134.399995898438,2|2,0:0|0:0,0:0:0:0:
189,297,57665,1,2,0:0:0:0:
322,384,57793,2,0,L|304:229,1,134.399995898438,2|0,0:0|0:0,0:0:0:0:
292,157,58178,1,2,0:0:0:0:
492,257,58434,5,2,3:2:0:0:
406,119,58691,2,0,L|393:196,2,44.7999986328126,2|2|0,0:0|0:0|0:0,0:0:0:0:
310,64,58947,2,0,L|317:19,2,44.7999986328126,2|2|0,0:0|0:0|0:0,0:0:0:0:
205,108,59204,2,0,L|192:185,2,44.7999986328126,2|2|0,0:0|0:0|0:0,0:0:0:0:
145,49,59460,5,2,0:0:0:0:
206,178,59652,1,2,0:0:0:0:
267,307,59845,2,0,L|120:287,1,134.399995898438,2|2,0:0|0:0,0:0:0:0:
119,304,60229,1,2,0:0:0:0:
2,149,60357,6,0,P|40:133|80:148,1,67.1999979492188,2|0,0:0|3:0,0:0:0:0:
206,178,60614,2,0,P|176:193|143:189,1,67.1999979492188,2|0,0:0|0:0,0:0:0:0:
121,81,60870,2,0,L|87:286,1,179.2,2|2,0:0|0:0,0:0:0:0:
15,347,61255,5,2,0:0:0:0:
109,375,61383,2,0,P|135:338|179:343,1,67.1999979492188,2|0,3:2|0:0,0:0:0:0:
209,263,61640,2,0,P|254:267|271:307,1,67.1999979492188,2|0,3:2|0:0,0:0:0:0:
387,361,61896,2,0,P|493:341|431:233,1,268.799991796875,2|0,3:2|0:0,0:0:0:0:
358,269,62537,5,0,3:0:0:0:
358,269,62793,1,2,0:0:0:0:
354,247,62922,1,0,0:0:0:0:
348,224,63050,2,0,L|366:156,1,67.1999979492188,2|0,0:0|0:0,0:0:0:0:
385,68,63306,6,0,P|371:50|351:41,2,44.7999986328126,2|2|0,0:0|0:0|0:0,0:0:0:0:
386,106,63563,2,0,P|377:127|379:149,2,44.7999986328126,2|2|2,0:0|0:0|0:0,0:0:0:0:
419,87,63819,2,0,P|442:84|459:71,2,44.7999986328126,2|2|2,0:0|0:0|0:0,0:0:0:0:
314,197,64075,2,0,P|327:214|347:223,2,44.7999986328126,2|2|2,0:0|0:0|0:0,0:0:0:0:
165,160,64332,2,0,P|156:180|158:202,2,44.7999986328126,2|2|2,0:0|0:0|0:0,0:0:0:0:
292,64,64588,6,0,L|317:221,1,134.399995898438,2|0,3:2|0:0,0:0:0:0:
386,278,64973,2,0,L|399:221,2,33.5999989746094,2|2|2,0:0|0:0|0:0,0:0:0:0:
295,287,65229,2,0,L|216:298,1,67.1999979492188,2|2,0:0|0:0,0:0:0:0:
80,384,65486,2,0,P|134:333|102:272,1,134.399995898438,2|2,3:2|3:2,0:0:0:0:
40,232,65870,2,0,L|35:142,1,67.1999979492188,2|2,0:0|3:2,0:0:0:0:
95,53,66127,2,0,B|56:56|56:56|49:69|49:69|2:75,2,100.799996923828,0|0|2,3:0|3:0|3:0,0:0:0:0:
113,64,66575,1,2,3:0:0:0:
113,64,66640,6,0,B|134:53|134:53|131:25,3,50.3999984619141,2|0|2|0,3:0|0:0|3:0|0:0,0:0:0:0:
126,153,66896,2,0,L|290:121,1,151.199995385742
330,51,67152,2,0,B|374:70|374:70|362:121,1,100.799996923828,2|2,3:0|3:0,0:0:0:0:
40,153,67409,2,0,B|28:204|28:204|72:223,1,100.799996923828,2|2,3:0|3:0,0:0:0:0:
255,20,67665,6,0,L|214:49,1,50.3999984619141,2|0,3:0|0:0,0:0:0:0:
102,98,67793,2,0,L|148:118,1,50.3999984619141,2|2,3:0|3:0,0:0:0:0:
248,191,67922,2,0,L|242:140,1,50.3999984619141,2|0,3:0|0:0,0:0:0:0:
201,104,68050,1,0,0:0:0:0:
512,159,68178,6,0,P|469:195|422:224,1,112,2|0,3:0|0:0,0:0:0:0:
289,277,68370,2,0,P|347:297|402:325,1,123.200003759766,2|0,3:0|0:0,0:0:0:0:
506,370,68563,2,0,P|498:331|497:292,1,78.399997607422,2|0,3:0|0:0,0:0:0:0:
333,196,68691,2,0,B|280:168|266:85|312:29|312:29|306:77|346:135,1,252.000009613037,2|2,3:0|3:0,0:0:0:0:
339,100,68947,6,0,P|239:75|168:33,1,168,2|0,3:0|0:0,0:0:0:0:
94,27,69204,2,0,P|87:58|103:77,3,50.3999984619141,2|2|0|2,3:0|3:0|0:0|3:0,0:0:0:0:
0,187,69460,2,0,P|45:169|115:162,1,100.799996923828,0|2,0:0|3:0,0:0:0:0:
124,184,69652,1,2,3:0:0:0:
124,184,69716,6,0,B|110:248|110:248|116:267|116:267|101:331,1,151.199995385742,2|2,3:0|3:0,0:0:0:0:
251,384,69973,2,0,B|265:319|265:319|259:301|259:301|273:236,1,151.199995385742,2|0,3:0|0:0,0:0:0:0:
234,125,70229,6,0,B|213:137|213:137|216:162,3,50.3999984619141,2|2|2|2,3:0|3:0|3:0|3:0,0:0:0:0:
353,184,70486,2,0,B|412:190|455:260|455:260|457:214|428:189,1,201.599993847656,2|2,3:0|3:0,0:0:0:0:
343,98,70742,6,0,L|317:103,6,19.5999994018555,2|0|2|0|2|0|2,3:0|0:0|3:0|0:0|3:0|0:0|3:0,0:0:0:0:
500,86,70998,2,0,B|532:92|532:92|417:116,1,134.4,2|2,3:0|3:0,0:0:0:0:
172,94,71255,2,0,B|140:88|140:88|254:66,1,134.4,2|0,3:0|0:0,0:0:0:0:
348,52,71511,6,0,L|369:-1,3,44.8,2|2|2|0,3:0|3:0|3:0|0:0,0:0:0:0:
311,141,71768,2,0,L|273:235,1,89.6,0|2,0:0|3:0,0:0:0:0:
265,256,71960,1,2,3:0:0:0:
265,256,72024,1,2,3:0:0:0:
453,367,72216,1,0,0:0:0:0:
453,367,72281,2,0,B|496:345|496:345|393:361,1,134.4,2|0,3:0|0:0,0:0:0:0:
315,331,72537,6,0,L|274:338,6,22.4,2|0|2|0|2|0|2,3:0|0:0|3:0|0:0|3:0|0:0|3:0,0:0:0:0:
206,382,72793,2,0,P|180:342|195:293,1,89.6,2|2,3:0|3:0,0:0:0:0:
428,266,73050,2,0,P|432:217|398:182,1,100.799996923828,2|0,3:0|0:0,0:0:0:0:
323,234,73306,2,0,P|216:198|78:183,1,243.600007434082,2|0,3:0|0:0,0:0:0:0:
3,121,73563,6,0,P|2:135|11:146,6,25.1999992309571,2|0|2|0|0|0|2,3:0|0:0|3:0|0:0|0:0|0:0|3:0,0:0:0:0:
86,95,73819,2,0,B|135:74|128:20|128:20|119:63|84:83,1,151.199995385742,2|0,3:0|0:0,0:0:0:0:
87,182,74075,6,0,P|98:189|112:187,6,25.1999992309571,2|0|2|0|2|0|2,3:0|0:0|3:0|0:0|3:0|0:0|3:0,0:0:0:0:
11,235,74332,2,0,P|23:283|28:333,1,100.799996923828,2|2,3:0|3:0,0:0:0:0:
196,133,74588,2,0,P|200:183|213:231,1,100.799996923828,0|2,0:0|3:0,0:0:0:0:
116,362,74845,6,0,P|121:344|131:329,6,25.1999992309571,2|0|2|0|2|0|2,3:0|0:0|3:0|0:0|3:0|0:0|3:0,0:0:0:0:
112,383,75101,2,0,P|147:370|249:360,1,100.799996923828,2|0,3:0|0:0,0:0:0:0:
327,236,75357,2,0,P|340:222|356:214,6,25.1999992309571,2|0|2|0|2|0|2,3:0|0:0|3:0|0:0|3:0|0:0|3:0,0:0:0:0:
313,252,75613,2,0,P|349:258|443:300,1,100.799996923828,2|2,3:0|3:0,0:0:0:0:
145,161,75870,6,0,P|133:208|165:244,1,100.799996923828,2|0,3:0|0:0,0:0:0:0:
190,250,76063,1,0,0:0:0:0:
190,250,76127,1,2,3:0:0:0:
263,148,76255,1,0,0:0:0:0:
348,335,76383,6,0,P|363:261|390:190,1,151.199995385742,2|0,3:0|0:0,0:0:0:0:
426,170,76640,2,0,P|457:160|473:131,2,67.1999979492188,2|0|0,3:0|0:0|0:0,0:0:0:0:
314,146,76896,2,0,P|286:207|269:272,1,134.399995898438,2|0,3:0|0:0,0:0:0:0:
60,222,77152,6,0,P|125:280|180:348,1,176.399994616699,2|0,3:0|0:0,0:0:0:0:
200,382,77409,2,0,P|244:373|256:328,2,67.1999979492188,2|0|0,3:0|0:0|0:0,0:0:0:0:
229,265,77664,2,0,P|185:214|136:169,1,134.399995898438,2|0,3:0|0:0,0:0:0:0:
288,12,77922,6,0,P|191:42|91:59,1,201.599993847656,2|0,3:0|0:0,0:0:0:0:
64,74,78178,2,0,P|26:62|9:16,1,67.1999979492188,2|0,3:0|0:0,0:0:0:0:
124,141,78349,1,0,0:0:0:0:
144,142,78434,2,0,P|209:129|274:111,1,134.399995898438,2|0,3:0|0:0,0:0:0:0:
311,97,78691,2,0,P|343:95|370:117,2,67.1999979492188,2|0|0,3:0|0:0|0:0,0:0:0:0:
235,347,78947,6,0,P|221:355|214:372,2,25.1999992309571,2|0|2,3:0|0:0|3:0,0:0:0:0:
247,338,79075,2,0,P|242:287|230:238,1,100.799996923828,2|0,3:0|0:0,0:0:0:0:
469,191,79268,6,0,P|483:199|490:216,2,25.1999992309571,2|0|2,3:0|0:0|3:0,0:0:0:0:
457,182,79396,2,0,P|461:131|473:82,1,100.799996923828,2|2,3:0|3:0,0:0:0:0:
137,158,79588,6,0,P|123:167|118:185,2,25.1999992309571
147,147,79716,2,0,P|132:72|107:2,1,151.199995385742,2|2,3:0|3:0,0:0:0:0:
317,77,79973,6,0,L|354:71,2,25.1999992309571,2|0|2,3:0|0:0|3:0,0:0:0:0:
306,92,80101,2,0,L|312:129,2,25.1999992309571,2|0|2,3:0|0:0|3:0,0:0:0:0:
291,81,80229,2,0,L|254:87,2,25.1999992309571,2|0|2,3:0|0:0|3:0,0:0:0:0:
302,66,80357,2,0,L|296:29,2,25.1999992309571,2|0|2,3:0|0:0|3:0,0:0:0:0:
331,249,80486,6,0,L|337:288,16,39.199998803711,2|0|2|0|2|0|2|0|2|0|2|0|2|0|2|0|2,3:0|0:0|3:0|0:0|3:0|0:0|3:0|0:0|3:0|0:0|3:0|0:0|3:0|0:0|3:0|0:0|0:0,0:0:0:0:
337,289,81383,1,2,0:0:0:0:
62,298,81640,6,0,L|14:304,2,44.8,2|2|2,0:0|0:0|0:0,0:0:0:0:
156,225,82024,2,0,L|152:269,1,44.8,2|0,0:0|0:0,0:0:0:0:
144,352,82281,1,2,0:0:0:0:
144,352,82409,1,2,0:0:0:0:
103,143,82665,6,0,L|93:80,2,44.8,2|2|2,0:0|0:0|0:0,0:0:0:0:
187,106,83050,2,0,L|231:109,1,44.8,2|2,0:0|0:0,0:0:0:0:
314,80,83305,1,2,0:0:0:0:
314,80,83434,2,0,P|343:112|338:155,1,89.6,2|0,0:0|0:0,0:0:0:0:
307,238,83819,2,0,L|312:268,2,22.4,2|2|2,0:0|0:0|0:0,0:0:0:0:
512,206,84204,5,2,0:0:0:0:
498,188,84332,1,2,0:0:0:0:
479,177,84460,1,2,0:0:0:0:
457,175,84588,1,2,0:0:0:0:
436,182,84716,1,2,0:0:0:0:
338,155,84845,1,2,0:0:0:0:
224,284,85101,6,0,B|153:281|189:233|108:229,1,134.399995898438,2|0,0:0|0:0,0:0:0:0:
37,163,85486,1,2,0:0:0:0:
148,384,85742,5,0,0:0:0:0:
148,384,85806,1,2,0:0:0:0:
148,384,85870,2,0,L|139:312,1,67.1999979492188,2|2,0:0|0:0,0:0:0:0:
230,195,86127,6,0,L|246:124,1,67.1999979492188,2|0,0:0|0:0,0:0:0:0:
209,57,86383,1,2,0:0:0:0:
328,120,86511,2,0,L|488:112,1,134.399995898438,2|0,0:0|0:0,0:0:0:0:
480,107,86832,1,2,0:0:0:0:
480,107,86896,2,0,L|464:180,1,67.1999979492188,2|2,0:0|0:0,0:0:0:0:
494,315,87152,6,0,B|440:320|400:272|436:254|392:200|331:212,1,201.599993847656,2|0,0:0|0:0,0:0:0:0:
265,272,87665,2,0,P|200:275|176:346,1,134.399995898438,2|2,0:0|0:0,0:0:0:0:
79,384,88050,1,2,0:0:0:0:
79,384,88114,1,2,0:0:0:0:
79,384,88178,2,0,L|85:290,1,67.1999979492188,2|0,0:0|0:0,0:0:0:0:
20,248,88434,1,2,0:0:0:0:
152,179,88563,6,0,P|91:183|48:110,1,134.399995898438,2|2,0:0|0:0,0:0:0:0:
24,125,88883,1,2,0:0:0:0:
24,125,88947,2,0,L|35:67,3,33.5999989746094,2|2|2|2,0:0|0:0|0:0|0:0,0:0:0:0:
139,74,89204,6,0,B|178:7|272:48|252:61|250:83|329:125|375:73,1,268.8,2|2,3:2|0:0,0:0:0:0:
494,291,89845,2,0,P|500:246|512:203,2,89.6,2|2|2,0:0|0:0|0:0,0:0:0:0:
406,378,90229,2,0,P|365:369|363:299,1,89.6,2|2,0:0|0:0,0:0:0:0:
402,245,90486,1,2,0:0:0:0:
402,245,90614,1,2,0:0:0:0:
141,372,90870,6,0,P|147:327|159:284,2,89.6,2|2|2,0:0|0:0|0:0,0:0:0:0:
258,289,91255,2,0,P|264:242|213:206,1,89.6,2|2,0:0|0:0,0:0:0:0:
138,188,91511,1,2,0:0:0:0:
138,188,91639,2,0,P|124:99|96:14,1,179.2,2|2,0:0|0:0,0:0:0:0:
22,97,92024,2,0,P|28:118|33:140,2,44.8,2|2|2,0:0|0:0|0:0,0:0:0:0:
233,45,92409,5,2,0:0:0:0:
264,48,92537,1,2,0:0:0:0:
270,80,92665,1,2,0:0:0:0:
243,95,92793,1,2,0:0:0:0:
219,73,92922,1,2,0:0:0:0:
347,48,93050,1,2,0:0:0:0:
415,284,93306,6,0,P|326:270|237:265,1,179.2,2|0,0:0|0:0,0:0:0:0:
146,286,93691,1,2,0:0:0:0:
338,380,93947,2,0,P|316:376|294:375,1,44.8
360,368,94075,2,0,P|316:360|272:357,1,89.6
55,305,94332,6,0,P|-22:255|44:192,1,179.2,2|0,0:0|0:0,0:0:0:0:
171,111,94716,2,0,P|152:198|139:287,1,179.2,2|0,0:0|0:0,0:0:0:0:
184,362,95101,2,0,P|236:367|267:304,1,112
493,254,97409,6,0,L|250:188,1,252.000009613037,6|2,3:1|0:0,0:0:0:0:
249,188,97665,1,2,0:0:0:0:
461,128,97793,2,0,B|401:136|401:136|353:297|353:297|267:316,1,291.199986669923,2|2,3:1|0:0,0:0:0:0:
71,224,98178,6,0,P|146:209|146:284,1,168.000006408692,2|2,3:0|0:0,0:0:0:0:
27,119,98434,2,0,P|49:230|71:377,1,252.000009613037,2|2,3:1|0:0,0:0:0:0:
69,367,98691,1,2,0:0:0:0:
282,187,98819,6,0,B|249:161|244:115|244:115|221:156|179:163,1,168.000006408692,2|0,3:1|0:0,0:0:0:0:
218,251,99075,1,2,3:0:0:0:
175,2,99204,2,0,P|197:113|219:260,1,252.000009613037,2|2,3:2|0:0,0:0:0:0:
328,323,99460,6,0,P|205:292|80:278,1,252.000009613037,2|2,3:1|0:0,0:0:0:0:
80,278,99716,1,2,0:0:0:0:
0,124,99845,2,0,P|88:130|52:200,1,168.000006408692,2|0,3:1|0:0,0:0:0:0:
169,334,100101,1,2,0:0:0:0:
169,334,100165,1,2,0:0:0:0:
169,334,100229,2,0,P|257:328|221:258,1,168.000006408692,2|2,3:0|0:0,0:0:0:0:
208,96,100486,6,0,P|199:139|186:212,1,112,2|0,3:0|0:0,0:0:0:0:
289,160,100742,5,2,3:0:0:0:
313,72,100870,1,2,0:0:0:0:
127,34,100998,5,2,3:0:0:0:
103,122,101126,1,2,3:0:0:0:
208,96,101255,5,2,3:1:0:0:
196,215,101383,1,2,3:0:0:0:
196,215,101447,1,2,0:0:0:0:
196,215,101511,2,0,B|267:183|330:222|301:271|365:306|437:269,1,252.000009613037,2|2,3:1|0:0,0:0:0:0:
420,276,101768,1,2,0:0:0:0:
324,121,101896,2,0,P|304:228|279:417,1,252.000009613037,2|0,3:1|0:0,0:0:0:0:
284,369,102152,1,2,0:0:0:0:
190,218,102281,2,0,P|177:126|265:100,1,168.000006408692,0|2,3:0|0:0,0:0:0:0:
500,211,102537,6,0,P|521:94|420:33,1,252.000009613037,2|2,3:1|0:0,0:0:0:0:
419,33,102793,1,2,0:0:0:0:
284,196,102922,2,0,P|367:153|447:133,1,168.000006408692,2|0,3:1|0:0,0:0:0:0:
278,88,103178,1,2,3:0:0:0:
461,236,103306,2,0,B|319:215|419:87|244:85,1,252.000009613037,2|0,3:0|0:0,0:0:0:0:
169,120,103563,6,0,P|235:81|210:8,1,168.000006408692,2|2,3:1|0:0,0:0:0:0:
71,95,103819,1,2,0:0:0:0:
145,250,103947,2,0,P|126:103|99:-63,1,252.000009613037,2|2,3:0|0:0,0:0:0:0:
110,0,104204,1,2,0:0:0:0:
31,171,104332,2,0,P|110:107|188:136,1,168.000006408692,2|0,3:0|0:0,0:0:0:0:
353,202,104588,5,2,3:0:0:0:
450,129,104716,1,2,0:0:0:0:
450,129,104781,1,2,0:0:0:0:
450,129,104845,2,0,P|464:76|352:89,1,168.000006408692,2|2,3:0|0:0,0:0:0:0:
272,104,105101,6,0,L|263:49,3,56,2|2|2|2,3:0|0:0|3:0|3:0,0:0:0:0:
353,202,105357,2,0,L|362:147,3,56,2|2|2|2,3:0|0:0|3:0|3:0,0:0:0:0:
258,261,105614,6,0,P|375:233|533:211,1,252.000009613037,6|2,3:1|0:0,0:0:0:0:
505,213,105870,1,2,0:0:0:0:
317,355,105998,2,0,P|433:292|340:202,1,291.199986669923,2|2,3:1|0:0,0:0:0:0:
34,190,106383,6,0,P|75:135|141:156,1,145.599993334961,2|2,3:0|0:0,0:0:0:0:
276,36,106640,2,0,P|247:161|229:291,1,252.000009613037,2|2,3:1|0:0,0:0:0:0:
231,284,106896,1,2,0:0:0:0:
415,271,107024,6,0,P|413:188|347:209,1,168.000006408692,2|0,3:1|0:0,0:0:0:0:
487,353,107281,1,2,3:0:0:0:
404,95,107409,2,0,P|375:220|357:350,1,252.000009613037,2|0,3:0|0:0,0:0:0:0:
358,342,107665,6,0,B|276:343|241:288|290:269|224:199|143:225,1,252.000009613037,2|2,3:1|0:0,0:0:0:0:
159,221,107922,1,2,0:0:0:0:
76,346,108050,2,0,P|67:262|48:180,1,168.000006408692,2|0,3:1|0:0,0:0:0:0:
239,63,108306,1,2,0:0:0:0:
239,63,108370,1,2,0:0:0:0:
239,63,108434,2,0,P|258:145|267:229,1,168.000006408692,2|0,3:0|0:0,0:0:0:0:
492,269,108691,6,0,P|438:251|384:240,1,112,0|2,3:0|0:0,0:0:0:0:
159,221,108947,5,2,3:0:0:0:
318,134,109075,1,2,0:0:0:0:
332,315,109204,1,2,3:0:0:0:
276,237,109332,1,2,3:0:0:0:
276,237,109396,1,2,3:0:0:0:
276,237,109460,1,2,3:1:0:0:
31,295,109588,5,2,3:0:0:0:
31,295,109652,1,2,0:0:0:0:
31,295,109716,2,0,P|131:264|288:234,1,252.000009613037,2|2,3:1|0:0,0:0:0:0:
275,236,109973,1,2,0:0:0:0:
64,176,110101,2,0,B|153:195|174:263|129:256|133:340|280:364,1,252.000009613037,2|0,3:1|0:0,0:0:0:0:
222,348,110357,1,2,0:0:0:0:
397,167,110486,2,0,P|376:90|297:78,1,168.000006408692,2|2,3:0|0:0,0:0:0:0:
206,188,110742,6,0,P|338:214|451:248,1,252.000009613037,2|2,3:1|0:0,0:0:0:0:
450,247,110998,1,2,0:0:0:0:
330,344,111127,2,0,P|252:290|343:240,1,168.000006408692,2|0,3:1|0:0,0:0:0:0:
430,74,111383,1,2,3:0:0:0:
305,0,111511,2,0,P|347:120|364:244,1,252.000009613037,2|0,3:0|0:0,0:0:0:0:
450,354,111768,6,0,B|370:351|339:283|385:280|350:218|259:218,1,252.000009613037,2|2,3:1|0:0,0:0:0:0:
261,218,112024,1,2,0:0:0:0:
0,384,112152,2,0,P|-4:336|110:319,1,168.000006408692,2|0,3:0|0:0,0:0:0:0:
199,377,112409,1,2,0:0:0:0:
199,377,112473,1,2,0:0:0:0:
199,377,112537,2,0,P|186:276|165:194,1,168.000006408692,2|2,3:0|0:0,0:0:0:0:
10,36,112793,6,0,P|83:29|56:133,1,168.000006408692,2|2,3:0|0:0,0:0:0:0:
24,156,112986,1,0,0:0:0:0:
24,156,113050,2,0,P|106:134|204:122,1,168.000006408692,2|2,3:0|0:0,0:0:0:0:
397,266,113306,5,2,3:0:0:0:
359,88,113434,1,2,3:0:0:0:
359,88,113498,1,2,3:0:0:0:
359,88,113563,1,2,3:0:0:0:
236,212,113691,1,2,3:0:0:0:
334,178,113819,6,2,B|285:105|359:89|346:26|346:26|359:89|433:73|419:160,2,324.103312558382,2|2|0,0:1|0:1|0:0,0:1:0:0:
454,360,114845,2,2,B|491:274|380:196|292:321|385:389,1,268.8,2|2,0:1|0:0,0:1:0:0:
486,207,115357,6,0,P|506:216|521:234,1,44.8,2|2,3:0|0:0,0:0:0:0:
277,250,115486,2,0,P|262:267|260:289,5,44.8,2|2|2|2|2|2,3:0|0:0|3:0|0:0|3:0|0:0,0:0:0:0:
454,123,115870,5,6,3:1:0:0:
229,115,115998,1,2,3:0:0:0:
512,49,116127,1,2,3:0:0:0:
512,49,116255,2,0,B|444:-21|343:67|372:75|389:99|298:176|229:115,1,336.000012817383,2|2,3:1|3:0,0:0:0:0:
84,271,116640,1,2,3:0:0:0:
84,271,116704,1,0,0:0:0:0:
84,271,116768,2,0,P|86:227|105:176,1,84.0000032043458,2|0,3:0|0:0,0:0:0:0:
116,4,116896,6,0,P|37:15|13:91,1,168.000006408692,2|2,3:0|3:0,0:0:0:0:
193,218,117152,1,2,3:0:0:0:
105,94,117281,1,0,3:0:0:0:
264,157,117409,2,0,B|322:170|322:170|275:136,3,84.0000032043458,2|2|2|2,3:0|3:0|3:0|3:0,0:0:0:0:
109,184,117665,2,0,B|80:177|80:177|89:184,6,42.0000016021729,2|0|0|0|0|0|0,3:1|0:0|3:0|0:0|3:0|0:0|3:0,0:0:0:0:
245,64,117922,6,0,P|217:186|199:311,1,252.000009613037,2|0,3:1|0:0,0:0:0:0:
199,311,118178,1,2,3:0:0:0:
419,373,118306,2,0,P|451:248|349:226,1,252.000009613037,2|0,3:1|0:0,0:0:0:0:
358,221,118562,1,0,3:0:0:0:
114,359,118691,2,0,P|47:322|82:246,1,168.000006408692,2|2,3:0|3:0,0:0:0:0:
184,28,118947,6,0,P|211:150|229:275,1,252.000009613037,2|2,3:1|0:0,0:0:0:0:
229,275,119204,1,2,3:0:0:0:
479,86,119332,1,2,3:1:0:0:
479,86,119460,2,0,P|458:169|448:251,1,168.000006408692,2|2,3:0|3:0,0:0:0:0:
448,341,119652,1,0,0:0:0:0:
448,341,119716,2,0,B|488:358|488:358|506:321,3,84.0000032043458,2|2|2|2,3:1|3:0|3:0|3:0,0:0:0:0:
355,138,119973,6,0,B|319:128|319:128|231:322|231:322|204:317,1,277.200002643585,2|0,3:1|0:0,0:0:0:0:
204,317,120229,1,2,3:0:0:0:
448,250,120357,2,0,B|283:223|283:223|263:231|263:231|117:208,1,336.000012817383,2|2,3:1|3:0,0:0:0:0:
21,55,120742,1,2,3:0:0:0:
21,55,120806,1,2,3:0:0:0:
21,55,120870,2,0,P|-10:87|40:127,1,84.0000032043458,2|2,3:0|3:0,0:0:0:0:
110,0,120998,6,0,P|197:-4|158:158,1,252.000009613037,2|2,3:1|3:0,0:0:0:0:
217,132,121255,1,2,3:0:0:0:
77,315,121383,2,0,B|86:355|86:355|123:332,1,84.0000032043458,2|0,3:1|0:0,0:0:0:0:
118,238,121511,2,0,P|117:190|105:149,3,84.0000032043458,2|2|2|2,3:0|3:0|3:0|3:0,0:0:0:0:
5,263,121768,2,0,P|3:242|0:221,6,42.0000016021729,2|0|2|0|2|0|0,3:0|0:0|3:0|0:0|3:0|0:0|0:0,0:0:0:0:
221,375,122024,6,0,P|335:328|270:202,1,252.000009613037,6|2,3:1|0:0,0:0:0:0:
311,222,122281,1,2,3:0:0:0:
174,7,122409,2,0,P|197:130|213:255,1,252.000009613037,2|2,3:1|0:0,0:0:0:0:
213,255,122665,1,2,3:0:0:0:
436,140,122793,6,0,B|455:90|455:90|444:155,1,84.0000032043458,0|2,3:0|0:0,0:0:0:0:
451,155,122922,2,0,B|431:204|431:204|442:139,1,84.0000032043458,2|2,3:0|0:0,0:0:0:0:
306,103,123050,6,0,B|250:56|180:130|203:134|218:151|155:216|101:178,1,252.000009613037,2|2,3:1|0:0,0:0:0:0:
101,178,123306,1,2,3:0:0:0:
288,191,123434,1,2,3:1:0:0:
48,54,123563,6,0,B|23:6|23:6|41:70,1,84.0000032043458,2|2,3:0|0:0,0:0:0:0:
55,72,123691,2,0,B|108:74|108:74|44:57,1,84.0000032043458,2|2,3:0|0:0,0:0:0:0:
35,70,123819,2,0,B|6:114|6:114|52:67,3,84.0000032043458,2|2|2|2,3:0|3:0|3:0|3:0,0:0:0:0:
268,3,124075,6,2,B|298:32|298:32|267:250,1,252.000009613037,2|2,3:1|0:0,0:0:0:0:
268,240,124332,1,2,3:0:0:0:
46,63,124460,2,0,B|76:92|76:92|45:310,1,252.000009613037,2|2,3:1|0:0,0:0:0:0:
122,373,124716,1,2,3:0:0:0:
122,373,124781,1,2,0:0:0:0:
122,373,124845,2,0,B|157:354|157:354|144:311,1,84.0000032043458,2|2,3:0|0:0,0:0:0:0:
192,139,124973,2,0,B|157:158|157:158|169:200,1,84.0000032043458,2|2,3:0|0:0,0:0:0:0:
350,384,125101,6,2,B|373:229|373:229|387:209|387:209|412:55,1,336.000012817383,2|2,3:0|3:0,0:0:0:0:
255,323,125486,2,0,L|268:238,1,84.0000032043458,2|2,3:0|3:0,0:0:0:0:
452,376,125614,2,0,L|465:291,3,84.0000032043458,2|2|2|2,3:0|3:0|3:0|3:0,0:0:0:0:
359,332,125870,2,2,L|365:289,6,42.0000016021729,2|2|2|2|2|2|2,3:0|0:0|0:0|0:0|0:0|0:0|0:0,0:0:0:0:
366,173,126127,6,2,B|288:157|308:86|312:56|332:35|332:35|326:82|334:110|383:107|368:161,1,311.094013415977,2|0,0:1|0:0,0:1:0:0:
437,318,127152,2,0,B|514:302|494:231|490:201|470:180|470:180|476:227|468:255|419:252|434:306,1,311.094013415977,2|0,0:1|0:0,0:1:0:0:
38,217,128178,6,2,B|-103:123|156:193|91:-46|-6:-55|-111:-41|-168:-17|481:66|61:122|-10:201|18:282|63:303|63:303|107:250|178:248|178:248|192:295|235:335|235:335|166:324|135:360,1,960.090680367738,2|0,0:1|3:0,0:1:0:0:
134,360,130229,5,6,3:2:0:0:
319,286,130357,1,2,1:3:0:0:
319,286,130422,1,2,1:3:0:0:
319,286,130486,2,0,P|342:340|304:394,1,112,8|2,1:0|3:0,0:0:0:0:
201,226,130742,2,0,L|191:154,2,56,2|2|8,1:3|1:3|1:0,0:0:0:0:
467,199,130998,2,0,P|385:182|252:173,1,168,2|0,1:3|0:0,0:0:0:0:
288,191,131255,5,0,3:0:0:0:
379,27,131383,1,2,1:3:0:0:
379,27,131447,1,2,1:3:0:0:
379,27,131511,2,0,P|386:79|390:144,1,112,8|2,1:0|3:0,0:0:0:0:
273,26,131768,1,2,3:0:0:0:
475,82,131896,2,0,L|521:78,6,28,2|2|2|2|2|2|2,1:3|1:3|1:3|1:3|1:3|1:3|1:3,0:0:0:0:
512,67,132152,1,2,1:3:0:0:
312,233,132281,6,0,P|259:205|265:156,1,112,2|2,3:0|1:3,0:0:0:0:
283,137,132473,1,2,1:3:0:0:
283,137,132537,2,0,L|272:25,1,112,8|2,1:0|3:0,0:0:0:0:
105,0,132793,6,0,L|116:112,1,112,2|2,3:0|1:3,0:0:0:0:
97,134,132986,1,2,1:3:0:0:
97,134,133050,2,0,P|67:177|15:169,1,112,2|8,3:0|1:0,0:0:0:0:
105,0,133306,5,2,3:0:0:0:
217,21,133434,1,2,1:3:0:0:
326,48,133563,2,0,P|381:38|459:32,1,112,8|2,1:0|3:0,0:0:0:0:
462,43,133755,1,0,0:0:0:0:
462,43,133819,1,2,3:0:0:0:
340,155,133947,1,8,1:0:0:0:
477,219,134075,2,2,L|473:186,6,28,10|0|0|0|0|0|0,1:0|0:0|0:0|0:0|0:0|0:0|0:0,0:1:0:0:
483,168,134332,5,2,3:0:0:0:
412,290,134460,1,2,1:3:0:0:
412,290,134524,1,2,1:3:0:0:
412,290,134588,2,0,P|358:292|278:312,1,112,8|2,1:0|3:0,0:0:0:0:
93,225,134845,6,0,L|82:170,2,56,2|0|8,3:0|0:0|1:0,0:0:0:0:
179,310,135101,2,0,L|172:342,6,28,2|0|2|0|2|0|0,1:3|0:0|1:3|0:0|1:3|0:0|0:0,0:0:0:0:
186,286,135357,5,2,3:0:0:0:
65,381,135486,1,2,1:3:0:0:
65,381,135550,1,2,1:3:0:0:
65,381,135614,2,0,P|16:337|37:278,1,112,8|2,1:0|3:0,0:0:0:0:
168,191,135870,2,0,L|206:178,6,28,2|0|0|0|8|0|0,3:0|0:0|0:0|0:0|1:0|0:0|0:0,0:0:0:0:
55,150,136127,2,0,L|42:112,6,28,8|0|0|0|0|0|0,1:0|1:0|1:0|1:0|1:0|1:0|1:0,0:0:0:0:
44,99,136383,5,2,3:0:0:0:
102,243,136511,1,2,1:3:0:0:
102,243,136575,1,2,1:3:0:0:
102,243,136640,2,0,P|162:251|259:268,1,112,8|2,1:0|3:0,0:0:0:0:
316,181,136896,1,2,3:0:0:0:
358,362,137024,1,2,1:3:0:0:
316,181,137152,2,0,P|309:232|303:324,1,112,2|8,3:0|1:0,0:0:0:0:
437,306,137409,5,2,3:0:0:0:
257,368,137537,1,2,1:3:0:0:
257,368,137601,1,2,1:3:0:0:
257,368,137665,2,0,P|194:357|132:352,1,112,8|2,1:0|3:0,0:0:0:0:
14,272,137922,5,2,3:0:0:0:
26,247,137986,1,0,0:0:0:0:
50,232,138050,1,8,1:0:0:0:
77,230,138114,1,0,0:0:0:0:
102,243,138178,2,2,P|115:180|128:122,1,112,10|0,1:0|0:0,0:1:0:0:
108,46,138434,1,2,3:0:0:0:
108,46,139715,5,0,0:0:0:0:
194,103,140143,5,0,0:0:0:0:
291,17,140485,5,2,0:0:0:0:
354,80,140827,5,0,0:0:0:0:
394,62,141168,5,0,0:0:0:0:
420,77,141511,5,2,0:0:0:0:
451,317,142281,6,0,L|461:253,3,56,2|2|2|2,3:0|3:0|3:0|3:0,0:0:0:0:
476,240,142537,5,4,3:2:0:0:
346,349,142665,1,2,1:3:0:0:
346,349,142729,1,2,1:3:0:0:
346,349,142793,2,0,P|320:290|394:257,1,112,8|2,1:0|3:0,0:0:0:0:
481,137,143050,5,2,3:0:0:0:
367,156,143178,1,8,1:0:0:0:
258,181,143306,2,0,L|147:162,1,112,8|2,1:0|1:3,0:0:0:0:
124,168,143498,1,2,1:3:0:0:
124,168,143563,5,2,3:0:0:0:
139,268,143691,2,0,L|151:331,2,56,2|2|8,1:3|1:3|1:0,0:0:0:0:
47,229,143947,1,2,3:0:0:0:
231,282,144075,1,2,3:0:0:0:
16,367,144204,2,0,P|81:317|160:343,1,168,8|2,1:0|1:3,0:0:0:0:
167,355,144460,1,2,3:0:0:0:
324,297,144588,6,0,B|348:267|348:267|339:222,2,74.6666666666667,2|2|2,3:0|3:0|3:0,0:0:0:0:
165,260,144845,2,0,B|158:218|158:218|182:188,2,74.6666666666667,2|2|2,3:0|3:0|3:0,0:0:0:0:
258,237,145101,1,2,3:0:0:0:
280,143,145272,5,2,3:0:0:0:
284,124,145357,1,2,3:0:0:0:
288,106,145442,1,2,3:0:0:0:
292,88,145528,1,2,3:0:0:0:
255,5,145613,5,6,3:0:0:0:
