osu file format v14

[General]
AudioFilename: audio.ogg
AudioLeadIn: 0
PreviewTime: 335930
Countdown: 0
SampleSet: Soft
StackLeniency: 0.7
Mode: 3
LetterboxInBreaks: 0
SpecialStyle: 0
WidescreenStoryboard: 1

[Editor]
DistanceSpacing: 1.4
BeatDivisor: 5
GridSize: 8
TimelineZoom: 2.700002

[Metadata]
Title:Aegleseeker ("Afterworld" Full Version)
TitleUnicode:Aegleseeker ("Afterworld" Full Version)
Artist:Silentroom vs. Frums
ArtistUnicode:Silentroom vs. Frums
Creator:Blocko
Version:Insane
Source:Arcaea
Tags:lowiro Esoteric Order Side Story Pack VI Lagrange Charon In My Heart Alter's 7K US United States Mania Tournament AUMT VGM chiptune speedcore j-core jcore song contest 2020 Arcaea楽曲コンテスト2020 winner frums.xyz frumsdotxyz Electronic Video Game Instrumental
BeatmapID:3950063
BeatmapSetID:1868798

[Difficulty]
HPDrainRate:7.6
CircleSize:7
OverallDifficulty:7.8
ApproachRate:7.5
SliderMultiplier:1.4
SliderTickRate:1

[Events]
//Background and Video events
0,0,"BG-1.jpg",0,0
//Break Periods
//Storyboard Layer 0 (Background)
//Storyboard Layer 1 (Fail)
//Storyboard Layer 2 (Pass)
//Storyboard Layer 3 (Foreground)
//Storyboard Layer 4 (Overlay)
//Storyboard Sound Samples

[TimingPoints]
573,256.410256410256,4,2,1,25,1,0
8778,-100,4,2,1,35,0,0
12880,-100,4,2,1,40,0,0
16983,-100,4,2,1,60,0,0
66214,-100,4,2,1,80,0,0
70316,256.410256410256,5,2,1,80,1,0
72880,256.410256410256,3,2,1,80,1,0
80572,256.410256410256,4,2,1,40,1,0
88777,-100,4,2,1,50,0,0
96982,-100,4,2,1,80,0,1
113392,-100,4,2,1,70,0,0
115443,-100,4,2,1,80,0,1
125700,-100,4,2,1,70,0,0
129802,-100,4,2,1,60,0,0
164674,-100,4,2,1,70,0,0
198777,-100,4,2,1,80,0,1
231341,-100,4,2,1,80,0,0
234161,-100,4,2,1,10,0,0
280571,-100,4,2,1,15,0,0
296982,-100,4,2,1,20,0,0
301084,-100,4,2,1,30,0,0
302110,-100,4,2,1,35,0,0
303136,-100,4,2,1,50,0,0
305187,-100,4,2,1,80,0,0
321597,-100,4,2,1,60,0,0
338007,-100,4,2,1,80,0,1
354418,-100,4,2,1,70,0,0
356469,-100,4,2,1,80,0,1
366725,-100,4,2,1,80,0,0
368777,-100,4,2,1,50,0,0
369802,-100,4,2,1,60,0,0
370828,-100,4,2,1,70,0,0
399546,-100,4,2,1,50,0,0
401597,-100,4,2,1,35,0,0
403648,-100,4,2,1,25,0,0
409802,-100,4,2,1,50,0,0
412879,-100,4,2,1,80,0,0

[HitObjects]
329,192,573,5,0,0:0:0:0:
475,192,573,1,0,0:0:0:0:
36,192,573,128,0,701:0:0:0:0:
182,192,701,128,0,893:0:0:0:0:
329,192,893,128,0,1085:0:0:0:0:
109,192,1085,128,0,1214:0:0:0:0:
256,192,1214,128,0,1342:0:0:0:0:
402,192,1342,128,0,1598:0:0:0:0:
36,192,1598,128,0,4675:0:0:0:0:
475,192,2880,128,0,4675:0:0:0:0:
256,192,4675,1,0,0:0:0:0:
329,192,6726,1,0,0:0:0:0:
475,192,6726,1,0,0:0:0:0:
402,192,7239,1,0,0:0:0:0:
329,192,7367,1,0,0:0:0:0:
256,192,7496,1,0,0:0:0:0:
182,192,7624,1,0,0:0:0:0:
109,192,7752,1,0,0:0:0:0:
36,192,7880,1,0,0:0:0:0:
475,192,8008,1,0,0:0:0:0:
402,192,8137,1,0,0:0:0:0:
329,192,8265,1,0,0:0:0:0:
256,192,8393,1,0,0:0:0:0:
182,192,8521,1,0,0:0:0:0:
109,192,8649,1,0,0:0:0:0:
36,192,8778,1,0,0:0:0:0:
402,192,8778,1,0,0:0:0:0:
329,192,8778,1,0,0:0:0:0:
475,192,8778,1,0,0:0:0:0:
36,192,9419,1,0,0:0:0:0:
329,192,9803,128,0,10829:0:0:0:0:
36,192,9803,1,0,0:0:0:0:
109,192,10444,1,0,0:0:0:0:
109,192,10701,1,0,0:0:0:0:
402,192,10829,128,0,11855:0:0:0:0:
109,192,10829,1,0,0:0:0:0:
182,192,11470,1,0,0:0:0:0:
475,192,11855,128,0,12880:0:0:0:0:
182,192,11855,1,0,0:0:0:0:
256,192,12239,1,0,0:0:0:0:
256,192,12496,1,0,0:0:0:0:
256,192,12752,1,0,0:0:0:0:
36,192,12880,128,0,13906:0:0:0:0:
256,192,12880,1,0,0:0:0:0:
329,192,13521,1,0,0:0:0:0:
109,192,13906,128,0,14931:0:0:0:0:
329,192,13906,1,0,0:0:0:0:
402,192,14547,1,0,0:0:0:0:
402,192,14803,1,0,0:0:0:0:
36,192,14931,1,0,0:0:0:0:
182,192,15156,1,0,0:0:0:0:
109,192,15268,1,0,0:0:0:0:
475,192,15444,1,0,0:0:0:0:
329,192,15558,1,0,0:0:0:0:
402,192,15658,1,0,0:0:0:0:
36,192,15957,1,0,0:0:0:0:
329,192,16128,1,0,0:0:0:0:
475,192,16214,1,0,0:0:0:0:
182,192,16384,1,0,0:0:0:0:
36,192,16470,1,0,0:0:0:0:
329,192,16641,1,0,0:0:0:0:
475,192,16726,1,0,0:0:0:0:
182,192,16897,1,0,0:0:0:0:
36,192,16983,128,0,20060:0:0:0:0:
475,192,16983,1,0,0:0:0:0:
109,192,16983,1,0,0:0:0:0:
402,192,16983,1,0,0:0:0:0:
329,192,17111,1,0,0:0:0:0:
182,192,17239,1,0,0:0:0:0:
256,192,17303,1,0,0:0:0:0:
402,192,17367,1,0,0:0:0:0:
475,192,17431,1,0,0:0:0:0:
256,192,17560,1,0,0:0:0:0:
329,192,17624,1,0,0:0:0:0:
402,192,17688,1,0,0:0:0:0:
475,192,17752,1,0,0:0:0:0:
182,192,17880,1,0,0:0:0:0:
256,192,17944,1,0,0:0:0:0:
329,192,18008,1,0,0:0:0:0:
402,192,18072,1,0,0:0:0:0:
109,192,18201,1,0,0:0:0:0:
182,192,18265,1,0,0:0:0:0:
256,192,18329,1,0,0:0:0:0:
329,192,18393,1,0,0:0:0:0:
109,192,18521,1,0,0:0:0:0:
182,192,18585,1,0,0:0:0:0:
256,192,18649,1,0,0:0:0:0:
402,192,18714,1,0,0:0:0:0:
109,192,18842,1,0,0:0:0:0:
182,192,18906,1,0,0:0:0:0:
329,192,18970,1,0,0:0:0:0:
475,192,19034,1,0,0:0:0:0:
109,192,19162,1,0,0:0:0:0:
256,192,19226,1,0,0:0:0:0:
402,192,19290,1,0,0:0:0:0:
475,192,19355,1,0,0:0:0:0:
182,192,19483,1,0,0:0:0:0:
329,192,19547,1,0,0:0:0:0:
402,192,19611,1,0,0:0:0:0:
475,192,19675,1,0,0:0:0:0:
256,192,19803,1,0,0:0:0:0:
329,192,19867,1,0,0:0:0:0:
402,192,19931,1,0,0:0:0:0:
475,192,19996,1,0,0:0:0:0:
182,192,20060,1,0,0:0:0:0:
109,192,20060,1,0,0:0:0:0:
329,192,20188,1,0,0:0:0:0:
402,192,20188,1,0,0:0:0:0:
402,192,20316,1,0,0:0:0:0:
329,192,20316,1,0,0:0:0:0:
256,192,20380,1,0,0:0:0:0:
182,192,20444,1,0,0:0:0:0:
329,192,20530,1,0,0:0:0:0:
109,192,20572,1,0,0:0:0:0:
182,192,20637,1,0,0:0:0:0:
402,192,20701,1,0,0:0:0:0:
329,192,20765,1,0,0:0:0:0:
36,192,20829,1,0,0:0:0:0:
475,192,20829,1,0,0:0:0:0:
256,192,20829,1,0,0:0:0:0:
475,192,21085,128,0,24162:0:0:0:0:
36,192,21085,1,0,0:0:0:0:
402,192,21085,1,0,0:0:0:0:
109,192,21085,1,0,0:0:0:0:
182,192,21214,1,0,0:0:0:0:
329,192,21342,1,0,0:0:0:0:
256,192,21406,1,0,0:0:0:0:
109,192,21470,1,0,0:0:0:0:
36,192,21534,1,0,0:0:0:0:
256,192,21662,1,0,0:0:0:0:
182,192,21726,1,0,0:0:0:0:
109,192,21790,1,0,0:0:0:0:
36,192,21855,1,0,0:0:0:0:
329,192,21983,1,0,0:0:0:0:
256,192,22047,1,0,0:0:0:0:
182,192,22111,1,0,0:0:0:0:
109,192,22175,1,0,0:0:0:0:
402,192,22303,1,0,0:0:0:0:
329,192,22367,1,0,0:0:0:0:
256,192,22431,1,0,0:0:0:0:
182,192,22496,1,0,0:0:0:0:
402,192,22624,1,0,0:0:0:0:
329,192,22688,1,0,0:0:0:0:
256,192,22752,1,0,0:0:0:0:
109,192,22816,1,0,0:0:0:0:
402,192,22944,1,0,0:0:0:0:
329,192,23008,1,0,0:0:0:0:
182,192,23072,1,0,0:0:0:0:
36,192,23137,1,0,0:0:0:0:
402,192,23265,1,0,0:0:0:0:
256,192,23329,1,0,0:0:0:0:
109,192,23393,1,0,0:0:0:0:
36,192,23457,1,0,0:0:0:0:
329,192,23585,1,0,0:0:0:0:
182,192,23649,1,0,0:0:0:0:
109,192,23714,1,0,0:0:0:0:
36,192,23778,1,0,0:0:0:0:
256,192,23906,1,0,0:0:0:0:
182,192,23970,1,0,0:0:0:0:
109,192,24034,1,0,0:0:0:0:
36,192,24098,1,0,0:0:0:0:
402,192,24162,1,0,0:0:0:0:
329,192,24162,1,0,0:0:0:0:
256,192,24290,1,0,0:0:0:0:
475,192,24419,1,0,0:0:0:0:
329,192,24419,1,0,0:0:0:0:
182,192,24547,1,0,0:0:0:0:
109,192,24611,1,0,0:0:0:0:
36,192,24611,1,0,0:0:0:0:
329,192,24739,1,0,0:0:0:0:
475,192,24803,1,0,0:0:0:0:
402,192,24803,1,0,0:0:0:0:
256,192,24867,1,0,0:0:0:0:
36,192,24931,1,0,0:0:0:0:
109,192,24974,1,0,0:0:0:0:
182,192,25017,1,0,0:0:0:0:
329,192,25060,1,0,0:0:0:0:
402,192,25188,1,0,0:0:0:0:
475,192,25188,1,0,0:0:0:0:
36,192,25188,1,0,0:0:0:0:
109,192,25316,1,0,0:0:0:0:
182,192,25380,1,0,0:0:0:0:
256,192,25444,1,0,0:0:0:0:
402,192,25572,1,0,0:0:0:0:
475,192,25572,1,0,0:0:0:0:
36,192,25572,1,0,0:0:0:0:
109,192,25701,1,0,0:0:0:0:
182,192,25765,1,0,0:0:0:0:
256,192,25829,1,0,0:0:0:0:
475,192,25957,1,0,0:0:0:0:
402,192,25957,1,0,0:0:0:0:
329,192,25957,1,0,0:0:0:0:
109,192,26214,1,0,0:0:0:0:
36,192,26214,1,0,0:0:0:0:
475,192,26214,1,0,0:0:0:0:
402,192,26342,1,0,0:0:0:0:
329,192,26406,1,0,0:0:0:0:
256,192,26470,1,0,0:0:0:0:
109,192,26598,1,0,0:0:0:0:
36,192,26598,1,0,0:0:0:0:
475,192,26598,1,0,0:0:0:0:
402,192,26726,1,0,0:0:0:0:
329,192,26790,1,0,0:0:0:0:
256,192,26855,1,0,0:0:0:0:
36,192,26983,1,0,0:0:0:0:
109,192,26983,1,0,0:0:0:0:
182,192,26983,1,0,0:0:0:0:
329,192,27239,1,0,0:0:0:0:
475,192,27239,1,0,0:0:0:0:
402,192,27239,1,0,0:0:0:0:
36,192,27367,1,0,0:0:0:0:
109,192,27431,1,0,0:0:0:0:
182,192,27496,1,0,0:0:0:0:
329,192,27624,1,0,0:0:0:0:
475,192,27624,1,0,0:0:0:0:
402,192,27624,1,0,0:0:0:0:
256,192,27688,1,0,0:0:0:0:
182,192,27752,1,0,0:0:0:0:
109,192,27816,1,0,0:0:0:0:
36,192,27880,1,0,0:0:0:0:
256,192,28008,1,0,0:0:0:0:
402,192,28008,1,0,0:0:0:0:
475,192,28008,1,0,0:0:0:0:
182,192,28265,1,0,0:0:0:0:
36,192,28265,1,0,0:0:0:0:
109,192,28265,1,0,0:0:0:0:
475,192,28393,1,0,0:0:0:0:
402,192,28457,1,0,0:0:0:0:
329,192,28521,1,0,0:0:0:0:
182,192,28649,1,0,0:0:0:0:
36,192,28649,1,0,0:0:0:0:
109,192,28649,1,0,0:0:0:0:
256,192,28714,1,0,0:0:0:0:
329,192,28778,1,0,0:0:0:0:
402,192,28842,1,0,0:0:0:0:
475,192,28906,1,0,0:0:0:0:
109,192,28906,1,0,0:0:0:0:
36,192,28906,1,0,0:0:0:0:
36,192,29034,1,0,0:0:0:0:
475,192,29034,1,0,0:0:0:0:
109,192,29034,1,0,0:0:0:0:
182,192,29120,1,0,0:0:0:0:
329,192,29205,1,0,0:0:0:0:
256,192,29290,1,0,0:0:0:0:
109,192,29290,1,0,0:0:0:0:
36,192,29290,1,0,0:0:0:0:
475,192,29419,1,0,0:0:0:0:
402,192,29483,1,0,0:0:0:0:
329,192,29547,1,0,0:0:0:0:
109,192,29675,1,0,0:0:0:0:
256,192,29675,1,0,0:0:0:0:
36,192,29675,1,0,0:0:0:0:
475,192,29803,1,0,0:0:0:0:
402,192,29867,1,0,0:0:0:0:
329,192,29931,1,0,0:0:0:0:
36,192,30060,1,0,0:0:0:0:
182,192,30060,1,0,0:0:0:0:
256,192,30060,1,0,0:0:0:0:
256,192,30316,1,0,0:0:0:0:
402,192,30316,1,0,0:0:0:0:
475,192,30316,1,0,0:0:0:0:
36,192,30444,1,0,0:0:0:0:
109,192,30508,1,0,0:0:0:0:
182,192,30572,1,0,0:0:0:0:
256,192,30701,1,0,0:0:0:0:
402,192,30701,1,0,0:0:0:0:
475,192,30701,1,0,0:0:0:0:
36,192,30829,1,0,0:0:0:0:
109,192,30893,1,0,0:0:0:0:
182,192,30957,1,0,0:0:0:0:
329,192,31085,1,0,0:0:0:0:
475,192,31085,1,0,0:0:0:0:
256,192,31085,1,0,0:0:0:0:
475,192,31342,1,0,0:0:0:0:
36,192,31342,1,0,0:0:0:0:
109,192,31342,1,0,0:0:0:0:
329,192,31470,1,0,0:0:0:0:
256,192,31534,1,0,0:0:0:0:
182,192,31598,1,0,0:0:0:0:
36,192,31726,1,0,0:0:0:0:
475,192,31726,1,0,0:0:0:0:
402,192,31726,1,0,0:0:0:0:
329,192,31855,1,0,0:0:0:0:
256,192,31919,1,0,0:0:0:0:
182,192,31983,1,0,0:0:0:0:
256,192,32111,1,0,0:0:0:0:
36,192,32111,1,0,0:0:0:0:
475,192,32111,1,0,0:0:0:0:
475,192,32367,1,0,0:0:0:0:
182,192,32367,1,0,0:0:0:0:
402,192,32367,1,0,0:0:0:0:
109,192,32431,1,0,0:0:0:0:
329,192,32496,1,0,0:0:0:0:
36,192,32496,1,0,0:0:0:0:
256,192,32560,1,0,0:0:0:0:
475,192,32624,1,0,0:0:0:0:
182,192,32624,1,0,0:0:0:0:
402,192,32688,1,0,0:0:0:0:
36,192,32752,1,0,0:0:0:0:
109,192,32752,1,0,0:0:0:0:
329,192,32752,1,0,0:0:0:0:
36,192,33008,1,0,0:0:0:0:
182,192,33008,1,0,0:0:0:0:
329,192,33008,1,0,0:0:0:0:
475,192,33008,1,0,0:0:0:0:
109,192,33393,1,0,0:0:0:0:
36,192,33393,1,0,0:0:0:0:
402,192,33393,1,0,0:0:0:0:
475,192,33393,1,0,0:0:0:0:
182,192,33649,1,0,0:0:0:0:
256,192,33649,1,0,0:0:0:0:
329,192,33649,1,0,0:0:0:0:
109,192,33778,1,0,0:0:0:0:
36,192,33906,1,0,0:0:0:0:
475,192,33906,1,0,0:0:0:0:
402,192,33906,1,0,0:0:0:0:
256,192,33906,1,0,0:0:0:0:
182,192,34098,1,0,0:0:0:0:
402,192,34098,1,0,0:0:0:0:
329,192,34098,1,0,0:0:0:0:
109,192,34290,1,0,0:0:0:0:
329,192,34290,1,0,0:0:0:0:
256,192,34290,1,0,0:0:0:0:
256,192,34483,1,0,0:0:0:0:
182,192,34483,1,0,0:0:0:0:
36,192,34483,1,0,0:0:0:0:
182,192,34675,1,0,0:0:0:0:
109,192,34675,1,0,0:0:0:0:
402,192,34675,1,0,0:0:0:0:
329,192,34803,1,0,0:0:0:0:
36,192,34931,1,0,0:0:0:0:
256,192,34931,1,0,0:0:0:0:
475,192,34931,1,0,0:0:0:0:
109,192,34931,1,0,0:0:0:0:
182,192,35124,1,0,0:0:0:0:
329,192,35124,1,0,0:0:0:0:
109,192,35124,1,0,0:0:0:0:
402,192,35316,1,0,0:0:0:0:
256,192,35316,1,0,0:0:0:0:
182,192,35316,1,0,0:0:0:0:
475,192,35508,1,0,0:0:0:0:
329,192,35508,1,0,0:0:0:0:
256,192,35508,1,0,0:0:0:0:
402,192,35701,1,0,0:0:0:0:
329,192,35701,1,0,0:0:0:0:
109,192,35701,1,0,0:0:0:0:
182,192,35829,1,0,0:0:0:0:
36,192,35957,1,0,0:0:0:0:
402,192,35957,1,0,0:0:0:0:
475,192,35957,1,0,0:0:0:0:
256,192,35957,1,0,0:0:0:0:
402,192,36149,1,0,0:0:0:0:
182,192,36149,1,0,0:0:0:0:
329,192,36149,1,0,0:0:0:0:
329,192,36342,1,0,0:0:0:0:
256,192,36342,1,0,0:0:0:0:
109,192,36342,1,0,0:0:0:0:
256,192,36534,1,0,0:0:0:0:
182,192,36534,1,0,0:0:0:0:
36,192,36534,1,0,0:0:0:0:
402,192,36726,1,0,0:0:0:0:
182,192,36726,1,0,0:0:0:0:
109,192,36726,1,0,0:0:0:0:
256,192,36855,1,0,0:0:0:0:
182,192,36983,1,0,0:0:0:0:
329,192,36983,1,0,0:0:0:0:
36,192,36983,1,0,0:0:0:0:
475,192,36983,1,0,0:0:0:0:
256,192,37175,1,0,0:0:0:0:
109,192,37175,1,0,0:0:0:0:
402,192,37175,1,0,0:0:0:0:
182,192,37367,1,0,0:0:0:0:
256,192,37367,1,0,0:0:0:0:
329,192,37367,1,0,0:0:0:0:
475,192,37496,1,0,0:0:0:0:
402,192,37496,1,0,0:0:0:0:
109,192,37496,1,0,0:0:0:0:
36,192,37496,1,0,0:0:0:0:
256,192,37752,1,0,0:0:0:0:
475,192,37752,1,0,0:0:0:0:
36,192,37752,1,0,0:0:0:0:
182,192,37880,1,0,0:0:0:0:
329,192,37880,1,0,0:0:0:0:
475,192,38008,1,0,0:0:0:0:
36,192,38008,1,0,0:0:0:0:
109,192,38008,1,0,0:0:0:0:
402,192,38008,1,0,0:0:0:0:
182,192,38201,1,0,0:0:0:0:
256,192,38201,1,0,0:0:0:0:
36,192,38201,1,0,0:0:0:0:
256,192,38393,1,0,0:0:0:0:
329,192,38393,1,0,0:0:0:0:
109,192,38393,1,0,0:0:0:0:
329,192,38585,1,0,0:0:0:0:
182,192,38585,1,0,0:0:0:0:
402,192,38585,1,0,0:0:0:0:
402,192,38778,1,0,0:0:0:0:
475,192,38778,1,0,0:0:0:0:
256,192,38778,1,0,0:0:0:0:
182,192,38906,1,0,0:0:0:0:
36,192,39034,1,0,0:0:0:0:
475,192,39034,1,0,0:0:0:0:
402,192,39034,1,0,0:0:0:0:
109,192,39034,1,0,0:0:0:0:
329,192,39226,1,0,0:0:0:0:
256,192,39226,1,0,0:0:0:0:
475,192,39226,1,0,0:0:0:0:
256,192,39419,1,0,0:0:0:0:
182,192,39419,1,0,0:0:0:0:
402,192,39419,1,0,0:0:0:0:
182,192,39611,1,0,0:0:0:0:
329,192,39611,1,0,0:0:0:0:
109,192,39611,1,0,0:0:0:0:
109,192,39803,1,0,0:0:0:0:
36,192,39803,1,0,0:0:0:0:
256,192,39803,1,0,0:0:0:0:
329,192,39931,1,0,0:0:0:0:
109,192,40060,1,0,0:0:0:0:
402,192,40060,1,0,0:0:0:0:
475,192,40060,1,0,0:0:0:0:
36,192,40060,1,0,0:0:0:0:
36,192,40252,1,0,0:0:0:0:
256,192,40252,1,0,0:0:0:0:
182,192,40252,1,0,0:0:0:0:
109,192,40444,1,0,0:0:0:0:
329,192,40444,1,0,0:0:0:0:
256,192,40444,1,0,0:0:0:0:
402,192,40637,1,0,0:0:0:0:
182,192,40637,1,0,0:0:0:0:
329,192,40637,1,0,0:0:0:0:
256,192,40829,1,0,0:0:0:0:
475,192,40829,1,0,0:0:0:0:
402,192,40829,1,0,0:0:0:0:
36,192,40957,1,0,0:0:0:0:
182,192,41085,1,0,0:0:0:0:
256,192,41085,1,0,0:0:0:0:
475,192,41149,1,0,0:0:0:0:
402,192,41214,1,0,0:0:0:0:
109,192,41214,1,0,0:0:0:0:
36,192,41278,1,0,0:0:0:0:
475,192,41342,1,0,0:0:0:0:
329,192,41342,1,0,0:0:0:0:
256,192,41342,1,0,0:0:0:0:
402,192,41598,1,0,0:0:0:0:
475,192,41598,1,0,0:0:0:0:
256,192,41598,1,0,0:0:0:0:
182,192,41726,1,0,0:0:0:0:
109,192,41790,1,0,0:0:0:0:
36,192,41855,1,0,0:0:0:0:
402,192,41983,1,0,0:0:0:0:
475,192,41983,1,0,0:0:0:0:
256,192,41983,1,0,0:0:0:0:
182,192,42111,1,0,0:0:0:0:
109,192,42175,1,0,0:0:0:0:
36,192,42239,1,0,0:0:0:0:
329,192,42239,1,0,0:0:0:0:
256,192,42239,1,0,0:0:0:0:
36,192,42367,1,0,0:0:0:0:
329,192,42367,1,0,0:0:0:0:
256,192,42367,1,0,0:0:0:0:
109,192,42624,1,0,0:0:0:0:
36,192,42624,1,0,0:0:0:0:
256,192,42624,1,0,0:0:0:0:
329,192,42752,1,0,0:0:0:0:
402,192,42816,1,0,0:0:0:0:
475,192,42880,1,0,0:0:0:0:
109,192,43008,1,0,0:0:0:0:
36,192,43008,1,0,0:0:0:0:
256,192,43008,1,0,0:0:0:0:
329,192,43137,1,0,0:0:0:0:
402,192,43201,1,0,0:0:0:0:
256,192,43265,1,0,0:0:0:0:
182,192,43265,1,0,0:0:0:0:
475,192,43265,1,0,0:0:0:0:
182,192,43393,1,0,0:0:0:0:
475,192,43393,1,0,0:0:0:0:
256,192,43393,1,0,0:0:0:0:
402,192,43649,1,0,0:0:0:0:
329,192,43649,1,0,0:0:0:0:
36,192,43649,1,0,0:0:0:0:
256,192,43778,1,0,0:0:0:0:
182,192,43842,1,0,0:0:0:0:
109,192,43906,1,0,0:0:0:0:
329,192,44034,1,0,0:0:0:0:
402,192,44034,1,0,0:0:0:0:
36,192,44034,1,0,0:0:0:0:
256,192,44162,1,0,0:0:0:0:
182,192,44226,1,0,0:0:0:0:
475,192,44290,1,0,0:0:0:0:
329,192,44290,1,0,0:0:0:0:
109,192,44290,1,0,0:0:0:0:
329,192,44419,1,0,0:0:0:0:
109,192,44419,1,0,0:0:0:0:
475,192,44419,1,0,0:0:0:0:
109,192,44675,1,0,0:0:0:0:
182,192,44675,1,0,0:0:0:0:
475,192,44675,1,0,0:0:0:0:
402,192,44803,1,0,0:0:0:0:
329,192,44867,1,0,0:0:0:0:
256,192,44931,1,0,0:0:0:0:
109,192,45060,1,0,0:0:0:0:
182,192,45060,1,0,0:0:0:0:
475,192,45060,1,0,0:0:0:0:
256,192,45188,1,0,0:0:0:0:
329,192,45252,1,0,0:0:0:0:
402,192,45316,1,0,0:0:0:0:
182,192,45316,1,0,0:0:0:0:
36,192,45316,1,0,0:0:0:0:
182,192,45444,1,0,0:0:0:0:
36,192,45444,1,0,0:0:0:0:
402,192,45444,1,0,0:0:0:0:
329,192,45530,1,0,0:0:0:0:
256,192,45615,1,0,0:0:0:0:
36,192,45701,1,0,0:0:0:0:
475,192,45701,1,0,0:0:0:0:
109,192,45701,1,0,0:0:0:0:
182,192,45829,1,0,0:0:0:0:
256,192,45893,1,0,0:0:0:0:
329,192,45957,1,0,0:0:0:0:
36,192,46085,1,0,0:0:0:0:
475,192,46085,1,0,0:0:0:0:
109,192,46085,1,0,0:0:0:0:
182,192,46214,1,0,0:0:0:0:
256,192,46278,1,0,0:0:0:0:
475,192,46342,1,0,0:0:0:0:
36,192,46342,1,0,0:0:0:0:
329,192,46342,1,0,0:0:0:0:
329,192,46470,1,0,0:0:0:0:
475,192,46470,1,0,0:0:0:0:
36,192,46470,1,0,0:0:0:0:
109,192,46726,1,0,0:0:0:0:
402,192,46726,1,0,0:0:0:0:
475,192,46726,1,0,0:0:0:0:
329,192,46855,1,0,0:0:0:0:
256,192,46919,1,0,0:0:0:0:
182,192,46983,1,0,0:0:0:0:
109,192,47111,1,0,0:0:0:0:
402,192,47111,1,0,0:0:0:0:
475,192,47111,1,0,0:0:0:0:
329,192,47239,1,0,0:0:0:0:
256,192,47303,1,0,0:0:0:0:
402,192,47367,1,0,0:0:0:0:
182,192,47367,1,0,0:0:0:0:
109,192,47367,1,0,0:0:0:0:
402,192,47496,1,0,0:0:0:0:
109,192,47496,1,0,0:0:0:0:
182,192,47496,1,0,0:0:0:0:
475,192,47752,1,0,0:0:0:0:
36,192,47752,1,0,0:0:0:0:
329,192,47752,1,0,0:0:0:0:
109,192,47880,1,0,0:0:0:0:
256,192,47944,1,0,0:0:0:0:
402,192,48008,1,0,0:0:0:0:
475,192,48137,1,0,0:0:0:0:
36,192,48137,1,0,0:0:0:0:
182,192,48137,1,0,0:0:0:0:
109,192,48265,1,0,0:0:0:0:
256,192,48329,1,0,0:0:0:0:
475,192,48393,1,0,0:0:0:0:
36,192,48393,1,0,0:0:0:0:
402,192,48393,1,0,0:0:0:0:
402,192,48521,1,0,0:0:0:0:
475,192,48521,1,0,0:0:0:0:
36,192,48521,1,0,0:0:0:0:
475,192,48778,1,0,0:0:0:0:
36,192,48778,1,0,0:0:0:0:
109,192,48778,1,0,0:0:0:0:
402,192,48820,1,0,0:0:0:0:
329,192,48863,1,0,0:0:0:0:
256,192,48906,1,0,0:0:0:0:
182,192,48949,1,0,0:0:0:0:
109,192,48991,1,0,0:0:0:0:
36,192,49034,1,0,0:0:0:0:
402,192,49034,1,0,0:0:0:0:
475,192,49034,1,0,0:0:0:0:
36,192,49803,1,0,0:0:0:0:
182,192,49803,1,0,0:0:0:0:
329,192,49803,1,0,0:0:0:0:
475,192,49803,1,0,0:0:0:0:
256,192,50060,1,0,0:0:0:0:
109,192,50145,1,0,0:0:0:0:
182,192,50231,1,0,0:0:0:0:
329,192,50316,1,0,0:0:0:0:
475,192,50316,1,0,0:0:0:0:
182,192,50402,1,0,0:0:0:0:
256,192,50487,1,0,0:0:0:0:
402,192,50572,1,0,0:0:0:0:
256,192,50658,1,0,0:0:0:0:
36,192,50701,1,0,0:0:0:0:
329,192,50743,1,0,0:0:0:0:
475,192,50829,128,0,51021:0:0:0:0:
36,192,50957,1,0,0:0:0:0:
402,192,51021,128,0,51214:0:0:0:0:
329,192,51214,128,0,51855:0:0:0:0:
256,192,51855,1,0,0:0:0:0:
475,192,51855,1,0,0:0:0:0:
109,192,51855,128,0,52025:0:0:0:0:
402,192,52025,128,0,52196:0:0:0:0:
109,192,52196,1,0,0:0:0:0:
329,192,52282,128,0,52496:0:0:0:0:
182,192,52367,1,0,0:0:0:0:
36,192,52496,128,0,52752:0:0:0:0:
475,192,52752,128,0,53008:0:0:0:0:
109,192,52752,1,0,0:0:0:0:
256,192,53008,128,0,53137:0:0:0:0:
109,192,53008,1,0,0:0:0:0:
182,192,53137,128,0,53265:0:0:0:0:
256,192,53265,128,0,53649:0:0:0:0:
402,192,53265,1,0,0:0:0:0:
475,192,53393,1,0,0:0:0:0:
36,192,53649,128,0,53906:0:0:0:0:
475,192,53649,1,0,0:0:0:0:
329,192,53906,128,0,54290:0:0:0:0:
182,192,53906,1,0,0:0:0:0:
256,192,53906,1,0,0:0:0:0:
36,192,54290,1,0,0:0:0:0:
109,192,54355,1,0,0:0:0:0:
182,192,54419,128,0,54590:0:0:0:0:
475,192,54419,1,0,0:0:0:0:
256,192,54590,128,0,54761:0:0:0:0:
329,192,54761,128,0,54931:0:0:0:0:
36,192,54803,1,0,0:0:0:0:
475,192,54931,128,0,55102:0:0:0:0:
36,192,55060,1,0,0:0:0:0:
182,192,55102,128,0,55273:0:0:0:0:
109,192,55273,128,0,55444:0:0:0:0:
36,192,55444,128,0,55615:0:0:0:0:
475,192,55615,128,0,55786:0:0:0:0:
402,192,55786,1,0,0:0:0:0:
329,192,55872,1,0,0:0:0:0:
256,192,55957,128,0,56085:0:0:0:0:
36,192,55957,1,0,0:0:0:0:
475,192,55957,1,0,0:0:0:0:
329,192,56085,128,0,56214:0:0:0:0:
402,192,56214,128,0,56342:0:0:0:0:
182,192,56342,128,0,56598:0:0:0:0:
475,192,56470,1,0,0:0:0:0:
109,192,56598,128,0,56855:0:0:0:0:
475,192,56855,128,0,57111:0:0:0:0:
36,192,56855,1,0,0:0:0:0:
329,192,57111,1,0,0:0:0:0:
36,192,57111,1,0,0:0:0:0:
256,192,57239,1,0,0:0:0:0:
182,192,57367,128,0,57752:0:0:0:0:
402,192,57367,1,0,0:0:0:0:
475,192,57496,1,0,0:0:0:0:
36,192,57752,128,0,58008:0:0:0:0:
475,192,57752,1,0,0:0:0:0:
402,192,58008,128,0,58137:0:0:0:0:
182,192,58008,1,0,0:0:0:0:
109,192,58008,1,0,0:0:0:0:
475,192,58137,128,0,58265:0:0:0:0:
329,192,58265,128,0,58393:0:0:0:0:
256,192,58265,1,0,0:0:0:0:
109,192,58350,1,0,0:0:0:0:
475,192,58393,128,0,59034:0:0:0:0:
36,192,58436,1,0,0:0:0:0:
402,192,58521,1,0,0:0:0:0:
182,192,58521,1,0,0:0:0:0:
256,192,58607,1,0,0:0:0:0:
109,192,58692,1,0,0:0:0:0:
402,192,58778,1,0,0:0:0:0:
329,192,58863,1,0,0:0:0:0:
36,192,58906,1,0,0:0:0:0:
256,192,58949,1,0,0:0:0:0:
182,192,59034,128,0,59226:0:0:0:0:
402,192,59162,1,0,0:0:0:0:
109,192,59226,128,0,59419:0:0:0:0:
36,192,59419,128,0,59675:0:0:0:0:
329,192,59675,128,0,59803:0:0:0:0:
402,192,59803,128,0,59931:0:0:0:0:
475,192,59931,128,0,60188:0:0:0:0:
182,192,60060,1,0,0:0:0:0:
36,192,60060,1,0,0:0:0:0:
329,192,60188,128,0,60444:0:0:0:0:
256,192,60444,128,0,60701:0:0:0:0:
475,192,60572,1,0,0:0:0:0:
109,192,60701,1,0,0:0:0:0:
182,192,60829,128,0,60957:0:0:0:0:
329,192,60957,128,0,61214:0:0:0:0:
36,192,60957,1,0,0:0:0:0:
402,192,61214,128,0,61470:0:0:0:0:
36,192,61214,1,0,0:0:0:0:
36,192,61470,128,0,62111:0:0:0:0:
256,192,61470,1,0,0:0:0:0:
475,192,61598,1,0,0:0:0:0:
475,192,61855,1,0,0:0:0:0:
475,192,62111,1,0,0:0:0:0:
329,192,62111,1,0,0:0:0:0:
256,192,62111,1,0,0:0:0:0:
182,192,62367,1,0,0:0:0:0:
36,192,62453,1,0,0:0:0:0:
109,192,62538,1,0,0:0:0:0:
256,192,62624,1,0,0:0:0:0:
475,192,62624,1,0,0:0:0:0:
109,192,62709,1,0,0:0:0:0:
182,192,62795,1,0,0:0:0:0:
329,192,62880,1,0,0:0:0:0:
182,192,62966,1,0,0:0:0:0:
36,192,63008,1,0,0:0:0:0:
256,192,63051,1,0,0:0:0:0:
402,192,63137,1,0,0:0:0:0:
256,192,63222,1,0,0:0:0:0:
36,192,63265,1,0,0:0:0:0:
329,192,63308,1,0,0:0:0:0:
475,192,63393,1,0,0:0:0:0:
329,192,63478,1,0,0:0:0:0:
402,192,63564,1,0,0:0:0:0:
182,192,63649,1,0,0:0:0:0:
402,192,63735,1,0,0:0:0:0:
475,192,63820,1,0,0:0:0:0:
109,192,63906,1,0,0:0:0:0:
256,192,63991,1,0,0:0:0:0:
402,192,64077,1,0,0:0:0:0:
475,192,64162,128,0,64547:0:0:0:0:
182,192,64162,1,0,0:0:0:0:
36,192,64162,1,0,0:0:0:0:
329,192,64547,1,0,0:0:0:0:
256,192,64611,1,0,0:0:0:0:
182,192,64675,128,0,64803:0:0:0:0:
402,192,64675,1,0,0:0:0:0:
109,192,64803,128,0,64931:0:0:0:0:
36,192,64931,128,0,65060:0:0:0:0:
256,192,65060,128,0,65316:0:0:0:0:
475,192,65060,1,0,0:0:0:0:
329,192,65316,128,0,65444:0:0:0:0:
36,192,65316,1,0,0:0:0:0:
402,192,65444,128,0,65572:0:0:0:0:
182,192,65444,1,0,0:0:0:0:
475,192,65572,128,0,65701:0:0:0:0:
256,192,65572,1,0,0:0:0:0:
36,192,65701,1,0,0:0:0:0:
182,192,65701,1,0,0:0:0:0:
109,192,65701,1,0,0:0:0:0:
256,192,65872,1,0,0:0:0:0:
402,192,65872,1,0,0:0:0:0:
475,192,65872,1,0,0:0:0:0:
109,192,66043,1,0,0:0:0:0:
329,192,66043,1,0,0:0:0:0:
182,192,66128,1,0,0:0:0:0:
402,192,66128,1,0,0:0:0:0:
256,192,66214,1,0,0:0:0:0:
36,192,66214,1,0,0:0:0:0:
475,192,66214,1,0,0:0:0:0:
402,192,66299,1,0,0:0:0:0:
109,192,66342,1,0,0:0:0:0:
329,192,66384,1,0,0:0:0:0:
475,192,66470,1,0,0:0:0:0:
182,192,66534,1,0,0:0:0:0:
109,192,66534,1,0,0:0:0:0:
329,192,66726,1,0,0:0:0:0:
475,192,66726,1,0,0:0:0:0:
182,192,66855,1,0,0:0:0:0:
36,192,66855,1,0,0:0:0:0:
329,192,66983,1,0,0:0:0:0:
475,192,66983,1,0,0:0:0:0:
182,192,67111,1,0,0:0:0:0:
36,192,67111,1,0,0:0:0:0:
329,192,67239,1,0,0:0:0:0:
475,192,67239,1,0,0:0:0:0:
109,192,67367,1,0,0:0:0:0:
256,192,67431,1,0,0:0:0:0:
402,192,67496,1,0,0:0:0:0:
475,192,67496,1,0,0:0:0:0:
182,192,67752,1,0,0:0:0:0:
329,192,67752,1,0,0:0:0:0:
329,192,67944,1,0,0:0:0:0:
182,192,67944,1,0,0:0:0:0:
329,192,68137,1,0,0:0:0:0:
182,192,68137,1,0,0:0:0:0:
256,192,68265,1,0,0:0:0:0:
475,192,68265,1,0,0:0:0:0:
36,192,68265,1,0,0:0:0:0:
402,192,68393,1,0,0:0:0:0:
256,192,68457,1,0,0:0:0:0:
109,192,68521,1,0,0:0:0:0:
36,192,68521,1,0,0:0:0:0:
182,192,68778,1,0,0:0:0:0:
36,192,68778,1,0,0:0:0:0:
329,192,68842,1,0,0:0:0:0:
475,192,68970,1,0,0:0:0:0:
402,192,68970,1,0,0:0:0:0:
109,192,69098,1,0,0:0:0:0:
182,192,69162,1,0,0:0:0:0:
256,192,69226,1,0,0:0:0:0:
329,192,69290,1,0,0:0:0:0:
402,192,69290,1,0,0:0:0:0:
182,192,69483,1,0,0:0:0:0:
329,192,69547,1,0,0:0:0:0:
475,192,69547,1,0,0:0:0:0:
36,192,69803,1,0,0:0:0:0:
109,192,69803,1,0,0:0:0:0:
329,192,69867,1,0,0:0:0:0:
256,192,69931,1,0,0:0:0:0:
182,192,69996,1,0,0:0:0:0:
402,192,70060,1,0,0:0:0:0:
475,192,70060,1,0,0:0:0:0:
36,192,70252,1,0,0:0:0:0:
182,192,70252,1,0,0:0:0:0:
475,192,70316,1,0,0:0:0:0:
402,192,70358,1,0,0:0:0:0:
329,192,70401,1,0,0:0:0:0:
109,192,70486,1,0,0:0:0:0:
182,192,70486,1,0,0:0:0:0:
475,192,70572,1,0,0:0:0:0:
329,192,70572,1,0,0:0:0:0:
109,192,70764,1,0,0:0:0:0:
256,192,70828,1,0,0:0:0:0:
402,192,70828,1,0,0:0:0:0:
182,192,70957,1,0,0:0:0:0:
36,192,70957,1,0,0:0:0:0:
329,192,71085,1,0,0:0:0:0:
475,192,71085,1,0,0:0:0:0:
256,192,71149,1,0,0:0:0:0:
109,192,71213,1,0,0:0:0:0:
182,192,71298,1,0,0:0:0:0:
329,192,71298,1,0,0:0:0:0:
402,192,71384,1,0,0:0:0:0:
36,192,71469,1,0,0:0:0:0:
182,192,71469,1,0,0:0:0:0:
256,192,71533,1,0,0:0:0:0:
329,192,71598,1,0,0:0:0:0:
475,192,71598,1,0,0:0:0:0:
182,192,71768,1,0,0:0:0:0:
109,192,71768,1,0,0:0:0:0:
402,192,71854,1,0,0:0:0:0:
329,192,71854,1,0,0:0:0:0:
109,192,72025,1,0,0:0:0:0:
36,192,72025,1,0,0:0:0:0:
256,192,72110,1,0,0:0:0:0:
475,192,72110,1,0,0:0:0:0:
402,192,72174,1,0,0:0:0:0:
329,192,72239,1,0,0:0:0:0:
182,192,72281,1,0,0:0:0:0:
109,192,72324,1,0,0:0:0:0:
36,192,72367,1,0,0:0:0:0:
256,192,72367,1,0,0:0:0:0:
329,192,72495,1,0,0:0:0:0:
402,192,72495,1,0,0:0:0:0:
182,192,72623,1,0,0:0:0:0:
109,192,72623,1,0,0:0:0:0:
475,192,72880,1,0,0:0:0:0:
36,192,72880,1,0,0:0:0:0:
329,192,72944,1,0,0:0:0:0:
36,192,73136,1,0,0:0:0:0:
402,192,73136,1,0,0:0:0:0:
329,192,73200,1,0,0:0:0:0:
256,192,73264,1,0,0:0:0:0:
182,192,73328,1,0,0:0:0:0:
109,192,73392,1,0,0:0:0:0:
475,192,73392,1,0,0:0:0:0:
475,192,73649,1,0,0:0:0:0:
329,192,73649,1,0,0:0:0:0:
182,192,73745,1,0,0:0:0:0:
36,192,73809,1,0,0:0:0:0:
329,192,73905,1,0,0:0:0:0:
402,192,73905,1,0,0:0:0:0:
182,192,74033,1,0,0:0:0:0:
109,192,74033,1,0,0:0:0:0:
475,192,74290,1,0,0:0:0:0:
402,192,74290,1,0,0:0:0:0:
256,192,74375,1,0,0:0:0:0:
36,192,74461,1,0,0:0:0:0:
109,192,74503,1,0,0:0:0:0:
182,192,74546,1,0,0:0:0:0:
329,192,74610,1,0,0:0:0:0:
475,192,74674,1,0,0:0:0:0:
402,192,74674,1,0,0:0:0:0:
36,192,74931,1,0,0:0:0:0:
109,192,74931,1,0,0:0:0:0:
329,192,74995,1,0,0:0:0:0:
256,192,75059,1,0,0:0:0:0:
182,192,75123,1,0,0:0:0:0:
475,192,75187,1,0,0:0:0:0:
402,192,75187,1,0,0:0:0:0:
182,192,75315,1,0,0:0:0:0:
329,192,75315,1,0,0:0:0:0:
109,192,75444,1,0,0:0:0:0:
36,192,75444,1,0,0:0:0:0:
182,192,75636,1,0,0:0:0:0:
256,192,75700,1,0,0:0:0:0:
402,192,75700,1,0,0:0:0:0:
329,192,75892,1,0,0:0:0:0:
182,192,75956,1,0,0:0:0:0:
36,192,75956,1,0,0:0:0:0:
329,192,76127,1,0,0:0:0:0:
475,192,76127,1,0,0:0:0:0:
182,192,76213,1,0,0:0:0:0:
109,192,76213,1,0,0:0:0:0:
256,192,76298,1,0,0:0:0:0:
402,192,76384,1,0,0:0:0:0:
329,192,76384,1,0,0:0:0:0:
109,192,76469,1,0,0:0:0:0:
36,192,76469,1,0,0:0:0:0:
329,192,76726,1,0,0:0:0:0:
36,192,76726,1,0,0:0:0:0:
402,192,76790,1,0,0:0:0:0:
475,192,76854,1,0,0:0:0:0:
109,192,76982,1,0,0:0:0:0:
182,192,76982,1,0,0:0:0:0:
329,192,77078,1,0,0:0:0:0:
402,192,77078,1,0,0:0:0:0:
109,192,77174,1,0,0:0:0:0:
182,192,77174,1,0,0:0:0:0:
329,192,77271,1,0,0:0:0:0:
402,192,77271,1,0,0:0:0:0:
182,192,77367,1,0,0:0:0:0:
109,192,77367,1,0,0:0:0:0:
256,192,77431,1,0,0:0:0:0:
475,192,77495,1,0,0:0:0:0:
402,192,77495,1,0,0:0:0:0:
36,192,77751,1,0,0:0:0:0:
182,192,77751,1,0,0:0:0:0:
329,192,77847,1,0,0:0:0:0:
475,192,77912,1,0,0:0:0:0:
109,192,78008,1,0,0:0:0:0:
256,192,78008,1,0,0:0:0:0:
329,192,78136,1,0,0:0:0:0:
182,192,78136,1,0,0:0:0:0:
256,192,78264,1,0,0:0:0:0:
402,192,78264,1,0,0:0:0:0:
109,192,78328,1,0,0:0:0:0:
329,192,78424,1,0,0:0:0:0:
475,192,78424,1,0,0:0:0:0:
36,192,78521,1,0,0:0:0:0:
182,192,78521,1,0,0:0:0:0:
256,192,78585,1,0,0:0:0:0:
329,192,78649,1,0,0:0:0:0:
402,192,78713,1,0,0:0:0:0:
475,192,78841,1,0,0:0:0:0:
36,192,78841,1,0,0:0:0:0:
329,192,78905,1,0,0:0:0:0:
256,192,78969,1,0,0:0:0:0:
182,192,79033,1,0,0:0:0:0:
109,192,79097,1,0,0:0:0:0:
475,192,79194,1,0,0:0:0:0:
402,192,79194,1,0,0:0:0:0:
182,192,79258,1,0,0:0:0:0:
329,192,79354,1,0,0:0:0:0:
109,192,79418,1,0,0:0:0:0:
36,192,79418,1,0,0:0:0:0:
256,192,79482,1,0,0:0:0:0:
475,192,79546,1,0,0:0:0:0:
402,192,79610,1,0,0:0:0:0:
329,192,79674,1,0,0:0:0:0:
256,192,79738,1,0,0:0:0:0:
109,192,79803,1,0,0:0:0:0:
475,192,79867,1,0,0:0:0:0:
402,192,79931,1,0,0:0:0:0:
329,192,79995,1,0,0:0:0:0:
182,192,80059,1,0,0:0:0:0:
36,192,80110,1,0,0:0:0:0:
475,192,80162,1,0,0:0:0:0:
402,192,80213,1,0,0:0:0:0:
256,192,80264,1,0,0:0:0:0:
109,192,80315,1,0,0:0:0:0:
36,192,80367,1,0,0:0:0:0:
475,192,80418,1,0,0:0:0:0:
329,192,80469,1,0,0:0:0:0:
256,192,80521,1,0,0:0:0:0:
182,192,80572,128,0,80956:0:0:0:0:
109,192,80572,1,0,0:0:0:0:
36,192,80956,128,0,81597:0:0:0:0:
475,192,80956,1,0,0:0:0:0:
402,192,81213,1,0,0:0:0:0:
402,192,81341,1,0,0:0:0:0:
402,192,81469,1,0,0:0:0:0:
329,192,81597,128,0,81982:0:0:0:0:
182,192,81597,1,0,0:0:0:0:
109,192,81725,1,0,0:0:0:0:
36,192,81854,1,0,0:0:0:0:
475,192,81982,128,0,82623:0:0:0:0:
402,192,81982,1,0,0:0:0:0:
109,192,82238,1,0,0:0:0:0:
109,192,82366,1,0,0:0:0:0:
109,192,82495,1,0,0:0:0:0:
329,192,82623,128,0,83007:0:0:0:0:
36,192,82623,1,0,0:0:0:0:
182,192,82751,1,0,0:0:0:0:
109,192,82879,1,0,0:0:0:0:
36,192,83007,128,0,83648:0:0:0:0:
475,192,83007,1,0,0:0:0:0:
182,192,83264,1,0,0:0:0:0:
475,192,83392,1,0,0:0:0:0:
402,192,83456,1,0,0:0:0:0:
329,192,83520,1,0,0:0:0:0:
256,192,83648,128,0,83905:0:0:0:0:
109,192,83777,1,0,0:0:0:0:
182,192,83905,1,0,0:0:0:0:
256,192,84033,128,0,84418:0:0:0:0:
402,192,84033,1,0,0:0:0:0:
329,192,84161,1,0,0:0:0:0:
182,192,84289,1,0,0:0:0:0:
109,192,84418,1,0,0:0:0:0:
475,192,84418,128,0,84674:0:0:0:0:
36,192,84546,1,0,0:0:0:0:
329,192,84674,128,0,85059:0:0:0:0:
256,192,84674,1,0,0:0:0:0:
182,192,85059,128,0,85700:0:0:0:0:
109,192,85059,1,0,0:0:0:0:
329,192,85315,1,0,0:0:0:0:
402,192,85379,1,0,0:0:0:0:
475,192,85443,1,0,0:0:0:0:
256,192,85571,1,0,0:0:0:0:
402,192,85700,128,0,86084:0:0:0:0:
36,192,85700,1,0,0:0:0:0:
109,192,85828,1,0,0:0:0:0:
182,192,85956,1,0,0:0:0:0:
109,192,86084,128,0,86725:0:0:0:0:
329,192,86084,1,0,0:0:0:0:
475,192,86341,1,0,0:0:0:0:
402,192,86405,1,0,0:0:0:0:
329,192,86469,1,0,0:0:0:0:
256,192,86597,1,0,0:0:0:0:
475,192,86725,128,0,87751:0:0:0:0:
36,192,86725,1,0,0:0:0:0:
182,192,87110,1,0,0:0:0:0:
329,192,87238,1,0,0:0:0:0:
109,192,87366,1,0,0:0:0:0:
256,192,87495,1,0,0:0:0:0:
36,192,87623,1,0,0:0:0:0:
109,192,87687,1,0,0:0:0:0:
182,192,87751,1,0,0:0:0:0:
402,192,87751,1,0,0:0:0:0:
329,192,87879,1,0,0:0:0:0:
256,192,88007,1,0,0:0:0:0:
36,192,88136,128,0,88777:0:0:0:0:
475,192,88136,1,0,0:0:0:0:
256,192,88392,1,0,0:0:0:0:
329,192,88456,1,0,0:0:0:0:
402,192,88520,1,0,0:0:0:0:
109,192,88584,1,0,0:0:0:0:
182,192,88648,1,0,0:0:0:0:
256,192,88713,1,0,0:0:0:0:
329,192,88777,128,0,89161:0:0:0:0:
475,192,88777,1,0,0:0:0:0:
402,192,88777,1,0,0:0:0:0:
36,192,89033,1,0,0:0:0:0:
182,192,89161,128,0,89802:0:0:0:0:
36,192,89289,1,0,0:0:0:0:
329,192,89418,1,0,0:0:0:0:
36,192,89546,1,0,0:0:0:0:
329,192,89546,1,0,0:0:0:0:
329,192,89674,1,0,0:0:0:0:
402,192,89802,128,0,90187:0:0:0:0:
109,192,89802,1,0,0:0:0:0:
256,192,89930,1,0,0:0:0:0:
109,192,90059,1,0,0:0:0:0:
329,192,90187,128,0,90828:0:0:0:0:
475,192,90187,1,0,0:0:0:0:
109,192,90315,1,0,0:0:0:0:
182,192,90443,1,0,0:0:0:0:
109,192,90571,1,0,0:0:0:0:
182,192,90571,1,0,0:0:0:0:
182,192,90700,1,0,0:0:0:0:
475,192,90828,128,0,91213:0:0:0:0:
256,192,90828,1,0,0:0:0:0:
109,192,90956,1,0,0:0:0:0:
256,192,91084,1,0,0:0:0:0:
36,192,91213,128,0,91854:0:0:0:0:
402,192,91213,1,0,0:0:0:0:
256,192,91341,1,0,0:0:0:0:
182,192,91469,1,0,0:0:0:0:
475,192,91597,1,0,0:0:0:0:
402,192,91661,1,0,0:0:0:0:
329,192,91725,1,0,0:0:0:0:
256,192,91854,128,0,92110:0:0:0:0:
475,192,91854,1,0,0:0:0:0:
109,192,91982,1,0,0:0:0:0:
475,192,92110,1,0,0:0:0:0:
256,192,92238,128,0,92495:0:0:0:0:
182,192,92238,1,0,0:0:0:0:
475,192,92366,1,0,0:0:0:0:
109,192,92495,1,0,0:0:0:0:
329,192,92623,1,0,0:0:0:0:
475,192,92623,128,0,92879:0:0:0:0:
182,192,92751,1,0,0:0:0:0:
402,192,92879,128,0,93264:0:0:0:0:
36,192,92879,1,0,0:0:0:0:
256,192,93007,1,0,0:0:0:0:
36,192,93136,1,0,0:0:0:0:
329,192,93264,128,0,93905:0:0:0:0:
182,192,93264,1,0,0:0:0:0:
36,192,93392,1,0,0:0:0:0:
109,192,93520,1,0,0:0:0:0:
36,192,93648,1,0,0:0:0:0:
256,192,93777,1,0,0:0:0:0:
182,192,93905,128,0,94289:0:0:0:0:
475,192,93905,1,0,0:0:0:0:
402,192,94033,1,0,0:0:0:0:
475,192,94161,1,0,0:0:0:0:
109,192,94289,128,0,94930:0:0:0:0:
329,192,94289,1,0,0:0:0:0:
475,192,94418,1,0,0:0:0:0:
256,192,94546,1,0,0:0:0:0:
475,192,94674,1,0,0:0:0:0:
182,192,94802,128,0,94930:0:0:0:0:
475,192,94930,1,0,0:0:0:0:
256,192,95187,128,0,96982:0:0:0:0:
36,192,96982,1,0,0:0:0:0:
329,192,96982,1,0,0:0:0:0:
402,192,96982,1,0,0:0:0:0:
109,192,97110,1,0,0:0:0:0:
256,192,97174,1,0,0:0:0:0:
329,192,97238,1,0,0:0:0:0:
475,192,97366,1,0,0:0:0:0:
402,192,97366,1,0,0:0:0:0:
36,192,97366,1,0,0:0:0:0:
182,192,97495,1,0,0:0:0:0:
329,192,97559,1,0,0:0:0:0:
402,192,97623,1,0,0:0:0:0:
182,192,97751,1,0,0:0:0:0:
36,192,97751,1,0,0:0:0:0:
475,192,97751,1,0,0:0:0:0:
475,192,98007,1,0,0:0:0:0:
109,192,98007,1,0,0:0:0:0:
182,192,98007,1,0,0:0:0:0:
402,192,98136,1,0,0:0:0:0:
256,192,98200,1,0,0:0:0:0:
182,192,98264,1,0,0:0:0:0:
36,192,98392,1,0,0:0:0:0:
109,192,98392,1,0,0:0:0:0:
475,192,98392,1,0,0:0:0:0:
329,192,98520,1,0,0:0:0:0:
256,192,98584,1,0,0:0:0:0:
109,192,98648,1,0,0:0:0:0:
182,192,98648,1,0,0:0:0:0:
402,192,98648,1,0,0:0:0:0:
109,192,98777,1,0,0:0:0:0:
402,192,98777,1,0,0:0:0:0:
182,192,98777,1,0,0:0:0:0:
256,192,99033,1,0,0:0:0:0:
475,192,99033,1,0,0:0:0:0:
402,192,99033,1,0,0:0:0:0:
36,192,99161,1,0,0:0:0:0:
182,192,99225,1,0,0:0:0:0:
329,192,99289,1,0,0:0:0:0:
36,192,99418,1,0,0:0:0:0:
109,192,99418,1,0,0:0:0:0:
256,192,99418,1,0,0:0:0:0:
475,192,99546,1,0,0:0:0:0:
329,192,99610,1,0,0:0:0:0:
182,192,99674,1,0,0:0:0:0:
256,192,99802,1,0,0:0:0:0:
402,192,99802,1,0,0:0:0:0:
109,192,99802,1,0,0:0:0:0:
109,192,100059,1,0,0:0:0:0:
36,192,100059,1,0,0:0:0:0:
182,192,100059,1,0,0:0:0:0:
475,192,100187,1,0,0:0:0:0:
182,192,100315,1,0,0:0:0:0:
256,192,100315,1,0,0:0:0:0:
329,192,100315,1,0,0:0:0:0:
36,192,100443,1,0,0:0:0:0:
329,192,100571,1,0,0:0:0:0:
475,192,100571,1,0,0:0:0:0:
402,192,100571,1,0,0:0:0:0:
109,192,100764,1,0,0:0:0:0:
256,192,100764,1,0,0:0:0:0:
402,192,100764,1,0,0:0:0:0:
329,192,100956,1,0,0:0:0:0:
182,192,100956,1,0,0:0:0:0:
402,192,101020,1,0,0:0:0:0:
109,192,101084,1,0,0:0:0:0:
36,192,101084,1,0,0:0:0:0:
475,192,101084,1,0,0:0:0:0:
329,192,101213,1,0,0:0:0:0:
256,192,101277,1,0,0:0:0:0:
109,192,101341,1,0,0:0:0:0:
402,192,101469,1,0,0:0:0:0:
475,192,101469,1,0,0:0:0:0:
36,192,101469,1,0,0:0:0:0:
329,192,101597,1,0,0:0:0:0:
182,192,101661,1,0,0:0:0:0:
109,192,101725,1,0,0:0:0:0:
475,192,101854,1,0,0:0:0:0:
329,192,101854,1,0,0:0:0:0:
256,192,101854,1,0,0:0:0:0:
36,192,102110,1,0,0:0:0:0:
475,192,102110,1,0,0:0:0:0:
182,192,102110,1,0,0:0:0:0:
109,192,102238,1,0,0:0:0:0:
256,192,102302,1,0,0:0:0:0:
402,192,102366,1,0,0:0:0:0:
36,192,102495,1,0,0:0:0:0:
109,192,102495,1,0,0:0:0:0:
475,192,102495,1,0,0:0:0:0:
256,192,102623,1,0,0:0:0:0:
329,192,102687,1,0,0:0:0:0:
402,192,102751,1,0,0:0:0:0:
36,192,102751,1,0,0:0:0:0:
182,192,102751,1,0,0:0:0:0:
402,192,102879,1,0,0:0:0:0:
182,192,102879,1,0,0:0:0:0:
36,192,102879,1,0,0:0:0:0:
475,192,103136,1,0,0:0:0:0:
36,192,103136,1,0,0:0:0:0:
402,192,103136,1,0,0:0:0:0:
109,192,103200,1,0,0:0:0:0:
256,192,103264,1,0,0:0:0:0:
329,192,103392,1,0,0:0:0:0:
475,192,103520,1,0,0:0:0:0:
36,192,103520,1,0,0:0:0:0:
109,192,103520,1,0,0:0:0:0:
402,192,103584,1,0,0:0:0:0:
256,192,103648,1,0,0:0:0:0:
182,192,103777,1,0,0:0:0:0:
36,192,103905,1,0,0:0:0:0:
475,192,103905,1,0,0:0:0:0:
329,192,103905,1,0,0:0:0:0:
256,192,103969,1,0,0:0:0:0:
182,192,104033,1,0,0:0:0:0:
329,192,104161,1,0,0:0:0:0:
109,192,104161,1,0,0:0:0:0:
36,192,104161,1,0,0:0:0:0:
256,192,104289,1,0,0:0:0:0:
402,192,104418,1,0,0:0:0:0:
475,192,104418,1,0,0:0:0:0:
182,192,104418,1,0,0:0:0:0:
256,192,104546,1,0,0:0:0:0:
475,192,104674,1,0,0:0:0:0:
329,192,104674,1,0,0:0:0:0:
109,192,104674,1,0,0:0:0:0:
36,192,104866,1,0,0:0:0:0:
182,192,104866,1,0,0:0:0:0:
402,192,104866,1,0,0:0:0:0:
329,192,105059,1,0,0:0:0:0:
109,192,105059,1,0,0:0:0:0:
402,192,105123,1,0,0:0:0:0:
36,192,105187,1,0,0:0:0:0:
475,192,105187,1,0,0:0:0:0:
256,192,105187,1,0,0:0:0:0:
329,192,105315,1,0,0:0:0:0:
182,192,105379,1,0,0:0:0:0:
36,192,105443,1,0,0:0:0:0:
402,192,105571,1,0,0:0:0:0:
109,192,105571,1,0,0:0:0:0:
256,192,105571,1,0,0:0:0:0:
475,192,105700,1,0,0:0:0:0:
329,192,105764,1,0,0:0:0:0:
182,192,105828,1,0,0:0:0:0:
36,192,105956,1,0,0:0:0:0:
475,192,105956,1,0,0:0:0:0:
256,192,105956,1,0,0:0:0:0:
329,192,106213,1,0,0:0:0:0:
402,192,106213,1,0,0:0:0:0:
182,192,106213,1,0,0:0:0:0:
36,192,106341,1,0,0:0:0:0:
256,192,106405,1,0,0:0:0:0:
475,192,106469,1,0,0:0:0:0:
329,192,106597,1,0,0:0:0:0:
109,192,106597,1,0,0:0:0:0:
182,192,106597,1,0,0:0:0:0:
475,192,106725,1,0,0:0:0:0:
256,192,106789,1,0,0:0:0:0:
36,192,106854,1,0,0:0:0:0:
109,192,106854,1,0,0:0:0:0:
329,192,106854,1,0,0:0:0:0:
329,192,106982,1,0,0:0:0:0:
36,192,106982,1,0,0:0:0:0:
109,192,106982,1,0,0:0:0:0:
475,192,107238,1,0,0:0:0:0:
36,192,107238,1,0,0:0:0:0:
329,192,107238,1,0,0:0:0:0:
109,192,107366,1,0,0:0:0:0:
256,192,107430,1,0,0:0:0:0:
402,192,107495,1,0,0:0:0:0:
182,192,107623,1,0,0:0:0:0:
36,192,107623,1,0,0:0:0:0:
475,192,107623,1,0,0:0:0:0:
402,192,107751,1,0,0:0:0:0:
256,192,107815,1,0,0:0:0:0:
109,192,107879,1,0,0:0:0:0:
329,192,108007,1,0,0:0:0:0:
475,192,108007,1,0,0:0:0:0:
36,192,108007,1,0,0:0:0:0:
182,192,108264,1,0,0:0:0:0:
36,192,108264,1,0,0:0:0:0:
256,192,108264,1,0,0:0:0:0:
329,192,108392,1,0,0:0:0:0:
109,192,108520,1,0,0:0:0:0:
256,192,108520,1,0,0:0:0:0:
402,192,108520,1,0,0:0:0:0:
182,192,108648,1,0,0:0:0:0:
256,192,108777,1,0,0:0:0:0:
475,192,108777,1,0,0:0:0:0:
329,192,108777,1,0,0:0:0:0:
109,192,108969,1,0,0:0:0:0:
256,192,108969,1,0,0:0:0:0:
402,192,108969,1,0,0:0:0:0:
182,192,109161,1,0,0:0:0:0:
329,192,109161,1,0,0:0:0:0:
109,192,109225,1,0,0:0:0:0:
256,192,109289,1,0,0:0:0:0:
36,192,109289,1,0,0:0:0:0:
475,192,109289,1,0,0:0:0:0:
402,192,109418,1,0,0:0:0:0:
256,192,109482,1,0,0:0:0:0:
109,192,109546,1,0,0:0:0:0:
475,192,109674,1,0,0:0:0:0:
182,192,109674,1,0,0:0:0:0:
36,192,109674,1,0,0:0:0:0:
329,192,109802,1,0,0:0:0:0:
182,192,109866,1,0,0:0:0:0:
402,192,109930,1,0,0:0:0:0:
256,192,109995,1,0,0:0:0:0:
475,192,110059,1,0,0:0:0:0:
36,192,110059,1,0,0:0:0:0:
109,192,110059,1,0,0:0:0:0:
329,192,110315,1,0,0:0:0:0:
36,192,110315,1,0,0:0:0:0:
475,192,110315,1,0,0:0:0:0:
109,192,110443,1,0,0:0:0:0:
256,192,110507,1,0,0:0:0:0:
402,192,110571,1,0,0:0:0:0:
475,192,110700,1,0,0:0:0:0:
36,192,110700,1,0,0:0:0:0:
109,192,110700,1,0,0:0:0:0:
256,192,110828,1,0,0:0:0:0:
329,192,110892,1,0,0:0:0:0:
182,192,110956,1,0,0:0:0:0:
402,192,110956,1,0,0:0:0:0:
109,192,110956,1,0,0:0:0:0:
402,192,111084,1,0,0:0:0:0:
109,192,111084,1,0,0:0:0:0:
182,192,111084,1,0,0:0:0:0:
256,192,111341,1,0,0:0:0:0:
36,192,111341,1,0,0:0:0:0:
475,192,111341,1,0,0:0:0:0:
329,192,111469,1,0,0:0:0:0:
182,192,111597,1,0,0:0:0:0:
36,192,111725,1,0,0:0:0:0:
475,192,111725,1,0,0:0:0:0:
182,192,111854,1,0,0:0:0:0:
329,192,111982,1,0,0:0:0:0:
475,192,112110,1,0,0:0:0:0:
36,192,112110,1,0,0:0:0:0:
256,192,112238,1,0,0:0:0:0:
402,192,112366,1,0,0:0:0:0:
109,192,112366,1,0,0:0:0:0:
329,192,112495,1,0,0:0:0:0:
402,192,112623,1,0,0:0:0:0:
109,192,112623,1,0,0:0:0:0:
182,192,112751,1,0,0:0:0:0:
36,192,112879,1,0,0:0:0:0:
475,192,112879,1,0,0:0:0:0:
109,192,113071,1,0,0:0:0:0:
402,192,113071,1,0,0:0:0:0:
182,192,113264,1,0,0:0:0:0:
256,192,113328,1,0,0:0:0:0:
36,192,113392,128,0,113777:0:0:0:0:
475,192,113392,1,0,0:0:0:0:
329,192,113392,1,0,0:0:0:0:
475,192,113777,128,0,114161:0:0:0:0:
36,192,114418,128,0,114802:0:0:0:0:
402,192,114802,1,0,0:0:0:0:
329,192,114866,1,0,0:0:0:0:
256,192,114930,1,0,0:0:0:0:
182,192,114995,1,0,0:0:0:0:
109,192,115059,1,0,0:0:0:0:
475,192,115123,1,0,0:0:0:0:
402,192,115187,1,0,0:0:0:0:
329,192,115251,1,0,0:0:0:0:
182,192,115315,1,0,0:0:0:0:
109,192,115379,1,0,0:0:0:0:
36,192,115443,1,0,0:0:0:0:
475,192,115443,1,0,0:0:0:0:
256,192,115443,1,0,0:0:0:0:
329,192,115443,1,0,0:0:0:0:
182,192,115571,1,0,0:0:0:0:
36,192,115700,1,0,0:0:0:0:
329,192,115700,1,0,0:0:0:0:
256,192,115828,1,0,0:0:0:0:
402,192,115828,1,0,0:0:0:0:
475,192,115828,1,0,0:0:0:0:
109,192,115956,1,0,0:0:0:0:
182,192,115956,1,0,0:0:0:0:
329,192,116084,1,0,0:0:0:0:
256,192,116213,1,0,0:0:0:0:
109,192,116213,1,0,0:0:0:0:
402,192,116341,1,0,0:0:0:0:
36,192,116469,1,0,0:0:0:0:
182,192,116469,1,0,0:0:0:0:
475,192,116469,1,0,0:0:0:0:
109,192,116597,1,0,0:0:0:0:
256,192,116597,1,0,0:0:0:0:
182,192,116725,1,0,0:0:0:0:
329,192,116725,1,0,0:0:0:0:
402,192,116854,1,0,0:0:0:0:
256,192,116854,1,0,0:0:0:0:
109,192,116982,1,0,0:0:0:0:
475,192,116982,1,0,0:0:0:0:
182,192,117046,1,0,0:0:0:0:
256,192,117110,1,0,0:0:0:0:
329,192,117174,1,0,0:0:0:0:
402,192,117238,1,0,0:0:0:0:
36,192,117281,1,0,0:0:0:0:
109,192,117324,1,0,0:0:0:0:
182,192,117366,1,0,0:0:0:0:
256,192,117409,1,0,0:0:0:0:
329,192,117452,1,0,0:0:0:0:
402,192,117495,1,0,0:0:0:0:
475,192,117495,1,0,0:0:0:0:
36,192,117495,1,0,0:0:0:0:
109,192,117495,1,0,0:0:0:0:
256,192,117623,1,0,0:0:0:0:
475,192,117751,1,0,0:0:0:0:
182,192,117751,1,0,0:0:0:0:
36,192,117879,1,0,0:0:0:0:
256,192,117879,1,0,0:0:0:0:
109,192,117879,1,0,0:0:0:0:
402,192,118007,1,0,0:0:0:0:
329,192,118007,1,0,0:0:0:0:
182,192,118136,1,0,0:0:0:0:
402,192,118264,1,0,0:0:0:0:
475,192,118264,1,0,0:0:0:0:
109,192,118392,1,0,0:0:0:0:
36,192,118520,1,0,0:0:0:0:
475,192,118520,1,0,0:0:0:0:
256,192,118520,1,0,0:0:0:0:
109,192,118648,1,0,0:0:0:0:
402,192,118777,1,0,0:0:0:0:
256,192,118777,1,0,0:0:0:0:
475,192,118905,1,0,0:0:0:0:
182,192,118905,1,0,0:0:0:0:
36,192,118905,1,0,0:0:0:0:
329,192,119033,1,0,0:0:0:0:
109,192,119033,1,0,0:0:0:0:
182,192,119161,1,0,0:0:0:0:
329,192,119289,1,0,0:0:0:0:
475,192,119289,1,0,0:0:0:0:
256,192,119354,1,0,0:0:0:0:
182,192,119418,1,0,0:0:0:0:
109,192,119482,1,0,0:0:0:0:
36,192,119546,1,0,0:0:0:0:
402,192,119546,1,0,0:0:0:0:
475,192,119546,1,0,0:0:0:0:
329,192,119546,1,0,0:0:0:0:
182,192,119674,1,0,0:0:0:0:
36,192,119802,1,0,0:0:0:0:
256,192,119802,1,0,0:0:0:0:
329,192,119930,1,0,0:0:0:0:
402,192,119930,1,0,0:0:0:0:
182,192,119930,1,0,0:0:0:0:
109,192,120059,1,0,0:0:0:0:
256,192,120059,1,0,0:0:0:0:
475,192,120187,1,0,0:0:0:0:
109,192,120315,1,0,0:0:0:0:
329,192,120315,1,0,0:0:0:0:
402,192,120443,1,0,0:0:0:0:
36,192,120571,1,0,0:0:0:0:
182,192,120571,1,0,0:0:0:0:
475,192,120571,1,0,0:0:0:0:
256,192,120700,1,0,0:0:0:0:
182,192,120828,1,0,0:0:0:0:
329,192,120828,1,0,0:0:0:0:
475,192,120956,1,0,0:0:0:0:
256,192,120956,1,0,0:0:0:0:
109,192,120956,1,0,0:0:0:0:
402,192,121084,1,0,0:0:0:0:
36,192,121084,1,0,0:0:0:0:
329,192,121148,1,0,0:0:0:0:
256,192,121213,1,0,0:0:0:0:
182,192,121277,1,0,0:0:0:0:
109,192,121341,1,0,0:0:0:0:
475,192,121383,1,0,0:0:0:0:
402,192,121426,1,0,0:0:0:0:
329,192,121469,1,0,0:0:0:0:
256,192,121512,1,0,0:0:0:0:
182,192,121554,1,0,0:0:0:0:
109,192,121597,1,0,0:0:0:0:
36,192,121597,1,0,0:0:0:0:
475,192,121597,1,0,0:0:0:0:
402,192,121597,1,0,0:0:0:0:
329,192,121683,1,0,0:0:0:0:
182,192,121768,1,0,0:0:0:0:
256,192,121854,1,0,0:0:0:0:
475,192,121939,1,0,0:0:0:0:
109,192,121982,1,0,0:0:0:0:
36,192,121982,1,0,0:0:0:0:
402,192,122024,1,0,0:0:0:0:
329,192,122110,1,0,0:0:0:0:
182,192,122195,1,0,0:0:0:0:
109,192,122281,1,0,0:0:0:0:
36,192,122366,1,0,0:0:0:0:
256,192,122452,1,0,0:0:0:0:
182,192,122537,1,0,0:0:0:0:
475,192,122623,1,0,0:0:0:0:
329,192,122623,1,0,0:0:0:0:
36,192,122623,1,0,0:0:0:0:
109,192,122708,1,0,0:0:0:0:
182,192,122794,1,0,0:0:0:0:
256,192,122879,1,0,0:0:0:0:
36,192,122965,1,0,0:0:0:0:
475,192,123007,1,0,0:0:0:0:
402,192,123007,1,0,0:0:0:0:
109,192,123050,1,0,0:0:0:0:
182,192,123136,1,0,0:0:0:0:
475,192,123221,1,0,0:0:0:0:
402,192,123307,1,0,0:0:0:0:
109,192,123392,1,0,0:0:0:0:
329,192,123392,1,0,0:0:0:0:
182,192,123456,1,0,0:0:0:0:
256,192,123520,1,0,0:0:0:0:
329,192,123584,1,0,0:0:0:0:
36,192,123648,1,0,0:0:0:0:
475,192,123648,1,0,0:0:0:0:
402,192,123648,1,0,0:0:0:0:
109,192,123648,1,0,0:0:0:0:
182,192,123734,1,0,0:0:0:0:
256,192,123819,1,0,0:0:0:0:
329,192,123905,1,0,0:0:0:0:
475,192,123990,1,0,0:0:0:0:
109,192,124033,1,0,0:0:0:0:
36,192,124033,1,0,0:0:0:0:
402,192,124076,1,0,0:0:0:0:
329,192,124161,1,0,0:0:0:0:
256,192,124247,1,0,0:0:0:0:
36,192,124332,1,0,0:0:0:0:
109,192,124418,1,0,0:0:0:0:
182,192,124503,1,0,0:0:0:0:
256,192,124589,1,0,0:0:0:0:
475,192,124674,1,0,0:0:0:0:
36,192,124674,1,0,0:0:0:0:
329,192,124760,1,0,0:0:0:0:
256,192,124845,1,0,0:0:0:0:
182,192,124930,1,0,0:0:0:0:
36,192,125016,1,0,0:0:0:0:
402,192,125101,1,0,0:0:0:0:
475,192,125187,1,0,0:0:0:0:
109,192,125187,1,0,0:0:0:0:
182,192,125251,1,0,0:0:0:0:
256,192,125315,1,0,0:0:0:0:
329,192,125379,1,0,0:0:0:0:
402,192,125443,1,0,0:0:0:0:
36,192,125486,1,0,0:0:0:0:
109,192,125529,1,0,0:0:0:0:
182,192,125571,1,0,0:0:0:0:
256,192,125614,1,0,0:0:0:0:
329,192,125657,1,0,0:0:0:0:
402,192,125700,1,0,0:0:0:0:
109,192,125700,1,0,0:0:0:0:
36,192,125700,1,0,0:0:0:0:
475,192,125700,128,0,126084:0:0:0:0:
256,192,126084,1,0,0:0:0:0:
402,192,126084,128,0,126469:0:0:0:0:
256,192,126725,1,0,0:0:0:0:
109,192,126725,128,0,127110:0:0:0:0:
182,192,127110,1,0,0:0:0:0:
36,192,127110,128,0,127495:0:0:0:0:
329,192,127751,1,0,0:0:0:0:
402,192,127815,1,0,0:0:0:0:
475,192,127879,128,0,129546:0:0:0:0:
182,192,128777,1,0,0:0:0:0:
109,192,128841,1,0,0:0:0:0:
36,192,128905,1,0,0:0:0:0:
256,192,129033,1,0,0:0:0:0:
182,192,129097,1,0,0:0:0:0:
109,192,129161,1,0,0:0:0:0:
329,192,129289,1,0,0:0:0:0:
256,192,129354,1,0,0:0:0:0:
182,192,129418,1,0,0:0:0:0:
402,192,129546,1,0,0:0:0:0:
329,192,129610,1,0,0:0:0:0:
256,192,129674,1,0,0:0:0:0:
36,192,129802,1,0,0:0:0:0:
109,192,129866,1,0,0:0:0:0:
182,192,129930,1,0,0:0:0:0:
329,192,130059,1,0,0:0:0:0:
475,192,130059,1,0,0:0:0:0:
402,192,130251,1,0,0:0:0:0:
256,192,130251,1,0,0:0:0:0:
329,192,130443,1,0,0:0:0:0:
182,192,130443,1,0,0:0:0:0:
36,192,130539,1,0,0:0:0:0:
256,192,130636,1,0,0:0:0:0:
109,192,130732,1,0,0:0:0:0:
329,192,130828,1,0,0:0:0:0:
182,192,130924,1,0,0:0:0:0:
402,192,131020,1,0,0:0:0:0:
256,192,131116,1,0,0:0:0:0:
475,192,131213,1,0,0:0:0:0:
329,192,131277,1,0,0:0:0:0:
182,192,131341,1,0,0:0:0:0:
36,192,131405,1,0,0:0:0:0:
256,192,131469,1,0,0:0:0:0:
475,192,131533,1,0,0:0:0:0:
182,192,131597,1,0,0:0:0:0:
402,192,131661,1,0,0:0:0:0:
109,192,131725,1,0,0:0:0:0:
329,192,131789,1,0,0:0:0:0:
36,192,131854,1,0,0:0:0:0:
475,192,135571,128,0,135956:0:0:0:0:
402,192,136213,1,0,0:0:0:0:
109,192,136341,1,0,0:0:0:0:
256,192,136469,1,0,0:0:0:0:
402,192,136597,1,0,0:0:0:0:
109,192,136725,1,0,0:0:0:0:
182,192,136982,1,0,0:0:0:0:
329,192,137110,1,0,0:0:0:0:
475,192,137238,128,0,137495:0:0:0:0:
36,192,137495,1,0,0:0:0:0:
182,192,137623,1,0,0:0:0:0:
256,192,137687,1,0,0:0:0:0:
475,192,137751,1,0,0:0:0:0:
402,192,137815,1,0,0:0:0:0:
329,192,137879,1,0,0:0:0:0:
36,192,138007,1,0,0:0:0:0:
182,192,138136,1,0,0:0:0:0:
402,192,138264,1,0,0:0:0:0:
109,192,138392,1,0,0:0:0:0:
256,192,138520,1,0,0:0:0:0:
402,192,138648,1,0,0:0:0:0:
109,192,138777,1,0,0:0:0:0:
329,192,138905,1,0,0:0:0:0:
256,192,139033,128,0,139289:0:0:0:0:
36,192,139289,1,0,0:0:0:0:
182,192,139354,1,0,0:0:0:0:
329,192,139418,1,0,0:0:0:0:
475,192,139482,1,0,0:0:0:0:
109,192,139546,1,0,0:0:0:0:
109,192,139674,1,0,0:0:0:0:
402,192,139802,1,0,0:0:0:0:
402,192,139930,1,0,0:0:0:0:
36,192,140059,1,0,0:0:0:0:
329,192,140315,1,0,0:0:0:0:
182,192,140443,1,0,0:0:0:0:
256,192,140571,1,0,0:0:0:0:
329,192,140700,1,0,0:0:0:0:
182,192,140828,1,0,0:0:0:0:
109,192,141084,1,0,0:0:0:0:
402,192,141213,1,0,0:0:0:0:
475,192,141341,128,0,141597:0:0:0:0:
256,192,141597,1,0,0:0:0:0:
36,192,141725,1,0,0:0:0:0:
109,192,141789,1,0,0:0:0:0:
329,192,141854,1,0,0:0:0:0:
256,192,141918,1,0,0:0:0:0:
182,192,141982,1,0,0:0:0:0:
36,192,142110,1,0,0:0:0:0:
329,192,142366,1,0,0:0:0:0:
182,192,142495,1,0,0:0:0:0:
256,192,142623,1,0,0:0:0:0:
329,192,142751,1,0,0:0:0:0:
182,192,142879,1,0,0:0:0:0:
109,192,143136,1,0,0:0:0:0:
402,192,143264,1,0,0:0:0:0:
475,192,143392,128,0,143648:0:0:0:0:
256,192,143648,1,0,0:0:0:0:
109,192,143777,1,0,0:0:0:0:
182,192,143841,1,0,0:0:0:0:
402,192,143905,1,0,0:0:0:0:
329,192,143969,1,0,0:0:0:0:
256,192,144033,1,0,0:0:0:0:
36,192,144161,1,0,0:0:0:0:
402,192,144418,1,0,0:0:0:0:
109,192,144546,1,0,0:0:0:0:
256,192,144674,1,0,0:0:0:0:
402,192,144802,1,0,0:0:0:0:
109,192,144930,1,0,0:0:0:0:
182,192,145187,1,0,0:0:0:0:
329,192,145315,1,0,0:0:0:0:
475,192,145443,128,0,145700:0:0:0:0:
36,192,145700,1,0,0:0:0:0:
182,192,145828,1,0,0:0:0:0:
256,192,145892,1,0,0:0:0:0:
475,192,145956,1,0,0:0:0:0:
402,192,146020,1,0,0:0:0:0:
329,192,146084,1,0,0:0:0:0:
36,192,146213,1,0,0:0:0:0:
182,192,146341,1,0,0:0:0:0:
402,192,146469,1,0,0:0:0:0:
109,192,146597,1,0,0:0:0:0:
256,192,146725,1,0,0:0:0:0:
402,192,146854,1,0,0:0:0:0:
109,192,146982,1,0,0:0:0:0:
329,192,147110,1,0,0:0:0:0:
256,192,147238,128,0,147495:0:0:0:0:
36,192,147495,1,0,0:0:0:0:
109,192,147559,1,0,0:0:0:0:
402,192,147623,1,0,0:0:0:0:
475,192,147687,1,0,0:0:0:0:
182,192,147751,1,0,0:0:0:0:
182,192,147879,1,0,0:0:0:0:
329,192,148007,1,0,0:0:0:0:
329,192,148136,1,0,0:0:0:0:
36,192,148264,1,0,0:0:0:0:
109,192,148264,1,0,0:0:0:0:
329,192,148392,1,0,0:0:0:0:
402,192,148456,1,0,0:0:0:0:
475,192,148520,1,0,0:0:0:0:
182,192,148648,1,0,0:0:0:0:
36,192,148713,1,0,0:0:0:0:
329,192,148777,1,0,0:0:0:0:
402,192,148841,1,0,0:0:0:0:
475,192,148905,1,0,0:0:0:0:
256,192,149033,1,0,0:0:0:0:
109,192,149289,1,0,0:0:0:0:
182,192,149418,1,0,0:0:0:0:
329,192,149482,1,0,0:0:0:0:
475,192,149546,128,0,149802:0:0:0:0:
36,192,149802,1,0,0:0:0:0:
256,192,149866,1,0,0:0:0:0:
402,192,149930,1,0,0:0:0:0:
109,192,150059,1,0,0:0:0:0:
182,192,150123,1,0,0:0:0:0:
256,192,150187,1,0,0:0:0:0:
36,192,150315,1,0,0:0:0:0:
109,192,150315,1,0,0:0:0:0:
329,192,150443,1,0,0:0:0:0:
402,192,150507,1,0,0:0:0:0:
475,192,150571,1,0,0:0:0:0:
182,192,150700,1,0,0:0:0:0:
36,192,150764,1,0,0:0:0:0:
329,192,150828,1,0,0:0:0:0:
402,192,150892,1,0,0:0:0:0:
475,192,150956,1,0,0:0:0:0:
256,192,151084,1,0,0:0:0:0:
36,192,151341,1,0,0:0:0:0:
329,192,151469,1,0,0:0:0:0:
182,192,151533,1,0,0:0:0:0:
475,192,151597,128,0,151854:0:0:0:0:
256,192,151854,1,0,0:0:0:0:
182,192,151918,1,0,0:0:0:0:
36,192,151982,1,0,0:0:0:0:
402,192,152110,1,0,0:0:0:0:
329,192,152174,1,0,0:0:0:0:
182,192,152238,1,0,0:0:0:0:
36,192,152366,1,0,0:0:0:0:
109,192,152366,1,0,0:0:0:0:
475,192,152495,1,0,0:0:0:0:
402,192,152559,1,0,0:0:0:0:
329,192,152623,1,0,0:0:0:0:
182,192,152751,1,0,0:0:0:0:
36,192,152815,1,0,0:0:0:0:
475,192,152879,1,0,0:0:0:0:
402,192,152943,1,0,0:0:0:0:
329,192,153007,1,0,0:0:0:0:
109,192,153136,1,0,0:0:0:0:
256,192,153392,1,0,0:0:0:0:
329,192,153520,1,0,0:0:0:0:
182,192,153584,1,0,0:0:0:0:
475,192,153648,128,0,153905:0:0:0:0:
36,192,153905,1,0,0:0:0:0:
182,192,153969,1,0,0:0:0:0:
329,192,154033,1,0,0:0:0:0:
475,192,154161,1,0,0:0:0:0:
402,192,154225,1,0,0:0:0:0:
256,192,154289,1,0,0:0:0:0:
36,192,154418,1,0,0:0:0:0:
109,192,154418,1,0,0:0:0:0:
475,192,154546,1,0,0:0:0:0:
402,192,154610,1,0,0:0:0:0:
329,192,154674,1,0,0:0:0:0:
182,192,154802,1,0,0:0:0:0:
36,192,154866,1,0,0:0:0:0:
475,192,154930,1,0,0:0:0:0:
402,192,154995,1,0,0:0:0:0:
329,192,155059,1,0,0:0:0:0:
109,192,155187,1,0,0:0:0:0:
36,192,155187,1,0,0:0:0:0:
402,192,155315,1,0,0:0:0:0:
256,192,155443,128,0,155700:0:0:0:0:
109,192,155700,1,0,0:0:0:0:
182,192,155764,1,0,0:0:0:0:
329,192,155828,1,0,0:0:0:0:
402,192,155892,1,0,0:0:0:0:
36,192,155956,1,0,0:0:0:0:
36,192,156084,1,0,0:0:0:0:
475,192,156213,1,0,0:0:0:0:
475,192,156341,1,0,0:0:0:0:
109,192,156469,1,0,0:0:0:0:
36,192,156469,1,0,0:0:0:0:
329,192,156597,1,0,0:0:0:0:
402,192,156661,1,0,0:0:0:0:
475,192,156725,1,0,0:0:0:0:
182,192,156854,1,0,0:0:0:0:
36,192,156918,1,0,0:0:0:0:
329,192,156982,1,0,0:0:0:0:
402,192,157046,1,0,0:0:0:0:
475,192,157110,1,0,0:0:0:0:
256,192,157238,1,0,0:0:0:0:
109,192,157495,1,0,0:0:0:0:
182,192,157623,1,0,0:0:0:0:
329,192,157687,1,0,0:0:0:0:
475,192,157751,128,0,158007:0:0:0:0:
36,192,158007,1,0,0:0:0:0:
256,192,158071,1,0,0:0:0:0:
402,192,158136,1,0,0:0:0:0:
109,192,158264,1,0,0:0:0:0:
182,192,158328,1,0,0:0:0:0:
256,192,158392,1,0,0:0:0:0:
109,192,158520,1,0,0:0:0:0:
36,192,158520,1,0,0:0:0:0:
329,192,158648,1,0,0:0:0:0:
402,192,158713,1,0,0:0:0:0:
475,192,158777,1,0,0:0:0:0:
182,192,158905,1,0,0:0:0:0:
36,192,158969,1,0,0:0:0:0:
329,192,159033,1,0,0:0:0:0:
402,192,159097,1,0,0:0:0:0:
475,192,159161,1,0,0:0:0:0:
256,192,159289,1,0,0:0:0:0:
36,192,159546,1,0,0:0:0:0:
329,192,159674,1,0,0:0:0:0:
182,192,159738,1,0,0:0:0:0:
475,192,159802,128,0,160059:0:0:0:0:
256,192,160059,1,0,0:0:0:0:
109,192,160123,1,0,0:0:0:0:
36,192,160187,1,0,0:0:0:0:
182,192,160315,1,0,0:0:0:0:
256,192,160379,1,0,0:0:0:0:
402,192,160443,1,0,0:0:0:0:
36,192,160571,1,0,0:0:0:0:
329,192,160571,1,0,0:0:0:0:
475,192,160571,1,0,0:0:0:0:
36,192,161020,1,0,0:0:0:0:
36,192,161341,1,0,0:0:0:0:
475,192,162623,128,0,162943:0:0:0:0:
182,192,162943,1,0,0:0:0:0:
256,192,163071,1,0,0:0:0:0:
329,192,163200,1,0,0:0:0:0:
109,192,163285,1,0,0:0:0:0:
402,192,163424,1,0,0:0:0:0:
256,192,163584,1,0,0:0:0:0:
36,192,163734,128,0,163905:0:0:0:0:
182,192,163905,1,0,0:0:0:0:
329,192,163990,1,0,0:0:0:0:
475,192,164076,1,0,0:0:0:0:
109,192,164161,1,0,0:0:0:0:
256,192,164247,1,0,0:0:0:0:
402,192,164332,1,0,0:0:0:0:
36,192,164418,1,0,0:0:0:0:
182,192,164503,1,0,0:0:0:0:
329,192,164589,1,0,0:0:0:0:
182,192,164674,1,0,0:0:0:0:
109,192,164674,1,0,0:0:0:0:
475,192,164674,1,0,0:0:0:0:
36,192,164674,128,0,165059:0:0:0:0:
329,192,164930,1,0,0:0:0:0:
402,192,165059,128,0,167751:0:0:0:0:
475,192,165059,1,0,0:0:0:0:
256,192,165123,1,0,0:0:0:0:
182,192,165123,1,0,0:0:0:0:
109,192,165315,1,0,0:0:0:0:
36,192,165315,1,0,0:0:0:0:
329,192,165443,1,0,0:0:0:0:
256,192,165443,1,0,0:0:0:0:
109,192,165571,1,0,0:0:0:0:
36,192,165700,1,0,0:0:0:0:
256,192,165700,1,0,0:0:0:0:
329,192,165828,1,0,0:0:0:0:
182,192,165828,1,0,0:0:0:0:
475,192,165956,1,0,0:0:0:0:
182,192,166084,1,0,0:0:0:0:
109,192,166148,1,0,0:0:0:0:
36,192,166213,1,0,0:0:0:0:
256,192,166213,1,0,0:0:0:0:
329,192,166469,1,0,0:0:0:0:
182,192,166469,1,0,0:0:0:0:
36,192,166725,1,0,0:0:0:0:
182,192,166725,1,0,0:0:0:0:
109,192,166982,1,0,0:0:0:0:
329,192,167110,1,0,0:0:0:0:
182,192,167110,1,0,0:0:0:0:
329,192,167366,1,0,0:0:0:0:
256,192,167366,1,0,0:0:0:0:
36,192,167495,1,0,0:0:0:0:
109,192,167495,1,0,0:0:0:0:
182,192,167559,1,0,0:0:0:0:
109,192,167751,128,0,168264:0:0:0:0:
329,192,167751,1,0,0:0:0:0:
36,192,167751,1,0,0:0:0:0:
475,192,167879,1,0,0:0:0:0:
256,192,167879,1,0,0:0:0:0:
182,192,168007,1,0,0:0:0:0:
329,192,168136,1,0,0:0:0:0:
402,192,168200,1,0,0:0:0:0:
475,192,168264,128,0,168648:0:0:0:0:
36,192,168264,1,0,0:0:0:0:
256,192,168264,1,0,0:0:0:0:
182,192,168456,1,0,0:0:0:0:
329,192,168520,1,0,0:0:0:0:
402,192,168520,1,0,0:0:0:0:
109,192,168606,1,0,0:0:0:0:
256,192,168648,128,0,169225:0:0:0:0:
36,192,168777,1,0,0:0:0:0:
402,192,168777,1,0,0:0:0:0:
475,192,168777,1,0,0:0:0:0:
182,192,169033,1,0,0:0:0:0:
475,192,169161,1,0,0:0:0:0:
402,192,169161,1,0,0:0:0:0:
109,192,169225,128,0,171854:0:0:0:0:
329,192,169225,1,0,0:0:0:0:
475,192,169418,1,0,0:0:0:0:
256,192,169418,1,0,0:0:0:0:
402,192,169546,1,0,0:0:0:0:
182,192,169546,1,0,0:0:0:0:
329,192,169802,1,0,0:0:0:0:
402,192,169866,1,0,0:0:0:0:
475,192,169930,1,0,0:0:0:0:
256,192,170059,1,0,0:0:0:0:
329,192,170123,1,0,0:0:0:0:
402,192,170187,1,0,0:0:0:0:
182,192,170315,1,0,0:0:0:0:
256,192,170379,1,0,0:0:0:0:
329,192,170443,1,0,0:0:0:0:
36,192,170571,1,0,0:0:0:0:
182,192,170636,1,0,0:0:0:0:
256,192,170700,1,0,0:0:0:0:
329,192,170828,1,0,0:0:0:0:
256,192,170892,1,0,0:0:0:0:
182,192,170956,1,0,0:0:0:0:
402,192,171084,1,0,0:0:0:0:
329,192,171148,1,0,0:0:0:0:
256,192,171213,1,0,0:0:0:0:
475,192,171341,1,0,0:0:0:0:
402,192,171405,1,0,0:0:0:0:
329,192,171469,1,0,0:0:0:0:
182,192,171597,1,0,0:0:0:0:
256,192,171661,1,0,0:0:0:0:
329,192,171725,1,0,0:0:0:0:
36,192,171854,1,0,0:0:0:0:
182,192,171918,1,0,0:0:0:0:
329,192,171982,1,0,0:0:0:0:
402,192,172046,1,0,0:0:0:0:
109,192,172110,1,0,0:0:0:0:
256,192,172174,1,0,0:0:0:0:
402,192,172238,1,0,0:0:0:0:
475,192,172302,1,0,0:0:0:0:
36,192,172366,1,0,0:0:0:0:
109,192,172430,1,0,0:0:0:0:
182,192,172495,1,0,0:0:0:0:
256,192,172559,1,0,0:0:0:0:
475,192,172623,1,0,0:0:0:0:
402,192,172687,1,0,0:0:0:0:
329,192,172751,1,0,0:0:0:0:
256,192,172815,1,0,0:0:0:0:
36,192,172879,128,0,173264:0:0:0:0:
475,192,172879,1,0,0:0:0:0:
109,192,172879,1,0,0:0:0:0:
182,192,172879,1,0,0:0:0:0:
402,192,173136,1,0,0:0:0:0:
475,192,173264,128,0,174418:0:0:0:0:
329,192,173264,1,0,0:0:0:0:
109,192,173328,1,0,0:0:0:0:
182,192,173328,1,0,0:0:0:0:
36,192,173520,1,0,0:0:0:0:
256,192,173520,1,0,0:0:0:0:
109,192,173648,1,0,0:0:0:0:
402,192,173648,1,0,0:0:0:0:
256,192,173777,1,0,0:0:0:0:
182,192,173905,1,0,0:0:0:0:
329,192,173905,1,0,0:0:0:0:
402,192,174033,1,0,0:0:0:0:
36,192,174033,1,0,0:0:0:0:
329,192,174161,1,0,0:0:0:0:
182,192,174289,1,0,0:0:0:0:
109,192,174354,1,0,0:0:0:0:
36,192,174418,1,0,0:0:0:0:
256,192,174418,1,0,0:0:0:0:
402,192,174418,128,0,174546:0:0:0:0:
329,192,174546,128,0,174738:0:0:0:0:
36,192,174674,1,0,0:0:0:0:
109,192,174674,1,0,0:0:0:0:
256,192,174738,128,0,174930:0:0:0:0:
329,192,174930,128,0,175315:0:0:0:0:
36,192,174930,1,0,0:0:0:0:
475,192,174930,1,0,0:0:0:0:
109,192,175187,1,0,0:0:0:0:
36,192,175315,128,0,176640:0:0:0:0:
475,192,175315,1,0,0:0:0:0:
402,192,175315,1,0,0:0:0:0:
475,192,175571,1,0,0:0:0:0:
256,192,175571,1,0,0:0:0:0:
182,192,175700,1,0,0:0:0:0:
329,192,175700,1,0,0:0:0:0:
402,192,175764,1,0,0:0:0:0:
256,192,175956,1,0,0:0:0:0:
109,192,175956,1,0,0:0:0:0:
475,192,176084,1,0,0:0:0:0:
402,192,176084,1,0,0:0:0:0:
182,192,176213,1,0,0:0:0:0:
329,192,176341,1,0,0:0:0:0:
402,192,176405,1,0,0:0:0:0:
475,192,176469,1,0,0:0:0:0:
256,192,176469,1,0,0:0:0:0:
182,192,176640,1,0,0:0:0:0:
329,192,176640,1,0,0:0:0:0:
475,192,176725,1,0,0:0:0:0:
402,192,176725,1,0,0:0:0:0:
109,192,176811,1,0,0:0:0:0:
256,192,176811,1,0,0:0:0:0:
182,192,176982,128,0,177495:0:0:0:0:
36,192,176982,1,0,0:0:0:0:
329,192,176982,1,0,0:0:0:0:
475,192,176982,1,0,0:0:0:0:
256,192,177238,1,0,0:0:0:0:
329,192,177366,1,0,0:0:0:0:
402,192,177366,1,0,0:0:0:0:
36,192,177430,1,0,0:0:0:0:
256,192,177495,128,0,180059:0:0:0:0:
475,192,177623,1,0,0:0:0:0:
402,192,177623,1,0,0:0:0:0:
36,192,177751,1,0,0:0:0:0:
109,192,177751,1,0,0:0:0:0:
329,192,178007,1,0,0:0:0:0:
402,192,178071,1,0,0:0:0:0:
475,192,178136,1,0,0:0:0:0:
182,192,178264,1,0,0:0:0:0:
329,192,178328,1,0,0:0:0:0:
402,192,178392,1,0,0:0:0:0:
109,192,178520,1,0,0:0:0:0:
182,192,178584,1,0,0:0:0:0:
329,192,178648,1,0,0:0:0:0:
182,192,178777,1,0,0:0:0:0:
109,192,178841,1,0,0:0:0:0:
36,192,178905,1,0,0:0:0:0:
329,192,179033,1,0,0:0:0:0:
182,192,179097,1,0,0:0:0:0:
109,192,179161,1,0,0:0:0:0:
402,192,179289,1,0,0:0:0:0:
329,192,179354,1,0,0:0:0:0:
182,192,179418,1,0,0:0:0:0:
329,192,179546,1,0,0:0:0:0:
402,192,179610,1,0,0:0:0:0:
475,192,179674,1,0,0:0:0:0:
182,192,179802,1,0,0:0:0:0:
329,192,179866,1,0,0:0:0:0:
402,192,179930,1,0,0:0:0:0:
36,192,180059,1,0,0:0:0:0:
109,192,180123,1,0,0:0:0:0:
256,192,180187,1,0,0:0:0:0:
402,192,180251,1,0,0:0:0:0:
36,192,180315,1,0,0:0:0:0:
182,192,180379,1,0,0:0:0:0:
329,192,180443,1,0,0:0:0:0:
475,192,180507,1,0,0:0:0:0:
109,192,180571,1,0,0:0:0:0:
256,192,180636,1,0,0:0:0:0:
402,192,180700,1,0,0:0:0:0:
475,192,180764,1,0,0:0:0:0:
329,192,180828,1,0,0:0:0:0:
256,192,180892,1,0,0:0:0:0:
182,192,180956,1,0,0:0:0:0:
109,192,181020,1,0,0:0:0:0:
329,192,181084,128,0,182559:0:0:0:0:
402,192,181084,1,0,0:0:0:0:
36,192,181084,1,0,0:0:0:0:
475,192,181084,1,0,0:0:0:0:
182,192,181341,1,0,0:0:0:0:
402,192,181469,1,0,0:0:0:0:
109,192,181469,1,0,0:0:0:0:
475,192,181725,1,0,0:0:0:0:
256,192,181725,1,0,0:0:0:0:
109,192,181854,1,0,0:0:0:0:
36,192,181854,1,0,0:0:0:0:
182,192,181918,1,0,0:0:0:0:
475,192,182110,1,0,0:0:0:0:
256,192,182110,1,0,0:0:0:0:
182,192,182238,1,0,0:0:0:0:
36,192,182238,1,0,0:0:0:0:
402,192,182366,1,0,0:0:0:0:
109,192,182495,1,0,0:0:0:0:
182,192,182559,1,0,0:0:0:0:
475,192,182559,128,0,182751:0:0:0:0:
36,192,182623,1,0,0:0:0:0:
256,192,182623,1,0,0:0:0:0:
329,192,182751,128,0,183007:0:0:0:0:
182,192,182879,1,0,0:0:0:0:
109,192,182879,1,0,0:0:0:0:
256,192,183007,128,0,183264:0:0:0:0:
402,192,183136,1,0,0:0:0:0:
475,192,183136,1,0,0:0:0:0:
36,192,183136,1,0,0:0:0:0:
182,192,183264,128,0,184610:0:0:0:0:
329,192,183392,1,0,0:0:0:0:
475,192,183520,1,0,0:0:0:0:
402,192,183520,1,0,0:0:0:0:
256,192,183777,1,0,0:0:0:0:
36,192,183777,1,0,0:0:0:0:
402,192,183905,1,0,0:0:0:0:
329,192,183905,1,0,0:0:0:0:
475,192,183969,1,0,0:0:0:0:
109,192,184161,1,0,0:0:0:0:
36,192,184161,1,0,0:0:0:0:
256,192,184289,1,0,0:0:0:0:
329,192,184289,1,0,0:0:0:0:
475,192,184418,1,0,0:0:0:0:
329,192,184546,1,0,0:0:0:0:
402,192,184610,1,0,0:0:0:0:
36,192,184610,128,0,184802:0:0:0:0:
475,192,184674,1,0,0:0:0:0:
256,192,184674,1,0,0:0:0:0:
109,192,184802,128,0,185059:0:0:0:0:
256,192,184866,1,0,0:0:0:0:
475,192,184930,1,0,0:0:0:0:
402,192,184930,1,0,0:0:0:0:
329,192,185016,1,0,0:0:0:0:
182,192,185059,128,0,185315:0:0:0:0:
109,192,185187,1,0,0:0:0:0:
36,192,185187,1,0,0:0:0:0:
402,192,185187,1,0,0:0:0:0:
475,192,185315,128,0,187238:0:0:0:0:
256,192,185443,1,0,0:0:0:0:
182,192,185571,1,0,0:0:0:0:
109,192,185571,1,0,0:0:0:0:
402,192,185828,1,0,0:0:0:0:
329,192,185828,1,0,0:0:0:0:
256,192,185956,1,0,0:0:0:0:
182,192,185956,1,0,0:0:0:0:
329,192,186020,1,0,0:0:0:0:
182,192,186213,1,0,0:0:0:0:
109,192,186277,1,0,0:0:0:0:
36,192,186341,1,0,0:0:0:0:
256,192,186469,1,0,0:0:0:0:
182,192,186533,1,0,0:0:0:0:
109,192,186597,1,0,0:0:0:0:
402,192,186725,1,0,0:0:0:0:
329,192,186789,1,0,0:0:0:0:
256,192,186854,1,0,0:0:0:0:
182,192,186982,1,0,0:0:0:0:
256,192,187046,1,0,0:0:0:0:
329,192,187110,1,0,0:0:0:0:
36,192,187238,128,0,188264:0:0:0:0:
109,192,187238,1,0,0:0:0:0:
182,192,187302,1,0,0:0:0:0:
256,192,187366,1,0,0:0:0:0:
329,192,187495,1,0,0:0:0:0:
256,192,187559,1,0,0:0:0:0:
182,192,187623,1,0,0:0:0:0:
402,192,187751,1,0,0:0:0:0:
329,192,187815,1,0,0:0:0:0:
256,192,187879,1,0,0:0:0:0:
475,192,188007,1,0,0:0:0:0:
402,192,188071,1,0,0:0:0:0:
329,192,188136,1,0,0:0:0:0:
109,192,188264,1,0,0:0:0:0:
256,192,188328,1,0,0:0:0:0:
402,192,188392,1,0,0:0:0:0:
475,192,188456,1,0,0:0:0:0:
36,192,188520,1,0,0:0:0:0:
182,192,188584,1,0,0:0:0:0:
329,192,188648,1,0,0:0:0:0:
475,192,188713,1,0,0:0:0:0:
36,192,188777,1,0,0:0:0:0:
109,192,188841,1,0,0:0:0:0:
256,192,188905,1,0,0:0:0:0:
402,192,188969,1,0,0:0:0:0:
475,192,189033,1,0,0:0:0:0:
329,192,189097,1,0,0:0:0:0:
182,192,189161,1,0,0:0:0:0:
109,192,189225,1,0,0:0:0:0:
256,192,189289,128,0,190828:0:0:0:0:
402,192,189289,1,0,0:0:0:0:
475,192,189289,1,0,0:0:0:0:
36,192,189289,1,0,0:0:0:0:
329,192,189546,1,0,0:0:0:0:
182,192,189674,1,0,0:0:0:0:
109,192,189674,1,0,0:0:0:0:
402,192,189930,1,0,0:0:0:0:
475,192,189930,1,0,0:0:0:0:
109,192,190059,1,0,0:0:0:0:
36,192,190059,1,0,0:0:0:0:
329,192,190123,1,0,0:0:0:0:
36,192,190315,1,0,0:0:0:0:
182,192,190315,1,0,0:0:0:0:
475,192,190443,1,0,0:0:0:0:
329,192,190443,1,0,0:0:0:0:
109,192,190571,1,0,0:0:0:0:
329,192,190700,1,0,0:0:0:0:
402,192,190764,1,0,0:0:0:0:
182,192,190828,1,0,0:0:0:0:
36,192,190828,1,0,0:0:0:0:
475,192,190828,128,0,190956:0:0:0:0:
329,192,190956,128,0,191213:0:0:0:0:
109,192,191084,1,0,0:0:0:0:
36,192,191084,1,0,0:0:0:0:
182,192,191213,128,0,191469:0:0:0:0:
402,192,191341,1,0,0:0:0:0:
475,192,191341,1,0,0:0:0:0:
36,192,191469,128,0,192815:0:0:0:0:
256,192,191597,1,0,0:0:0:0:
329,192,191725,1,0,0:0:0:0:
475,192,191725,1,0,0:0:0:0:
182,192,191982,1,0,0:0:0:0:
109,192,191982,1,0,0:0:0:0:
329,192,192110,1,0,0:0:0:0:
402,192,192110,1,0,0:0:0:0:
256,192,192174,1,0,0:0:0:0:
329,192,192366,1,0,0:0:0:0:
182,192,192366,1,0,0:0:0:0:
402,192,192495,1,0,0:0:0:0:
256,192,192495,1,0,0:0:0:0:
475,192,192623,1,0,0:0:0:0:
402,192,192751,1,0,0:0:0:0:
329,192,192815,1,0,0:0:0:0:
109,192,192815,128,0,193071:0:0:0:0:
475,192,192879,1,0,0:0:0:0:
256,192,192879,1,0,0:0:0:0:
182,192,193071,128,0,193264:0:0:0:0:
36,192,193071,1,0,0:0:0:0:
402,192,193136,1,0,0:0:0:0:
475,192,193136,1,0,0:0:0:0:
329,192,193221,1,0,0:0:0:0:
256,192,193264,128,0,193584:0:0:0:0:
109,192,193392,1,0,0:0:0:0:
36,192,193392,1,0,0:0:0:0:
475,192,193392,1,0,0:0:0:0:
329,192,193584,128,0,193905:0:0:0:0:
182,192,193648,1,0,0:0:0:0:
36,192,193777,1,0,0:0:0:0:
109,192,193777,1,0,0:0:0:0:
402,192,193905,128,0,194289:0:0:0:0:
109,192,194033,1,0,0:0:0:0:
182,192,194033,1,0,0:0:0:0:
329,192,194161,1,0,0:0:0:0:
256,192,194161,1,0,0:0:0:0:
182,192,194225,1,0,0:0:0:0:
475,192,194289,128,0,196469:0:0:0:0:
36,192,194418,1,0,0:0:0:0:
109,192,194482,1,0,0:0:0:0:
182,192,194546,1,0,0:0:0:0:
256,192,194674,1,0,0:0:0:0:
182,192,194738,1,0,0:0:0:0:
109,192,194802,1,0,0:0:0:0:
329,192,194930,1,0,0:0:0:0:
256,192,194995,1,0,0:0:0:0:
182,192,195059,1,0,0:0:0:0:
109,192,195187,1,0,0:0:0:0:
182,192,195251,1,0,0:0:0:0:
256,192,195315,1,0,0:0:0:0:
402,192,195443,1,0,0:0:0:0:
329,192,195507,1,0,0:0:0:0:
256,192,195571,1,0,0:0:0:0:
182,192,195700,1,0,0:0:0:0:
256,192,195764,1,0,0:0:0:0:
329,192,195828,1,0,0:0:0:0:
109,192,195956,1,0,0:0:0:0:
182,192,196020,1,0,0:0:0:0:
256,192,196084,1,0,0:0:0:0:
329,192,196213,1,0,0:0:0:0:
256,192,196277,1,0,0:0:0:0:
182,192,196341,1,0,0:0:0:0:
402,192,196469,1,0,0:0:0:0:
256,192,196533,1,0,0:0:0:0:
109,192,196597,1,0,0:0:0:0:
36,192,196661,1,0,0:0:0:0:
475,192,196725,1,0,0:0:0:0:
329,192,196789,1,0,0:0:0:0:
182,192,196854,1,0,0:0:0:0:
36,192,196918,1,0,0:0:0:0:
475,192,196982,1,0,0:0:0:0:
402,192,197046,1,0,0:0:0:0:
256,192,197110,1,0,0:0:0:0:
109,192,197174,1,0,0:0:0:0:
475,192,197238,1,0,0:0:0:0:
402,192,197302,1,0,0:0:0:0:
329,192,197366,1,0,0:0:0:0:
182,192,197430,1,0,0:0:0:0:
36,192,198264,1,0,0:0:0:0:
329,192,198264,1,0,0:0:0:0:
109,192,198328,1,0,0:0:0:0:
182,192,198392,1,0,0:0:0:0:
475,192,198392,1,0,0:0:0:0:
402,192,198456,1,0,0:0:0:0:
329,192,198520,1,0,0:0:0:0:
36,192,198520,1,0,0:0:0:0:
256,192,198520,128,0,198777:0:0:0:0:
475,192,198777,1,0,0:0:0:0:
402,192,198777,1,0,0:0:0:0:
329,192,198777,1,0,0:0:0:0:
182,192,198969,1,0,0:0:0:0:
256,192,198969,1,0,0:0:0:0:
329,192,198969,1,0,0:0:0:0:
36,192,199161,1,0,0:0:0:0:
182,192,199161,1,0,0:0:0:0:
109,192,199161,1,0,0:0:0:0:
329,192,199354,1,0,0:0:0:0:
475,192,199354,1,0,0:0:0:0:
402,192,199354,1,0,0:0:0:0:
182,192,199546,1,0,0:0:0:0:
109,192,199546,1,0,0:0:0:0:
36,192,199546,1,0,0:0:0:0:
182,192,199738,1,0,0:0:0:0:
256,192,199738,1,0,0:0:0:0:
329,192,199738,1,0,0:0:0:0:
329,192,199930,1,0,0:0:0:0:
402,192,199930,1,0,0:0:0:0:
475,192,199930,1,0,0:0:0:0:
182,192,200123,1,0,0:0:0:0:
109,192,200123,1,0,0:0:0:0:
36,192,200123,1,0,0:0:0:0:
475,192,200315,1,0,0:0:0:0:
402,192,200315,1,0,0:0:0:0:
329,192,200315,1,0,0:0:0:0:
182,192,200507,1,0,0:0:0:0:
256,192,200507,1,0,0:0:0:0:
329,192,200507,1,0,0:0:0:0:
36,192,200571,128,0,200828:0:0:0:0:
109,192,200828,1,0,0:0:0:0:
182,192,200828,1,0,0:0:0:0:
256,192,200828,1,0,0:0:0:0:
402,192,201020,1,0,0:0:0:0:
329,192,201020,1,0,0:0:0:0:
256,192,201020,1,0,0:0:0:0:
36,192,201213,1,0,0:0:0:0:
109,192,201213,1,0,0:0:0:0:
182,192,201213,1,0,0:0:0:0:
329,192,201405,1,0,0:0:0:0:
182,192,201405,1,0,0:0:0:0:
256,192,201405,1,0,0:0:0:0:
475,192,201597,1,0,0:0:0:0:
402,192,201597,1,0,0:0:0:0:
329,192,201597,1,0,0:0:0:0:
256,192,201789,1,0,0:0:0:0:
182,192,201789,1,0,0:0:0:0:
109,192,201789,1,0,0:0:0:0:
256,192,201982,1,0,0:0:0:0:
329,192,201982,1,0,0:0:0:0:
402,192,201982,1,0,0:0:0:0:
182,192,202110,1,0,0:0:0:0:
109,192,202110,1,0,0:0:0:0:
36,192,202110,1,0,0:0:0:0:
475,192,202174,1,0,0:0:0:0:
402,192,202238,1,0,0:0:0:0:
329,192,202302,1,0,0:0:0:0:
256,192,202366,1,0,0:0:0:0:
182,192,202430,1,0,0:0:0:0:
109,192,202495,1,0,0:0:0:0:
36,192,202559,1,0,0:0:0:0:
475,192,202623,128,0,202879:0:0:0:0:
402,192,202623,1,0,0:0:0:0:
256,192,202623,1,0,0:0:0:0:
36,192,202879,1,0,0:0:0:0:
109,192,202879,1,0,0:0:0:0:
329,192,202879,1,0,0:0:0:0:
329,192,203071,1,0,0:0:0:0:
256,192,203071,1,0,0:0:0:0:
182,192,203071,1,0,0:0:0:0:
182,192,203264,1,0,0:0:0:0:
402,192,203264,1,0,0:0:0:0:
475,192,203264,1,0,0:0:0:0:
329,192,203456,1,0,0:0:0:0:
109,192,203456,1,0,0:0:0:0:
36,192,203456,1,0,0:0:0:0:
182,192,203648,1,0,0:0:0:0:
475,192,203648,1,0,0:0:0:0:
402,192,203648,1,0,0:0:0:0:
182,192,203841,1,0,0:0:0:0:
329,192,203841,1,0,0:0:0:0:
256,192,203841,1,0,0:0:0:0:
109,192,204033,1,0,0:0:0:0:
36,192,204033,1,0,0:0:0:0:
329,192,204033,1,0,0:0:0:0:
402,192,204225,1,0,0:0:0:0:
475,192,204225,1,0,0:0:0:0:
182,192,204225,1,0,0:0:0:0:
109,192,204418,1,0,0:0:0:0:
36,192,204418,1,0,0:0:0:0:
329,192,204418,1,0,0:0:0:0:
256,192,204610,1,0,0:0:0:0:
182,192,204610,1,0,0:0:0:0:
329,192,204610,1,0,0:0:0:0:
36,192,204674,128,0,204930:0:0:0:0:
329,192,204930,1,0,0:0:0:0:
402,192,204930,1,0,0:0:0:0:
256,192,204930,1,0,0:0:0:0:
182,192,205123,1,0,0:0:0:0:
256,192,205123,1,0,0:0:0:0:
109,192,205123,1,0,0:0:0:0:
329,192,205315,1,0,0:0:0:0:
402,192,205315,1,0,0:0:0:0:
475,192,205315,1,0,0:0:0:0:
182,192,205507,1,0,0:0:0:0:
256,192,205507,1,0,0:0:0:0:
329,192,205507,1,0,0:0:0:0:
36,192,205700,1,0,0:0:0:0:
109,192,205700,1,0,0:0:0:0:
182,192,205700,1,0,0:0:0:0:
402,192,205892,1,0,0:0:0:0:
329,192,205892,1,0,0:0:0:0:
256,192,205892,1,0,0:0:0:0:
109,192,206084,1,0,0:0:0:0:
182,192,206084,1,0,0:0:0:0:
256,192,206084,1,0,0:0:0:0:
475,192,206213,1,0,0:0:0:0:
402,192,206213,1,0,0:0:0:0:
329,192,206213,1,0,0:0:0:0:
36,192,206277,1,0,0:0:0:0:
109,192,206341,1,0,0:0:0:0:
182,192,206405,1,0,0:0:0:0:
256,192,206469,1,0,0:0:0:0:
329,192,206533,1,0,0:0:0:0:
402,192,206597,1,0,0:0:0:0:
475,192,206661,1,0,0:0:0:0:
36,192,206725,128,0,206982:0:0:0:0:
109,192,206725,1,0,0:0:0:0:
256,192,206725,1,0,0:0:0:0:
329,192,206982,1,0,0:0:0:0:
402,192,206982,1,0,0:0:0:0:
475,192,206982,1,0,0:0:0:0:
256,192,207174,1,0,0:0:0:0:
182,192,207174,1,0,0:0:0:0:
36,192,207174,1,0,0:0:0:0:
109,192,207366,1,0,0:0:0:0:
256,192,207366,1,0,0:0:0:0:
329,192,207366,1,0,0:0:0:0:
329,192,207559,1,0,0:0:0:0:
402,192,207559,1,0,0:0:0:0:
182,192,207559,1,0,0:0:0:0:
109,192,207751,1,0,0:0:0:0:
36,192,207751,1,0,0:0:0:0:
182,192,207751,1,0,0:0:0:0:
475,192,207943,1,0,0:0:0:0:
329,192,207943,1,0,0:0:0:0:
256,192,207943,1,0,0:0:0:0:
256,192,208136,1,0,0:0:0:0:
182,192,208136,1,0,0:0:0:0:
402,192,208136,1,0,0:0:0:0:
329,192,208328,1,0,0:0:0:0:
109,192,208328,1,0,0:0:0:0:
182,192,208328,1,0,0:0:0:0:
402,192,208520,1,0,0:0:0:0:
475,192,208520,1,0,0:0:0:0:
329,192,208520,1,0,0:0:0:0:
36,192,208713,1,0,0:0:0:0:
182,192,208713,1,0,0:0:0:0:
256,192,208713,1,0,0:0:0:0:
402,192,208777,128,0,209033:0:0:0:0:
36,192,209033,1,0,0:0:0:0:
109,192,209033,1,0,0:0:0:0:
256,192,209033,1,0,0:0:0:0:
256,192,209225,1,0,0:0:0:0:
402,192,209225,1,0,0:0:0:0:
475,192,209225,1,0,0:0:0:0:
475,192,209418,1,0,0:0:0:0:
36,192,209418,1,0,0:0:0:0:
182,192,209418,1,0,0:0:0:0:
36,192,209610,1,0,0:0:0:0:
109,192,209610,1,0,0:0:0:0:
256,192,209610,1,0,0:0:0:0:
256,192,209802,1,0,0:0:0:0:
475,192,209802,1,0,0:0:0:0:
402,192,209802,1,0,0:0:0:0:
475,192,209995,1,0,0:0:0:0:
36,192,209995,1,0,0:0:0:0:
182,192,209995,1,0,0:0:0:0:
36,192,210187,1,0,0:0:0:0:
109,192,210187,1,0,0:0:0:0:
256,192,210187,1,0,0:0:0:0:
475,192,210315,1,0,0:0:0:0:
402,192,210315,1,0,0:0:0:0:
329,192,210315,1,0,0:0:0:0:
36,192,210443,1,0,0:0:0:0:
182,192,210443,1,0,0:0:0:0:
109,192,210571,1,0,0:0:0:0:
402,192,210571,1,0,0:0:0:0:
329,192,210700,1,0,0:0:0:0:
475,192,210700,1,0,0:0:0:0:
182,192,210828,1,0,0:0:0:0:
36,192,210828,1,0,0:0:0:0:
256,192,210828,128,0,211084:0:0:0:0:
475,192,211084,1,0,0:0:0:0:
402,192,211084,1,0,0:0:0:0:
109,192,211084,1,0,0:0:0:0:
109,192,211277,1,0,0:0:0:0:
36,192,211277,1,0,0:0:0:0:
256,192,211277,1,0,0:0:0:0:
256,192,211469,1,0,0:0:0:0:
402,192,211469,1,0,0:0:0:0:
475,192,211469,1,0,0:0:0:0:
36,192,211661,1,0,0:0:0:0:
182,192,211661,1,0,0:0:0:0:
329,192,211661,1,0,0:0:0:0:
402,192,211854,1,0,0:0:0:0:
109,192,211854,1,0,0:0:0:0:
36,192,211854,1,0,0:0:0:0:
402,192,212046,1,0,0:0:0:0:
475,192,212046,1,0,0:0:0:0:
256,192,212046,1,0,0:0:0:0:
256,192,212238,1,0,0:0:0:0:
109,192,212238,1,0,0:0:0:0:
36,192,212238,1,0,0:0:0:0:
475,192,212430,1,0,0:0:0:0:
329,192,212430,1,0,0:0:0:0:
182,192,212430,1,0,0:0:0:0:
109,192,212623,1,0,0:0:0:0:
402,192,212623,1,0,0:0:0:0:
475,192,212623,1,0,0:0:0:0:
109,192,212815,1,0,0:0:0:0:
36,192,212815,1,0,0:0:0:0:
256,192,212815,1,0,0:0:0:0:
475,192,212879,128,0,213136:0:0:0:0:
329,192,213136,1,0,0:0:0:0:
182,192,213136,1,0,0:0:0:0:
36,192,213136,1,0,0:0:0:0:
109,192,213328,1,0,0:0:0:0:
256,192,213328,1,0,0:0:0:0:
402,192,213328,1,0,0:0:0:0:
182,192,213520,1,0,0:0:0:0:
329,192,213520,1,0,0:0:0:0:
475,192,213520,1,0,0:0:0:0:
402,192,213713,1,0,0:0:0:0:
256,192,213713,1,0,0:0:0:0:
109,192,213713,1,0,0:0:0:0:
36,192,213905,1,0,0:0:0:0:
475,192,213905,1,0,0:0:0:0:
182,192,213905,1,0,0:0:0:0:
402,192,213969,1,0,0:0:0:0:
329,192,214033,1,0,0:0:0:0:
256,192,214097,1,0,0:0:0:0:
182,192,214161,1,0,0:0:0:0:
109,192,214225,1,0,0:0:0:0:
36,192,214289,1,0,0:0:0:0:
475,192,214289,1,0,0:0:0:0:
402,192,214354,1,0,0:0:0:0:
329,192,214418,1,0,0:0:0:0:
36,192,214482,1,0,0:0:0:0:
109,192,214546,1,0,0:0:0:0:
182,192,214610,1,0,0:0:0:0:
256,192,214674,1,0,0:0:0:0:
329,192,214738,1,0,0:0:0:0:
402,192,214802,1,0,0:0:0:0:
475,192,214866,1,0,0:0:0:0:
182,192,214930,1,0,0:0:0:0:
109,192,214930,1,0,0:0:0:0:
256,192,214930,128,0,215187:0:0:0:0:
109,192,215187,1,0,0:0:0:0:
36,192,215187,1,0,0:0:0:0:
402,192,215187,1,0,0:0:0:0:
329,192,215358,1,0,0:0:0:0:
256,192,215358,1,0,0:0:0:0:
182,192,215529,1,0,0:0:0:0:
36,192,215529,1,0,0:0:0:0:
402,192,215700,1,0,0:0:0:0:
329,192,215700,1,0,0:0:0:0:
256,192,215871,1,0,0:0:0:0:
109,192,215871,1,0,0:0:0:0:
475,192,216042,1,0,0:0:0:0:
402,192,216042,1,0,0:0:0:0:
182,192,216213,1,0,0:0:0:0:
329,192,216213,1,0,0:0:0:0:
109,192,216383,1,0,0:0:0:0:
36,192,216383,1,0,0:0:0:0:
402,192,216554,1,0,0:0:0:0:
256,192,216554,1,0,0:0:0:0:
182,192,216725,1,0,0:0:0:0:
109,192,216725,1,0,0:0:0:0:
402,192,216896,1,0,0:0:0:0:
475,192,216896,1,0,0:0:0:0:
36,192,216982,128,0,217238:0:0:0:0:
182,192,217238,1,0,0:0:0:0:
329,192,217238,1,0,0:0:0:0:
402,192,217324,1,0,0:0:0:0:
475,192,217409,1,0,0:0:0:0:
256,192,217409,1,0,0:0:0:0:
329,192,217580,1,0,0:0:0:0:
182,192,217580,1,0,0:0:0:0:
109,192,217666,1,0,0:0:0:0:
36,192,217751,1,0,0:0:0:0:
256,192,217751,1,0,0:0:0:0:
475,192,217922,1,0,0:0:0:0:
402,192,217922,1,0,0:0:0:0:
109,192,218007,1,0,0:0:0:0:
36,192,218093,1,0,0:0:0:0:
329,192,218093,1,0,0:0:0:0:
256,192,218178,1,0,0:0:0:0:
109,192,218264,1,0,0:0:0:0:
36,192,218264,1,0,0:0:0:0:
402,192,218349,1,0,0:0:0:0:
475,192,218435,1,0,0:0:0:0:
182,192,218435,1,0,0:0:0:0:
256,192,218520,1,0,0:0:0:0:
475,192,218606,1,0,0:0:0:0:
402,192,218606,1,0,0:0:0:0:
109,192,218691,1,0,0:0:0:0:
36,192,218777,1,0,0:0:0:0:
329,192,218777,1,0,0:0:0:0:
256,192,218862,1,0,0:0:0:0:
109,192,218948,1,0,0:0:0:0:
36,192,218948,1,0,0:0:0:0:
475,192,219033,1,0,0:0:0:0:
329,192,219033,1,0,0:0:0:0:
182,192,219033,128,0,219289:0:0:0:0:
475,192,219289,1,0,0:0:0:0:
402,192,219289,1,0,0:0:0:0:
36,192,219289,1,0,0:0:0:0:
256,192,219460,1,0,0:0:0:0:
182,192,219460,1,0,0:0:0:0:
475,192,219631,1,0,0:0:0:0:
329,192,219631,1,0,0:0:0:0:
182,192,219802,1,0,0:0:0:0:
109,192,219802,1,0,0:0:0:0:
402,192,219973,1,0,0:0:0:0:
256,192,219973,1,0,0:0:0:0:
109,192,220144,1,0,0:0:0:0:
36,192,220144,1,0,0:0:0:0:
182,192,220315,1,0,0:0:0:0:
329,192,220315,1,0,0:0:0:0:
475,192,220486,1,0,0:0:0:0:
402,192,220486,1,0,0:0:0:0:
256,192,220657,1,0,0:0:0:0:
109,192,220657,1,0,0:0:0:0:
402,192,220828,1,0,0:0:0:0:
329,192,220828,1,0,0:0:0:0:
36,192,220999,1,0,0:0:0:0:
109,192,220999,1,0,0:0:0:0:
475,192,221084,128,0,221341:0:0:0:0:
182,192,221341,1,0,0:0:0:0:
329,192,221341,1,0,0:0:0:0:
109,192,221426,1,0,0:0:0:0:
256,192,221512,1,0,0:0:0:0:
36,192,221512,1,0,0:0:0:0:
329,192,221683,1,0,0:0:0:0:
182,192,221683,1,0,0:0:0:0:
402,192,221768,1,0,0:0:0:0:
256,192,221854,1,0,0:0:0:0:
475,192,221854,1,0,0:0:0:0:
109,192,222024,1,0,0:0:0:0:
36,192,222024,1,0,0:0:0:0:
402,192,222110,1,0,0:0:0:0:
182,192,222195,1,0,0:0:0:0:
475,192,222195,1,0,0:0:0:0:
256,192,222281,1,0,0:0:0:0:
475,192,222366,1,0,0:0:0:0:
402,192,222366,1,0,0:0:0:0:
109,192,222452,1,0,0:0:0:0:
329,192,222537,1,0,0:0:0:0:
36,192,222537,1,0,0:0:0:0:
256,192,222623,1,0,0:0:0:0:
109,192,222708,1,0,0:0:0:0:
36,192,222708,1,0,0:0:0:0:
402,192,222794,1,0,0:0:0:0:
182,192,222879,1,0,0:0:0:0:
475,192,222879,1,0,0:0:0:0:
256,192,222965,1,0,0:0:0:0:
475,192,223050,1,0,0:0:0:0:
402,192,223050,1,0,0:0:0:0:
329,192,223136,128,0,223392:0:0:0:0:
182,192,223136,1,0,0:0:0:0:
36,192,223136,1,0,0:0:0:0:
109,192,223392,1,0,0:0:0:0:
402,192,223392,1,0,0:0:0:0:
256,192,223392,1,0,0:0:0:0:
182,192,223563,1,0,0:0:0:0:
36,192,223563,1,0,0:0:0:0:
329,192,223734,1,0,0:0:0:0:
475,192,223734,1,0,0:0:0:0:
256,192,223905,1,0,0:0:0:0:
109,192,223905,1,0,0:0:0:0:
36,192,224076,1,0,0:0:0:0:
402,192,224076,1,0,0:0:0:0:
329,192,224247,1,0,0:0:0:0:
182,192,224247,1,0,0:0:0:0:
109,192,224418,1,0,0:0:0:0:
475,192,224418,1,0,0:0:0:0:
402,192,224589,1,0,0:0:0:0:
256,192,224589,1,0,0:0:0:0:
182,192,224760,1,0,0:0:0:0:
36,192,224760,1,0,0:0:0:0:
329,192,224930,1,0,0:0:0:0:
475,192,224930,1,0,0:0:0:0:
109,192,225101,1,0,0:0:0:0:
256,192,225101,1,0,0:0:0:0:
402,192,225187,128,0,225443:0:0:0:0:
36,192,225443,1,0,0:0:0:0:
329,192,225443,1,0,0:0:0:0:
256,192,225529,1,0,0:0:0:0:
182,192,225614,1,0,0:0:0:0:
475,192,225614,1,0,0:0:0:0:
36,192,225785,1,0,0:0:0:0:
329,192,225785,1,0,0:0:0:0:
256,192,225871,1,0,0:0:0:0:
182,192,225956,1,0,0:0:0:0:
475,192,225956,1,0,0:0:0:0:
36,192,226127,1,0,0:0:0:0:
329,192,226127,1,0,0:0:0:0:
182,192,226213,1,0,0:0:0:0:
109,192,226298,1,0,0:0:0:0:
402,192,226298,1,0,0:0:0:0:
256,192,226383,1,0,0:0:0:0:
182,192,226469,1,0,0:0:0:0:
475,192,226469,1,0,0:0:0:0:
329,192,226554,1,0,0:0:0:0:
402,192,226640,1,0,0:0:0:0:
109,192,226640,1,0,0:0:0:0:
256,192,226725,1,0,0:0:0:0:
329,192,226811,1,0,0:0:0:0:
36,192,226811,1,0,0:0:0:0:
182,192,226896,1,0,0:0:0:0:
109,192,226982,1,0,0:0:0:0:
402,192,226982,1,0,0:0:0:0:
256,192,227067,1,0,0:0:0:0:
182,192,227153,1,0,0:0:0:0:
475,192,227153,1,0,0:0:0:0:
109,192,227238,1,0,0:0:0:0:
36,192,227238,1,0,0:0:0:0:
329,192,227238,128,0,227430:0:0:0:0:
182,192,227430,128,0,227495:0:0:0:0:
36,192,227495,1,0,0:0:0:0:
475,192,227495,1,0,0:0:0:0:
402,192,227495,1,0,0:0:0:0:
109,192,227666,1,0,0:0:0:0:
256,192,227666,1,0,0:0:0:0:
36,192,227836,1,0,0:0:0:0:
475,192,227836,1,0,0:0:0:0:
256,192,228007,1,0,0:0:0:0:
402,192,228007,1,0,0:0:0:0:
329,192,228178,1,0,0:0:0:0:
36,192,228178,1,0,0:0:0:0:
109,192,228349,1,0,0:0:0:0:
402,192,228349,1,0,0:0:0:0:
475,192,228520,1,0,0:0:0:0:
182,192,228520,1,0,0:0:0:0:
109,192,228691,1,0,0:0:0:0:
256,192,228691,1,0,0:0:0:0:
36,192,228862,1,0,0:0:0:0:
475,192,228862,1,0,0:0:0:0:
402,192,229033,1,0,0:0:0:0:
256,192,229033,1,0,0:0:0:0:
329,192,229204,1,0,0:0:0:0:
36,192,229204,1,0,0:0:0:0:
182,192,229289,128,0,229546:0:0:0:0:
475,192,229546,1,0,0:0:0:0:
109,192,229546,1,0,0:0:0:0:
256,192,229631,1,0,0:0:0:0:
402,192,229717,1,0,0:0:0:0:
36,192,229717,1,0,0:0:0:0:
475,192,229888,1,0,0:0:0:0:
109,192,229888,1,0,0:0:0:0:
256,192,229973,1,0,0:0:0:0:
402,192,230059,1,0,0:0:0:0:
36,192,230059,1,0,0:0:0:0:
475,192,230230,1,0,0:0:0:0:
182,192,230230,1,0,0:0:0:0:
329,192,230315,1,0,0:0:0:0:
402,192,230401,1,0,0:0:0:0:
109,192,230401,1,0,0:0:0:0:
256,192,230486,1,0,0:0:0:0:
329,192,230571,1,0,0:0:0:0:
36,192,230571,1,0,0:0:0:0:
182,192,230657,1,0,0:0:0:0:
109,192,230742,1,0,0:0:0:0:
402,192,230742,1,0,0:0:0:0:
256,192,230828,1,0,0:0:0:0:
182,192,230913,5,0,0:0:0:0:
475,192,230913,1,0,0:0:0:0:
329,192,230999,1,0,0:0:0:0:
402,192,231084,1,0,0:0:0:0:
109,192,231084,1,0,0:0:0:0:
256,192,231170,1,0,0:0:0:0:
329,192,231255,1,0,0:0:0:0:
36,192,231255,1,0,0:0:0:0:
402,192,231298,1,0,0:0:0:0:
475,192,231341,128,0,235443:0:0:0:0:
182,192,231341,1,0,0:0:0:0:
109,192,234161,5,0,0:0:0:0:
256,192,234418,1,0,0:0:0:0:
329,192,234418,1,0,0:0:0:0:
402,192,234802,1,0,0:0:0:0:
36,192,235187,1,0,0:0:0:0:
402,192,235443,1,0,0:0:0:0:
182,192,235443,1,0,0:0:0:0:
329,192,235828,1,0,0:0:0:0:
109,192,236469,1,0,0:0:0:0:
256,192,236469,1,0,0:0:0:0:
182,192,236854,1,0,0:0:0:0:
329,192,237495,1,0,0:0:0:0:
36,192,237495,1,0,0:0:0:0:
256,192,237879,1,0,0:0:0:0:
402,192,239546,1,0,0:0:0:0:
182,192,239546,1,0,0:0:0:0:
36,192,239546,1,0,0:0:0:0:
329,192,240828,1,0,0:0:0:0:
402,192,241084,1,0,0:0:0:0:
475,192,241341,1,0,0:0:0:0:
256,192,241597,1,0,0:0:0:0:
109,192,241597,1,0,0:0:0:0:
402,192,241597,1,0,0:0:0:0:
329,192,242110,1,0,0:0:0:0:
109,192,242623,1,0,0:0:0:0:
182,192,243136,1,0,0:0:0:0:
329,192,243648,1,0,0:0:0:0:
402,192,243648,1,0,0:0:0:0:
182,192,243648,1,0,0:0:0:0:
256,192,244033,1,0,0:0:0:0:
36,192,244674,1,0,0:0:0:0:
256,192,244674,1,0,0:0:0:0:
329,192,245059,1,0,0:0:0:0:
109,192,245700,1,0,0:0:0:0:
182,192,245700,1,0,0:0:0:0:
329,192,245700,1,0,0:0:0:0:
402,192,246084,1,0,0:0:0:0:
329,192,246469,1,0,0:0:0:0:
182,192,246725,1,0,0:0:0:0:
256,192,246725,1,0,0:0:0:0:
36,192,247238,1,0,0:0:0:0:
109,192,247495,1,0,0:0:0:0:
402,192,247751,1,0,0:0:0:0:
475,192,247751,1,0,0:0:0:0:
182,192,247751,1,0,0:0:0:0:
109,192,248520,1,0,0:0:0:0:
109,192,248777,1,0,0:0:0:0:
182,192,249161,1,0,0:0:0:0:
256,192,249546,1,0,0:0:0:0:
402,192,249802,1,0,0:0:0:0:
109,192,249802,1,0,0:0:0:0:
256,192,249802,1,0,0:0:0:0:
329,192,250059,1,0,0:0:0:0:
402,192,250315,1,0,0:0:0:0:
36,192,250828,1,0,0:0:0:0:
475,192,251597,1,0,0:0:0:0:
256,192,251854,1,0,0:0:0:0:
182,192,251854,1,0,0:0:0:0:
402,192,251854,1,0,0:0:0:0:
475,192,252110,1,0,0:0:0:0:
402,192,252366,1,0,0:0:0:0:
256,192,252879,1,0,0:0:0:0:
329,192,253136,1,0,0:0:0:0:
256,192,253392,1,0,0:0:0:0:
182,192,253648,1,0,0:0:0:0:
329,192,253905,1,0,0:0:0:0:
402,192,253905,1,0,0:0:0:0:
109,192,253905,1,0,0:0:0:0:
182,192,254161,1,0,0:0:0:0:
109,192,254418,1,0,0:0:0:0:
36,192,255956,1,0,0:0:0:0:
256,192,255956,1,0,0:0:0:0:
182,192,255956,1,0,0:0:0:0:
329,192,256469,1,0,0:0:0:0:
109,192,256982,1,0,0:0:0:0:
329,192,257495,1,0,0:0:0:0:
402,192,257751,1,0,0:0:0:0:
475,192,258007,1,0,0:0:0:0:
109,192,258007,1,0,0:0:0:0:
182,192,258007,1,0,0:0:0:0:
329,192,258264,1,0,0:0:0:0:
256,192,258520,1,0,0:0:0:0:
329,192,260059,1,0,0:0:0:0:
182,192,260059,1,0,0:0:0:0:
36,192,260059,1,0,0:0:0:0:
256,192,260571,1,0,0:0:0:0:
475,192,261854,1,0,0:0:0:0:
329,192,262110,1,0,0:0:0:0:
109,192,262110,1,0,0:0:0:0:
256,192,263136,1,0,0:0:0:0:
256,192,264161,1,0,0:0:0:0:
402,192,264161,1,0,0:0:0:0:
109,192,264161,1,0,0:0:0:0:
36,192,266213,1,0,0:0:0:0:
109,192,266213,1,0,0:0:0:0:
36,192,268264,1,0,0:0:0:0:
475,192,268264,1,0,0:0:0:0:
182,192,268264,1,0,0:0:0:0:
402,192,268264,1,0,0:0:0:0:
475,192,270315,1,0,0:0:0:0:
329,192,270315,1,0,0:0:0:0:
36,192,272366,1,0,0:0:0:0:
475,192,272366,1,0,0:0:0:0:
109,192,272366,128,0,272751:0:0:0:0:
256,192,272366,1,0,0:0:0:0:
182,192,272751,128,0,273136:0:0:0:0:
109,192,273392,128,0,273777:0:0:0:0:
182,192,273777,128,0,274161:0:0:0:0:
109,192,274418,128,0,274802:0:0:0:0:
329,192,274418,1,0,0:0:0:0:
402,192,274418,1,0,0:0:0:0:
182,192,274802,128,0,276213:0:0:0:0:
109,192,276469,128,0,276854:0:0:0:0:
402,192,276469,1,0,0:0:0:0:
256,192,276469,1,0,0:0:0:0:
182,192,276854,128,0,277238:0:0:0:0:
109,192,277495,128,0,277879:0:0:0:0:
182,192,277879,128,0,278264:0:0:0:0:
329,192,278520,128,0,278905:0:0:0:0:
109,192,278520,1,0,0:0:0:0:
256,192,278520,1,0,0:0:0:0:
402,192,278905,128,0,280315:0:0:0:0:
475,192,280571,128,0,280956:0:0:0:0:
256,192,280571,1,0,0:0:0:0:
36,192,280571,1,0,0:0:0:0:
402,192,280956,128,0,281597:0:0:0:0:
36,192,281213,1,0,0:0:0:0:
109,192,281597,128,0,281982:0:0:0:0:
329,192,281597,1,0,0:0:0:0:
475,192,281597,1,0,0:0:0:0:
182,192,281982,128,0,282366:0:0:0:0:
475,192,282238,1,0,0:0:0:0:
256,192,282366,128,0,282623:0:0:0:0:
475,192,282495,1,0,0:0:0:0:
109,192,282623,1,0,0:0:0:0:
402,192,282623,128,0,283007:0:0:0:0:
36,192,282623,1,0,0:0:0:0:
329,192,283007,128,0,283392:0:0:0:0:
36,192,283264,1,0,0:0:0:0:
256,192,283392,128,0,283648:0:0:0:0:
182,192,283648,1,0,0:0:0:0:
402,192,283648,128,0,284033:0:0:0:0:
475,192,283648,1,0,0:0:0:0:
109,192,284033,128,0,284418:0:0:0:0:
475,192,284033,1,0,0:0:0:0:
475,192,284289,1,0,0:0:0:0:
182,192,284418,128,0,284674:0:0:0:0:
475,192,284546,1,0,0:0:0:0:
256,192,284674,128,0,285059:0:0:0:0:
402,192,284674,1,0,0:0:0:0:
36,192,284674,1,0,0:0:0:0:
329,192,285059,128,0,285956:0:0:0:0:
36,192,285315,1,0,0:0:0:0:
475,192,285700,1,0,0:0:0:0:
109,192,285956,128,0,286213:0:0:0:0:
182,192,286213,128,0,286469:0:0:0:0:
475,192,286341,1,0,0:0:0:0:
256,192,286469,128,0,286725:0:0:0:0:
475,192,286597,1,0,0:0:0:0:
329,192,286725,128,0,287110:0:0:0:0:
182,192,286725,1,0,0:0:0:0:
36,192,286725,1,0,0:0:0:0:
402,192,287110,128,0,287495:0:0:0:0:
36,192,287366,1,0,0:0:0:0:
329,192,287495,128,0,287751:0:0:0:0:
109,192,287751,128,0,288136:0:0:0:0:
256,192,287751,1,0,0:0:0:0:
475,192,287751,1,0,0:0:0:0:
475,192,288136,1,0,0:0:0:0:
182,192,288136,128,0,288520:0:0:0:0:
475,192,288392,1,0,0:0:0:0:
256,192,288520,128,0,288777:0:0:0:0:
475,192,288648,1,0,0:0:0:0:
36,192,288777,1,0,0:0:0:0:
109,192,288777,1,0,0:0:0:0:
329,192,288777,128,0,289161:0:0:0:0:
402,192,289161,128,0,289802:0:0:0:0:
36,192,289289,1,0,0:0:0:0:
329,192,289802,128,0,290187:0:0:0:0:
36,192,289802,1,0,0:0:0:0:
402,192,290187,128,0,290828:0:0:0:0:
36,192,290315,1,0,0:0:0:0:
36,192,290828,1,0,0:0:0:0:
329,192,290828,128,0,291213:0:0:0:0:
182,192,290828,1,0,0:0:0:0:
256,192,291213,128,0,292879:0:0:0:0:
36,192,291341,1,0,0:0:0:0:
36,192,291854,1,0,0:0:0:0:
36,192,292366,1,0,0:0:0:0:
36,192,292879,1,0,0:0:0:0:
182,192,292879,1,0,0:0:0:0:
329,192,292879,128,0,293264:0:0:0:0:
402,192,293264,128,0,293905:0:0:0:0:
36,192,293392,1,0,0:0:0:0:
36,192,293905,1,0,0:0:0:0:
329,192,293905,128,0,294289:0:0:0:0:
402,192,294289,128,0,294930:0:0:0:0:
36,192,294418,1,0,0:0:0:0:
36,192,294930,1,0,0:0:0:0:
109,192,294930,1,0,0:0:0:0:
329,192,294930,128,0,295315:0:0:0:0:
475,192,295315,128,0,296982:0:0:0:0:
36,192,295443,1,0,0:0:0:0:
36,192,295956,1,0,0:0:0:0:
36,192,296469,1,0,0:0:0:0:
182,192,296982,1,0,0:0:0:0:
402,192,296982,128,0,297366:0:0:0:0:
36,192,296982,1,0,0:0:0:0:
182,192,297238,1,0,0:0:0:0:
329,192,297366,128,0,298007:0:0:0:0:
182,192,297495,1,0,0:0:0:0:
182,192,297751,1,0,0:0:0:0:
475,192,298007,1,0,0:0:0:0:
109,192,298007,128,0,298392:0:0:0:0:
36,192,298007,1,0,0:0:0:0:
475,192,298264,1,0,0:0:0:0:
256,192,298392,128,0,298777:0:0:0:0:
475,192,298520,1,0,0:0:0:0:
475,192,298777,1,0,0:0:0:0:
36,192,298777,128,0,299033:0:0:0:0:
329,192,299033,1,0,0:0:0:0:
256,192,299033,1,0,0:0:0:0:
182,192,299033,128,0,299418:0:0:0:0:
329,192,299289,1,0,0:0:0:0:
36,192,299418,128,0,299802:0:0:0:0:
329,192,299546,1,0,0:0:0:0:
475,192,299802,128,0,300059:0:0:0:0:
329,192,299802,1,0,0:0:0:0:
402,192,300059,128,0,300443:0:0:0:0:
36,192,300059,1,0,0:0:0:0:
182,192,300059,1,0,0:0:0:0:
36,192,300315,1,0,0:0:0:0:
329,192,300443,128,0,300828:0:0:0:0:
36,192,300571,1,0,0:0:0:0:
36,192,300828,1,0,0:0:0:0:
256,192,300828,128,0,301084:0:0:0:0:
109,192,301084,1,0,0:0:0:0:
475,192,301084,1,0,0:0:0:0:
402,192,301084,1,0,0:0:0:0:
182,192,301213,1,0,0:0:0:0:
329,192,301341,1,0,0:0:0:0:
109,192,301469,1,0,0:0:0:0:
36,192,301469,1,0,0:0:0:0:
256,192,301469,1,0,0:0:0:0:
402,192,301597,1,0,0:0:0:0:
329,192,301725,1,0,0:0:0:0:
182,192,301854,1,0,0:0:0:0:
256,192,301982,1,0,0:0:0:0:
109,192,302110,1,0,0:0:0:0:
182,192,302174,1,0,0:0:0:0:
329,192,302238,1,0,0:0:0:0:
402,192,302302,1,0,0:0:0:0:
109,192,302366,1,0,0:0:0:0:
182,192,302430,1,0,0:0:0:0:
329,192,302495,1,0,0:0:0:0:
402,192,302559,1,0,0:0:0:0:
109,192,302623,1,0,0:0:0:0:
182,192,302687,1,0,0:0:0:0:
329,192,302751,1,0,0:0:0:0:
402,192,302815,1,0,0:0:0:0:
109,192,302879,1,0,0:0:0:0:
182,192,302943,1,0,0:0:0:0:
329,192,303007,1,0,0:0:0:0:
402,192,303071,1,0,0:0:0:0:
256,192,303136,128,0,305187:0:0:0:0:
36,192,303136,1,0,0:0:0:0:
475,192,303136,1,0,0:0:0:0:
36,192,304161,1,0,0:0:0:0:
475,192,304161,1,0,0:0:0:0:
182,192,304289,1,0,0:0:0:0:
329,192,304418,1,0,0:0:0:0:
36,192,304546,1,0,0:0:0:0:
475,192,304546,1,0,0:0:0:0:
329,192,304674,1,0,0:0:0:0:
182,192,304760,1,0,0:0:0:0:
109,192,304845,1,0,0:0:0:0:
475,192,304930,1,0,0:0:0:0:
36,192,304930,1,0,0:0:0:0:
329,192,305059,1,0,0:0:0:0:
402,192,305123,1,0,0:0:0:0:
475,192,305187,128,0,309033:0:0:0:0:
36,192,305187,1,0,0:0:0:0:
109,192,305187,128,0,305571:0:0:0:0:
182,192,305571,128,0,306213:0:0:0:0:
109,192,306213,128,0,306597:0:0:0:0:
182,192,306597,128,0,307238:0:0:0:0:
329,192,307238,128,0,309033:0:0:0:0:
109,192,307238,128,0,307623:0:0:0:0:
182,192,307623,128,0,309033:0:0:0:0:
256,192,309033,128,0,309289:0:0:0:0:
36,192,309289,128,0,313136:0:0:0:0:
329,192,309289,128,0,309674:0:0:0:0:
402,192,309674,128,0,310315:0:0:0:0:
329,192,310315,128,0,310700:0:0:0:0:
402,192,310700,128,0,311341:0:0:0:0:
182,192,311341,128,0,313136:0:0:0:0:
329,192,311341,128,0,311725:0:0:0:0:
402,192,311725,128,0,313136:0:0:0:0:
36,192,313392,128,0,314418:0:0:0:0:
475,192,313392,128,0,314418:0:0:0:0:
256,192,313777,128,0,314418:0:0:0:0:
402,192,314418,128,0,315443:0:0:0:0:
109,192,314418,128,0,315443:0:0:0:0:
182,192,314802,128,0,315187:0:0:0:0:
329,192,315187,128,0,315443:0:0:0:0:
36,192,315443,128,0,316469:0:0:0:0:
475,192,315443,128,0,316469:0:0:0:0:
402,192,315828,128,0,316213:0:0:0:0:
109,192,316213,128,0,316469:0:0:0:0:
329,192,316469,128,0,317495:0:0:0:0:
182,192,316469,128,0,317495:0:0:0:0:
36,192,316854,128,0,317238:0:0:0:0:
475,192,317238,128,0,317495:0:0:0:0:
109,192,317495,128,0,319546:0:0:0:0:
402,192,317495,128,0,319546:0:0:0:0:
256,192,317879,128,0,318777:0:0:0:0:
182,192,318777,128,0,319033:0:0:0:0:
256,192,319033,128,0,319289:0:0:0:0:
329,192,319289,128,0,319546:0:0:0:0:
475,192,319546,128,0,321469:0:0:0:0:
36,192,319546,128,0,321469:0:0:0:0:
329,192,319930,128,0,320315:0:0:0:0:
182,192,320315,128,0,320571:0:0:0:0:
109,192,320571,128,0,320956:0:0:0:0:
256,192,320956,128,0,321341:0:0:0:0:
402,192,321341,128,0,321469:0:0:0:0:
36,192,321597,1,0,0:0:0:0:
182,192,321597,1,0,0:0:0:0:
475,192,321597,1,0,0:0:0:0:
329,192,321597,128,0,321982:0:0:0:0:
36,192,321854,1,0,0:0:0:0:
475,192,321982,128,0,322623:0:0:0:0:
182,192,321982,1,0,0:0:0:0:
36,192,322110,1,0,0:0:0:0:
256,192,322238,1,0,0:0:0:0:
109,192,322366,1,0,0:0:0:0:
256,192,322495,1,0,0:0:0:0:
329,192,322623,128,0,323007:0:0:0:0:
36,192,322623,1,0,0:0:0:0:
182,192,322879,1,0,0:0:0:0:
475,192,323007,128,0,323648:0:0:0:0:
36,192,323007,1,0,0:0:0:0:
182,192,323136,1,0,0:0:0:0:
329,192,323264,1,0,0:0:0:0:
109,192,323392,1,0,0:0:0:0:
329,192,323520,1,0,0:0:0:0:
182,192,323648,128,0,324033:0:0:0:0:
36,192,323648,1,0,0:0:0:0:
475,192,323905,1,0,0:0:0:0:
36,192,324033,128,0,325443:0:0:0:0:
329,192,324033,1,0,0:0:0:0:
475,192,324161,1,0,0:0:0:0:
182,192,324289,1,0,0:0:0:0:
402,192,324418,1,0,0:0:0:0:
182,192,324546,1,0,0:0:0:0:
256,192,324674,1,0,0:0:0:0:
402,192,324930,1,0,0:0:0:0:
182,192,325059,1,0,0:0:0:0:
402,192,325187,1,0,0:0:0:0:
109,192,325315,1,0,0:0:0:0:
475,192,325443,128,0,325700:0:0:0:0:
329,192,325443,1,0,0:0:0:0:
109,192,325571,1,0,0:0:0:0:
402,192,325700,128,0,326084:0:0:0:0:
256,192,325700,1,0,0:0:0:0:
36,192,325956,1,0,0:0:0:0:
256,192,326084,128,0,326725:0:0:0:0:
182,192,326084,1,0,0:0:0:0:
36,192,326213,1,0,0:0:0:0:
475,192,326341,1,0,0:0:0:0:
329,192,326469,1,0,0:0:0:0:
475,192,326597,1,0,0:0:0:0:
109,192,326725,128,0,327110:0:0:0:0:
182,192,326725,1,0,0:0:0:0:
402,192,326982,1,0,0:0:0:0:
36,192,327110,128,0,327751:0:0:0:0:
329,192,327110,1,0,0:0:0:0:
402,192,327238,1,0,0:0:0:0:
182,192,327366,1,0,0:0:0:0:
329,192,327495,1,0,0:0:0:0:
182,192,327623,1,0,0:0:0:0:
256,192,327687,1,0,0:0:0:0:
475,192,327751,128,0,329802:0:0:0:0:
329,192,327751,1,0,0:0:0:0:
36,192,328007,1,0,0:0:0:0:
182,192,328136,1,0,0:0:0:0:
36,192,328264,1,0,0:0:0:0:
256,192,328392,1,0,0:0:0:0:
109,192,328520,1,0,0:0:0:0:
256,192,328648,1,0,0:0:0:0:
402,192,328777,1,0,0:0:0:0:
36,192,329033,1,0,0:0:0:0:
256,192,329161,1,0,0:0:0:0:
182,192,329225,1,0,0:0:0:0:
109,192,329289,1,0,0:0:0:0:
256,192,329418,1,0,0:0:0:0:
329,192,329482,1,0,0:0:0:0:
402,192,329546,1,0,0:0:0:0:
256,192,329674,1,0,0:0:0:0:
182,192,329738,1,0,0:0:0:0:
109,192,329802,128,0,330187:0:0:0:0:
329,192,329802,1,0,0:0:0:0:
36,192,329802,1,0,0:0:0:0:
402,192,329802,1,0,0:0:0:0:
256,192,330059,1,0,0:0:0:0:
402,192,330187,128,0,330828:0:0:0:0:
329,192,330187,1,0,0:0:0:0:
182,192,330315,1,0,0:0:0:0:
256,192,330443,1,0,0:0:0:0:
36,192,330571,1,0,0:0:0:0:
182,192,330571,1,0,0:0:0:0:
329,192,330700,1,0,0:0:0:0:
109,192,330828,128,0,331213:0:0:0:0:
36,192,330828,1,0,0:0:0:0:
256,192,331084,1,0,0:0:0:0:
475,192,331084,1,0,0:0:0:0:
402,192,331213,128,0,331854:0:0:0:0:
182,192,331213,1,0,0:0:0:0:
256,192,331341,1,0,0:0:0:0:
36,192,331341,1,0,0:0:0:0:
329,192,331469,1,0,0:0:0:0:
109,192,331597,1,0,0:0:0:0:
256,192,331725,1,0,0:0:0:0:
475,192,331854,128,0,332238:0:0:0:0:
182,192,331854,1,0,0:0:0:0:
36,192,331854,1,0,0:0:0:0:
329,192,332110,1,0,0:0:0:0:
256,192,332238,128,0,333648:0:0:0:0:
182,192,332238,1,0,0:0:0:0:
36,192,332366,1,0,0:0:0:0:
109,192,332366,1,0,0:0:0:0:
402,192,332495,1,0,0:0:0:0:
36,192,332623,1,0,0:0:0:0:
329,192,332751,1,0,0:0:0:0:
475,192,332879,1,0,0:0:0:0:
402,192,332879,1,0,0:0:0:0:
182,192,333007,1,0,0:0:0:0:
109,192,333136,1,0,0:0:0:0:
36,192,333136,1,0,0:0:0:0:
329,192,333264,1,0,0:0:0:0:
475,192,333392,1,0,0:0:0:0:
402,192,333392,1,0,0:0:0:0:
182,192,333520,1,0,0:0:0:0:
475,192,333648,128,0,333905:0:0:0:0:
109,192,333648,1,0,0:0:0:0:
36,192,333648,1,0,0:0:0:0:
182,192,333777,1,0,0:0:0:0:
329,192,333905,128,0,334289:0:0:0:0:
402,192,333905,1,0,0:0:0:0:
182,192,334033,1,0,0:0:0:0:
109,192,334097,1,0,0:0:0:0:
36,192,334161,1,0,0:0:0:0:
182,192,334289,128,0,334930:0:0:0:0:
256,192,334289,1,0,0:0:0:0:
475,192,334418,1,0,0:0:0:0:
329,192,334546,1,0,0:0:0:0:
402,192,334610,1,0,0:0:0:0:
475,192,334674,1,0,0:0:0:0:
329,192,334802,1,0,0:0:0:0:
475,192,334930,128,0,335315:0:0:0:0:
36,192,334930,1,0,0:0:0:0:
256,192,335059,1,0,0:0:0:0:
182,192,335123,1,0,0:0:0:0:
109,192,335187,1,0,0:0:0:0:
36,192,335315,128,0,335956:0:0:0:0:
329,192,335315,1,0,0:0:0:0:
256,192,335379,1,0,0:0:0:0:
182,192,335443,1,0,0:0:0:0:
402,192,335571,1,0,0:0:0:0:
329,192,335636,1,0,0:0:0:0:
256,192,335700,1,0,0:0:0:0:
182,192,335828,1,0,0:0:0:0:
329,192,335892,1,0,0:0:0:0:
475,192,335956,128,0,336084:0:0:0:0:
402,192,336084,128,0,336213:0:0:0:0:
329,192,336213,128,0,336341:0:0:0:0:
256,192,336341,128,0,336469:0:0:0:0:
182,192,336469,128,0,336597:0:0:0:0:
109,192,336597,128,0,336725:0:0:0:0:
36,192,336725,128,0,336982:0:0:0:0:
475,192,336982,1,0,0:0:0:0:
402,192,336982,1,0,0:0:0:0:
256,192,336982,1,0,0:0:0:0:
109,192,337110,1,0,0:0:0:0:
329,192,337110,1,0,0:0:0:0:
402,192,337174,1,0,0:0:0:0:
182,192,337238,1,0,0:0:0:0:
475,192,337238,1,0,0:0:0:0:
256,192,337366,1,0,0:0:0:0:
109,192,337366,1,0,0:0:0:0:
36,192,337366,1,0,0:0:0:0:
182,192,337495,1,0,0:0:0:0:
402,192,337495,1,0,0:0:0:0:
109,192,337559,5,0,0:0:0:0:
36,192,337623,1,0,0:0:0:0:
329,192,337623,1,0,0:0:0:0:
256,192,337751,1,0,0:0:0:0:
475,192,337751,1,0,0:0:0:0:
402,192,337751,1,0,0:0:0:0:
109,192,337879,1,0,0:0:0:0:
329,192,337879,1,0,0:0:0:0:
402,192,337943,1,0,0:0:0:0:
36,192,338007,1,0,0:0:0:0:
182,192,338007,128,0,338392:0:0:0:0:
475,192,338007,1,0,0:0:0:0:
256,192,338007,1,0,0:0:0:0:
329,192,338136,1,0,0:0:0:0:
36,192,338264,1,0,0:0:0:0:
402,192,338264,1,0,0:0:0:0:
329,192,338392,1,0,0:0:0:0:
475,192,338392,128,0,338777:0:0:0:0:
109,192,338520,1,0,0:0:0:0:
256,192,338520,128,0,338648:0:0:0:0:
36,192,338648,128,0,338777:0:0:0:0:
402,192,338777,1,0,0:0:0:0:
256,192,338777,128,0,338905:0:0:0:0:
36,192,338905,128,0,339033:0:0:0:0:
109,192,339033,1,0,0:0:0:0:
329,192,339033,1,0,0:0:0:0:
182,192,339033,128,0,339418:0:0:0:0:
402,192,339161,1,0,0:0:0:0:
36,192,339289,1,0,0:0:0:0:
109,192,339289,1,0,0:0:0:0:
329,192,339418,1,0,0:0:0:0:
475,192,339418,128,0,339802:0:0:0:0:
256,192,339546,1,0,0:0:0:0:
109,192,339546,128,0,339674:0:0:0:0:
402,192,339674,128,0,339802:0:0:0:0:
256,192,339802,1,0,0:0:0:0:
109,192,339802,128,0,339930:0:0:0:0:
402,192,339930,128,0,340059:0:0:0:0:
256,192,340059,1,0,0:0:0:0:
36,192,340059,1,0,0:0:0:0:
329,192,340059,128,0,340443:0:0:0:0:
475,192,340059,1,0,0:0:0:0:
182,192,340187,1,0,0:0:0:0:
109,192,340315,1,0,0:0:0:0:
475,192,340315,1,0,0:0:0:0:
256,192,340443,1,0,0:0:0:0:
36,192,340443,128,0,341597:0:0:0:0:
402,192,340571,1,0,0:0:0:0:
182,192,340571,128,0,340700:0:0:0:0:
329,192,340700,128,0,340828:0:0:0:0:
402,192,340828,1,0,0:0:0:0:
182,192,340828,128,0,340956:0:0:0:0:
329,192,340956,128,0,341084:0:0:0:0:
109,192,341084,1,0,0:0:0:0:
402,192,341084,1,0,0:0:0:0:
256,192,341213,128,0,341341:0:0:0:0:
475,192,341341,1,0,0:0:0:0:
182,192,341341,1,0,0:0:0:0:
402,192,341469,128,0,341597:0:0:0:0:
329,192,341597,1,0,0:0:0:0:
109,192,341597,1,0,0:0:0:0:
256,192,341725,128,0,341854:0:0:0:0:
36,192,341854,1,0,0:0:0:0:
182,192,341854,1,0,0:0:0:0:
475,192,341854,128,0,342110:0:0:0:0:
109,192,341982,128,0,342110:0:0:0:0:
402,192,342110,1,0,0:0:0:0:
256,192,342110,1,0,0:0:0:0:
329,192,342110,128,0,342495:0:0:0:0:
36,192,342110,1,0,0:0:0:0:
182,192,342238,1,0,0:0:0:0:
36,192,342366,1,0,0:0:0:0:
475,192,342366,1,0,0:0:0:0:
256,192,342495,1,0,0:0:0:0:
182,192,342495,128,0,342879:0:0:0:0:
109,192,342623,1,0,0:0:0:0:
402,192,342623,128,0,342751:0:0:0:0:
256,192,342751,128,0,342879:0:0:0:0:
109,192,342879,1,0,0:0:0:0:
402,192,342879,128,0,343007:0:0:0:0:
256,192,343007,128,0,343136:0:0:0:0:
475,192,343136,1,0,0:0:0:0:
36,192,343136,1,0,0:0:0:0:
402,192,343136,128,0,343520:0:0:0:0:
109,192,343264,1,0,0:0:0:0:
329,192,343392,1,0,0:0:0:0:
182,192,343392,1,0,0:0:0:0:
36,192,343520,1,0,0:0:0:0:
109,192,343520,128,0,343905:0:0:0:0:
256,192,343648,1,0,0:0:0:0:
475,192,343648,128,0,343777:0:0:0:0:
329,192,343777,128,0,343905:0:0:0:0:
182,192,343905,1,0,0:0:0:0:
475,192,343905,128,0,344033:0:0:0:0:
329,192,344033,128,0,344161:0:0:0:0:
109,192,344161,1,0,0:0:0:0:
256,192,344161,128,0,345700:0:0:0:0:
402,192,344161,1,0,0:0:0:0:
36,192,344161,128,0,344289:0:0:0:0:
475,192,344289,128,0,344418:0:0:0:0:
109,192,344418,1,0,0:0:0:0:
329,192,344418,1,0,0:0:0:0:
36,192,344546,128,0,344674:0:0:0:0:
402,192,344674,1,0,0:0:0:0:
475,192,344674,128,0,344802:0:0:0:0:
182,192,344802,1,0,0:0:0:0:
329,192,344930,1,0,0:0:0:0:
36,192,344930,128,0,345059:0:0:0:0:
475,192,345059,128,0,345187:0:0:0:0:
36,192,345187,1,0,0:0:0:0:
329,192,345187,128,0,345315:0:0:0:0:
182,192,345315,128,0,345443:0:0:0:0:
475,192,345443,1,0,0:0:0:0:
109,192,345443,1,0,0:0:0:0:
329,192,345571,128,0,345700:0:0:0:0:
36,192,345700,1,0,0:0:0:0:
182,192,345700,128,0,345828:0:0:0:0:
475,192,345828,1,0,0:0:0:0:
402,192,345892,1,0,0:0:0:0:
329,192,345956,1,0,0:0:0:0:
256,192,345956,1,0,0:0:0:0:
182,192,346084,1,0,0:0:0:0:
109,192,346148,1,0,0:0:0:0:
402,192,346213,1,0,0:0:0:0:
36,192,346213,128,0,346597:0:0:0:0:
475,192,346213,1,0,0:0:0:0:
329,192,346213,1,0,0:0:0:0:
256,192,346341,1,0,0:0:0:0:
182,192,346469,1,0,0:0:0:0:
475,192,346469,1,0,0:0:0:0:
256,192,346597,1,0,0:0:0:0:
329,192,346597,128,0,346982:0:0:0:0:
109,192,346725,1,0,0:0:0:0:
182,192,346725,128,0,346854:0:0:0:0:
475,192,346854,128,0,346982:0:0:0:0:
109,192,346982,1,0,0:0:0:0:
182,192,346982,128,0,347110:0:0:0:0:
475,192,347110,128,0,347238:0:0:0:0:
256,192,347238,1,0,0:0:0:0:
402,192,347238,1,0,0:0:0:0:
36,192,347238,128,0,347623:0:0:0:0:
182,192,347366,1,0,0:0:0:0:
402,192,347495,1,0,0:0:0:0:
109,192,347495,1,0,0:0:0:0:
475,192,347623,1,0,0:0:0:0:
329,192,347623,128,0,348007:0:0:0:0:
182,192,347751,1,0,0:0:0:0:
109,192,347751,128,0,347879:0:0:0:0:
402,192,347879,128,0,348007:0:0:0:0:
256,192,348007,1,0,0:0:0:0:
109,192,348007,128,0,348136:0:0:0:0:
402,192,348136,128,0,348264:0:0:0:0:
182,192,348264,1,0,0:0:0:0:
475,192,348264,1,0,0:0:0:0:
36,192,348264,128,0,348648:0:0:0:0:
329,192,348264,1,0,0:0:0:0:
256,192,348392,1,0,0:0:0:0:
109,192,348520,1,0,0:0:0:0:
402,192,348520,1,0,0:0:0:0:
182,192,348648,1,0,0:0:0:0:
475,192,348648,128,0,349802:0:0:0:0:
256,192,348777,1,0,0:0:0:0:
329,192,348777,128,0,348905:0:0:0:0:
182,192,348905,128,0,349033:0:0:0:0:
256,192,349033,1,0,0:0:0:0:
329,192,349033,128,0,349161:0:0:0:0:
182,192,349161,128,0,349289:0:0:0:0:
109,192,349289,1,0,0:0:0:0:
36,192,349289,1,0,0:0:0:0:
256,192,349418,128,0,349546:0:0:0:0:
402,192,349546,1,0,0:0:0:0:
109,192,349546,1,0,0:0:0:0:
36,192,349674,128,0,349802:0:0:0:0:
329,192,349802,1,0,0:0:0:0:
182,192,349802,1,0,0:0:0:0:
256,192,349930,128,0,350059:0:0:0:0:
402,192,350059,1,0,0:0:0:0:
109,192,350059,1,0,0:0:0:0:
475,192,350059,128,0,350315:0:0:0:0:
36,192,350187,128,0,350315:0:0:0:0:
329,192,350315,1,0,0:0:0:0:
256,192,350315,1,0,0:0:0:0:
182,192,350315,128,0,350700:0:0:0:0:
109,192,350315,1,0,0:0:0:0:
402,192,350443,1,0,0:0:0:0:
256,192,350571,1,0,0:0:0:0:
475,192,350571,1,0,0:0:0:0:
36,192,350700,1,0,0:0:0:0:
109,192,350700,128,0,351084:0:0:0:0:
402,192,350828,128,0,350956:0:0:0:0:
475,192,350828,1,0,0:0:0:0:
256,192,350956,128,0,351084:0:0:0:0:
475,192,351084,1,0,0:0:0:0:
402,192,351084,128,0,351213:0:0:0:0:
256,192,351213,128,0,351341:0:0:0:0:
109,192,351341,1,0,0:0:0:0:
475,192,351341,1,0,0:0:0:0:
36,192,351341,128,0,351725:0:0:0:0:
182,192,351469,1,0,0:0:0:0:
475,192,351597,1,0,0:0:0:0:
256,192,351597,1,0,0:0:0:0:
182,192,351725,1,0,0:0:0:0:
329,192,351725,128,0,352110:0:0:0:0:
402,192,351854,1,0,0:0:0:0:
109,192,351854,128,0,351982:0:0:0:0:
256,192,351982,128,0,352110:0:0:0:0:
36,192,352110,1,0,0:0:0:0:
402,192,352110,128,0,352366:0:0:0:0:
109,192,352110,128,0,352238:0:0:0:0:
256,192,352238,128,0,352366:0:0:0:0:
182,192,352366,1,0,0:0:0:0:
36,192,352366,1,0,0:0:0:0:
475,192,352366,128,0,352751:0:0:0:0:
329,192,352366,1,0,0:0:0:0:
256,192,352495,1,0,0:0:0:0:
402,192,352623,1,0,0:0:0:0:
109,192,352623,1,0,0:0:0:0:
36,192,352751,128,0,353136:0:0:0:0:
182,192,352751,1,0,0:0:0:0:
256,192,352815,1,0,0:0:0:0:
402,192,352879,1,0,0:0:0:0:
329,192,352943,1,0,0:0:0:0:
256,192,353007,1,0,0:0:0:0:
182,192,353071,1,0,0:0:0:0:
109,192,353136,1,0,0:0:0:0:
475,192,353136,1,0,0:0:0:0:
329,192,353264,1,0,0:0:0:0:
402,192,353392,1,0,0:0:0:0:
256,192,353392,128,0,353648:0:0:0:0:
475,192,353392,1,0,0:0:0:0:
36,192,353392,1,0,0:0:0:0:
109,192,353520,1,0,0:0:0:0:
182,192,353520,1,0,0:0:0:0:
402,192,353648,1,0,0:0:0:0:
329,192,353648,1,0,0:0:0:0:
475,192,353777,128,0,354161:0:0:0:0:
109,192,353777,1,0,0:0:0:0:
36,192,353777,1,0,0:0:0:0:
182,192,353905,1,0,0:0:0:0:
329,192,353905,1,0,0:0:0:0:
256,192,354033,1,0,0:0:0:0:
329,192,354097,1,0,0:0:0:0:
402,192,354161,1,0,0:0:0:0:
109,192,354161,1,0,0:0:0:0:
182,192,354225,1,0,0:0:0:0:
329,192,354289,1,0,0:0:0:0:
402,192,354354,1,0,0:0:0:0:
256,192,354418,128,0,356084:0:0:0:0:
36,192,354418,128,0,354802:0:0:0:0:
475,192,354418,1,0,0:0:0:0:
109,192,354418,1,0,0:0:0:0:
475,192,354802,128,0,355187:0:0:0:0:
36,192,355443,128,0,355828:0:0:0:0:
475,192,355828,128,0,356084:0:0:0:0:
36,192,356084,1,0,0:0:0:0:
109,192,356084,1,0,0:0:0:0:
182,192,356213,1,0,0:0:0:0:
475,192,356213,1,0,0:0:0:0:
402,192,356277,1,0,0:0:0:0:
329,192,356341,1,0,0:0:0:0:
256,192,356405,1,0,0:0:0:0:
36,192,356469,1,0,0:0:0:0:
182,192,356469,128,0,356854:0:0:0:0:
475,192,356469,128,0,356597:0:0:0:0:
109,192,356469,1,0,0:0:0:0:
329,192,356597,1,0,0:0:0:0:
256,192,356725,1,0,0:0:0:0:
402,192,356725,128,0,356854:0:0:0:0:
109,192,356854,1,0,0:0:0:0:
36,192,356854,128,0,358007:0:0:0:0:
475,192,356982,1,0,0:0:0:0:
256,192,356982,128,0,357110:0:0:0:0:
182,192,357110,1,0,0:0:0:0:
402,192,357238,1,0,0:0:0:0:
329,192,357238,128,0,357366:0:0:0:0:
256,192,357366,1,0,0:0:0:0:
182,192,357495,1,0,0:0:0:0:
475,192,357495,128,0,357623:0:0:0:0:
109,192,357495,1,0,0:0:0:0:
329,192,357623,1,0,0:0:0:0:
402,192,357751,1,0,0:0:0:0:
182,192,357751,128,0,357879:0:0:0:0:
256,192,357879,1,0,0:0:0:0:
402,192,358007,1,0,0:0:0:0:
109,192,358007,128,0,358136:0:0:0:0:
329,192,358136,1,0,0:0:0:0:
36,192,358264,1,0,0:0:0:0:
475,192,358264,1,0,0:0:0:0:
109,192,358307,1,0,0:0:0:0:
182,192,358349,1,0,0:0:0:0:
256,192,358392,1,0,0:0:0:0:
329,192,358435,1,0,0:0:0:0:
402,192,358477,1,0,0:0:0:0:
475,192,358520,128,0,358905:0:0:0:0:
36,192,358520,128,0,358648:0:0:0:0:
109,192,358520,1,0,0:0:0:0:
182,192,358520,1,0,0:0:0:0:
256,192,358648,1,0,0:0:0:0:
182,192,358777,1,0,0:0:0:0:
109,192,358777,128,0,358905:0:0:0:0:
402,192,358905,1,0,0:0:0:0:
329,192,358905,128,0,359289:0:0:0:0:
36,192,359033,1,0,0:0:0:0:
182,192,359033,128,0,359161:0:0:0:0:
475,192,359161,1,0,0:0:0:0:
109,192,359289,1,0,0:0:0:0:
256,192,359289,128,0,359418:0:0:0:0:
402,192,359418,1,0,0:0:0:0:
36,192,359546,1,0,0:0:0:0:
182,192,359546,128,0,359930:0:0:0:0:
475,192,359546,128,0,359674:0:0:0:0:
329,192,359674,1,0,0:0:0:0:
256,192,359802,1,0,0:0:0:0:
402,192,359802,128,0,359930:0:0:0:0:
36,192,359930,128,0,360315:0:0:0:0:
109,192,359930,1,0,0:0:0:0:
475,192,360059,1,0,0:0:0:0:
329,192,360059,128,0,360187:0:0:0:0:
182,192,360187,1,0,0:0:0:0:
402,192,360315,1,0,0:0:0:0:
109,192,360315,1,0,0:0:0:0:
329,192,360443,1,0,0:0:0:0:
182,192,360443,1,0,0:0:0:0:
36,192,360571,1,0,0:0:0:0:
475,192,360571,128,0,362110:0:0:0:0:
109,192,360571,128,0,360700:0:0:0:0:
256,192,360571,1,0,0:0:0:0:
329,192,360700,1,0,0:0:0:0:
182,192,360828,1,0,0:0:0:0:
256,192,360828,128,0,360956:0:0:0:0:
402,192,360956,1,0,0:0:0:0:
36,192,361084,1,0,0:0:0:0:
182,192,361084,128,0,361213:0:0:0:0:
402,192,361213,1,0,0:0:0:0:
256,192,361341,1,0,0:0:0:0:
329,192,361341,128,0,361469:0:0:0:0:
182,192,361469,1,0,0:0:0:0:
109,192,361533,1,0,0:0:0:0:
36,192,361597,1,0,0:0:0:0:
256,192,361597,128,0,361725:0:0:0:0:
402,192,361597,1,0,0:0:0:0:
182,192,361725,1,0,0:0:0:0:
36,192,361854,1,0,0:0:0:0:
402,192,361854,128,0,361982:0:0:0:0:
256,192,361982,1,0,0:0:0:0:
36,192,362110,1,0,0:0:0:0:
109,192,362110,1,0,0:0:0:0:
182,192,362174,1,0,0:0:0:0:
329,192,362238,1,0,0:0:0:0:
402,192,362302,1,0,0:0:0:0:
475,192,362366,1,0,0:0:0:0:
36,192,362366,1,0,0:0:0:0:
109,192,362430,1,0,0:0:0:0:
329,192,362495,1,0,0:0:0:0:
256,192,362537,1,0,0:0:0:0:
182,192,362580,1,0,0:0:0:0:
402,192,362623,128,0,362708:0:0:0:0:
36,192,362623,1,0,0:0:0:0:
109,192,362623,1,0,0:0:0:0:
475,192,362623,1,0,0:0:0:0:
329,192,362708,128,0,362794:0:0:0:0:
256,192,362794,128,0,362879:0:0:0:0:
36,192,362879,128,0,362965:0:0:0:0:
402,192,362879,1,0,0:0:0:0:
109,192,362965,128,0,363050:0:0:0:0:
182,192,363050,128,0,363136:0:0:0:0:
329,192,363136,128,0,363221:0:0:0:0:
475,192,363136,1,0,0:0:0:0:
256,192,363221,128,0,363307:0:0:0:0:
182,192,363307,128,0,363392:0:0:0:0:
329,192,363392,128,0,363477:0:0:0:0:
36,192,363392,1,0,0:0:0:0:
402,192,363477,128,0,363563:0:0:0:0:
475,192,363563,128,0,363648:0:0:0:0:
182,192,363648,128,0,363734:0:0:0:0:
329,192,363648,1,0,0:0:0:0:
109,192,363648,1,0,0:0:0:0:
36,192,363648,1,0,0:0:0:0:
402,192,363734,128,0,363819:0:0:0:0:
256,192,363819,128,0,363905:0:0:0:0:
109,192,363905,128,0,363990:0:0:0:0:
475,192,363905,1,0,0:0:0:0:
329,192,363990,128,0,364076:0:0:0:0:
182,192,364076,128,0,364161:0:0:0:0:
36,192,364161,128,0,364247:0:0:0:0:
475,192,364161,1,0,0:0:0:0:
256,192,364247,128,0,364332:0:0:0:0:
402,192,364332,128,0,364418:0:0:0:0:
36,192,364418,1,0,0:0:0:0:
109,192,364418,128,0,364503:0:0:0:0:
329,192,364503,128,0,364589:0:0:0:0:
256,192,364589,128,0,364674:0:0:0:0:
182,192,364674,128,0,364760:0:0:0:0:
109,192,364674,1,0,0:0:0:0:
475,192,364674,1,0,0:0:0:0:
36,192,364674,1,0,0:0:0:0:
329,192,364760,128,0,364845:0:0:0:0:
475,192,364845,128,0,364930:0:0:0:0:
256,192,364930,128,0,365016:0:0:0:0:
36,192,364930,1,0,0:0:0:0:
182,192,365016,128,0,365101:0:0:0:0:
109,192,365101,128,0,365187:0:0:0:0:
329,192,365187,128,0,365272:0:0:0:0:
475,192,365187,1,0,0:0:0:0:
182,192,365272,128,0,365358:0:0:0:0:
36,192,365358,128,0,365443:0:0:0:0:
402,192,365443,128,0,365529:0:0:0:0:
109,192,365443,1,0,0:0:0:0:
329,192,365529,128,0,365614:0:0:0:0:
256,192,365614,128,0,365700:0:0:0:0:
475,192,365700,128,0,365785:0:0:0:0:
36,192,365700,1,0,0:0:0:0:
182,192,365700,1,0,0:0:0:0:
109,192,365700,1,0,0:0:0:0:
402,192,365785,128,0,365871:0:0:0:0:
182,192,365871,128,0,365956:0:0:0:0:
36,192,365956,128,0,366042:0:0:0:0:
475,192,365956,1,0,0:0:0:0:
109,192,366042,128,0,366127:0:0:0:0:
329,192,366127,128,0,366213:0:0:0:0:
36,192,366213,1,0,0:0:0:0:
475,192,366213,1,0,0:0:0:0:
402,192,366277,1,0,0:0:0:0:
256,192,366341,1,0,0:0:0:0:
109,192,366405,1,0,0:0:0:0:
36,192,366469,1,0,0:0:0:0:
475,192,366512,1,0,0:0:0:0:
402,192,366554,1,0,0:0:0:0:
329,192,366597,1,0,0:0:0:0:
182,192,366640,1,0,0:0:0:0:
109,192,366683,1,0,0:0:0:0:
36,192,366725,1,0,0:0:0:0:
402,192,366725,1,0,0:0:0:0:
475,192,366725,1,0,0:0:0:0:
256,192,366725,1,0,0:0:0:0:
475,192,368264,1,0,0:0:0:0:
256,192,368777,1,0,0:0:0:0:
329,192,368777,128,0,369033:0:0:0:0:
36,192,368905,128,0,369033:0:0:0:0:
182,192,369033,128,0,369289:0:0:0:0:
475,192,369161,128,0,369289:0:0:0:0:
329,192,369289,128,0,369546:0:0:0:0:
36,192,369418,128,0,369546:0:0:0:0:
182,192,369546,128,0,369802:0:0:0:0:
475,192,369674,128,0,369802:0:0:0:0:
329,192,369802,1,0,0:0:0:0:
36,192,369802,128,0,370571:0:0:0:0:
402,192,369866,1,0,0:0:0:0:
475,192,369930,1,0,0:0:0:0:
256,192,370059,1,0,0:0:0:0:
329,192,370123,1,0,0:0:0:0:
402,192,370187,1,0,0:0:0:0:
182,192,370315,1,0,0:0:0:0:
256,192,370379,1,0,0:0:0:0:
329,192,370443,1,0,0:0:0:0:
109,192,370571,1,0,0:0:0:0:
182,192,370636,1,0,0:0:0:0:
256,192,370700,1,0,0:0:0:0:
329,192,370764,1,0,0:0:0:0:
475,192,370828,1,0,0:0:0:0:
402,192,370828,1,0,0:0:0:0:
36,192,370828,1,0,0:0:0:0:
109,192,370828,1,0,0:0:0:0:
182,192,370956,1,0,0:0:0:0:
329,192,371020,1,0,0:0:0:0:
475,192,371020,1,0,0:0:0:0:
256,192,371213,1,0,0:0:0:0:
36,192,371213,1,0,0:0:0:0:
109,192,371213,1,0,0:0:0:0:
36,192,371341,1,0,0:0:0:0:
109,192,371341,1,0,0:0:0:0:
256,192,371341,1,0,0:0:0:0:
475,192,371469,1,0,0:0:0:0:
182,192,371597,1,0,0:0:0:0:
329,192,371597,1,0,0:0:0:0:
475,192,371725,1,0,0:0:0:0:
329,192,371854,1,0,0:0:0:0:
36,192,371854,1,0,0:0:0:0:
256,192,371854,1,0,0:0:0:0:
402,192,371982,1,0,0:0:0:0:
36,192,372046,1,0,0:0:0:0:
109,192,372046,1,0,0:0:0:0:
329,192,372238,1,0,0:0:0:0:
475,192,372238,1,0,0:0:0:0:
182,192,372238,1,0,0:0:0:0:
182,192,372366,1,0,0:0:0:0:
475,192,372366,1,0,0:0:0:0:
329,192,372366,1,0,0:0:0:0:
36,192,372495,1,0,0:0:0:0:
109,192,372559,1,0,0:0:0:0:
256,192,372623,1,0,0:0:0:0:
329,192,372687,1,0,0:0:0:0:
402,192,372751,1,0,0:0:0:0:
36,192,372879,1,0,0:0:0:0:
256,192,372879,1,0,0:0:0:0:
475,192,372879,1,0,0:0:0:0:
402,192,373007,1,0,0:0:0:0:
36,192,373071,1,0,0:0:0:0:
109,192,373071,1,0,0:0:0:0:
182,192,373264,1,0,0:0:0:0:
256,192,373264,1,0,0:0:0:0:
36,192,373264,1,0,0:0:0:0:
475,192,373392,1,0,0:0:0:0:
182,192,373392,1,0,0:0:0:0:
329,192,373392,1,0,0:0:0:0:
109,192,373520,1,0,0:0:0:0:
402,192,373584,1,0,0:0:0:0:
475,192,373584,1,0,0:0:0:0:
256,192,373777,1,0,0:0:0:0:
329,192,373777,1,0,0:0:0:0:
475,192,373777,1,0,0:0:0:0:
329,192,373905,1,0,0:0:0:0:
182,192,373905,1,0,0:0:0:0:
36,192,373905,1,0,0:0:0:0:
402,192,374033,1,0,0:0:0:0:
256,192,374097,1,0,0:0:0:0:
36,192,374097,1,0,0:0:0:0:
475,192,374289,1,0,0:0:0:0:
182,192,374289,1,0,0:0:0:0:
329,192,374289,1,0,0:0:0:0:
36,192,374418,1,0,0:0:0:0:
256,192,374418,1,0,0:0:0:0:
182,192,374418,1,0,0:0:0:0:
475,192,374546,1,0,0:0:0:0:
402,192,374610,1,0,0:0:0:0:
329,192,374674,1,0,0:0:0:0:
182,192,374738,1,0,0:0:0:0:
109,192,374802,1,0,0:0:0:0:
36,192,374930,1,0,0:0:0:0:
256,192,374930,1,0,0:0:0:0:
475,192,374930,1,0,0:0:0:0:
329,192,375059,1,0,0:0:0:0:
182,192,375123,1,0,0:0:0:0:
36,192,375123,1,0,0:0:0:0:
256,192,375315,1,0,0:0:0:0:
475,192,375315,1,0,0:0:0:0:
402,192,375315,1,0,0:0:0:0:
475,192,375443,1,0,0:0:0:0:
402,192,375443,1,0,0:0:0:0:
256,192,375443,1,0,0:0:0:0:
36,192,375571,1,0,0:0:0:0:
329,192,375700,1,0,0:0:0:0:
182,192,375700,1,0,0:0:0:0:
36,192,375828,1,0,0:0:0:0:
182,192,375956,1,0,0:0:0:0:
475,192,375956,1,0,0:0:0:0:
256,192,375956,1,0,0:0:0:0:
109,192,376084,1,0,0:0:0:0:
475,192,376148,1,0,0:0:0:0:
402,192,376148,1,0,0:0:0:0:
182,192,376341,1,0,0:0:0:0:
36,192,376341,1,0,0:0:0:0:
329,192,376341,1,0,0:0:0:0:
329,192,376469,1,0,0:0:0:0:
36,192,376469,1,0,0:0:0:0:
182,192,376469,1,0,0:0:0:0:
256,192,376597,1,0,0:0:0:0:
329,192,376661,1,0,0:0:0:0:
402,192,376725,1,0,0:0:0:0:
109,192,376789,1,0,0:0:0:0:
182,192,376854,1,0,0:0:0:0:
256,192,376918,1,0,0:0:0:0:
475,192,376982,1,0,0:0:0:0:
329,192,376982,1,0,0:0:0:0:
36,192,376982,1,0,0:0:0:0:
109,192,377110,1,0,0:0:0:0:
475,192,377174,1,0,0:0:0:0:
402,192,377174,1,0,0:0:0:0:
329,192,377366,1,0,0:0:0:0:
256,192,377366,1,0,0:0:0:0:
475,192,377366,1,0,0:0:0:0:
36,192,377495,1,0,0:0:0:0:
329,192,377495,1,0,0:0:0:0:
182,192,377495,1,0,0:0:0:0:
402,192,377623,1,0,0:0:0:0:
109,192,377687,1,0,0:0:0:0:
36,192,377687,1,0,0:0:0:0:
256,192,377879,1,0,0:0:0:0:
182,192,377879,1,0,0:0:0:0:
36,192,377879,1,0,0:0:0:0:
182,192,378007,1,0,0:0:0:0:
329,192,378007,1,0,0:0:0:0:
475,192,378007,1,0,0:0:0:0:
109,192,378136,1,0,0:0:0:0:
475,192,378200,1,0,0:0:0:0:
256,192,378200,1,0,0:0:0:0:
36,192,378392,1,0,0:0:0:0:
329,192,378392,1,0,0:0:0:0:
182,192,378392,1,0,0:0:0:0:
475,192,378520,1,0,0:0:0:0:
109,192,378520,1,0,0:0:0:0:
329,192,378520,1,0,0:0:0:0:
256,192,378648,1,0,0:0:0:0:
36,192,378713,1,0,0:0:0:0:
109,192,378777,1,0,0:0:0:0:
182,192,378841,1,0,0:0:0:0:
329,192,378905,1,0,0:0:0:0:
402,192,378905,1,0,0:0:0:0:
36,192,379033,1,0,0:0:0:0:
475,192,379033,1,0,0:0:0:0:
182,192,379033,1,0,0:0:0:0:
109,192,379161,1,0,0:0:0:0:
475,192,379225,1,0,0:0:0:0:
256,192,379225,1,0,0:0:0:0:
182,192,379418,1,0,0:0:0:0:
109,192,379418,1,0,0:0:0:0:
329,192,379418,1,0,0:0:0:0:
329,192,379546,1,0,0:0:0:0:
182,192,379546,1,0,0:0:0:0:
109,192,379546,1,0,0:0:0:0:
402,192,379674,1,0,0:0:0:0:
256,192,379802,1,0,0:0:0:0:
109,192,379802,1,0,0:0:0:0:
402,192,379930,1,0,0:0:0:0:
475,192,380059,1,0,0:0:0:0:
36,192,380059,1,0,0:0:0:0:
182,192,380059,1,0,0:0:0:0:
256,192,380187,1,0,0:0:0:0:
109,192,380251,1,0,0:0:0:0:
402,192,380251,1,0,0:0:0:0:
36,192,380443,1,0,0:0:0:0:
329,192,380443,1,0,0:0:0:0:
475,192,380443,1,0,0:0:0:0:
475,192,380571,1,0,0:0:0:0:
329,192,380571,1,0,0:0:0:0:
36,192,380571,1,0,0:0:0:0:
182,192,380700,1,0,0:0:0:0:
109,192,380764,1,0,0:0:0:0:
256,192,380828,1,0,0:0:0:0:
329,192,380892,1,0,0:0:0:0:
402,192,380956,1,0,0:0:0:0:
475,192,381084,1,0,0:0:0:0:
256,192,381084,1,0,0:0:0:0:
36,192,381084,1,0,0:0:0:0:
109,192,381213,1,0,0:0:0:0:
402,192,381277,1,0,0:0:0:0:
256,192,381277,1,0,0:0:0:0:
36,192,381469,1,0,0:0:0:0:
182,192,381469,1,0,0:0:0:0:
329,192,381469,1,0,0:0:0:0:
329,192,381597,1,0,0:0:0:0:
182,192,381597,1,0,0:0:0:0:
36,192,381597,1,0,0:0:0:0:
475,192,381725,1,0,0:0:0:0:
36,192,381789,1,0,0:0:0:0:
256,192,381789,1,0,0:0:0:0:
109,192,381982,1,0,0:0:0:0:
256,192,381982,1,0,0:0:0:0:
402,192,381982,1,0,0:0:0:0:
109,192,382110,1,0,0:0:0:0:
256,192,382110,1,0,0:0:0:0:
402,192,382110,1,0,0:0:0:0:
329,192,382238,1,0,0:0:0:0:
36,192,382302,1,0,0:0:0:0:
109,192,382302,1,0,0:0:0:0:
182,192,382495,1,0,0:0:0:0:
329,192,382495,1,0,0:0:0:0:
475,192,382495,1,0,0:0:0:0:
329,192,382623,1,0,0:0:0:0:
475,192,382623,1,0,0:0:0:0:
182,192,382623,1,0,0:0:0:0:
256,192,382751,1,0,0:0:0:0:
182,192,382815,1,0,0:0:0:0:
109,192,382879,1,0,0:0:0:0:
329,192,382943,1,0,0:0:0:0:
402,192,383007,1,0,0:0:0:0:
182,192,383136,1,0,0:0:0:0:
36,192,383136,1,0,0:0:0:0:
256,192,383136,1,0,0:0:0:0:
402,192,383264,1,0,0:0:0:0:
36,192,383328,1,0,0:0:0:0:
109,192,383328,1,0,0:0:0:0:
329,192,383520,1,0,0:0:0:0:
402,192,383520,1,0,0:0:0:0:
182,192,383520,1,0,0:0:0:0:
182,192,383648,1,0,0:0:0:0:
329,192,383648,1,0,0:0:0:0:
402,192,383648,1,0,0:0:0:0:
109,192,383777,1,0,0:0:0:0:
256,192,383905,1,0,0:0:0:0:
402,192,383905,1,0,0:0:0:0:
109,192,384033,1,0,0:0:0:0:
36,192,384161,1,0,0:0:0:0:
475,192,384161,1,0,0:0:0:0:
329,192,384161,1,0,0:0:0:0:
256,192,384289,1,0,0:0:0:0:
402,192,384354,1,0,0:0:0:0:
109,192,384354,1,0,0:0:0:0:
475,192,384546,1,0,0:0:0:0:
182,192,384546,1,0,0:0:0:0:
36,192,384546,1,0,0:0:0:0:
36,192,384674,1,0,0:0:0:0:
182,192,384674,1,0,0:0:0:0:
475,192,384674,1,0,0:0:0:0:
329,192,384802,1,0,0:0:0:0:
402,192,384866,1,0,0:0:0:0:
475,192,384930,1,0,0:0:0:0:
256,192,384995,1,0,0:0:0:0:
182,192,385059,1,0,0:0:0:0:
109,192,385123,1,0,0:0:0:0:
36,192,385187,1,0,0:0:0:0:
256,192,385187,1,0,0:0:0:0:
475,192,385187,1,0,0:0:0:0:
402,192,385315,1,0,0:0:0:0:
109,192,385379,1,0,0:0:0:0:
256,192,385379,1,0,0:0:0:0:
475,192,385571,1,0,0:0:0:0:
329,192,385571,1,0,0:0:0:0:
182,192,385571,1,0,0:0:0:0:
182,192,385700,1,0,0:0:0:0:
329,192,385700,1,0,0:0:0:0:
475,192,385700,1,0,0:0:0:0:
36,192,385828,1,0,0:0:0:0:
475,192,385892,1,0,0:0:0:0:
256,192,385892,1,0,0:0:0:0:
402,192,386084,1,0,0:0:0:0:
256,192,386084,1,0,0:0:0:0:
109,192,386084,1,0,0:0:0:0:
402,192,386213,1,0,0:0:0:0:
256,192,386213,1,0,0:0:0:0:
109,192,386213,1,0,0:0:0:0:
182,192,386341,1,0,0:0:0:0:
475,192,386405,1,0,0:0:0:0:
402,192,386405,1,0,0:0:0:0:
329,192,386597,1,0,0:0:0:0:
182,192,386597,1,0,0:0:0:0:
36,192,386597,1,0,0:0:0:0:
182,192,386725,1,0,0:0:0:0:
36,192,386725,1,0,0:0:0:0:
329,192,386725,1,0,0:0:0:0:
475,192,386854,1,0,0:0:0:0:
402,192,386918,1,0,0:0:0:0:
256,192,386982,1,0,0:0:0:0:
109,192,387046,1,0,0:0:0:0:
182,192,387110,1,0,0:0:0:0:
329,192,387110,1,0,0:0:0:0:
109,192,387238,1,0,0:0:0:0:
475,192,387238,1,0,0:0:0:0:
402,192,387238,1,0,0:0:0:0:
36,192,387238,1,0,0:0:0:0:
475,192,387430,1,0,0:0:0:0:
329,192,387430,1,0,0:0:0:0:
256,192,387623,1,0,0:0:0:0:
36,192,387623,1,0,0:0:0:0:
182,192,387623,1,0,0:0:0:0:
182,192,387751,1,0,0:0:0:0:
256,192,387751,1,0,0:0:0:0:
36,192,387751,1,0,0:0:0:0:
402,192,387879,1,0,0:0:0:0:
256,192,388007,1,0,0:0:0:0:
109,192,388007,1,0,0:0:0:0:
402,192,388136,1,0,0:0:0:0:
329,192,388264,1,0,0:0:0:0:
36,192,388264,1,0,0:0:0:0:
182,192,388264,1,0,0:0:0:0:
256,192,388456,1,0,0:0:0:0:
475,192,388456,1,0,0:0:0:0:
109,192,388648,1,0,0:0:0:0:
182,192,388648,1,0,0:0:0:0:
329,192,388648,1,0,0:0:0:0:
329,192,388777,1,0,0:0:0:0:
182,192,388777,1,0,0:0:0:0:
109,192,388777,1,0,0:0:0:0:
475,192,388905,1,0,0:0:0:0:
402,192,388969,1,0,0:0:0:0:
329,192,389033,1,0,0:0:0:0:
182,192,389097,1,0,0:0:0:0:
109,192,389161,1,0,0:0:0:0:
475,192,389289,1,0,0:0:0:0:
256,192,389289,1,0,0:0:0:0:
36,192,389289,1,0,0:0:0:0:
36,192,389482,1,0,0:0:0:0:
256,192,389482,1,0,0:0:0:0:
109,192,389674,1,0,0:0:0:0:
329,192,389674,1,0,0:0:0:0:
36,192,389674,1,0,0:0:0:0:
402,192,389802,1,0,0:0:0:0:
475,192,389802,1,0,0:0:0:0:
182,192,389802,1,0,0:0:0:0:
475,192,389995,1,0,0:0:0:0:
182,192,389995,1,0,0:0:0:0:
109,192,390187,1,0,0:0:0:0:
475,192,390187,1,0,0:0:0:0:
256,192,390187,1,0,0:0:0:0:
36,192,390315,1,0,0:0:0:0:
182,192,390315,1,0,0:0:0:0:
329,192,390315,1,0,0:0:0:0:
36,192,390507,1,0,0:0:0:0:
329,192,390507,1,0,0:0:0:0:
36,192,390700,1,0,0:0:0:0:
402,192,390700,1,0,0:0:0:0:
256,192,390700,1,0,0:0:0:0:
109,192,390828,1,0,0:0:0:0:
256,192,390828,1,0,0:0:0:0:
475,192,390828,1,0,0:0:0:0:
329,192,390956,1,0,0:0:0:0:
402,192,391020,1,0,0:0:0:0:
182,192,391084,1,0,0:0:0:0:
109,192,391148,1,0,0:0:0:0:
256,192,391213,1,0,0:0:0:0:
402,192,391341,1,0,0:0:0:0:
36,192,391341,1,0,0:0:0:0:
475,192,391341,1,0,0:0:0:0:
36,192,391533,1,0,0:0:0:0:
182,192,391533,1,0,0:0:0:0:
256,192,391725,1,0,0:0:0:0:
475,192,391725,1,0,0:0:0:0:
329,192,391725,1,0,0:0:0:0:
329,192,391854,1,0,0:0:0:0:
256,192,391854,1,0,0:0:0:0:
475,192,391854,1,0,0:0:0:0:
109,192,391982,1,0,0:0:0:0:
256,192,392110,1,0,0:0:0:0:
402,192,392110,1,0,0:0:0:0:
109,192,392238,1,0,0:0:0:0:
182,192,392366,1,0,0:0:0:0:
475,192,392366,1,0,0:0:0:0:
329,192,392366,1,0,0:0:0:0:
256,192,392559,1,0,0:0:0:0:
36,192,392559,1,0,0:0:0:0:
402,192,392751,1,0,0:0:0:0:
329,192,392751,1,0,0:0:0:0:
182,192,392751,1,0,0:0:0:0:
182,192,392879,1,0,0:0:0:0:
329,192,392879,1,0,0:0:0:0:
402,192,392879,1,0,0:0:0:0:
36,192,393007,1,0,0:0:0:0:
109,192,393071,1,0,0:0:0:0:
182,192,393136,1,0,0:0:0:0:
402,192,393200,1,0,0:0:0:0:
329,192,393264,1,0,0:0:0:0:
256,192,393328,1,0,0:0:0:0:
36,192,393392,1,0,0:0:0:0:
402,192,393392,1,0,0:0:0:0:
182,192,393392,1,0,0:0:0:0:
402,192,393584,1,0,0:0:0:0:
182,192,393584,1,0,0:0:0:0:
402,192,393777,1,0,0:0:0:0:
36,192,393777,1,0,0:0:0:0:
475,192,393777,1,0,0:0:0:0:
109,192,393905,1,0,0:0:0:0:
256,192,393905,1,0,0:0:0:0:
329,192,393905,1,0,0:0:0:0:
109,192,394097,1,0,0:0:0:0:
329,192,394097,1,0,0:0:0:0:
109,192,394289,1,0,0:0:0:0:
36,192,394289,1,0,0:0:0:0:
475,192,394289,1,0,0:0:0:0:
402,192,394418,1,0,0:0:0:0:
256,192,394418,1,0,0:0:0:0:
182,192,394418,1,0,0:0:0:0:
402,192,394610,1,0,0:0:0:0:
182,192,394610,1,0,0:0:0:0:
475,192,394802,1,0,0:0:0:0:
109,192,394802,1,0,0:0:0:0:
256,192,394802,1,0,0:0:0:0:
256,192,394930,1,0,0:0:0:0:
402,192,394930,1,0,0:0:0:0:
36,192,394930,1,0,0:0:0:0:
182,192,395059,1,0,0:0:0:0:
109,192,395123,1,0,0:0:0:0:
475,192,395187,1,0,0:0:0:0:
402,192,395251,1,0,0:0:0:0:
329,192,395315,1,0,0:0:0:0:
182,192,395315,1,0,0:0:0:0:
109,192,395443,1,0,0:0:0:0:
256,192,395443,1,0,0:0:0:0:
36,192,395443,128,0,395828:0:0:0:0:
475,192,395443,1,0,0:0:0:0:
475,192,395828,128,0,396469:0:0:0:0:
36,192,396469,128,0,396854:0:0:0:0:
475,192,396854,128,0,397495:0:0:0:0:
256,192,397495,128,0,397879:0:0:0:0:
36,192,397879,128,0,399289:0:0:0:0:
475,192,397943,128,0,398178:0:0:0:0:
329,192,398178,128,0,398349:0:0:0:0:
182,192,398349,128,0,398520:0:0:0:0:
475,192,398520,128,0,399546:0:0:0:0:
329,192,398648,128,0,398777:0:0:0:0:
256,192,398777,128,0,398905:0:0:0:0:
182,192,398905,128,0,399033:0:0:0:0:
402,192,399033,128,0,399161:0:0:0:0:
329,192,399161,128,0,399289:0:0:0:0:
182,192,399289,128,0,399418:0:0:0:0:
109,192,399418,128,0,399546:0:0:0:0:
36,192,399546,128,0,401597:0:0:0:0:
475,192,401084,128,0,401597:0:0:0:0:
402,192,401597,1,0,0:0:0:0:
109,192,401597,1,0,0:0:0:0:
329,192,401597,128,0,402623:0:0:0:0:
256,192,402623,128,0,403648:0:0:0:0:
182,192,402623,128,0,403136:0:0:0:0:
109,192,403136,128,0,403648:0:0:0:0:
329,192,403648,5,0,0:0:0:0:
475,192,403648,1,0,0:0:0:0:
36,192,403648,128,0,403777:0:0:0:0:
182,192,403777,128,0,403969:0:0:0:0:
329,192,403969,128,0,404161:0:0:0:0:
109,192,404161,128,0,404289:0:0:0:0:
256,192,404289,128,0,404418:0:0:0:0:
402,192,404418,128,0,404674:0:0:0:0:
36,192,404674,128,0,407815:0:0:0:0:
475,192,405828,128,0,407815:0:0:0:0:
256,192,407815,1,0,0:0:0:0:
256,192,408777,1,0,0:0:0:0:
182,192,408841,1,0,0:0:0:0:
109,192,408905,1,0,0:0:0:0:
36,192,408969,1,0,0:0:0:0:
475,192,409033,1,0,0:0:0:0:
402,192,409097,1,0,0:0:0:0:
329,192,409161,1,0,0:0:0:0:
256,192,409225,1,0,0:0:0:0:
36,192,409289,1,0,0:0:0:0:
109,192,409354,1,0,0:0:0:0:
182,192,409418,1,0,0:0:0:0:
256,192,409482,1,0,0:0:0:0:
329,192,409546,1,0,0:0:0:0:
402,192,409610,1,0,0:0:0:0:
475,192,409674,1,0,0:0:0:0:
36,192,409802,1,0,0:0:0:0:
109,192,409802,1,0,0:0:0:0:
182,192,409802,1,0,0:0:0:0:
329,192,410219,1,0,0:0:0:0:
402,192,410219,1,0,0:0:0:0:
475,192,410219,1,0,0:0:0:0:
36,192,410604,1,0,0:0:0:0:
109,192,410604,1,0,0:0:0:0:
182,192,410604,1,0,0:0:0:0:
329,192,410956,1,0,0:0:0:0:
402,192,410956,1,0,0:0:0:0:
475,192,410956,1,0,0:0:0:0:
36,192,411245,1,0,0:0:0:0:
109,192,411245,1,0,0:0:0:0:
182,192,411245,1,0,0:0:0:0:
329,192,411501,1,0,0:0:0:0:
402,192,411501,1,0,0:0:0:0:
475,192,411501,1,0,0:0:0:0:
36,192,411725,1,0,0:0:0:0:
109,192,411725,1,0,0:0:0:0:
182,192,411725,1,0,0:0:0:0:
329,192,411918,1,0,0:0:0:0:
402,192,411918,1,0,0:0:0:0:
475,192,411918,1,0,0:0:0:0:
182,192,412094,1,0,0:0:0:0:
109,192,412094,1,0,0:0:0:0:
36,192,412094,1,0,0:0:0:0:
329,192,412238,1,0,0:0:0:0:
402,192,412238,1,0,0:0:0:0:
475,192,412238,1,0,0:0:0:0:
182,192,412366,1,0,0:0:0:0:
109,192,412366,1,0,0:0:0:0:
329,192,412479,1,0,0:0:0:0:
256,192,412479,1,0,0:0:0:0:
402,192,412575,1,0,0:0:0:0:
475,192,412575,1,0,0:0:0:0:
109,192,412655,1,0,0:0:0:0:
36,192,412655,1,0,0:0:0:0:
256,192,412725,1,0,0:0:0:0:
182,192,412725,1,0,0:0:0:0:
329,192,412794,1,0,0:0:0:0:
402,192,412836,1,0,0:0:0:0:
475,192,412879,1,0,0:0:0:0:
36,192,412879,1,0,0:0:0:0:
109,192,412936,1,0,0:0:0:0:
182,192,412993,1,0,0:0:0:0:
256,192,413050,1,0,0:0:0:0:
402,192,413107,1,0,0:0:0:0:
109,192,413164,1,0,0:0:0:0:
182,192,413221,1,0,0:0:0:0:
329,192,413278,1,0,0:0:0:0:
475,192,413335,1,0,0:0:0:0:
36,192,413392,1,0,0:0:0:0:
402,192,413449,1,0,0:0:0:0:
329,192,413506,1,0,0:0:0:0:
256,192,413563,1,0,0:0:0:0:
109,192,413620,1,0,0:0:0:0:
402,192,413677,1,0,0:0:0:0:
329,192,413734,1,0,0:0:0:0:
182,192,413791,1,0,0:0:0:0:
36,192,413848,1,0,0:0:0:0:
475,192,413905,1,0,0:0:0:0:
402,192,413962,1,0,0:0:0:0:
256,192,414019,1,0,0:0:0:0:
109,192,414076,1,0,0:0:0:0:
36,192,414133,1,0,0:0:0:0:
182,192,414190,1,0,0:0:0:0:
329,192,414247,1,0,0:0:0:0:
402,192,414304,1,0,0:0:0:0:
475,192,414361,1,0,0:0:0:0:
36,192,414418,1,0,0:0:0:0:
109,192,414475,1,0,0:0:0:0:
256,192,414532,1,0,0:0:0:0:
402,192,414589,1,0,0:0:0:0:
475,192,414646,1,0,0:0:0:0:
329,192,414703,1,0,0:0:0:0:
182,192,414760,1,0,0:0:0:0:
109,192,414817,1,0,0:0:0:0:
36,192,414873,1,0,0:0:0:0:
402,192,414930,1,0,0:0:0:0:
182,192,414987,1,0,0:0:0:0:
329,192,415044,1,0,0:0:0:0:
109,192,415101,1,0,0:0:0:0:
256,192,415158,1,0,0:0:0:0:
36,192,415215,1,0,0:0:0:0:
182,192,415272,1,0,0:0:0:0:
329,192,415329,1,0,0:0:0:0:
475,192,415386,1,0,0:0:0:0:
109,192,415443,1,0,0:0:0:0:
329,192,415500,1,0,0:0:0:0:
182,192,415557,1,0,0:0:0:0:
402,192,415614,1,0,0:0:0:0:
256,192,415671,1,0,0:0:0:0:
475,192,415728,1,0,0:0:0:0:
329,192,415785,1,0,0:0:0:0:
182,192,415842,1,0,0:0:0:0:
36,192,415899,1,0,0:0:0:0:
