osu file format v14

[General]
AudioFilename: audio.ogg
AudioLeadIn: 0
PreviewTime: 335930
Countdown: 0
SampleSet: Soft
StackLeniency: 0.7
Mode: 3
LetterboxInBreaks: 0
SpecialStyle: 0
WidescreenStoryboard: 1

[Editor]
DistanceSpacing: 1.4
BeatDivisor: 8
GridSize: 8
TimelineZoom: 3.300002

[Metadata]
Title:Aegleseeker ("Afterworld" Full Version)
TitleUnicode:Aegleseeker ("Afterworld" Full Version)
Artist:Silentroom vs. Frums
ArtistUnicode:Silentroom vs. Frums
Creator:Blocko
Version:Extra
Source:Arcaea
Tags:lowiro Esoteric Order Side Story Pack VI Lagrange Charon In My Heart Alter's 7K US United States Mania Tournament AUMT VGM chiptune speedcore j-core jcore song contest 2020 Arcaea楽曲コンテスト2020 winner frums.xyz frumsdotxyz Electronic Video Game Instrumental
BeatmapID:3886482
BeatmapSetID:1868798

[Difficulty]
HPDrainRate:8
CircleSize:7
OverallDifficulty:7.2
ApproachRate:9
SliderMultiplier:1.4
SliderTickRate:1

[Events]
//Background and Video events
0,0,"BG-1.jpg",0,0
//Break Periods
//Storyboard Layer 0 (Background)
//Storyboard Layer 1 (Fail)
//Storyboard Layer 2 (Pass)
//Storyboard Layer 3 (Foreground)
//Storyboard Layer 4 (Overlay)
//Storyboard Sound Samples

[TimingPoints]
573,256.410256410256,4,2,1,25,1,0
8778,-100,4,2,1,35,0,0
12880,-100,4,2,1,40,0,0
16983,-100,4,2,1,55,0,0
66214,-100,4,2,1,70,0,0
70316,256.410256410256,5,2,1,70,1,0
72880,256.410256410256,3,2,1,70,1,0
80572,256.410256410256,4,2,1,35,1,0
88777,-100,4,2,1,40,0,0
96982,-100,4,2,1,70,0,1
113392,-100,4,2,1,60,0,0
115443,-100,4,2,1,70,0,1
125700,-100,4,2,1,60,0,0
129802,-100,4,2,1,45,0,0
164674,-100,4,2,1,60,0,0
198777,-100,4,2,1,70,0,1
231341,-100,4,2,1,70,0,0
234161,-100,4,2,1,10,0,0
280571,-100,4,2,1,15,0,0
296982,-100,4,2,1,20,0,0
301084,-100,4,2,1,30,0,0
302110,-100,4,2,1,35,0,0
303136,-100,4,2,1,45,0,0
305187,-100,4,2,1,70,0,0
321597,-100,4,2,1,55,0,0
338007,-100,4,2,1,70,0,1
354418,-100,4,2,1,60,0,0
356469,-100,4,2,1,70,0,1
366725,-100,4,2,1,70,0,0
368777,-100,4,2,1,45,0,0
369802,-100,4,2,1,55,0,0
370828,-100,4,2,1,60,0,0
399546,-100,4,2,1,45,0,0
401597,-100,4,2,1,35,0,0
403648,-100,4,2,1,25,0,0
409802,-100,4,2,1,45,0,0
412879,-100,4,2,1,70,0,0

[HitObjects]
329,192,573,5,0,0:0:0:0:
36,192,573,128,0,701:0:0:0:0:
402,192,605,1,0,0:0:0:0:
475,192,637,1,0,0:0:0:0:
182,192,701,128,0,893:0:0:0:0:
329,192,893,128,0,1085:0:0:0:0:
109,192,1085,128,0,1214:0:0:0:0:
256,192,1214,128,0,1342:0:0:0:0:
402,192,1342,128,0,1598:0:0:0:0:
182,192,1582,1,0,0:0:0:0:
109,192,1598,1,0,0:0:0:0:
36,192,1614,128,0,4675:0:0:0:0:
475,192,2880,128,0,4675:0:0:0:0:
256,192,4675,1,0,0:0:0:0:
329,192,6710,5,0,0:0:0:0:
402,192,6726,1,0,0:0:0:0:
475,192,6742,1,0,0:0:0:0:
475,192,7239,1,0,0:0:0:0:
402,192,7342,1,0,0:0:0:0:
329,192,7444,1,0,0:0:0:0:
182,192,7547,1,0,0:0:0:0:
109,192,7649,1,0,0:0:0:0:
36,192,7752,1,0,0:0:0:0:
475,192,7837,1,0,0:0:0:0:
402,192,7923,1,0,0:0:0:0:
329,192,8008,1,0,0:0:0:0:
256,192,8094,1,0,0:0:0:0:
182,192,8179,1,0,0:0:0:0:
109,192,8265,1,0,0:0:0:0:
36,192,8350,1,0,0:0:0:0:
475,192,8436,1,0,0:0:0:0:
402,192,8521,1,0,0:0:0:0:
329,192,8607,1,0,0:0:0:0:
256,192,8692,1,0,0:0:0:0:
36,192,8778,1,0,0:0:0:0:
182,192,8778,1,0,0:0:0:0:
475,192,8778,1,0,0:0:0:0:
109,192,8778,1,0,0:0:0:0:
36,192,9419,1,0,0:0:0:0:
109,192,9419,1,0,0:0:0:0:
36,192,9803,1,0,0:0:0:0:
109,192,9803,1,0,0:0:0:0:
329,192,9803,128,0,10829:0:0:0:0:
109,192,10444,1,0,0:0:0:0:
182,192,10444,1,0,0:0:0:0:
109,192,10701,1,0,0:0:0:0:
182,192,10701,1,0,0:0:0:0:
109,192,10829,1,0,0:0:0:0:
182,192,10829,1,0,0:0:0:0:
402,192,10829,128,0,11855:0:0:0:0:
182,192,11470,1,0,0:0:0:0:
256,192,11470,1,0,0:0:0:0:
182,192,11855,1,0,0:0:0:0:
256,192,11855,1,0,0:0:0:0:
475,192,11855,128,0,12880:0:0:0:0:
256,192,12239,1,0,0:0:0:0:
329,192,12239,1,0,0:0:0:0:
256,192,12496,1,0,0:0:0:0:
329,192,12496,1,0,0:0:0:0:
256,192,12752,1,0,0:0:0:0:
329,192,12752,1,0,0:0:0:0:
256,192,12880,1,0,0:0:0:0:
329,192,12880,1,0,0:0:0:0:
36,192,12880,128,0,13906:0:0:0:0:
329,192,13521,1,0,0:0:0:0:
402,192,13521,1,0,0:0:0:0:
329,192,13906,1,0,0:0:0:0:
402,192,13906,1,0,0:0:0:0:
109,192,13906,128,0,14931:0:0:0:0:
402,192,14547,1,0,0:0:0:0:
475,192,14547,1,0,0:0:0:0:
402,192,14803,1,0,0:0:0:0:
475,192,14803,1,0,0:0:0:0:
36,192,14931,1,0,0:0:0:0:
182,192,15060,1,0,0:0:0:0:
36,192,15156,1,0,0:0:0:0:
36,192,15268,1,0,0:0:0:0:
256,192,15348,1,0,0:0:0:0:
475,192,15444,1,0,0:0:0:0:
329,192,15558,1,0,0:0:0:0:
475,192,15658,1,0,0:0:0:0:
475,192,15765,1,0,0:0:0:0:
36,192,15957,1,0,0:0:0:0:
329,192,15957,1,0,0:0:0:0:
109,192,16043,1,0,0:0:0:0:
256,192,16128,1,0,0:0:0:0:
182,192,16214,1,0,0:0:0:0:
475,192,16214,1,0,0:0:0:0:
402,192,16299,1,0,0:0:0:0:
256,192,16384,1,0,0:0:0:0:
329,192,16470,1,0,0:0:0:0:
36,192,16470,1,0,0:0:0:0:
109,192,16555,1,0,0:0:0:0:
256,192,16641,1,0,0:0:0:0:
475,192,16726,1,0,0:0:0:0:
182,192,16726,1,0,0:0:0:0:
402,192,16812,1,0,0:0:0:0:
256,192,16897,1,0,0:0:0:0:
109,192,16983,1,0,0:0:0:0:
475,192,16983,1,0,0:0:0:0:
329,192,16983,1,0,0:0:0:0:
36,192,16983,128,0,19803:0:0:0:0:
402,192,16983,1,0,0:0:0:0:
475,192,17111,128,0,17239:0:0:0:0:
182,192,17175,128,0,17303:0:0:0:0:
256,192,17239,128,0,17367:0:0:0:0:
329,192,17303,128,0,17431:0:0:0:0:
402,192,17367,128,0,17496:0:0:0:0:
475,192,17431,128,0,17560:0:0:0:0:
109,192,17496,128,0,17624:0:0:0:0:
182,192,17560,128,0,17688:0:0:0:0:
256,192,17624,128,0,17752:0:0:0:0:
329,192,17688,128,0,17816:0:0:0:0:
402,192,17752,128,0,17880:0:0:0:0:
109,192,17816,128,0,17944:0:0:0:0:
182,192,17880,128,0,18008:0:0:0:0:
256,192,17944,128,0,18072:0:0:0:0:
329,192,18008,128,0,18137:0:0:0:0:
475,192,18072,128,0,18201:0:0:0:0:
109,192,18137,128,0,18265:0:0:0:0:
182,192,18201,128,0,18329:0:0:0:0:
256,192,18265,128,0,18393:0:0:0:0:
402,192,18329,128,0,18457:0:0:0:0:
475,192,18393,128,0,18521:0:0:0:0:
109,192,18457,128,0,18585:0:0:0:0:
182,192,18521,128,0,18649:0:0:0:0:
329,192,18585,128,0,18714:0:0:0:0:
402,192,18649,128,0,18778:0:0:0:0:
475,192,18714,128,0,18842:0:0:0:0:
109,192,18778,128,0,18906:0:0:0:0:
256,192,18842,128,0,18970:0:0:0:0:
329,192,18906,128,0,19034:0:0:0:0:
402,192,18970,128,0,19098:0:0:0:0:
475,192,19034,128,0,19162:0:0:0:0:
182,192,19098,128,0,19226:0:0:0:0:
256,192,19162,128,0,19290:0:0:0:0:
329,192,19226,128,0,19355:0:0:0:0:
402,192,19290,128,0,19419:0:0:0:0:
475,192,19355,128,0,19483:0:0:0:0:
109,192,19419,128,0,19547:0:0:0:0:
182,192,19483,128,0,19611:0:0:0:0:
256,192,19547,128,0,19675:0:0:0:0:
329,192,19611,128,0,19739:0:0:0:0:
402,192,19675,128,0,19803:0:0:0:0:
109,192,19739,128,0,19867:0:0:0:0:
182,192,19803,128,0,19931:0:0:0:0:
256,192,19867,128,0,19996:0:0:0:0:
329,192,19931,128,0,20060:0:0:0:0:
475,192,19996,128,0,20060:0:0:0:0:
36,192,20060,1,0,0:0:0:0:
109,192,20060,1,0,0:0:0:0:
256,192,20188,1,0,0:0:0:0:
402,192,20188,1,0,0:0:0:0:
475,192,20188,1,0,0:0:0:0:
402,192,20316,1,0,0:0:0:0:
256,192,20316,1,0,0:0:0:0:
475,192,20316,1,0,0:0:0:0:
182,192,20380,1,0,0:0:0:0:
109,192,20444,1,0,0:0:0:0:
36,192,20444,1,0,0:0:0:0:
182,192,20530,1,0,0:0:0:0:
329,192,20530,1,0,0:0:0:0:
402,192,20572,1,0,0:0:0:0:
475,192,20572,1,0,0:0:0:0:
109,192,20605,1,0,0:0:0:0:
36,192,20637,1,0,0:0:0:0:
329,192,20701,1,0,0:0:0:0:
256,192,20733,1,0,0:0:0:0:
182,192,20765,1,0,0:0:0:0:
109,192,20829,1,0,0:0:0:0:
36,192,20829,1,0,0:0:0:0:
402,192,20829,1,0,0:0:0:0:
475,192,20829,1,0,0:0:0:0:
109,192,21085,1,0,0:0:0:0:
402,192,21085,1,0,0:0:0:0:
182,192,21085,1,0,0:0:0:0:
36,192,21085,1,0,0:0:0:0:
475,192,21085,128,0,23906:0:0:0:0:
36,192,21214,128,0,21342:0:0:0:0:
329,192,21278,128,0,21406:0:0:0:0:
256,192,21342,128,0,21470:0:0:0:0:
182,192,21406,128,0,21534:0:0:0:0:
109,192,21470,128,0,21598:0:0:0:0:
36,192,21534,128,0,21662:0:0:0:0:
402,192,21598,128,0,21726:0:0:0:0:
329,192,21662,128,0,21790:0:0:0:0:
256,192,21726,128,0,21855:0:0:0:0:
182,192,21790,128,0,21919:0:0:0:0:
109,192,21855,128,0,21983:0:0:0:0:
402,192,21919,128,0,22047:0:0:0:0:
329,192,21983,128,0,22111:0:0:0:0:
256,192,22047,128,0,22175:0:0:0:0:
182,192,22111,128,0,22239:0:0:0:0:
36,192,22175,128,0,22303:0:0:0:0:
402,192,22239,128,0,22367:0:0:0:0:
329,192,22303,128,0,22431:0:0:0:0:
256,192,22367,128,0,22496:0:0:0:0:
109,192,22431,128,0,22560:0:0:0:0:
36,192,22496,128,0,22624:0:0:0:0:
402,192,22560,128,0,22688:0:0:0:0:
329,192,22624,128,0,22752:0:0:0:0:
182,192,22688,128,0,22816:0:0:0:0:
109,192,22752,128,0,22880:0:0:0:0:
36,192,22816,128,0,22944:0:0:0:0:
402,192,22880,128,0,23008:0:0:0:0:
256,192,22944,128,0,23072:0:0:0:0:
182,192,23008,128,0,23137:0:0:0:0:
109,192,23072,128,0,23201:0:0:0:0:
36,192,23137,128,0,23265:0:0:0:0:
329,192,23201,128,0,23329:0:0:0:0:
256,192,23265,128,0,23393:0:0:0:0:
182,192,23329,128,0,23457:0:0:0:0:
109,192,23393,128,0,23521:0:0:0:0:
36,192,23457,128,0,23585:0:0:0:0:
402,192,23521,128,0,23649:0:0:0:0:
329,192,23585,128,0,23714:0:0:0:0:
256,192,23649,128,0,23778:0:0:0:0:
182,192,23714,128,0,23842:0:0:0:0:
109,192,23778,128,0,23906:0:0:0:0:
402,192,23842,128,0,23970:0:0:0:0:
329,192,23906,128,0,24034:0:0:0:0:
256,192,23970,128,0,24098:0:0:0:0:
182,192,24034,128,0,24162:0:0:0:0:
36,192,24098,128,0,24162:0:0:0:0:
475,192,24162,1,0,0:0:0:0:
402,192,24162,1,0,0:0:0:0:
182,192,24290,1,0,0:0:0:0:
329,192,24290,1,0,0:0:0:0:
475,192,24419,1,0,0:0:0:0:
36,192,24419,1,0,0:0:0:0:
182,192,24547,1,0,0:0:0:0:
329,192,24547,1,0,0:0:0:0:
36,192,24611,1,0,0:0:0:0:
475,192,24611,1,0,0:0:0:0:
256,192,24675,1,0,0:0:0:0:
329,192,24739,1,0,0:0:0:0:
182,192,24739,1,0,0:0:0:0:
36,192,24803,1,0,0:0:0:0:
475,192,24803,1,0,0:0:0:0:
256,192,24867,1,0,0:0:0:0:
109,192,24931,1,0,0:0:0:0:
182,192,24974,1,0,0:0:0:0:
329,192,25017,1,0,0:0:0:0:
402,192,25060,1,0,0:0:0:0:
182,192,25188,1,0,0:0:0:0:
36,192,25188,1,0,0:0:0:0:
109,192,25188,1,0,0:0:0:0:
256,192,25252,1,0,0:0:0:0:
329,192,25252,1,0,0:0:0:0:
402,192,25316,1,0,0:0:0:0:
475,192,25316,1,0,0:0:0:0:
182,192,25380,1,0,0:0:0:0:
36,192,25444,1,0,0:0:0:0:
109,192,25444,1,0,0:0:0:0:
475,192,25572,1,0,0:0:0:0:
329,192,25572,1,0,0:0:0:0:
402,192,25572,1,0,0:0:0:0:
256,192,25637,1,0,0:0:0:0:
182,192,25637,1,0,0:0:0:0:
36,192,25701,1,0,0:0:0:0:
109,192,25701,1,0,0:0:0:0:
329,192,25765,1,0,0:0:0:0:
475,192,25829,1,0,0:0:0:0:
402,192,25829,1,0,0:0:0:0:
36,192,25957,1,0,0:0:0:0:
475,192,25957,1,0,0:0:0:0:
182,192,25957,1,0,0:0:0:0:
329,192,25957,1,0,0:0:0:0:
256,192,26214,1,0,0:0:0:0:
402,192,26214,1,0,0:0:0:0:
475,192,26214,1,0,0:0:0:0:
182,192,26278,1,0,0:0:0:0:
329,192,26278,1,0,0:0:0:0:
109,192,26342,1,0,0:0:0:0:
36,192,26342,1,0,0:0:0:0:
256,192,26406,1,0,0:0:0:0:
402,192,26470,1,0,0:0:0:0:
475,192,26470,1,0,0:0:0:0:
256,192,26598,1,0,0:0:0:0:
109,192,26598,1,0,0:0:0:0:
36,192,26598,1,0,0:0:0:0:
182,192,26662,1,0,0:0:0:0:
329,192,26662,1,0,0:0:0:0:
475,192,26726,1,0,0:0:0:0:
402,192,26726,1,0,0:0:0:0:
256,192,26790,1,0,0:0:0:0:
36,192,26855,1,0,0:0:0:0:
109,192,26855,1,0,0:0:0:0:
182,192,26983,1,0,0:0:0:0:
36,192,26983,1,0,0:0:0:0:
475,192,26983,1,0,0:0:0:0:
329,192,26983,1,0,0:0:0:0:
329,192,27239,1,0,0:0:0:0:
36,192,27239,1,0,0:0:0:0:
256,192,27239,1,0,0:0:0:0:
109,192,27303,1,0,0:0:0:0:
475,192,27303,1,0,0:0:0:0:
402,192,27367,1,0,0:0:0:0:
182,192,27367,1,0,0:0:0:0:
329,192,27431,1,0,0:0:0:0:
256,192,27496,1,0,0:0:0:0:
36,192,27496,1,0,0:0:0:0:
402,192,27624,1,0,0:0:0:0:
475,192,27624,1,0,0:0:0:0:
182,192,27624,1,0,0:0:0:0:
109,192,27688,1,0,0:0:0:0:
329,192,27688,1,0,0:0:0:0:
256,192,27752,1,0,0:0:0:0:
36,192,27752,1,0,0:0:0:0:
109,192,27816,1,0,0:0:0:0:
402,192,27880,1,0,0:0:0:0:
182,192,27880,1,0,0:0:0:0:
256,192,28008,1,0,0:0:0:0:
402,192,28008,1,0,0:0:0:0:
475,192,28008,1,0,0:0:0:0:
36,192,28008,1,0,0:0:0:0:
256,192,28265,1,0,0:0:0:0:
475,192,28265,1,0,0:0:0:0:
182,192,28265,1,0,0:0:0:0:
402,192,28329,1,0,0:0:0:0:
36,192,28329,1,0,0:0:0:0:
329,192,28393,1,0,0:0:0:0:
109,192,28393,1,0,0:0:0:0:
182,192,28457,1,0,0:0:0:0:
256,192,28521,1,0,0:0:0:0:
475,192,28521,1,0,0:0:0:0:
36,192,28649,1,0,0:0:0:0:
329,192,28649,1,0,0:0:0:0:
109,192,28649,1,0,0:0:0:0:
182,192,28714,1,0,0:0:0:0:
402,192,28714,1,0,0:0:0:0:
475,192,28778,1,0,0:0:0:0:
256,192,28778,1,0,0:0:0:0:
402,192,28842,1,0,0:0:0:0:
329,192,28906,1,0,0:0:0:0:
109,192,28906,1,0,0:0:0:0:
36,192,28906,1,0,0:0:0:0:
329,192,29034,1,0,0:0:0:0:
36,192,29034,1,0,0:0:0:0:
109,192,29034,1,0,0:0:0:0:
475,192,29120,1,0,0:0:0:0:
256,192,29120,1,0,0:0:0:0:
109,192,29205,1,0,0:0:0:0:
402,192,29205,1,0,0:0:0:0:
182,192,29290,1,0,0:0:0:0:
36,192,29290,1,0,0:0:0:0:
329,192,29290,1,0,0:0:0:0:
256,192,29355,1,0,0:0:0:0:
402,192,29355,1,0,0:0:0:0:
475,192,29419,1,0,0:0:0:0:
109,192,29419,1,0,0:0:0:0:
182,192,29483,1,0,0:0:0:0:
256,192,29547,1,0,0:0:0:0:
36,192,29547,1,0,0:0:0:0:
329,192,29675,1,0,0:0:0:0:
182,192,29675,1,0,0:0:0:0:
475,192,29675,1,0,0:0:0:0:
256,192,29739,1,0,0:0:0:0:
109,192,29739,1,0,0:0:0:0:
402,192,29803,1,0,0:0:0:0:
36,192,29803,1,0,0:0:0:0:
329,192,29867,1,0,0:0:0:0:
256,192,29931,1,0,0:0:0:0:
475,192,29931,1,0,0:0:0:0:
256,192,30060,1,0,0:0:0:0:
36,192,30060,1,0,0:0:0:0:
109,192,30060,1,0,0:0:0:0:
329,192,30060,1,0,0:0:0:0:
182,192,30316,1,0,0:0:0:0:
475,192,30316,1,0,0:0:0:0:
402,192,30316,1,0,0:0:0:0:
109,192,30380,1,0,0:0:0:0:
329,192,30380,1,0,0:0:0:0:
256,192,30444,1,0,0:0:0:0:
36,192,30444,1,0,0:0:0:0:
402,192,30508,1,0,0:0:0:0:
475,192,30572,1,0,0:0:0:0:
182,192,30572,1,0,0:0:0:0:
36,192,30701,1,0,0:0:0:0:
329,192,30701,1,0,0:0:0:0:
109,192,30701,1,0,0:0:0:0:
182,192,30765,1,0,0:0:0:0:
402,192,30765,1,0,0:0:0:0:
475,192,30829,1,0,0:0:0:0:
256,192,30829,1,0,0:0:0:0:
109,192,30893,1,0,0:0:0:0:
36,192,30957,1,0,0:0:0:0:
329,192,30957,1,0,0:0:0:0:
109,192,31085,1,0,0:0:0:0:
256,192,31085,1,0,0:0:0:0:
475,192,31085,1,0,0:0:0:0:
329,192,31085,1,0,0:0:0:0:
402,192,31342,1,0,0:0:0:0:
182,192,31342,1,0,0:0:0:0:
475,192,31342,1,0,0:0:0:0:
329,192,31406,1,0,0:0:0:0:
36,192,31406,1,0,0:0:0:0:
109,192,31470,1,0,0:0:0:0:
256,192,31470,1,0,0:0:0:0:
475,192,31534,1,0,0:0:0:0:
182,192,31598,1,0,0:0:0:0:
402,192,31598,1,0,0:0:0:0:
329,192,31726,1,0,0:0:0:0:
109,192,31726,1,0,0:0:0:0:
36,192,31726,1,0,0:0:0:0:
475,192,31790,1,0,0:0:0:0:
182,192,31790,1,0,0:0:0:0:
256,192,31855,1,0,0:0:0:0:
402,192,31855,1,0,0:0:0:0:
36,192,31919,1,0,0:0:0:0:
329,192,31983,1,0,0:0:0:0:
109,192,31983,1,0,0:0:0:0:
256,192,32111,1,0,0:0:0:0:
109,192,32111,1,0,0:0:0:0:
475,192,32111,1,0,0:0:0:0:
402,192,32111,1,0,0:0:0:0:
182,192,32367,1,0,0:0:0:0:
475,192,32367,1,0,0:0:0:0:
109,192,32367,1,0,0:0:0:0:
36,192,32367,1,0,0:0:0:0:
402,192,32410,1,0,0:0:0:0:
329,192,32453,1,0,0:0:0:0:
256,192,32496,1,0,0:0:0:0:
109,192,32496,1,0,0:0:0:0:
182,192,32496,1,0,0:0:0:0:
475,192,32560,1,0,0:0:0:0:
36,192,32624,1,0,0:0:0:0:
402,192,32624,1,0,0:0:0:0:
329,192,32624,1,0,0:0:0:0:
109,192,32656,1,0,0:0:0:0:
182,192,32688,1,0,0:0:0:0:
475,192,32752,1,0,0:0:0:0:
256,192,32752,1,0,0:0:0:0:
36,192,32752,1,0,0:0:0:0:
402,192,32752,1,0,0:0:0:0:
36,192,33008,1,0,0:0:0:0:
475,192,33008,1,0,0:0:0:0:
256,192,33008,1,0,0:0:0:0:
182,192,33008,1,0,0:0:0:0:
109,192,33008,1,0,0:0:0:0:
402,192,33072,1,0,0:0:0:0:
329,192,33137,1,0,0:0:0:0:
256,192,33201,1,0,0:0:0:0:
182,192,33265,1,0,0:0:0:0:
109,192,33329,1,0,0:0:0:0:
36,192,33393,1,0,0:0:0:0:
329,192,33393,1,0,0:0:0:0:
402,192,33393,1,0,0:0:0:0:
475,192,33393,1,0,0:0:0:0:
256,192,33393,1,0,0:0:0:0:
182,192,33521,1,0,0:0:0:0:
109,192,33585,1,0,0:0:0:0:
402,192,33649,1,0,0:0:0:0:
475,192,33649,1,0,0:0:0:0:
36,192,33649,1,0,0:0:0:0:
256,192,33714,1,0,0:0:0:0:
329,192,33778,1,0,0:0:0:0:
36,192,33778,1,0,0:0:0:0:
402,192,33842,1,0,0:0:0:0:
109,192,33906,1,0,0:0:0:0:
36,192,33906,1,0,0:0:0:0:
475,192,33906,1,0,0:0:0:0:
182,192,33906,1,0,0:0:0:0:
256,192,33970,1,0,0:0:0:0:
329,192,34034,1,0,0:0:0:0:
475,192,34098,1,0,0:0:0:0:
182,192,34098,1,0,0:0:0:0:
402,192,34098,1,0,0:0:0:0:
109,192,34162,1,0,0:0:0:0:
36,192,34226,1,0,0:0:0:0:
256,192,34290,1,0,0:0:0:0:
329,192,34290,1,0,0:0:0:0:
182,192,34290,1,0,0:0:0:0:
402,192,34355,1,0,0:0:0:0:
475,192,34419,1,0,0:0:0:0:
109,192,34483,1,0,0:0:0:0:
36,192,34483,1,0,0:0:0:0:
182,192,34483,1,0,0:0:0:0:
256,192,34547,1,0,0:0:0:0:
329,192,34611,1,0,0:0:0:0:
36,192,34675,1,0,0:0:0:0:
475,192,34675,1,0,0:0:0:0:
182,192,34675,1,0,0:0:0:0:
402,192,34739,1,0,0:0:0:0:
256,192,34803,1,0,0:0:0:0:
109,192,34867,1,0,0:0:0:0:
402,192,34931,1,0,0:0:0:0:
475,192,34931,1,0,0:0:0:0:
36,192,34931,1,0,0:0:0:0:
329,192,34931,1,0,0:0:0:0:
256,192,34996,1,0,0:0:0:0:
182,192,35060,1,0,0:0:0:0:
36,192,35124,1,0,0:0:0:0:
329,192,35124,1,0,0:0:0:0:
109,192,35124,1,0,0:0:0:0:
402,192,35188,1,0,0:0:0:0:
475,192,35252,1,0,0:0:0:0:
256,192,35316,1,0,0:0:0:0:
182,192,35316,1,0,0:0:0:0:
329,192,35316,1,0,0:0:0:0:
109,192,35380,1,0,0:0:0:0:
36,192,35444,1,0,0:0:0:0:
402,192,35508,1,0,0:0:0:0:
475,192,35508,1,0,0:0:0:0:
329,192,35508,1,0,0:0:0:0:
256,192,35572,1,0,0:0:0:0:
182,192,35637,1,0,0:0:0:0:
475,192,35701,1,0,0:0:0:0:
36,192,35701,1,0,0:0:0:0:
329,192,35701,1,0,0:0:0:0:
109,192,35765,1,0,0:0:0:0:
256,192,35829,1,0,0:0:0:0:
402,192,35893,1,0,0:0:0:0:
475,192,35957,1,0,0:0:0:0:
182,192,35957,1,0,0:0:0:0:
109,192,35957,1,0,0:0:0:0:
36,192,35957,1,0,0:0:0:0:
256,192,36021,1,0,0:0:0:0:
329,192,36085,1,0,0:0:0:0:
402,192,36149,1,0,0:0:0:0:
182,192,36149,1,0,0:0:0:0:
475,192,36149,1,0,0:0:0:0:
109,192,36214,1,0,0:0:0:0:
36,192,36278,1,0,0:0:0:0:
182,192,36342,1,0,0:0:0:0:
329,192,36342,1,0,0:0:0:0:
256,192,36342,1,0,0:0:0:0:
475,192,36406,1,0,0:0:0:0:
402,192,36470,1,0,0:0:0:0:
256,192,36534,1,0,0:0:0:0:
182,192,36534,1,0,0:0:0:0:
109,192,36534,1,0,0:0:0:0:
329,192,36598,1,0,0:0:0:0:
402,192,36662,1,0,0:0:0:0:
109,192,36726,1,0,0:0:0:0:
475,192,36726,1,0,0:0:0:0:
36,192,36726,1,0,0:0:0:0:
182,192,36790,1,0,0:0:0:0:
256,192,36855,1,0,0:0:0:0:
329,192,36919,1,0,0:0:0:0:
109,192,36983,1,0,0:0:0:0:
36,192,36983,1,0,0:0:0:0:
182,192,36983,1,0,0:0:0:0:
475,192,36983,1,0,0:0:0:0:
402,192,37025,1,0,0:0:0:0:
329,192,37068,1,0,0:0:0:0:
256,192,37111,1,0,0:0:0:0:
182,192,37154,1,0,0:0:0:0:
109,192,37196,1,0,0:0:0:0:
475,192,37239,1,0,0:0:0:0:
36,192,37239,1,0,0:0:0:0:
402,192,37282,1,0,0:0:0:0:
329,192,37325,1,0,0:0:0:0:
256,192,37367,1,0,0:0:0:0:
182,192,37410,1,0,0:0:0:0:
109,192,37453,1,0,0:0:0:0:
36,192,37496,1,0,0:0:0:0:
402,192,37496,1,0,0:0:0:0:
475,192,37496,1,0,0:0:0:0:
329,192,37496,1,0,0:0:0:0:
182,192,37624,1,0,0:0:0:0:
256,192,37688,1,0,0:0:0:0:
329,192,37752,1,0,0:0:0:0:
475,192,37752,1,0,0:0:0:0:
36,192,37752,1,0,0:0:0:0:
182,192,37816,1,0,0:0:0:0:
402,192,37880,1,0,0:0:0:0:
109,192,37880,1,0,0:0:0:0:
329,192,37944,1,0,0:0:0:0:
475,192,38008,1,0,0:0:0:0:
36,192,38008,1,0,0:0:0:0:
256,192,38008,1,0,0:0:0:0:
182,192,38008,1,0,0:0:0:0:
402,192,38072,1,0,0:0:0:0:
329,192,38137,1,0,0:0:0:0:
109,192,38201,1,0,0:0:0:0:
182,192,38201,1,0,0:0:0:0:
475,192,38201,1,0,0:0:0:0:
402,192,38265,1,0,0:0:0:0:
256,192,38329,1,0,0:0:0:0:
329,192,38393,1,0,0:0:0:0:
109,192,38393,1,0,0:0:0:0:
36,192,38393,1,0,0:0:0:0:
182,192,38457,1,0,0:0:0:0:
256,192,38521,1,0,0:0:0:0:
36,192,38585,1,0,0:0:0:0:
475,192,38585,1,0,0:0:0:0:
402,192,38585,1,0,0:0:0:0:
182,192,38649,1,0,0:0:0:0:
329,192,38714,1,0,0:0:0:0:
36,192,38778,1,0,0:0:0:0:
109,192,38778,1,0,0:0:0:0:
475,192,38778,1,0,0:0:0:0:
182,192,38842,1,0,0:0:0:0:
256,192,38906,1,0,0:0:0:0:
329,192,38970,1,0,0:0:0:0:
36,192,39034,1,0,0:0:0:0:
475,192,39034,1,0,0:0:0:0:
109,192,39034,1,0,0:0:0:0:
402,192,39034,1,0,0:0:0:0:
256,192,39098,1,0,0:0:0:0:
182,192,39162,1,0,0:0:0:0:
402,192,39226,1,0,0:0:0:0:
329,192,39226,1,0,0:0:0:0:
36,192,39226,1,0,0:0:0:0:
109,192,39290,1,0,0:0:0:0:
256,192,39355,1,0,0:0:0:0:
182,192,39419,1,0,0:0:0:0:
402,192,39419,1,0,0:0:0:0:
475,192,39419,1,0,0:0:0:0:
329,192,39483,1,0,0:0:0:0:
256,192,39547,1,0,0:0:0:0:
475,192,39611,1,0,0:0:0:0:
36,192,39611,1,0,0:0:0:0:
109,192,39611,1,0,0:0:0:0:
329,192,39675,1,0,0:0:0:0:
182,192,39739,1,0,0:0:0:0:
475,192,39803,1,0,0:0:0:0:
402,192,39803,1,0,0:0:0:0:
36,192,39803,1,0,0:0:0:0:
329,192,39867,1,0,0:0:0:0:
256,192,39931,1,0,0:0:0:0:
182,192,39996,1,0,0:0:0:0:
402,192,40060,1,0,0:0:0:0:
109,192,40060,1,0,0:0:0:0:
475,192,40060,1,0,0:0:0:0:
36,192,40060,1,0,0:0:0:0:
256,192,40124,1,0,0:0:0:0:
329,192,40188,1,0,0:0:0:0:
475,192,40252,1,0,0:0:0:0:
182,192,40252,1,0,0:0:0:0:
109,192,40252,1,0,0:0:0:0:
402,192,40316,1,0,0:0:0:0:
256,192,40380,1,0,0:0:0:0:
36,192,40444,1,0,0:0:0:0:
109,192,40444,1,0,0:0:0:0:
329,192,40444,1,0,0:0:0:0:
182,192,40508,1,0,0:0:0:0:
256,192,40572,1,0,0:0:0:0:
402,192,40637,1,0,0:0:0:0:
475,192,40637,1,0,0:0:0:0:
36,192,40637,1,0,0:0:0:0:
182,192,40701,1,0,0:0:0:0:
329,192,40765,1,0,0:0:0:0:
475,192,40829,1,0,0:0:0:0:
109,192,40829,1,0,0:0:0:0:
36,192,40829,1,0,0:0:0:0:
182,192,40893,1,0,0:0:0:0:
329,192,40957,1,0,0:0:0:0:
402,192,41021,1,0,0:0:0:0:
36,192,41085,1,0,0:0:0:0:
475,192,41085,1,0,0:0:0:0:
256,192,41085,1,0,0:0:0:0:
329,192,41149,1,0,0:0:0:0:
109,192,41149,1,0,0:0:0:0:
402,192,41214,1,0,0:0:0:0:
182,192,41214,1,0,0:0:0:0:
475,192,41214,1,0,0:0:0:0:
109,192,41278,1,0,0:0:0:0:
36,192,41342,1,0,0:0:0:0:
256,192,41342,1,0,0:0:0:0:
402,192,41342,1,0,0:0:0:0:
329,192,41342,1,0,0:0:0:0:
182,192,41406,1,0,0:0:0:0:
329,192,41470,1,0,0:0:0:0:
475,192,41534,1,0,0:0:0:0:
36,192,41598,1,0,0:0:0:0:
109,192,41598,1,0,0:0:0:0:
182,192,41598,1,0,0:0:0:0:
329,192,41662,1,0,0:0:0:0:
256,192,41662,1,0,0:0:0:0:
402,192,41726,1,0,0:0:0:0:
475,192,41726,1,0,0:0:0:0:
182,192,41790,1,0,0:0:0:0:
256,192,41790,1,0,0:0:0:0:
109,192,41855,1,0,0:0:0:0:
36,192,41855,1,0,0:0:0:0:
402,192,41983,1,0,0:0:0:0:
475,192,41983,1,0,0:0:0:0:
329,192,41983,1,0,0:0:0:0:
182,192,42047,1,0,0:0:0:0:
256,192,42047,1,0,0:0:0:0:
109,192,42111,1,0,0:0:0:0:
36,192,42111,1,0,0:0:0:0:
329,192,42175,1,0,0:0:0:0:
256,192,42175,1,0,0:0:0:0:
475,192,42239,1,0,0:0:0:0:
402,192,42239,1,0,0:0:0:0:
182,192,42239,1,0,0:0:0:0:
329,192,42367,1,0,0:0:0:0:
182,192,42367,1,0,0:0:0:0:
109,192,42367,1,0,0:0:0:0:
36,192,42367,1,0,0:0:0:0:
36,192,42624,1,0,0:0:0:0:
329,192,42624,1,0,0:0:0:0:
109,192,42624,1,0,0:0:0:0:
475,192,42688,1,0,0:0:0:0:
402,192,42688,1,0,0:0:0:0:
182,192,42752,1,0,0:0:0:0:
256,192,42752,1,0,0:0:0:0:
475,192,42816,1,0,0:0:0:0:
109,192,42816,1,0,0:0:0:0:
36,192,42880,1,0,0:0:0:0:
329,192,42880,1,0,0:0:0:0:
182,192,43008,1,0,0:0:0:0:
475,192,43008,1,0,0:0:0:0:
402,192,43008,1,0,0:0:0:0:
36,192,43072,1,0,0:0:0:0:
109,192,43072,1,0,0:0:0:0:
256,192,43137,1,0,0:0:0:0:
329,192,43137,1,0,0:0:0:0:
36,192,43201,1,0,0:0:0:0:
402,192,43201,1,0,0:0:0:0:
475,192,43265,1,0,0:0:0:0:
182,192,43265,1,0,0:0:0:0:
109,192,43265,1,0,0:0:0:0:
256,192,43393,1,0,0:0:0:0:
475,192,43393,1,0,0:0:0:0:
36,192,43393,1,0,0:0:0:0:
329,192,43393,1,0,0:0:0:0:
36,192,43649,1,0,0:0:0:0:
402,192,43649,1,0,0:0:0:0:
109,192,43649,1,0,0:0:0:0:
329,192,43714,1,0,0:0:0:0:
256,192,43714,1,0,0:0:0:0:
475,192,43778,1,0,0:0:0:0:
182,192,43778,1,0,0:0:0:0:
109,192,43842,1,0,0:0:0:0:
329,192,43842,1,0,0:0:0:0:
256,192,43906,1,0,0:0:0:0:
36,192,43906,1,0,0:0:0:0:
475,192,44034,1,0,0:0:0:0:
402,192,44034,1,0,0:0:0:0:
109,192,44034,1,0,0:0:0:0:
182,192,44098,1,0,0:0:0:0:
256,192,44098,1,0,0:0:0:0:
329,192,44162,1,0,0:0:0:0:
36,192,44162,1,0,0:0:0:0:
182,192,44226,1,0,0:0:0:0:
402,192,44226,1,0,0:0:0:0:
109,192,44290,1,0,0:0:0:0:
256,192,44290,1,0,0:0:0:0:
475,192,44290,1,0,0:0:0:0:
329,192,44419,1,0,0:0:0:0:
475,192,44419,1,0,0:0:0:0:
36,192,44419,1,0,0:0:0:0:
182,192,44419,1,0,0:0:0:0:
182,192,44675,1,0,0:0:0:0:
109,192,44675,1,0,0:0:0:0:
475,192,44675,1,0,0:0:0:0:
402,192,44739,1,0,0:0:0:0:
256,192,44739,1,0,0:0:0:0:
329,192,44803,1,0,0:0:0:0:
36,192,44803,1,0,0:0:0:0:
109,192,44867,1,0,0:0:0:0:
402,192,44867,1,0,0:0:0:0:
182,192,44931,1,0,0:0:0:0:
475,192,44931,1,0,0:0:0:0:
402,192,45060,1,0,0:0:0:0:
36,192,45060,1,0,0:0:0:0:
329,192,45060,1,0,0:0:0:0:
109,192,45124,1,0,0:0:0:0:
256,192,45124,1,0,0:0:0:0:
475,192,45188,1,0,0:0:0:0:
182,192,45188,1,0,0:0:0:0:
402,192,45252,1,0,0:0:0:0:
109,192,45252,1,0,0:0:0:0:
329,192,45316,1,0,0:0:0:0:
36,192,45316,1,0,0:0:0:0:
256,192,45316,1,0,0:0:0:0:
36,192,45444,1,0,0:0:0:0:
329,192,45444,1,0,0:0:0:0:
256,192,45444,1,0,0:0:0:0:
402,192,45530,1,0,0:0:0:0:
182,192,45530,1,0,0:0:0:0:
109,192,45615,1,0,0:0:0:0:
329,192,45615,1,0,0:0:0:0:
402,192,45701,1,0,0:0:0:0:
182,192,45701,1,0,0:0:0:0:
475,192,45701,1,0,0:0:0:0:
256,192,45765,1,0,0:0:0:0:
36,192,45765,1,0,0:0:0:0:
329,192,45829,1,0,0:0:0:0:
109,192,45829,1,0,0:0:0:0:
475,192,45893,1,0,0:0:0:0:
256,192,45893,1,0,0:0:0:0:
182,192,45957,1,0,0:0:0:0:
402,192,45957,1,0,0:0:0:0:
36,192,46085,1,0,0:0:0:0:
329,192,46085,1,0,0:0:0:0:
109,192,46085,1,0,0:0:0:0:
256,192,46149,1,0,0:0:0:0:
475,192,46149,1,0,0:0:0:0:
182,192,46214,1,0,0:0:0:0:
402,192,46214,1,0,0:0:0:0:
256,192,46278,1,0,0:0:0:0:
36,192,46278,1,0,0:0:0:0:
329,192,46342,1,0,0:0:0:0:
109,192,46342,1,0,0:0:0:0:
475,192,46342,1,0,0:0:0:0:
402,192,46470,1,0,0:0:0:0:
36,192,46470,1,0,0:0:0:0:
475,192,46470,1,0,0:0:0:0:
182,192,46470,1,0,0:0:0:0:
329,192,46726,1,0,0:0:0:0:
256,192,46726,1,0,0:0:0:0:
109,192,46726,1,0,0:0:0:0:
475,192,46790,1,0,0:0:0:0:
36,192,46790,1,0,0:0:0:0:
402,192,46855,1,0,0:0:0:0:
182,192,46855,1,0,0:0:0:0:
256,192,46919,1,0,0:0:0:0:
36,192,46919,1,0,0:0:0:0:
109,192,46983,1,0,0:0:0:0:
329,192,46983,1,0,0:0:0:0:
182,192,47111,1,0,0:0:0:0:
256,192,47111,1,0,0:0:0:0:
402,192,47111,1,0,0:0:0:0:
475,192,47175,1,0,0:0:0:0:
36,192,47175,1,0,0:0:0:0:
109,192,47239,1,0,0:0:0:0:
329,192,47239,1,0,0:0:0:0:
256,192,47303,1,0,0:0:0:0:
475,192,47303,1,0,0:0:0:0:
402,192,47367,1,0,0:0:0:0:
182,192,47367,1,0,0:0:0:0:
36,192,47367,1,0,0:0:0:0:
256,192,47496,1,0,0:0:0:0:
402,192,47496,1,0,0:0:0:0:
109,192,47496,1,0,0:0:0:0:
475,192,47496,1,0,0:0:0:0:
36,192,47752,1,0,0:0:0:0:
256,192,47752,1,0,0:0:0:0:
329,192,47752,1,0,0:0:0:0:
109,192,47816,1,0,0:0:0:0:
475,192,47816,1,0,0:0:0:0:
182,192,47880,1,0,0:0:0:0:
402,192,47880,1,0,0:0:0:0:
256,192,47944,1,0,0:0:0:0:
109,192,47944,1,0,0:0:0:0:
329,192,48008,1,0,0:0:0:0:
36,192,48008,1,0,0:0:0:0:
256,192,48137,1,0,0:0:0:0:
182,192,48137,1,0,0:0:0:0:
475,192,48137,1,0,0:0:0:0:
402,192,48201,1,0,0:0:0:0:
36,192,48201,1,0,0:0:0:0:
329,192,48265,1,0,0:0:0:0:
109,192,48265,1,0,0:0:0:0:
402,192,48329,1,0,0:0:0:0:
256,192,48329,1,0,0:0:0:0:
475,192,48393,1,0,0:0:0:0:
36,192,48393,1,0,0:0:0:0:
182,192,48393,1,0,0:0:0:0:
109,192,48521,1,0,0:0:0:0:
402,192,48521,1,0,0:0:0:0:
36,192,48521,1,0,0:0:0:0:
256,192,48521,1,0,0:0:0:0:
36,192,48778,1,0,0:0:0:0:
109,192,48778,1,0,0:0:0:0:
182,192,48778,1,0,0:0:0:0:
475,192,48810,1,0,0:0:0:0:
402,192,48842,1,0,0:0:0:0:
329,192,48874,1,0,0:0:0:0:
256,192,48906,1,0,0:0:0:0:
182,192,48938,1,0,0:0:0:0:
109,192,48970,1,0,0:0:0:0:
36,192,49002,1,0,0:0:0:0:
402,192,49034,1,0,0:0:0:0:
475,192,49034,1,0,0:0:0:0:
329,192,49034,1,0,0:0:0:0:
256,192,49162,1,0,0:0:0:0:
36,192,49803,1,0,0:0:0:0:
475,192,49803,1,0,0:0:0:0:
402,192,49803,1,0,0:0:0:0:
329,192,49803,1,0,0:0:0:0:
109,192,49846,1,0,0:0:0:0:
182,192,49889,1,0,0:0:0:0:
256,192,49931,1,0,0:0:0:0:
329,192,49974,1,0,0:0:0:0:
402,192,50017,1,0,0:0:0:0:
475,192,50060,128,0,50145:0:0:0:0:
36,192,50145,128,0,50231:0:0:0:0:
182,192,50231,128,0,50316:0:0:0:0:
109,192,50231,1,0,0:0:0:0:
329,192,50316,128,0,50402:0:0:0:0:
475,192,50316,1,0,0:0:0:0:
182,192,50402,128,0,50487:0:0:0:0:
402,192,50444,1,0,0:0:0:0:
256,192,50487,128,0,50572:0:0:0:0:
329,192,50572,128,0,50658:0:0:0:0:
109,192,50572,1,0,0:0:0:0:
182,192,50658,128,0,50743:0:0:0:0:
36,192,50701,1,0,0:0:0:0:
329,192,50743,128,0,50829:0:0:0:0:
475,192,50829,128,0,51855:0:0:0:0:
182,192,50829,1,0,0:0:0:0:
36,192,50957,1,0,0:0:0:0:
402,192,51053,128,0,51855:0:0:0:0:
182,192,51085,1,0,0:0:0:0:
329,192,51214,128,0,51855:0:0:0:0:
109,192,51214,1,0,0:0:0:0:
36,192,51855,1,0,0:0:0:0:
109,192,51855,1,0,0:0:0:0:
182,192,51897,1,0,0:0:0:0:
256,192,51940,1,0,0:0:0:0:
329,192,51983,1,0,0:0:0:0:
402,192,52025,1,0,0:0:0:0:
36,192,52025,128,0,52196:0:0:0:0:
475,192,52068,1,0,0:0:0:0:
182,192,52196,128,0,52282:0:0:0:0:
329,192,52282,128,0,52496:0:0:0:0:
256,192,52282,1,0,0:0:0:0:
475,192,52367,1,0,0:0:0:0:
182,192,52496,128,0,52752:0:0:0:0:
109,192,52496,1,0,0:0:0:0:
402,192,52624,1,0,0:0:0:0:
36,192,52752,1,0,0:0:0:0:
475,192,52752,128,0,53008:0:0:0:0:
256,192,52880,1,0,0:0:0:0:
36,192,53008,1,0,0:0:0:0:
182,192,53008,128,0,53137:0:0:0:0:
329,192,53137,128,0,53265:0:0:0:0:
256,192,53137,1,0,0:0:0:0:
475,192,53265,1,0,0:0:0:0:
36,192,53265,128,0,53649:0:0:0:0:
475,192,53393,1,0,0:0:0:0:
329,192,53521,1,0,0:0:0:0:
256,192,53564,1,0,0:0:0:0:
182,192,53607,1,0,0:0:0:0:
475,192,53649,1,0,0:0:0:0:
109,192,53649,128,0,53906:0:0:0:0:
256,192,53778,1,0,0:0:0:0:
329,192,53820,1,0,0:0:0:0:
402,192,53863,1,0,0:0:0:0:
182,192,53906,1,0,0:0:0:0:
36,192,53906,1,0,0:0:0:0:
475,192,53906,128,0,54290:0:0:0:0:
329,192,54034,1,0,0:0:0:0:
256,192,54077,1,0,0:0:0:0:
182,192,54120,1,0,0:0:0:0:
109,192,54162,1,0,0:0:0:0:
402,192,54205,1,0,0:0:0:0:
329,192,54248,1,0,0:0:0:0:
36,192,54290,128,0,54355:0:0:0:0:
256,192,54290,1,0,0:0:0:0:
109,192,54355,128,0,54419:0:0:0:0:
475,192,54419,1,0,0:0:0:0:
182,192,54419,128,0,54590:0:0:0:0:
402,192,54547,1,0,0:0:0:0:
256,192,54590,128,0,54761:0:0:0:0:
36,192,54675,1,0,0:0:0:0:
329,192,54761,128,0,54931:0:0:0:0:
109,192,54803,1,0,0:0:0:0:
475,192,54931,128,0,55102:0:0:0:0:
256,192,54931,1,0,0:0:0:0:
109,192,55060,1,0,0:0:0:0:
402,192,55102,128,0,55273:0:0:0:0:
182,192,55188,1,0,0:0:0:0:
329,192,55273,128,0,55444:0:0:0:0:
109,192,55316,1,0,0:0:0:0:
36,192,55444,128,0,55615:0:0:0:0:
182,192,55615,128,0,55786:0:0:0:0:
402,192,55701,1,0,0:0:0:0:
109,192,55786,128,0,55872:0:0:0:0:
402,192,55829,1,0,0:0:0:0:
36,192,55872,128,0,55957:0:0:0:0:
329,192,55957,128,0,56085:0:0:0:0:
256,192,55957,1,0,0:0:0:0:
475,192,55957,1,0,0:0:0:0:
402,192,56085,128,0,56214:0:0:0:0:
109,192,56085,1,0,0:0:0:0:
182,192,56128,1,0,0:0:0:0:
256,192,56171,1,0,0:0:0:0:
475,192,56214,128,0,56342:0:0:0:0:
36,192,56214,1,0,0:0:0:0:
109,192,56256,1,0,0:0:0:0:
182,192,56299,1,0,0:0:0:0:
329,192,56342,128,0,56598:0:0:0:0:
256,192,56342,1,0,0:0:0:0:
109,192,56470,1,0,0:0:0:0:
256,192,56598,128,0,56855:0:0:0:0:
36,192,56726,1,0,0:0:0:0:
36,192,56855,1,0,0:0:0:0:
475,192,56855,128,0,57111:0:0:0:0:
182,192,56983,1,0,0:0:0:0:
36,192,57111,1,0,0:0:0:0:
402,192,57111,128,0,57239:0:0:0:0:
329,192,57239,128,0,57367:0:0:0:0:
475,192,57367,1,0,0:0:0:0:
109,192,57367,128,0,57752:0:0:0:0:
475,192,57496,1,0,0:0:0:0:
182,192,57624,1,0,0:0:0:0:
256,192,57667,1,0,0:0:0:0:
329,192,57709,1,0,0:0:0:0:
475,192,57752,1,0,0:0:0:0:
36,192,57752,128,0,58008:0:0:0:0:
402,192,57880,1,0,0:0:0:0:
329,192,57923,1,0,0:0:0:0:
256,192,57966,1,0,0:0:0:0:
182,192,58008,1,0,0:0:0:0:
109,192,58008,128,0,58137:0:0:0:0:
475,192,58008,1,0,0:0:0:0:
402,192,58072,1,0,0:0:0:0:
256,192,58137,128,0,58265:0:0:0:0:
329,192,58137,1,0,0:0:0:0:
36,192,58201,1,0,0:0:0:0:
402,192,58265,128,0,58393:0:0:0:0:
182,192,58265,128,0,58350:0:0:0:0:
109,192,58350,128,0,58436:0:0:0:0:
475,192,58393,128,0,59034:0:0:0:0:
36,192,58436,128,0,58521:0:0:0:0:
256,192,58436,1,0,0:0:0:0:
329,192,58521,128,0,58607:0:0:0:0:
402,192,58521,1,0,0:0:0:0:
182,192,58607,128,0,58692:0:0:0:0:
36,192,58692,128,0,58778:0:0:0:0:
402,192,58778,128,0,58863:0:0:0:0:
329,192,58863,128,0,58949:0:0:0:0:
109,192,58906,1,0,0:0:0:0:
256,192,58949,128,0,59034:0:0:0:0:
402,192,59034,1,0,0:0:0:0:
36,192,59034,128,0,59675:0:0:0:0:
329,192,59162,1,0,0:0:0:0:
109,192,59226,128,0,59675:0:0:0:0:
402,192,59290,1,0,0:0:0:0:
182,192,59419,128,0,59675:0:0:0:0:
329,192,59419,1,0,0:0:0:0:
329,192,59675,128,0,59803:0:0:0:0:
402,192,59803,128,0,59931:0:0:0:0:
475,192,59931,128,0,60188:0:0:0:0:
182,192,60060,1,0,0:0:0:0:
109,192,60060,1,0,0:0:0:0:
256,192,60102,1,0,0:0:0:0:
329,192,60145,1,0,0:0:0:0:
402,192,60188,128,0,60444:0:0:0:0:
36,192,60188,1,0,0:0:0:0:
109,192,60231,1,0,0:0:0:0:
182,192,60273,1,0,0:0:0:0:
256,192,60316,1,0,0:0:0:0:
109,192,60444,128,0,60701:0:0:0:0:
329,192,60487,1,0,0:0:0:0:
475,192,60572,1,0,0:0:0:0:
402,192,60701,1,0,0:0:0:0:
329,192,60743,1,0,0:0:0:0:
182,192,60786,1,0,0:0:0:0:
36,192,60829,128,0,60957:0:0:0:0:
109,192,60957,1,0,0:0:0:0:
256,192,60957,128,0,61214:0:0:0:0:
402,192,61085,1,0,0:0:0:0:
475,192,61214,128,0,61470:0:0:0:0:
109,192,61214,1,0,0:0:0:0:
182,192,61342,1,0,0:0:0:0:
329,192,61470,1,0,0:0:0:0:
36,192,61470,128,0,61983:0:0:0:0:
329,192,61598,1,0,0:0:0:0:
182,192,61726,1,0,0:0:0:0:
256,192,61769,1,0,0:0:0:0:
329,192,61812,1,0,0:0:0:0:
402,192,61855,1,0,0:0:0:0:
329,192,61983,1,0,0:0:0:0:
256,192,62025,1,0,0:0:0:0:
182,192,62068,1,0,0:0:0:0:
475,192,62111,1,0,0:0:0:0:
36,192,62111,1,0,0:0:0:0:
109,192,62111,1,0,0:0:0:0:
256,192,62239,1,0,0:0:0:0:
329,192,62282,1,0,0:0:0:0:
402,192,62325,1,0,0:0:0:0:
182,192,62367,128,0,62453:0:0:0:0:
475,192,62367,1,0,0:0:0:0:
36,192,62453,128,0,62538:0:0:0:0:
329,192,62496,1,0,0:0:0:0:
109,192,62538,128,0,62624:0:0:0:0:
475,192,62624,1,0,0:0:0:0:
256,192,62624,128,0,62709:0:0:0:0:
109,192,62709,128,0,62795:0:0:0:0:
402,192,62752,1,0,0:0:0:0:
329,192,62795,128,0,62880:0:0:0:0:
182,192,62880,128,0,62966:0:0:0:0:
36,192,62880,1,0,0:0:0:0:
329,192,62966,128,0,63051:0:0:0:0:
109,192,63008,1,0,0:0:0:0:
256,192,63051,128,0,63137:0:0:0:0:
402,192,63137,128,0,63222:0:0:0:0:
36,192,63137,1,0,0:0:0:0:
256,192,63222,128,0,63308:0:0:0:0:
109,192,63265,1,0,0:0:0:0:
475,192,63308,128,0,63393:0:0:0:0:
329,192,63393,128,0,63478:0:0:0:0:
475,192,63478,128,0,63564:0:0:0:0:
109,192,63521,1,0,0:0:0:0:
256,192,63564,128,0,63649:0:0:0:0:
402,192,63649,128,0,63735:0:0:0:0:
256,192,63735,128,0,63820:0:0:0:0:
329,192,63820,128,0,63906:0:0:0:0:
36,192,63906,1,0,0:0:0:0:
182,192,63906,128,0,63991:0:0:0:0:
329,192,63991,128,0,64077:0:0:0:0:
36,192,64034,1,0,0:0:0:0:
402,192,64077,128,0,64162:0:0:0:0:
109,192,64162,1,0,0:0:0:0:
182,192,64162,1,0,0:0:0:0:
475,192,64162,128,0,64547:0:0:0:0:
329,192,64290,1,0,0:0:0:0:
256,192,64333,1,0,0:0:0:0:
182,192,64376,1,0,0:0:0:0:
109,192,64419,1,0,0:0:0:0:
402,192,64461,1,0,0:0:0:0:
329,192,64504,1,0,0:0:0:0:
36,192,64547,128,0,64611:0:0:0:0:
256,192,64547,1,0,0:0:0:0:
109,192,64611,128,0,64675:0:0:0:0:
475,192,64675,1,0,0:0:0:0:
182,192,64675,128,0,64803:0:0:0:0:
402,192,64803,128,0,64931:0:0:0:0:
36,192,64931,1,0,0:0:0:0:
256,192,64931,128,0,65060:0:0:0:0:
36,192,65060,1,0,0:0:0:0:
109,192,65060,128,0,65316:0:0:0:0:
402,192,65188,1,0,0:0:0:0:
182,192,65316,1,0,0:0:0:0:
329,192,65316,128,0,65444:0:0:0:0:
402,192,65444,128,0,65572:0:0:0:0:
256,192,65444,1,0,0:0:0:0:
182,192,65572,1,0,0:0:0:0:
475,192,65572,128,0,65701:0:0:0:0:
109,192,65701,1,0,0:0:0:0:
256,192,65701,1,0,0:0:0:0:
36,192,65701,1,0,0:0:0:0:
329,192,65701,1,0,0:0:0:0:
182,192,65872,1,0,0:0:0:0:
402,192,65872,1,0,0:0:0:0:
475,192,65872,1,0,0:0:0:0:
256,192,65872,1,0,0:0:0:0:
329,192,66043,1,0,0:0:0:0:
182,192,66043,1,0,0:0:0:0:
36,192,66043,1,0,0:0:0:0:
402,192,66128,1,0,0:0:0:0:
256,192,66128,1,0,0:0:0:0:
36,192,66214,1,0,0:0:0:0:
329,192,66214,1,0,0:0:0:0:
475,192,66214,1,0,0:0:0:0:
109,192,66214,1,0,0:0:0:0:
402,192,66299,1,0,0:0:0:0:
182,192,66342,1,0,0:0:0:0:
109,192,66342,1,0,0:0:0:0:
329,192,66384,1,0,0:0:0:0:
36,192,66470,1,0,0:0:0:0:
256,192,66470,1,0,0:0:0:0:
402,192,66534,1,0,0:0:0:0:
475,192,66534,1,0,0:0:0:0:
109,192,66534,1,0,0:0:0:0:
182,192,66598,1,0,0:0:0:0:
36,192,66726,1,0,0:0:0:0:
475,192,66726,1,0,0:0:0:0:
329,192,66726,1,0,0:0:0:0:
402,192,66855,1,0,0:0:0:0:
109,192,66855,1,0,0:0:0:0:
256,192,66855,1,0,0:0:0:0:
182,192,66983,1,0,0:0:0:0:
36,192,66983,1,0,0:0:0:0:
475,192,66983,1,0,0:0:0:0:
402,192,67111,1,0,0:0:0:0:
109,192,67111,1,0,0:0:0:0:
256,192,67111,1,0,0:0:0:0:
329,192,67239,1,0,0:0:0:0:
36,192,67239,1,0,0:0:0:0:
475,192,67239,1,0,0:0:0:0:
256,192,67367,1,0,0:0:0:0:
402,192,67367,1,0,0:0:0:0:
109,192,67367,1,0,0:0:0:0:
182,192,67431,1,0,0:0:0:0:
475,192,67496,1,0,0:0:0:0:
36,192,67496,1,0,0:0:0:0:
329,192,67496,1,0,0:0:0:0:
256,192,67624,1,0,0:0:0:0:
109,192,67752,1,0,0:0:0:0:
402,192,67752,1,0,0:0:0:0:
329,192,67752,1,0,0:0:0:0:
182,192,67752,1,0,0:0:0:0:
109,192,67944,1,0,0:0:0:0:
402,192,67944,1,0,0:0:0:0:
329,192,67944,1,0,0:0:0:0:
182,192,67944,1,0,0:0:0:0:
109,192,68137,1,0,0:0:0:0:
402,192,68137,1,0,0:0:0:0:
329,192,68137,1,0,0:0:0:0:
182,192,68137,1,0,0:0:0:0:
36,192,68265,1,0,0:0:0:0:
475,192,68265,1,0,0:0:0:0:
256,192,68265,1,0,0:0:0:0:
109,192,68393,1,0,0:0:0:0:
329,192,68393,1,0,0:0:0:0:
182,192,68457,1,0,0:0:0:0:
402,192,68457,1,0,0:0:0:0:
475,192,68521,1,0,0:0:0:0:
36,192,68521,1,0,0:0:0:0:
256,192,68521,1,0,0:0:0:0:
182,192,68649,1,0,0:0:0:0:
256,192,68778,1,0,0:0:0:0:
36,192,68778,1,0,0:0:0:0:
109,192,68778,1,0,0:0:0:0:
475,192,68842,1,0,0:0:0:0:
402,192,68842,1,0,0:0:0:0:
182,192,68970,1,0,0:0:0:0:
329,192,68970,1,0,0:0:0:0:
109,192,68970,1,0,0:0:0:0:
256,192,69098,1,0,0:0:0:0:
402,192,69098,1,0,0:0:0:0:
182,192,69162,1,0,0:0:0:0:
36,192,69162,1,0,0:0:0:0:
475,192,69226,1,0,0:0:0:0:
329,192,69226,1,0,0:0:0:0:
109,192,69290,1,0,0:0:0:0:
256,192,69290,1,0,0:0:0:0:
36,192,69290,1,0,0:0:0:0:
182,192,69419,1,0,0:0:0:0:
402,192,69483,1,0,0:0:0:0:
475,192,69483,1,0,0:0:0:0:
329,192,69547,1,0,0:0:0:0:
109,192,69547,1,0,0:0:0:0:
36,192,69547,1,0,0:0:0:0:
256,192,69675,1,0,0:0:0:0:
329,192,69803,1,0,0:0:0:0:
475,192,69803,1,0,0:0:0:0:
402,192,69803,1,0,0:0:0:0:
182,192,69867,1,0,0:0:0:0:
36,192,69867,1,0,0:0:0:0:
402,192,69931,1,0,0:0:0:0:
256,192,69931,1,0,0:0:0:0:
109,192,69996,1,0,0:0:0:0:
475,192,69996,1,0,0:0:0:0:
329,192,70060,1,0,0:0:0:0:
182,192,70060,1,0,0:0:0:0:
256,192,70060,1,0,0:0:0:0:
109,192,70188,1,0,0:0:0:0:
402,192,70252,1,0,0:0:0:0:
329,192,70252,1,0,0:0:0:0:
475,192,70252,1,0,0:0:0:0:
36,192,70316,5,0,0:0:0:0:
109,192,70358,5,0,0:0:0:0:
182,192,70401,5,0,0:0:0:0:
256,192,70444,1,0,0:0:0:0:
475,192,70486,5,0,0:0:0:0:
402,192,70486,1,0,0:0:0:0:
109,192,70572,5,0,0:0:0:0:
36,192,70572,5,0,0:0:0:0:
329,192,70572,1,0,0:0:0:0:
256,192,70700,1,0,0:0:0:0:
109,192,70764,1,0,0:0:0:0:
36,192,70764,1,0,0:0:0:0:
475,192,70828,1,0,0:0:0:0:
182,192,70828,1,0,0:0:0:0:
402,192,70828,1,0,0:0:0:0:
182,192,70957,1,0,0:0:0:0:
256,192,70957,1,0,0:0:0:0:
109,192,70957,1,0,0:0:0:0:
402,192,71085,1,0,0:0:0:0:
329,192,71085,1,0,0:0:0:0:
475,192,71085,1,0,0:0:0:0:
109,192,71149,1,0,0:0:0:0:
36,192,71149,1,0,0:0:0:0:
329,192,71213,1,0,0:0:0:0:
256,192,71213,1,0,0:0:0:0:
402,192,71298,1,0,0:0:0:0:
182,192,71298,1,0,0:0:0:0:
475,192,71298,1,0,0:0:0:0:
329,192,71384,1,0,0:0:0:0:
109,192,71384,1,0,0:0:0:0:
36,192,71384,1,0,0:0:0:0:
256,192,71469,1,0,0:0:0:0:
182,192,71469,1,0,0:0:0:0:
475,192,71533,1,0,0:0:0:0:
402,192,71533,1,0,0:0:0:0:
182,192,71598,1,0,0:0:0:0:
109,192,71598,1,0,0:0:0:0:
36,192,71598,1,0,0:0:0:0:
402,192,71768,1,0,0:0:0:0:
256,192,71768,1,0,0:0:0:0:
475,192,71768,1,0,0:0:0:0:
329,192,71854,1,0,0:0:0:0:
36,192,71854,1,0,0:0:0:0:
182,192,71854,1,0,0:0:0:0:
402,192,72025,1,0,0:0:0:0:
329,192,72025,1,0,0:0:0:0:
256,192,72025,1,0,0:0:0:0:
36,192,72110,1,0,0:0:0:0:
109,192,72110,1,0,0:0:0:0:
182,192,72110,1,0,0:0:0:0:
475,192,72174,1,0,0:0:0:0:
402,192,72174,1,0,0:0:0:0:
329,192,72239,1,0,0:0:0:0:
256,192,72239,1,0,0:0:0:0:
36,192,72281,1,0,0:0:0:0:
109,192,72324,1,0,0:0:0:0:
182,192,72367,1,0,0:0:0:0:
475,192,72367,1,0,0:0:0:0:
402,192,72367,1,0,0:0:0:0:
329,192,72495,1,0,0:0:0:0:
36,192,72495,1,0,0:0:0:0:
109,192,72495,1,0,0:0:0:0:
475,192,72623,1,0,0:0:0:0:
256,192,72623,1,0,0:0:0:0:
402,192,72623,1,0,0:0:0:0:
182,192,72751,1,0,0:0:0:0:
475,192,72880,1,0,0:0:0:0:
109,192,72880,1,0,0:0:0:0:
36,192,72880,1,0,0:0:0:0:
402,192,72912,1,0,0:0:0:0:
329,192,72944,1,0,0:0:0:0:
182,192,73008,1,0,0:0:0:0:
36,192,73136,1,0,0:0:0:0:
109,192,73168,1,0,0:0:0:0:
182,192,73200,1,0,0:0:0:0:
256,192,73232,1,0,0:0:0:0:
329,192,73264,1,0,0:0:0:0:
475,192,73328,1,0,0:0:0:0:
182,192,73392,1,0,0:0:0:0:
36,192,73392,1,0,0:0:0:0:
109,192,73392,1,0,0:0:0:0:
256,192,73521,1,0,0:0:0:0:
475,192,73649,1,0,0:0:0:0:
402,192,73649,1,0,0:0:0:0:
329,192,73649,1,0,0:0:0:0:
182,192,73745,1,0,0:0:0:0:
256,192,73777,1,0,0:0:0:0:
329,192,73809,1,0,0:0:0:0:
36,192,73905,1,0,0:0:0:0:
182,192,73905,1,0,0:0:0:0:
109,192,73905,1,0,0:0:0:0:
475,192,74033,1,0,0:0:0:0:
402,192,74033,1,0,0:0:0:0:
329,192,74033,1,0,0:0:0:0:
109,192,74162,1,0,0:0:0:0:
36,192,74290,1,0,0:0:0:0:
256,192,74290,1,0,0:0:0:0:
475,192,74290,1,0,0:0:0:0:
402,192,74375,1,0,0:0:0:0:
182,192,74375,1,0,0:0:0:0:
109,192,74461,1,0,0:0:0:0:
329,192,74461,1,0,0:0:0:0:
256,192,74546,1,0,0:0:0:0:
36,192,74546,1,0,0:0:0:0:
402,192,74610,1,0,0:0:0:0:
475,192,74610,1,0,0:0:0:0:
182,192,74674,1,0,0:0:0:0:
329,192,74674,1,0,0:0:0:0:
109,192,74674,1,0,0:0:0:0:
475,192,74803,1,0,0:0:0:0:
182,192,74931,1,0,0:0:0:0:
109,192,74931,1,0,0:0:0:0:
256,192,74982,1,0,0:0:0:0:
329,192,74982,1,0,0:0:0:0:
402,192,75033,1,0,0:0:0:0:
475,192,75033,1,0,0:0:0:0:
36,192,75085,1,0,0:0:0:0:
109,192,75085,1,0,0:0:0:0:
182,192,75136,1,0,0:0:0:0:
256,192,75136,1,0,0:0:0:0:
329,192,75187,1,0,0:0:0:0:
402,192,75187,1,0,0:0:0:0:
109,192,75315,1,0,0:0:0:0:
36,192,75315,1,0,0:0:0:0:
182,192,75315,1,0,0:0:0:0:
475,192,75444,1,0,0:0:0:0:
402,192,75444,1,0,0:0:0:0:
182,192,75444,1,0,0:0:0:0:
329,192,75572,1,0,0:0:0:0:
36,192,75636,1,0,0:0:0:0:
109,192,75636,1,0,0:0:0:0:
475,192,75700,1,0,0:0:0:0:
256,192,75700,1,0,0:0:0:0:
402,192,75700,1,0,0:0:0:0:
329,192,75828,1,0,0:0:0:0:
36,192,75892,1,0,0:0:0:0:
109,192,75924,1,0,0:0:0:0:
182,192,75956,1,0,0:0:0:0:
402,192,75956,1,0,0:0:0:0:
475,192,75956,1,0,0:0:0:0:
329,192,76127,1,0,0:0:0:0:
256,192,76127,1,0,0:0:0:0:
36,192,76127,1,0,0:0:0:0:
475,192,76213,1,0,0:0:0:0:
402,192,76213,1,0,0:0:0:0:
182,192,76213,1,0,0:0:0:0:
109,192,76277,1,0,0:0:0:0:
36,192,76277,1,0,0:0:0:0:
329,192,76277,1,0,0:0:0:0:
402,192,76384,1,0,0:0:0:0:
256,192,76384,1,0,0:0:0:0:
475,192,76384,1,0,0:0:0:0:
182,192,76469,1,0,0:0:0:0:
36,192,76469,1,0,0:0:0:0:
109,192,76469,1,0,0:0:0:0:
329,192,76597,1,0,0:0:0:0:
256,192,76726,1,0,0:0:0:0:
36,192,76726,1,0,0:0:0:0:
475,192,76726,1,0,0:0:0:0:
109,192,76790,1,0,0:0:0:0:
402,192,76790,1,0,0:0:0:0:
182,192,76854,1,0,0:0:0:0:
329,192,76854,1,0,0:0:0:0:
256,192,76982,1,0,0:0:0:0:
402,192,76982,1,0,0:0:0:0:
475,192,76982,1,0,0:0:0:0:
182,192,77078,1,0,0:0:0:0:
109,192,77078,1,0,0:0:0:0:
329,192,77174,1,0,0:0:0:0:
402,192,77174,1,0,0:0:0:0:
182,192,77271,1,0,0:0:0:0:
256,192,77271,1,0,0:0:0:0:
36,192,77271,1,0,0:0:0:0:
475,192,77367,1,0,0:0:0:0:
402,192,77367,1,0,0:0:0:0:
109,192,77431,1,0,0:0:0:0:
36,192,77431,1,0,0:0:0:0:
475,192,77495,1,0,0:0:0:0:
329,192,77495,1,0,0:0:0:0:
256,192,77495,1,0,0:0:0:0:
109,192,77623,1,0,0:0:0:0:
182,192,77751,1,0,0:0:0:0:
402,192,77751,1,0,0:0:0:0:
256,192,77751,1,0,0:0:0:0:
109,192,77847,1,0,0:0:0:0:
36,192,77847,1,0,0:0:0:0:
475,192,77912,1,0,0:0:0:0:
402,192,77912,1,0,0:0:0:0:
256,192,78008,1,0,0:0:0:0:
329,192,78008,1,0,0:0:0:0:
109,192,78008,1,0,0:0:0:0:
475,192,78136,1,0,0:0:0:0:
182,192,78136,1,0,0:0:0:0:
402,192,78136,1,0,0:0:0:0:
36,192,78264,1,0,0:0:0:0:
256,192,78264,1,0,0:0:0:0:
109,192,78264,1,0,0:0:0:0:
402,192,78328,1,0,0:0:0:0:
329,192,78328,1,0,0:0:0:0:
109,192,78424,1,0,0:0:0:0:
182,192,78424,1,0,0:0:0:0:
402,192,78521,1,0,0:0:0:0:
475,192,78521,1,0,0:0:0:0:
329,192,78521,1,0,0:0:0:0:
182,192,78585,1,0,0:0:0:0:
256,192,78585,1,0,0:0:0:0:
36,192,78649,1,0,0:0:0:0:
109,192,78649,1,0,0:0:0:0:
402,192,78713,1,0,0:0:0:0:
475,192,78713,1,0,0:0:0:0:
36,192,78841,1,0,0:0:0:0:
109,192,78841,1,0,0:0:0:0:
182,192,78841,1,0,0:0:0:0:
329,192,78905,1,0,0:0:0:0:
256,192,78905,1,0,0:0:0:0:
402,192,78969,1,0,0:0:0:0:
475,192,78969,1,0,0:0:0:0:
36,192,79033,1,0,0:0:0:0:
109,192,79033,1,0,0:0:0:0:
256,192,79097,1,0,0:0:0:0:
182,192,79097,1,0,0:0:0:0:
475,192,79194,1,0,0:0:0:0:
402,192,79194,1,0,0:0:0:0:
329,192,79194,1,0,0:0:0:0:
36,192,79258,1,0,0:0:0:0:
109,192,79258,1,0,0:0:0:0:
329,192,79354,1,0,0:0:0:0:
256,192,79386,1,0,0:0:0:0:
182,192,79418,1,0,0:0:0:0:
402,192,79482,1,0,0:0:0:0:
475,192,79482,1,0,0:0:0:0:
36,192,79546,1,0,0:0:0:0:
109,192,79589,1,0,0:0:0:0:
182,192,79632,1,0,0:0:0:0:
256,192,79674,1,0,0:0:0:0:
402,192,79717,1,0,0:0:0:0:
475,192,79760,1,0,0:0:0:0:
36,192,79803,1,0,0:0:0:0:
109,192,79839,1,0,0:0:0:0:
182,192,79876,1,0,0:0:0:0:
329,192,79912,1,0,0:0:0:0:
402,192,79949,1,0,0:0:0:0:
475,192,79986,1,0,0:0:0:0:
256,192,80022,1,0,0:0:0:0:
182,192,80059,1,0,0:0:0:0:
109,192,80096,1,0,0:0:0:0:
36,192,80132,1,0,0:0:0:0:
402,192,80169,1,0,0:0:0:0:
329,192,80206,1,0,0:0:0:0:
256,192,80242,1,0,0:0:0:0:
182,192,80279,1,0,0:0:0:0:
109,192,80315,1,0,0:0:0:0:
475,192,80347,1,0,0:0:0:0:
402,192,80379,1,0,0:0:0:0:
329,192,80412,1,0,0:0:0:0:
256,192,80444,1,0,0:0:0:0:
182,192,80476,1,0,0:0:0:0:
109,192,80508,1,0,0:0:0:0:
36,192,80540,1,0,0:0:0:0:
475,192,80572,128,0,80956:0:0:0:0:
402,192,80572,1,0,0:0:0:0:
329,192,80572,1,0,0:0:0:0:
329,192,80956,128,0,81597:0:0:0:0:
402,192,80956,1,0,0:0:0:0:
256,192,81213,1,0,0:0:0:0:
182,192,81277,1,0,0:0:0:0:
36,192,81341,1,0,0:0:0:0:
109,192,81405,1,0,0:0:0:0:
256,192,81469,1,0,0:0:0:0:
182,192,81533,1,0,0:0:0:0:
475,192,81597,1,0,0:0:0:0:
36,192,81597,128,0,81982:0:0:0:0:
109,192,81597,1,0,0:0:0:0:
256,192,81725,1,0,0:0:0:0:
402,192,81854,1,0,0:0:0:0:
182,192,81982,128,0,82623:0:0:0:0:
109,192,81982,1,0,0:0:0:0:
256,192,82238,1,0,0:0:0:0:
329,192,82302,1,0,0:0:0:0:
475,192,82366,1,0,0:0:0:0:
402,192,82430,1,0,0:0:0:0:
256,192,82495,1,0,0:0:0:0:
329,192,82559,1,0,0:0:0:0:
475,192,82623,128,0,83007:0:0:0:0:
36,192,82623,1,0,0:0:0:0:
402,192,82623,1,0,0:0:0:0:
256,192,82687,1,0,0:0:0:0:
109,192,82751,1,0,0:0:0:0:
329,192,82815,1,0,0:0:0:0:
182,192,82879,1,0,0:0:0:0:
256,192,83007,128,0,83648:0:0:0:0:
402,192,83007,1,0,0:0:0:0:
36,192,83007,1,0,0:0:0:0:
109,192,83264,1,0,0:0:0:0:
475,192,83392,1,0,0:0:0:0:
402,192,83456,1,0,0:0:0:0:
329,192,83520,1,0,0:0:0:0:
36,192,83648,128,0,83905:0:0:0:0:
329,192,83777,1,0,0:0:0:0:
256,192,83841,1,0,0:0:0:0:
475,192,83905,1,0,0:0:0:0:
402,192,83969,1,0,0:0:0:0:
36,192,84033,128,0,84418:0:0:0:0:
256,192,84033,1,0,0:0:0:0:
329,192,84097,1,0,0:0:0:0:
109,192,84161,1,0,0:0:0:0:
182,192,84225,1,0,0:0:0:0:
329,192,84289,1,0,0:0:0:0:
256,192,84354,1,0,0:0:0:0:
475,192,84418,128,0,84674:0:0:0:0:
182,192,84418,1,0,0:0:0:0:
402,192,84418,1,0,0:0:0:0:
109,192,84546,1,0,0:0:0:0:
36,192,84674,1,0,0:0:0:0:
402,192,84674,128,0,85059:0:0:0:0:
329,192,84674,1,0,0:0:0:0:
182,192,85059,1,0,0:0:0:0:
329,192,85059,128,0,85700:0:0:0:0:
256,192,85059,1,0,0:0:0:0:
36,192,85315,1,0,0:0:0:0:
109,192,85379,1,0,0:0:0:0:
182,192,85443,1,0,0:0:0:0:
475,192,85571,1,0,0:0:0:0:
182,192,85700,128,0,86084:0:0:0:0:
109,192,85700,1,0,0:0:0:0:
256,192,85700,1,0,0:0:0:0:
475,192,85828,1,0,0:0:0:0:
402,192,85956,1,0,0:0:0:0:
329,192,86084,1,0,0:0:0:0:
109,192,86084,128,0,86725:0:0:0:0:
36,192,86084,1,0,0:0:0:0:
402,192,86341,1,0,0:0:0:0:
329,192,86405,1,0,0:0:0:0:
256,192,86469,1,0,0:0:0:0:
402,192,86597,1,0,0:0:0:0:
475,192,86725,1,0,0:0:0:0:
36,192,86725,128,0,87751:0:0:0:0:
182,192,86725,1,0,0:0:0:0:
329,192,87110,1,0,0:0:0:0:
402,192,87238,1,0,0:0:0:0:
256,192,87366,1,0,0:0:0:0:
329,192,87495,1,0,0:0:0:0:
182,192,87623,1,0,0:0:0:0:
329,192,87687,1,0,0:0:0:0:
475,192,87751,1,0,0:0:0:0:
109,192,87751,1,0,0:0:0:0:
256,192,87879,1,0,0:0:0:0:
329,192,88007,1,0,0:0:0:0:
402,192,88136,1,0,0:0:0:0:
475,192,88136,128,0,88777:0:0:0:0:
36,192,88136,1,0,0:0:0:0:
256,192,88392,1,0,0:0:0:0:
182,192,88456,1,0,0:0:0:0:
109,192,88520,1,0,0:0:0:0:
329,192,88584,1,0,0:0:0:0:
256,192,88648,1,0,0:0:0:0:
109,192,88713,1,0,0:0:0:0:
402,192,88777,1,0,0:0:0:0:
36,192,88777,1,0,0:0:0:0:
329,192,88777,128,0,89161:0:0:0:0:
182,192,88905,1,0,0:0:0:0:
36,192,89033,1,0,0:0:0:0:
475,192,89161,128,0,89802:0:0:0:0:
256,192,89161,1,0,0:0:0:0:
109,192,89161,1,0,0:0:0:0:
36,192,89289,1,0,0:0:0:0:
402,192,89418,1,0,0:0:0:0:
329,192,89482,1,0,0:0:0:0:
36,192,89546,1,0,0:0:0:0:
182,192,89546,1,0,0:0:0:0:
256,192,89610,1,0,0:0:0:0:
402,192,89674,1,0,0:0:0:0:
329,192,89738,1,0,0:0:0:0:
36,192,89802,1,0,0:0:0:0:
182,192,89802,128,0,90187:0:0:0:0:
402,192,89930,1,0,0:0:0:0:
475,192,90059,1,0,0:0:0:0:
36,192,90187,128,0,90828:0:0:0:0:
256,192,90187,1,0,0:0:0:0:
109,192,90187,1,0,0:0:0:0:
475,192,90315,1,0,0:0:0:0:
402,192,90315,1,0,0:0:0:0:
109,192,90443,1,0,0:0:0:0:
182,192,90507,1,0,0:0:0:0:
329,192,90571,1,0,0:0:0:0:
475,192,90571,1,0,0:0:0:0:
256,192,90636,1,0,0:0:0:0:
109,192,90700,1,0,0:0:0:0:
182,192,90764,1,0,0:0:0:0:
475,192,90828,128,0,91213:0:0:0:0:
329,192,90828,1,0,0:0:0:0:
402,192,90828,1,0,0:0:0:0:
256,192,90892,1,0,0:0:0:0:
109,192,90956,1,0,0:0:0:0:
182,192,91020,1,0,0:0:0:0:
329,192,91084,1,0,0:0:0:0:
256,192,91213,1,0,0:0:0:0:
36,192,91213,128,0,91854:0:0:0:0:
109,192,91213,1,0,0:0:0:0:
402,192,91341,1,0,0:0:0:0:
182,192,91469,1,0,0:0:0:0:
475,192,91597,1,0,0:0:0:0:
402,192,91661,1,0,0:0:0:0:
329,192,91725,1,0,0:0:0:0:
475,192,91854,128,0,92110:0:0:0:0:
109,192,91854,1,0,0:0:0:0:
256,192,91982,1,0,0:0:0:0:
182,192,92046,1,0,0:0:0:0:
36,192,92110,1,0,0:0:0:0:
109,192,92174,1,0,0:0:0:0:
475,192,92238,128,0,92623:0:0:0:0:
256,192,92238,1,0,0:0:0:0:
329,192,92302,1,0,0:0:0:0:
182,192,92366,1,0,0:0:0:0:
109,192,92430,1,0,0:0:0:0:
402,192,92495,1,0,0:0:0:0:
329,192,92559,1,0,0:0:0:0:
36,192,92623,1,0,0:0:0:0:
256,192,92623,128,0,92879:0:0:0:0:
182,192,92623,1,0,0:0:0:0:
109,192,92751,1,0,0:0:0:0:
36,192,92879,1,0,0:0:0:0:
402,192,92879,128,0,93264:0:0:0:0:
329,192,92879,1,0,0:0:0:0:
182,192,93007,1,0,0:0:0:0:
36,192,93136,1,0,0:0:0:0:
182,192,93264,1,0,0:0:0:0:
329,192,93264,128,0,93905:0:0:0:0:
475,192,93264,1,0,0:0:0:0:
36,192,93392,1,0,0:0:0:0:
182,192,93520,1,0,0:0:0:0:
402,192,93584,1,0,0:0:0:0:
475,192,93600,1,0,0:0:0:0:
36,192,93648,1,0,0:0:0:0:
256,192,93777,1,0,0:0:0:0:
475,192,93905,1,0,0:0:0:0:
182,192,93905,128,0,94289:0:0:0:0:
36,192,93905,1,0,0:0:0:0:
329,192,94033,1,0,0:0:0:0:
475,192,94161,1,0,0:0:0:0:
109,192,94289,128,0,94930:0:0:0:0:
329,192,94289,1,0,0:0:0:0:
36,192,94289,1,0,0:0:0:0:
475,192,94418,1,0,0:0:0:0:
329,192,94546,1,0,0:0:0:0:
475,192,94674,1,0,0:0:0:0:
182,192,94802,1,0,0:0:0:0:
256,192,94834,1,0,0:0:0:0:
329,192,94866,1,0,0:0:0:0:
402,192,94898,1,0,0:0:0:0:
475,192,94930,1,0,0:0:0:0:
256,192,95187,128,0,96982:0:0:0:0:
402,192,96982,1,0,0:0:0:0:
475,192,96982,1,0,0:0:0:0:
109,192,96982,1,0,0:0:0:0:
36,192,96982,1,0,0:0:0:0:
329,192,96982,1,0,0:0:0:0:
182,192,97110,1,0,0:0:0:0:
256,192,97174,1,0,0:0:0:0:
329,192,97238,1,0,0:0:0:0:
109,192,97238,1,0,0:0:0:0:
402,192,97302,1,0,0:0:0:0:
475,192,97366,1,0,0:0:0:0:
36,192,97366,1,0,0:0:0:0:
182,192,97366,1,0,0:0:0:0:
256,192,97366,1,0,0:0:0:0:
109,192,97366,1,0,0:0:0:0:
329,192,97495,1,0,0:0:0:0:
256,192,97559,1,0,0:0:0:0:
182,192,97623,1,0,0:0:0:0:
402,192,97623,1,0,0:0:0:0:
109,192,97687,1,0,0:0:0:0:
36,192,97751,1,0,0:0:0:0:
329,192,97751,1,0,0:0:0:0:
475,192,97751,1,0,0:0:0:0:
402,192,97751,1,0,0:0:0:0:
256,192,97815,1,0,0:0:0:0:
182,192,97879,1,0,0:0:0:0:
36,192,98007,1,0,0:0:0:0:
475,192,98007,1,0,0:0:0:0:
109,192,98007,1,0,0:0:0:0:
256,192,98007,1,0,0:0:0:0:
329,192,98007,1,0,0:0:0:0:
402,192,98136,1,0,0:0:0:0:
329,192,98200,1,0,0:0:0:0:
36,192,98264,1,0,0:0:0:0:
256,192,98264,1,0,0:0:0:0:
109,192,98328,1,0,0:0:0:0:
329,192,98392,1,0,0:0:0:0:
256,192,98392,1,0,0:0:0:0:
402,192,98392,1,0,0:0:0:0:
475,192,98392,1,0,0:0:0:0:
182,192,98392,1,0,0:0:0:0:
109,192,98520,1,0,0:0:0:0:
182,192,98584,1,0,0:0:0:0:
329,192,98648,1,0,0:0:0:0:
402,192,98648,1,0,0:0:0:0:
475,192,98648,1,0,0:0:0:0:
36,192,98648,1,0,0:0:0:0:
475,192,98777,1,0,0:0:0:0:
402,192,98777,1,0,0:0:0:0:
329,192,98777,1,0,0:0:0:0:
36,192,98777,1,0,0:0:0:0:
256,192,98841,1,0,0:0:0:0:
182,192,98905,1,0,0:0:0:0:
256,192,99033,1,0,0:0:0:0:
402,192,99033,1,0,0:0:0:0:
36,192,99033,1,0,0:0:0:0:
109,192,99033,1,0,0:0:0:0:
475,192,99033,1,0,0:0:0:0:
329,192,99161,1,0,0:0:0:0:
402,192,99225,1,0,0:0:0:0:
475,192,99289,1,0,0:0:0:0:
109,192,99289,1,0,0:0:0:0:
182,192,99354,1,0,0:0:0:0:
402,192,99418,1,0,0:0:0:0:
475,192,99418,1,0,0:0:0:0:
256,192,99418,1,0,0:0:0:0:
36,192,99418,1,0,0:0:0:0:
329,192,99418,1,0,0:0:0:0:
182,192,99546,1,0,0:0:0:0:
109,192,99610,1,0,0:0:0:0:
36,192,99674,1,0,0:0:0:0:
402,192,99674,1,0,0:0:0:0:
329,192,99738,1,0,0:0:0:0:
109,192,99802,1,0,0:0:0:0:
256,192,99802,1,0,0:0:0:0:
36,192,99802,1,0,0:0:0:0:
475,192,99802,1,0,0:0:0:0:
402,192,99866,1,0,0:0:0:0:
182,192,99930,1,0,0:0:0:0:
329,192,100059,1,0,0:0:0:0:
475,192,100059,1,0,0:0:0:0:
402,192,100059,1,0,0:0:0:0:
36,192,100059,1,0,0:0:0:0:
256,192,100187,1,0,0:0:0:0:
329,192,100251,1,0,0:0:0:0:
36,192,100315,1,0,0:0:0:0:
182,192,100315,1,0,0:0:0:0:
475,192,100315,1,0,0:0:0:0:
402,192,100315,1,0,0:0:0:0:
256,192,100379,1,0,0:0:0:0:
109,192,100443,1,0,0:0:0:0:
182,192,100507,1,0,0:0:0:0:
475,192,100571,1,0,0:0:0:0:
36,192,100571,1,0,0:0:0:0:
329,192,100571,1,0,0:0:0:0:
256,192,100636,1,0,0:0:0:0:
402,192,100700,1,0,0:0:0:0:
36,192,100764,1,0,0:0:0:0:
109,192,100764,1,0,0:0:0:0:
329,192,100764,1,0,0:0:0:0:
475,192,100828,1,0,0:0:0:0:
182,192,100828,1,0,0:0:0:0:
256,192,100892,1,0,0:0:0:0:
329,192,100956,1,0,0:0:0:0:
109,192,100956,1,0,0:0:0:0:
402,192,100956,1,0,0:0:0:0:
182,192,101020,1,0,0:0:0:0:
256,192,101084,1,0,0:0:0:0:
36,192,101084,1,0,0:0:0:0:
475,192,101084,1,0,0:0:0:0:
402,192,101084,1,0,0:0:0:0:
329,192,101084,1,0,0:0:0:0:
182,192,101213,1,0,0:0:0:0:
109,192,101277,1,0,0:0:0:0:
402,192,101341,1,0,0:0:0:0:
36,192,101341,1,0,0:0:0:0:
329,192,101405,1,0,0:0:0:0:
182,192,101469,1,0,0:0:0:0:
109,192,101469,1,0,0:0:0:0:
402,192,101469,1,0,0:0:0:0:
475,192,101469,1,0,0:0:0:0:
256,192,101469,1,0,0:0:0:0:
329,192,101597,1,0,0:0:0:0:
402,192,101661,1,0,0:0:0:0:
475,192,101725,1,0,0:0:0:0:
109,192,101725,1,0,0:0:0:0:
182,192,101789,1,0,0:0:0:0:
109,192,101854,1,0,0:0:0:0:
256,192,101854,1,0,0:0:0:0:
36,192,101854,1,0,0:0:0:0:
329,192,101854,1,0,0:0:0:0:
402,192,101918,1,0,0:0:0:0:
182,192,101982,1,0,0:0:0:0:
36,192,102110,1,0,0:0:0:0:
475,192,102110,1,0,0:0:0:0:
109,192,102110,1,0,0:0:0:0:
402,192,102110,1,0,0:0:0:0:
329,192,102110,1,0,0:0:0:0:
256,192,102238,1,0,0:0:0:0:
182,192,102302,1,0,0:0:0:0:
402,192,102366,1,0,0:0:0:0:
109,192,102366,1,0,0:0:0:0:
329,192,102430,1,0,0:0:0:0:
256,192,102495,1,0,0:0:0:0:
182,192,102495,1,0,0:0:0:0:
475,192,102495,1,0,0:0:0:0:
402,192,102495,1,0,0:0:0:0:
36,192,102495,1,0,0:0:0:0:
329,192,102623,1,0,0:0:0:0:
256,192,102687,1,0,0:0:0:0:
402,192,102751,1,0,0:0:0:0:
109,192,102751,1,0,0:0:0:0:
36,192,102751,1,0,0:0:0:0:
475,192,102751,1,0,0:0:0:0:
36,192,102879,1,0,0:0:0:0:
109,192,102879,1,0,0:0:0:0:
402,192,102879,1,0,0:0:0:0:
475,192,102879,1,0,0:0:0:0:
256,192,102943,1,0,0:0:0:0:
182,192,103007,1,0,0:0:0:0:
36,192,103136,1,0,0:0:0:0:
475,192,103136,1,0,0:0:0:0:
329,192,103136,1,0,0:0:0:0:
402,192,103136,1,0,0:0:0:0:
256,192,103136,1,0,0:0:0:0:
109,192,103200,1,0,0:0:0:0:
182,192,103264,1,0,0:0:0:0:
256,192,103328,1,0,0:0:0:0:
329,192,103392,1,0,0:0:0:0:
402,192,103456,1,0,0:0:0:0:
475,192,103520,1,0,0:0:0:0:
109,192,103520,1,0,0:0:0:0:
182,192,103520,1,0,0:0:0:0:
36,192,103520,1,0,0:0:0:0:
402,192,103584,1,0,0:0:0:0:
329,192,103648,1,0,0:0:0:0:
256,192,103713,1,0,0:0:0:0:
182,192,103777,1,0,0:0:0:0:
109,192,103841,1,0,0:0:0:0:
36,192,103905,1,0,0:0:0:0:
402,192,103905,1,0,0:0:0:0:
329,192,103905,1,0,0:0:0:0:
475,192,103905,1,0,0:0:0:0:
109,192,103969,1,0,0:0:0:0:
182,192,104033,1,0,0:0:0:0:
256,192,104097,1,0,0:0:0:0:
402,192,104161,1,0,0:0:0:0:
475,192,104161,1,0,0:0:0:0:
36,192,104161,1,0,0:0:0:0:
109,192,104161,1,0,0:0:0:0:
329,192,104225,1,0,0:0:0:0:
256,192,104289,1,0,0:0:0:0:
182,192,104354,1,0,0:0:0:0:
475,192,104418,1,0,0:0:0:0:
36,192,104418,1,0,0:0:0:0:
109,192,104418,1,0,0:0:0:0:
402,192,104418,1,0,0:0:0:0:
182,192,104482,1,0,0:0:0:0:
256,192,104546,1,0,0:0:0:0:
329,192,104610,1,0,0:0:0:0:
109,192,104674,1,0,0:0:0:0:
36,192,104674,1,0,0:0:0:0:
475,192,104674,1,0,0:0:0:0:
402,192,104674,1,0,0:0:0:0:
329,192,104738,1,0,0:0:0:0:
256,192,104802,1,0,0:0:0:0:
182,192,104866,1,0,0:0:0:0:
36,192,104866,1,0,0:0:0:0:
329,192,104930,1,0,0:0:0:0:
475,192,104930,1,0,0:0:0:0:
256,192,104995,1,0,0:0:0:0:
109,192,105059,1,0,0:0:0:0:
402,192,105059,1,0,0:0:0:0:
182,192,105059,1,0,0:0:0:0:
329,192,105123,1,0,0:0:0:0:
475,192,105187,1,0,0:0:0:0:
36,192,105187,1,0,0:0:0:0:
256,192,105187,1,0,0:0:0:0:
109,192,105187,1,0,0:0:0:0:
402,192,105187,1,0,0:0:0:0:
182,192,105315,1,0,0:0:0:0:
402,192,105379,1,0,0:0:0:0:
329,192,105443,1,0,0:0:0:0:
36,192,105443,1,0,0:0:0:0:
182,192,105507,1,0,0:0:0:0:
402,192,105571,1,0,0:0:0:0:
109,192,105571,1,0,0:0:0:0:
36,192,105571,1,0,0:0:0:0:
256,192,105571,1,0,0:0:0:0:
475,192,105571,1,0,0:0:0:0:
329,192,105700,1,0,0:0:0:0:
109,192,105764,1,0,0:0:0:0:
182,192,105828,1,0,0:0:0:0:
475,192,105828,1,0,0:0:0:0:
329,192,105892,1,0,0:0:0:0:
36,192,105956,1,0,0:0:0:0:
402,192,105956,1,0,0:0:0:0:
475,192,105956,1,0,0:0:0:0:
256,192,105956,1,0,0:0:0:0:
109,192,106020,1,0,0:0:0:0:
182,192,106084,1,0,0:0:0:0:
402,192,106213,1,0,0:0:0:0:
329,192,106213,1,0,0:0:0:0:
109,192,106213,1,0,0:0:0:0:
36,192,106213,1,0,0:0:0:0:
475,192,106213,1,0,0:0:0:0:
182,192,106341,1,0,0:0:0:0:
256,192,106405,1,0,0:0:0:0:
329,192,106469,1,0,0:0:0:0:
402,192,106469,1,0,0:0:0:0:
182,192,106533,1,0,0:0:0:0:
36,192,106597,1,0,0:0:0:0:
402,192,106597,1,0,0:0:0:0:
475,192,106597,1,0,0:0:0:0:
256,192,106597,1,0,0:0:0:0:
109,192,106597,1,0,0:0:0:0:
329,192,106725,1,0,0:0:0:0:
256,192,106789,1,0,0:0:0:0:
475,192,106854,1,0,0:0:0:0:
36,192,106854,1,0,0:0:0:0:
109,192,106854,1,0,0:0:0:0:
182,192,106854,1,0,0:0:0:0:
109,192,106982,1,0,0:0:0:0:
36,192,106982,1,0,0:0:0:0:
475,192,106982,1,0,0:0:0:0:
182,192,106982,1,0,0:0:0:0:
402,192,107046,1,0,0:0:0:0:
329,192,107110,1,0,0:0:0:0:
256,192,107238,1,0,0:0:0:0:
475,192,107238,1,0,0:0:0:0:
36,192,107238,1,0,0:0:0:0:
402,192,107238,1,0,0:0:0:0:
182,192,107238,1,0,0:0:0:0:
109,192,107366,1,0,0:0:0:0:
475,192,107430,1,0,0:0:0:0:
402,192,107495,1,0,0:0:0:0:
182,192,107495,1,0,0:0:0:0:
329,192,107559,1,0,0:0:0:0:
109,192,107623,1,0,0:0:0:0:
36,192,107623,1,0,0:0:0:0:
182,192,107623,1,0,0:0:0:0:
256,192,107623,1,0,0:0:0:0:
475,192,107623,1,0,0:0:0:0:
402,192,107751,1,0,0:0:0:0:
36,192,107815,1,0,0:0:0:0:
329,192,107879,1,0,0:0:0:0:
109,192,107879,1,0,0:0:0:0:
182,192,107943,1,0,0:0:0:0:
36,192,108007,1,0,0:0:0:0:
329,192,108007,1,0,0:0:0:0:
256,192,108007,1,0,0:0:0:0:
475,192,108007,1,0,0:0:0:0:
109,192,108071,1,0,0:0:0:0:
402,192,108136,1,0,0:0:0:0:
256,192,108264,1,0,0:0:0:0:
36,192,108264,1,0,0:0:0:0:
182,192,108264,1,0,0:0:0:0:
475,192,108264,1,0,0:0:0:0:
329,192,108392,1,0,0:0:0:0:
402,192,108456,1,0,0:0:0:0:
475,192,108520,1,0,0:0:0:0:
256,192,108520,1,0,0:0:0:0:
36,192,108520,1,0,0:0:0:0:
109,192,108520,1,0,0:0:0:0:
329,192,108584,1,0,0:0:0:0:
182,192,108648,1,0,0:0:0:0:
109,192,108713,1,0,0:0:0:0:
256,192,108777,1,0,0:0:0:0:
36,192,108777,1,0,0:0:0:0:
475,192,108777,1,0,0:0:0:0:
182,192,108841,1,0,0:0:0:0:
329,192,108905,1,0,0:0:0:0:
402,192,108969,1,0,0:0:0:0:
109,192,108969,1,0,0:0:0:0:
36,192,108969,1,0,0:0:0:0:
475,192,109033,1,0,0:0:0:0:
256,192,109033,1,0,0:0:0:0:
182,192,109097,1,0,0:0:0:0:
402,192,109161,1,0,0:0:0:0:
109,192,109161,1,0,0:0:0:0:
329,192,109161,1,0,0:0:0:0:
256,192,109225,1,0,0:0:0:0:
475,192,109289,1,0,0:0:0:0:
109,192,109289,1,0,0:0:0:0:
329,192,109289,1,0,0:0:0:0:
36,192,109289,1,0,0:0:0:0:
182,192,109289,1,0,0:0:0:0:
402,192,109418,1,0,0:0:0:0:
256,192,109482,1,0,0:0:0:0:
109,192,109546,1,0,0:0:0:0:
36,192,109546,1,0,0:0:0:0:
36,192,109674,1,0,0:0:0:0:
475,192,109674,1,0,0:0:0:0:
329,192,109674,1,0,0:0:0:0:
256,192,109674,1,0,0:0:0:0:
402,192,109674,1,0,0:0:0:0:
182,192,109738,1,0,0:0:0:0:
109,192,109802,1,0,0:0:0:0:
256,192,109866,1,0,0:0:0:0:
402,192,109930,1,0,0:0:0:0:
475,192,109930,1,0,0:0:0:0:
329,192,109995,1,0,0:0:0:0:
475,192,110059,1,0,0:0:0:0:
182,192,110059,1,0,0:0:0:0:
36,192,110059,1,0,0:0:0:0:
109,192,110059,1,0,0:0:0:0:
256,192,110123,1,0,0:0:0:0:
329,192,110187,1,0,0:0:0:0:
36,192,110315,1,0,0:0:0:0:
475,192,110315,1,0,0:0:0:0:
256,192,110315,1,0,0:0:0:0:
402,192,110315,1,0,0:0:0:0:
182,192,110315,1,0,0:0:0:0:
109,192,110443,1,0,0:0:0:0:
256,192,110507,1,0,0:0:0:0:
402,192,110571,1,0,0:0:0:0:
475,192,110571,1,0,0:0:0:0:
182,192,110700,1,0,0:0:0:0:
475,192,110700,1,0,0:0:0:0:
109,192,110700,1,0,0:0:0:0:
36,192,110700,1,0,0:0:0:0:
256,192,110700,1,0,0:0:0:0:
329,192,110764,1,0,0:0:0:0:
402,192,110828,1,0,0:0:0:0:
182,192,110892,1,0,0:0:0:0:
109,192,110956,1,0,0:0:0:0:
36,192,110956,1,0,0:0:0:0:
329,192,110956,1,0,0:0:0:0:
475,192,110956,1,0,0:0:0:0:
109,192,111084,1,0,0:0:0:0:
36,192,111084,1,0,0:0:0:0:
329,192,111084,1,0,0:0:0:0:
475,192,111084,1,0,0:0:0:0:
182,192,111148,1,0,0:0:0:0:
256,192,111213,1,0,0:0:0:0:
36,192,111341,1,0,0:0:0:0:
475,192,111341,1,0,0:0:0:0:
109,192,111341,1,0,0:0:0:0:
402,192,111341,1,0,0:0:0:0:
182,192,111341,1,0,0:0:0:0:
329,192,111469,1,0,0:0:0:0:
256,192,111533,1,0,0:0:0:0:
402,192,111597,1,0,0:0:0:0:
329,192,111661,1,0,0:0:0:0:
475,192,111725,1,0,0:0:0:0:
109,192,111725,1,0,0:0:0:0:
36,192,111725,1,0,0:0:0:0:
182,192,111854,1,0,0:0:0:0:
256,192,111918,1,0,0:0:0:0:
109,192,111982,1,0,0:0:0:0:
182,192,112046,1,0,0:0:0:0:
36,192,112110,1,0,0:0:0:0:
402,192,112110,1,0,0:0:0:0:
475,192,112110,1,0,0:0:0:0:
256,192,112238,1,0,0:0:0:0:
329,192,112302,1,0,0:0:0:0:
36,192,112366,1,0,0:0:0:0:
109,192,112366,1,0,0:0:0:0:
475,192,112366,1,0,0:0:0:0:
256,192,112495,1,0,0:0:0:0:
182,192,112559,1,0,0:0:0:0:
475,192,112623,1,0,0:0:0:0:
402,192,112623,1,0,0:0:0:0:
36,192,112623,1,0,0:0:0:0:
329,192,112751,1,0,0:0:0:0:
256,192,112815,1,0,0:0:0:0:
475,192,112879,1,0,0:0:0:0:
182,192,112879,1,0,0:0:0:0:
36,192,112879,1,0,0:0:0:0:
109,192,113007,1,0,0:0:0:0:
402,192,113071,1,0,0:0:0:0:
256,192,113071,1,0,0:0:0:0:
475,192,113136,1,0,0:0:0:0:
36,192,113136,1,0,0:0:0:0:
109,192,113200,1,0,0:0:0:0:
182,192,113264,1,0,0:0:0:0:
329,192,113264,1,0,0:0:0:0:
402,192,113328,1,0,0:0:0:0:
36,192,113392,1,0,0:0:0:0:
256,192,113392,128,0,113777:0:0:0:0:
475,192,113392,1,0,0:0:0:0:
475,192,113777,128,0,114161:0:0:0:0:
402,192,113777,1,0,0:0:0:0:
109,192,113777,1,0,0:0:0:0:
36,192,114418,1,0,0:0:0:0:
475,192,114418,1,0,0:0:0:0:
402,192,114482,1,0,0:0:0:0:
329,192,114546,1,0,0:0:0:0:
256,192,114610,1,0,0:0:0:0:
182,192,114674,1,0,0:0:0:0:
109,192,114738,1,0,0:0:0:0:
36,192,114802,1,0,0:0:0:0:
475,192,114802,1,0,0:0:0:0:
402,192,114866,1,0,0:0:0:0:
182,192,114930,1,0,0:0:0:0:
329,192,114930,1,0,0:0:0:0:
109,192,114995,1,0,0:0:0:0:
36,192,115059,1,0,0:0:0:0:
256,192,115123,1,0,0:0:0:0:
109,192,115187,1,0,0:0:0:0:
402,192,115187,1,0,0:0:0:0:
329,192,115251,1,0,0:0:0:0:
256,192,115315,1,0,0:0:0:0:
182,192,115379,1,0,0:0:0:0:
109,192,115443,1,0,0:0:0:0:
36,192,115443,1,0,0:0:0:0:
329,192,115443,1,0,0:0:0:0:
475,192,115443,1,0,0:0:0:0:
402,192,115443,1,0,0:0:0:0:
256,192,115571,1,0,0:0:0:0:
329,192,115571,1,0,0:0:0:0:
182,192,115636,1,0,0:0:0:0:
475,192,115700,1,0,0:0:0:0:
109,192,115700,1,0,0:0:0:0:
36,192,115700,1,0,0:0:0:0:
182,192,115828,1,0,0:0:0:0:
402,192,115828,1,0,0:0:0:0:
256,192,115828,1,0,0:0:0:0:
36,192,115828,1,0,0:0:0:0:
109,192,115956,1,0,0:0:0:0:
329,192,115956,1,0,0:0:0:0:
475,192,115956,1,0,0:0:0:0:
182,192,116020,1,0,0:0:0:0:
475,192,116084,1,0,0:0:0:0:
256,192,116084,1,0,0:0:0:0:
36,192,116213,1,0,0:0:0:0:
182,192,116213,1,0,0:0:0:0:
329,192,116213,1,0,0:0:0:0:
402,192,116341,1,0,0:0:0:0:
182,192,116341,1,0,0:0:0:0:
329,192,116469,1,0,0:0:0:0:
256,192,116469,1,0,0:0:0:0:
475,192,116469,1,0,0:0:0:0:
36,192,116469,1,0,0:0:0:0:
256,192,116597,1,0,0:0:0:0:
402,192,116597,1,0,0:0:0:0:
182,192,116661,1,0,0:0:0:0:
109,192,116725,1,0,0:0:0:0:
402,192,116725,1,0,0:0:0:0:
36,192,116725,1,0,0:0:0:0:
329,192,116789,1,0,0:0:0:0:
256,192,116854,1,0,0:0:0:0:
109,192,116854,1,0,0:0:0:0:
475,192,116918,1,0,0:0:0:0:
329,192,116982,1,0,0:0:0:0:
182,192,116982,1,0,0:0:0:0:
36,192,116982,1,0,0:0:0:0:
475,192,117046,1,0,0:0:0:0:
402,192,117046,1,0,0:0:0:0:
182,192,117110,1,0,0:0:0:0:
109,192,117110,1,0,0:0:0:0:
256,192,117174,1,0,0:0:0:0:
329,192,117174,1,0,0:0:0:0:
36,192,117238,1,0,0:0:0:0:
109,192,117238,1,0,0:0:0:0:
475,192,117270,1,0,0:0:0:0:
402,192,117302,1,0,0:0:0:0:
329,192,117334,1,0,0:0:0:0:
256,192,117366,1,0,0:0:0:0:
182,192,117398,1,0,0:0:0:0:
109,192,117430,1,0,0:0:0:0:
36,192,117463,1,0,0:0:0:0:
402,192,117495,1,0,0:0:0:0:
475,192,117495,1,0,0:0:0:0:
329,192,117495,1,0,0:0:0:0:
182,192,117623,1,0,0:0:0:0:
475,192,117623,1,0,0:0:0:0:
109,192,117687,1,0,0:0:0:0:
256,192,117751,1,0,0:0:0:0:
329,192,117751,1,0,0:0:0:0:
36,192,117751,1,0,0:0:0:0:
36,192,117879,1,0,0:0:0:0:
475,192,117879,1,0,0:0:0:0:
402,192,117879,1,0,0:0:0:0:
109,192,117879,1,0,0:0:0:0:
329,192,118007,1,0,0:0:0:0:
256,192,118007,1,0,0:0:0:0:
182,192,118007,1,0,0:0:0:0:
402,192,118071,1,0,0:0:0:0:
475,192,118136,1,0,0:0:0:0:
182,192,118136,1,0,0:0:0:0:
402,192,118264,1,0,0:0:0:0:
36,192,118264,1,0,0:0:0:0:
329,192,118264,1,0,0:0:0:0:
329,192,118392,1,0,0:0:0:0:
109,192,118392,1,0,0:0:0:0:
402,192,118520,1,0,0:0:0:0:
256,192,118520,1,0,0:0:0:0:
475,192,118520,1,0,0:0:0:0:
36,192,118520,1,0,0:0:0:0:
402,192,118648,1,0,0:0:0:0:
182,192,118648,1,0,0:0:0:0:
109,192,118713,1,0,0:0:0:0:
256,192,118777,1,0,0:0:0:0:
36,192,118777,1,0,0:0:0:0:
329,192,118777,1,0,0:0:0:0:
182,192,118905,1,0,0:0:0:0:
402,192,118905,1,0,0:0:0:0:
475,192,118905,1,0,0:0:0:0:
256,192,118905,1,0,0:0:0:0:
109,192,119033,1,0,0:0:0:0:
329,192,119033,1,0,0:0:0:0:
36,192,119033,1,0,0:0:0:0:
402,192,119097,1,0,0:0:0:0:
475,192,119161,1,0,0:0:0:0:
109,192,119161,1,0,0:0:0:0:
402,192,119289,1,0,0:0:0:0:
182,192,119289,1,0,0:0:0:0:
256,192,119289,1,0,0:0:0:0:
109,192,119354,1,0,0:0:0:0:
36,192,119354,1,0,0:0:0:0:
475,192,119418,1,0,0:0:0:0:
402,192,119418,1,0,0:0:0:0:
329,192,119482,1,0,0:0:0:0:
256,192,119482,1,0,0:0:0:0:
109,192,119546,1,0,0:0:0:0:
182,192,119546,1,0,0:0:0:0:
36,192,119546,1,0,0:0:0:0:
475,192,119546,1,0,0:0:0:0:
109,192,119674,1,0,0:0:0:0:
329,192,119674,1,0,0:0:0:0:
256,192,119738,1,0,0:0:0:0:
475,192,119802,1,0,0:0:0:0:
182,192,119802,1,0,0:0:0:0:
402,192,119802,1,0,0:0:0:0:
329,192,119930,1,0,0:0:0:0:
182,192,119930,1,0,0:0:0:0:
256,192,119930,1,0,0:0:0:0:
36,192,119930,1,0,0:0:0:0:
475,192,120059,1,0,0:0:0:0:
402,192,120059,1,0,0:0:0:0:
109,192,120059,1,0,0:0:0:0:
182,192,120123,1,0,0:0:0:0:
402,192,120187,1,0,0:0:0:0:
256,192,120187,1,0,0:0:0:0:
109,192,120315,1,0,0:0:0:0:
329,192,120315,1,0,0:0:0:0:
36,192,120315,1,0,0:0:0:0:
182,192,120443,1,0,0:0:0:0:
329,192,120443,1,0,0:0:0:0:
109,192,120507,1,0,0:0:0:0:
402,192,120507,1,0,0:0:0:0:
36,192,120571,1,0,0:0:0:0:
182,192,120571,1,0,0:0:0:0:
475,192,120571,1,0,0:0:0:0:
256,192,120571,1,0,0:0:0:0:
475,192,120700,1,0,0:0:0:0:
329,192,120700,1,0,0:0:0:0:
256,192,120764,1,0,0:0:0:0:
182,192,120828,1,0,0:0:0:0:
402,192,120828,1,0,0:0:0:0:
36,192,120828,1,0,0:0:0:0:
109,192,120956,1,0,0:0:0:0:
36,192,120956,1,0,0:0:0:0:
256,192,120956,1,0,0:0:0:0:
475,192,120956,1,0,0:0:0:0:
182,192,121084,1,0,0:0:0:0:
475,192,121084,1,0,0:0:0:0:
329,192,121084,1,0,0:0:0:0:
36,192,121148,1,0,0:0:0:0:
109,192,121148,1,0,0:0:0:0:
402,192,121213,1,0,0:0:0:0:
329,192,121213,1,0,0:0:0:0:
256,192,121277,1,0,0:0:0:0:
182,192,121277,1,0,0:0:0:0:
475,192,121341,1,0,0:0:0:0:
402,192,121341,1,0,0:0:0:0:
36,192,121373,1,0,0:0:0:0:
109,192,121405,1,0,0:0:0:0:
182,192,121437,1,0,0:0:0:0:
256,192,121469,1,0,0:0:0:0:
329,192,121501,1,0,0:0:0:0:
402,192,121533,1,0,0:0:0:0:
475,192,121565,1,0,0:0:0:0:
109,192,121597,1,0,0:0:0:0:
36,192,121597,1,0,0:0:0:0:
182,192,121597,1,0,0:0:0:0:
256,192,121683,1,0,0:0:0:0:
36,192,121725,1,0,0:0:0:0:
329,192,121768,1,0,0:0:0:0:
182,192,121854,1,0,0:0:0:0:
475,192,121854,1,0,0:0:0:0:
402,192,121854,1,0,0:0:0:0:
109,192,121939,1,0,0:0:0:0:
475,192,121982,1,0,0:0:0:0:
402,192,121982,1,0,0:0:0:0:
329,192,121982,1,0,0:0:0:0:
36,192,122024,1,0,0:0:0:0:
182,192,122110,1,0,0:0:0:0:
256,192,122110,1,0,0:0:0:0:
329,192,122110,1,0,0:0:0:0:
402,192,122195,1,0,0:0:0:0:
182,192,122238,1,0,0:0:0:0:
475,192,122281,1,0,0:0:0:0:
36,192,122366,1,0,0:0:0:0:
109,192,122366,1,0,0:0:0:0:
329,192,122366,1,0,0:0:0:0:
256,192,122452,1,0,0:0:0:0:
36,192,122495,1,0,0:0:0:0:
182,192,122537,1,0,0:0:0:0:
475,192,122623,1,0,0:0:0:0:
109,192,122623,1,0,0:0:0:0:
402,192,122623,1,0,0:0:0:0:
329,192,122623,1,0,0:0:0:0:
256,192,122708,1,0,0:0:0:0:
109,192,122751,1,0,0:0:0:0:
402,192,122794,1,0,0:0:0:0:
329,192,122879,1,0,0:0:0:0:
36,192,122879,1,0,0:0:0:0:
182,192,122879,1,0,0:0:0:0:
475,192,122965,1,0,0:0:0:0:
256,192,123007,1,0,0:0:0:0:
329,192,123007,1,0,0:0:0:0:
182,192,123007,1,0,0:0:0:0:
36,192,123050,1,0,0:0:0:0:
402,192,123136,1,0,0:0:0:0:
256,192,123136,1,0,0:0:0:0:
475,192,123136,1,0,0:0:0:0:
109,192,123221,1,0,0:0:0:0:
402,192,123264,1,0,0:0:0:0:
36,192,123307,1,0,0:0:0:0:
256,192,123392,1,0,0:0:0:0:
329,192,123392,1,0,0:0:0:0:
182,192,123392,1,0,0:0:0:0:
402,192,123456,1,0,0:0:0:0:
475,192,123456,1,0,0:0:0:0:
109,192,123520,1,0,0:0:0:0:
36,192,123520,1,0,0:0:0:0:
182,192,123584,1,0,0:0:0:0:
256,192,123584,1,0,0:0:0:0:
475,192,123648,1,0,0:0:0:0:
402,192,123648,1,0,0:0:0:0:
329,192,123648,1,0,0:0:0:0:
36,192,123648,1,0,0:0:0:0:
182,192,123734,1,0,0:0:0:0:
475,192,123777,1,0,0:0:0:0:
256,192,123819,1,0,0:0:0:0:
329,192,123905,1,0,0:0:0:0:
109,192,123905,1,0,0:0:0:0:
36,192,123905,1,0,0:0:0:0:
475,192,123990,1,0,0:0:0:0:
36,192,124033,1,0,0:0:0:0:
109,192,124033,1,0,0:0:0:0:
182,192,124033,1,0,0:0:0:0:
402,192,124076,1,0,0:0:0:0:
329,192,124161,1,0,0:0:0:0:
182,192,124161,1,0,0:0:0:0:
256,192,124161,1,0,0:0:0:0:
36,192,124247,1,0,0:0:0:0:
329,192,124289,1,0,0:0:0:0:
109,192,124332,1,0,0:0:0:0:
475,192,124418,1,0,0:0:0:0:
402,192,124418,1,0,0:0:0:0:
256,192,124418,1,0,0:0:0:0:
182,192,124503,1,0,0:0:0:0:
402,192,124546,1,0,0:0:0:0:
109,192,124589,1,0,0:0:0:0:
475,192,124674,1,0,0:0:0:0:
256,192,124674,1,0,0:0:0:0:
182,192,124674,1,0,0:0:0:0:
329,192,124760,1,0,0:0:0:0:
182,192,124802,1,0,0:0:0:0:
109,192,124802,1,0,0:0:0:0:
36,192,124802,1,0,0:0:0:0:
402,192,124845,1,0,0:0:0:0:
36,192,124930,1,0,0:0:0:0:
256,192,124930,1,0,0:0:0:0:
475,192,124930,1,0,0:0:0:0:
109,192,125016,1,0,0:0:0:0:
402,192,125059,1,0,0:0:0:0:
329,192,125059,1,0,0:0:0:0:
475,192,125059,1,0,0:0:0:0:
182,192,125101,1,0,0:0:0:0:
109,192,125187,1,0,0:0:0:0:
36,192,125187,1,0,0:0:0:0:
329,192,125187,1,0,0:0:0:0:
402,192,125251,1,0,0:0:0:0:
475,192,125251,1,0,0:0:0:0:
182,192,125315,1,0,0:0:0:0:
109,192,125315,1,0,0:0:0:0:
329,192,125379,1,0,0:0:0:0:
256,192,125379,1,0,0:0:0:0:
109,192,125443,1,0,0:0:0:0:
36,192,125443,1,0,0:0:0:0:
475,192,125475,1,0,0:0:0:0:
402,192,125507,1,0,0:0:0:0:
329,192,125539,1,0,0:0:0:0:
256,192,125571,1,0,0:0:0:0:
182,192,125604,1,0,0:0:0:0:
109,192,125636,1,0,0:0:0:0:
36,192,125668,1,0,0:0:0:0:
329,192,125700,1,0,0:0:0:0:
402,192,125700,1,0,0:0:0:0:
475,192,125700,128,0,126084:0:0:0:0:
109,192,126084,1,0,0:0:0:0:
256,192,126084,1,0,0:0:0:0:
329,192,126084,128,0,126469:0:0:0:0:
256,192,126725,1,0,0:0:0:0:
402,192,126725,1,0,0:0:0:0:
182,192,126725,128,0,127110:0:0:0:0:
475,192,127110,1,0,0:0:0:0:
329,192,127110,1,0,0:0:0:0:
36,192,127110,128,0,127495:0:0:0:0:
36,192,127751,1,0,0:0:0:0:
182,192,127794,1,0,0:0:0:0:
329,192,127836,1,0,0:0:0:0:
475,192,127879,128,0,129354:0:0:0:0:
256,192,128777,128,0,128905:0:0:0:0:
182,192,128841,128,0,128969:0:0:0:0:
109,192,128905,128,0,129033:0:0:0:0:
36,192,128969,128,0,129097:0:0:0:0:
329,192,129033,128,0,129161:0:0:0:0:
256,192,129097,128,0,129225:0:0:0:0:
182,192,129161,128,0,129289:0:0:0:0:
109,192,129225,128,0,129354:0:0:0:0:
402,192,129289,128,0,129418:0:0:0:0:
329,192,129354,128,0,129482:0:0:0:0:
256,192,129418,128,0,129546:0:0:0:0:
182,192,129482,128,0,129610:0:0:0:0:
475,192,129546,1,0,0:0:0:0:
402,192,129610,1,0,0:0:0:0:
329,192,129674,1,0,0:0:0:0:
256,192,129738,1,0,0:0:0:0:
36,192,129802,1,0,0:0:0:0:
109,192,129802,1,0,0:0:0:0:
402,192,129866,1,0,0:0:0:0:
182,192,129930,1,0,0:0:0:0:
329,192,129930,1,0,0:0:0:0:
109,192,129995,1,0,0:0:0:0:
475,192,130059,1,0,0:0:0:0:
256,192,130059,1,0,0:0:0:0:
329,192,130251,1,0,0:0:0:0:
182,192,130251,1,0,0:0:0:0:
36,192,130443,1,0,0:0:0:0:
109,192,130443,1,0,0:0:0:0:
256,192,130539,1,0,0:0:0:0:
182,192,130539,1,0,0:0:0:0:
475,192,130636,1,0,0:0:0:0:
402,192,130636,1,0,0:0:0:0:
109,192,130732,1,0,0:0:0:0:
36,192,130732,1,0,0:0:0:0:
329,192,130828,1,0,0:0:0:0:
256,192,130828,1,0,0:0:0:0:
475,192,130924,1,0,0:0:0:0:
402,192,130924,1,0,0:0:0:0:
109,192,131020,1,0,0:0:0:0:
182,192,131020,1,0,0:0:0:0:
329,192,131116,1,0,0:0:0:0:
402,192,131116,1,0,0:0:0:0:
182,192,131213,1,0,0:0:0:0:
256,192,131255,1,0,0:0:0:0:
329,192,131298,1,0,0:0:0:0:
475,192,131341,1,0,0:0:0:0:
36,192,131341,1,0,0:0:0:0:
402,192,131405,1,0,0:0:0:0:
182,192,131469,1,0,0:0:0:0:
329,192,131469,1,0,0:0:0:0:
109,192,131533,1,0,0:0:0:0:
475,192,131597,1,0,0:0:0:0:
36,192,131597,1,0,0:0:0:0:
402,192,131661,1,0,0:0:0:0:
329,192,131725,1,0,0:0:0:0:
182,192,131725,1,0,0:0:0:0:
109,192,131789,1,0,0:0:0:0:
36,192,131854,128,0,131918:0:0:0:0:
256,192,135571,1,0,0:0:0:0:
329,192,135614,1,0,0:0:0:0:
402,192,135657,1,0,0:0:0:0:
475,192,135700,1,0,0:0:0:0:
36,192,135736,1,0,0:0:0:0:
109,192,135773,1,0,0:0:0:0:
182,192,135810,1,0,0:0:0:0:
256,192,135846,1,0,0:0:0:0:
329,192,135883,1,0,0:0:0:0:
402,192,135919,1,0,0:0:0:0:
475,192,135956,1,0,0:0:0:0:
329,192,136213,1,0,0:0:0:0:
475,192,136213,1,0,0:0:0:0:
182,192,136341,1,0,0:0:0:0:
36,192,136341,1,0,0:0:0:0:
256,192,136469,1,0,0:0:0:0:
329,192,136597,1,0,0:0:0:0:
475,192,136597,1,0,0:0:0:0:
182,192,136725,1,0,0:0:0:0:
36,192,136725,1,0,0:0:0:0:
182,192,136982,1,0,0:0:0:0:
36,192,136982,1,0,0:0:0:0:
329,192,137110,1,0,0:0:0:0:
475,192,137110,1,0,0:0:0:0:
36,192,137238,1,0,0:0:0:0:
109,192,137275,1,0,0:0:0:0:
182,192,137311,1,0,0:0:0:0:
256,192,137348,1,0,0:0:0:0:
329,192,137385,1,0,0:0:0:0:
402,192,137421,1,0,0:0:0:0:
475,192,137458,1,0,0:0:0:0:
36,192,137495,1,0,0:0:0:0:
109,192,137623,1,0,0:0:0:0:
256,192,137687,1,0,0:0:0:0:
402,192,137751,1,0,0:0:0:0:
182,192,137815,1,0,0:0:0:0:
329,192,137879,1,0,0:0:0:0:
182,192,138007,1,0,0:0:0:0:
36,192,138007,1,0,0:0:0:0:
256,192,138136,1,0,0:0:0:0:
329,192,138264,1,0,0:0:0:0:
475,192,138264,1,0,0:0:0:0:
182,192,138392,1,0,0:0:0:0:
36,192,138392,1,0,0:0:0:0:
256,192,138520,128,0,138584:0:0:0:0:
475,192,138648,1,0,0:0:0:0:
329,192,138648,1,0,0:0:0:0:
36,192,138777,1,0,0:0:0:0:
182,192,138777,1,0,0:0:0:0:
256,192,138905,1,0,0:0:0:0:
36,192,139033,128,0,139097:0:0:0:0:
475,192,139033,1,0,0:0:0:0:
402,192,139070,1,0,0:0:0:0:
329,192,139106,1,0,0:0:0:0:
256,192,139143,1,0,0:0:0:0:
182,192,139180,1,0,0:0:0:0:
109,192,139216,1,0,0:0:0:0:
36,192,139253,1,0,0:0:0:0:
475,192,139289,1,0,0:0:0:0:
182,192,139354,1,0,0:0:0:0:
256,192,139418,1,0,0:0:0:0:
329,192,139482,1,0,0:0:0:0:
109,192,139546,1,0,0:0:0:0:
475,192,139546,128,0,139610:0:0:0:0:
182,192,139610,1,0,0:0:0:0:
402,192,139674,1,0,0:0:0:0:
329,192,139738,1,0,0:0:0:0:
109,192,139802,1,0,0:0:0:0:
182,192,139866,1,0,0:0:0:0:
402,192,139930,1,0,0:0:0:0:
329,192,139995,1,0,0:0:0:0:
109,192,140059,128,0,140219:0:0:0:0:
256,192,140059,1,0,0:0:0:0:
182,192,140219,128,0,140315:0:0:0:0:
402,192,140315,1,0,0:0:0:0:
475,192,140315,1,0,0:0:0:0:
109,192,140443,1,0,0:0:0:0:
36,192,140443,1,0,0:0:0:0:
256,192,140571,1,0,0:0:0:0:
402,192,140700,1,0,0:0:0:0:
475,192,140700,1,0,0:0:0:0:
109,192,140828,1,0,0:0:0:0:
36,192,140828,1,0,0:0:0:0:
36,192,141084,1,0,0:0:0:0:
109,192,141084,1,0,0:0:0:0:
475,192,141213,1,0,0:0:0:0:
402,192,141213,1,0,0:0:0:0:
36,192,141341,1,0,0:0:0:0:
109,192,141377,1,0,0:0:0:0:
182,192,141414,1,0,0:0:0:0:
256,192,141451,1,0,0:0:0:0:
329,192,141487,1,0,0:0:0:0:
402,192,141524,1,0,0:0:0:0:
475,192,141561,1,0,0:0:0:0:
36,192,141597,1,0,0:0:0:0:
109,192,141725,1,0,0:0:0:0:
256,192,141789,1,0,0:0:0:0:
402,192,141854,1,0,0:0:0:0:
182,192,141918,1,0,0:0:0:0:
329,192,141982,1,0,0:0:0:0:
36,192,142110,1,0,0:0:0:0:
109,192,142110,1,0,0:0:0:0:
402,192,142366,1,0,0:0:0:0:
475,192,142366,1,0,0:0:0:0:
36,192,142495,1,0,0:0:0:0:
109,192,142495,1,0,0:0:0:0:
256,192,142623,1,0,0:0:0:0:
402,192,142751,1,0,0:0:0:0:
475,192,142751,1,0,0:0:0:0:
36,192,142879,1,0,0:0:0:0:
109,192,142879,1,0,0:0:0:0:
109,192,143136,1,0,0:0:0:0:
36,192,143136,1,0,0:0:0:0:
475,192,143264,1,0,0:0:0:0:
402,192,143264,1,0,0:0:0:0:
182,192,143392,1,0,0:0:0:0:
256,192,143429,1,0,0:0:0:0:
329,192,143465,1,0,0:0:0:0:
475,192,143477,128,0,143542:0:0:0:0:
36,192,143502,1,0,0:0:0:0:
109,192,143539,1,0,0:0:0:0:
182,192,143575,1,0,0:0:0:0:
256,192,143612,1,0,0:0:0:0:
329,192,143648,1,0,0:0:0:0:
182,192,143777,1,0,0:0:0:0:
402,192,143819,128,0,143883:0:0:0:0:
109,192,143841,1,0,0:0:0:0:
36,192,143905,1,0,0:0:0:0:
329,192,143969,1,0,0:0:0:0:
475,192,144033,1,0,0:0:0:0:
36,192,144161,1,0,0:0:0:0:
109,192,144161,1,0,0:0:0:0:
402,192,144418,1,0,0:0:0:0:
475,192,144418,1,0,0:0:0:0:
256,192,144418,128,0,144482:0:0:0:0:
109,192,144546,1,0,0:0:0:0:
36,192,144546,1,0,0:0:0:0:
256,192,144674,1,0,0:0:0:0:
402,192,144802,1,0,0:0:0:0:
475,192,144802,1,0,0:0:0:0:
36,192,144930,1,0,0:0:0:0:
109,192,144930,1,0,0:0:0:0:
329,192,145187,1,0,0:0:0:0:
402,192,145187,1,0,0:0:0:0:
182,192,145315,1,0,0:0:0:0:
109,192,145315,1,0,0:0:0:0:
475,192,145443,1,0,0:0:0:0:
402,192,145480,1,0,0:0:0:0:
329,192,145517,1,0,0:0:0:0:
256,192,145553,1,0,0:0:0:0:
182,192,145590,1,0,0:0:0:0:
109,192,145626,1,0,0:0:0:0:
36,192,145663,1,0,0:0:0:0:
475,192,145700,1,0,0:0:0:0:
402,192,145828,1,0,0:0:0:0:
256,192,145892,1,0,0:0:0:0:
109,192,145956,1,0,0:0:0:0:
329,192,146020,1,0,0:0:0:0:
182,192,146084,1,0,0:0:0:0:
109,192,146213,1,0,0:0:0:0:
36,192,146213,1,0,0:0:0:0:
256,192,146341,1,0,0:0:0:0:
402,192,146469,1,0,0:0:0:0:
475,192,146469,1,0,0:0:0:0:
109,192,146597,1,0,0:0:0:0:
36,192,146597,1,0,0:0:0:0:
256,192,146725,1,0,0:0:0:0:
475,192,146854,1,0,0:0:0:0:
402,192,146854,1,0,0:0:0:0:
36,192,146854,128,0,146950:0:0:0:0:
109,192,146950,128,0,147046:0:0:0:0:
256,192,146982,1,0,0:0:0:0:
329,192,146982,1,0,0:0:0:0:
182,192,147046,128,0,147142:0:0:0:0:
402,192,147110,1,0,0:0:0:0:
36,192,147238,1,0,0:0:0:0:
109,192,147275,1,0,0:0:0:0:
182,192,147311,1,0,0:0:0:0:
256,192,147348,1,0,0:0:0:0:
329,192,147385,1,0,0:0:0:0:
402,192,147421,1,0,0:0:0:0:
475,192,147458,1,0,0:0:0:0:
36,192,147495,1,0,0:0:0:0:
109,192,147559,1,0,0:0:0:0:
256,192,147623,1,0,0:0:0:0:
402,192,147687,1,0,0:0:0:0:
36,192,147751,1,0,0:0:0:0:
182,192,147815,1,0,0:0:0:0:
475,192,147879,1,0,0:0:0:0:
329,192,147943,1,0,0:0:0:0:
36,192,148007,1,0,0:0:0:0:
182,192,148071,1,0,0:0:0:0:
475,192,148136,1,0,0:0:0:0:
329,192,148200,1,0,0:0:0:0:
36,192,148264,1,0,0:0:0:0:
256,192,148264,128,0,148328:0:0:0:0:
182,192,148392,1,0,0:0:0:0:
329,192,148456,1,0,0:0:0:0:
402,192,148520,1,0,0:0:0:0:
475,192,148520,1,0,0:0:0:0:
109,192,148648,1,0,0:0:0:0:
329,192,148713,128,0,148777:0:0:0:0:
36,192,148713,1,0,0:0:0:0:
182,192,148777,1,0,0:0:0:0:
256,192,148841,1,0,0:0:0:0:
402,192,148905,1,0,0:0:0:0:
475,192,148905,1,0,0:0:0:0:
329,192,149033,1,0,0:0:0:0:
256,192,149097,1,0,0:0:0:0:
182,192,149161,1,0,0:0:0:0:
475,192,149289,1,0,0:0:0:0:
109,192,149289,128,0,149354:0:0:0:0:
182,192,149418,1,0,0:0:0:0:
329,192,149482,1,0,0:0:0:0:
109,192,149546,1,0,0:0:0:0:
36,192,149546,1,0,0:0:0:0:
256,192,149674,1,0,0:0:0:0:
329,192,149717,1,0,0:0:0:0:
36,192,149738,128,0,149802:0:0:0:0:
402,192,149760,1,0,0:0:0:0:
475,192,149802,1,0,0:0:0:0:
182,192,149930,1,0,0:0:0:0:
329,192,149930,1,0,0:0:0:0:
109,192,150059,1,0,0:0:0:0:
256,192,150123,1,0,0:0:0:0:
402,192,150187,1,0,0:0:0:0:
36,192,150315,1,0,0:0:0:0:
182,192,150315,1,0,0:0:0:0:
329,192,150443,1,0,0:0:0:0:
256,192,150507,1,0,0:0:0:0:
402,192,150571,1,0,0:0:0:0:
475,192,150571,1,0,0:0:0:0:
182,192,150700,1,0,0:0:0:0:
36,192,150764,1,0,0:0:0:0:
329,192,150828,1,0,0:0:0:0:
256,192,150892,1,0,0:0:0:0:
402,192,150956,1,0,0:0:0:0:
475,192,150956,1,0,0:0:0:0:
182,192,151020,1,0,0:0:0:0:
109,192,151084,1,0,0:0:0:0:
256,192,151148,1,0,0:0:0:0:
402,192,151213,1,0,0:0:0:0:
36,192,151341,1,0,0:0:0:0:
329,192,151469,1,0,0:0:0:0:
182,192,151533,1,0,0:0:0:0:
475,192,151597,1,0,0:0:0:0:
402,192,151597,1,0,0:0:0:0:
256,192,151725,1,0,0:0:0:0:
182,192,151768,1,0,0:0:0:0:
109,192,151811,1,0,0:0:0:0:
36,192,151854,1,0,0:0:0:0:
329,192,151982,1,0,0:0:0:0:
182,192,151982,1,0,0:0:0:0:
256,192,152110,1,0,0:0:0:0:
36,192,152110,128,0,152174:0:0:0:0:
329,192,152174,1,0,0:0:0:0:
402,192,152238,1,0,0:0:0:0:
475,192,152366,1,0,0:0:0:0:
182,192,152366,1,0,0:0:0:0:
109,192,152366,128,0,152430:0:0:0:0:
329,192,152495,1,0,0:0:0:0:
256,192,152559,1,0,0:0:0:0:
109,192,152623,1,0,0:0:0:0:
36,192,152623,1,0,0:0:0:0:
402,192,152751,1,0,0:0:0:0:
182,192,152815,128,0,152879:0:0:0:0:
475,192,152815,1,0,0:0:0:0:
329,192,152879,1,0,0:0:0:0:
256,192,152943,1,0,0:0:0:0:
109,192,153007,1,0,0:0:0:0:
36,192,153007,1,0,0:0:0:0:
182,192,153136,1,0,0:0:0:0:
256,192,153200,1,0,0:0:0:0:
329,192,153264,1,0,0:0:0:0:
475,192,153392,1,0,0:0:0:0:
36,192,153392,128,0,153456:0:0:0:0:
182,192,153520,1,0,0:0:0:0:
329,192,153584,1,0,0:0:0:0:
109,192,153648,1,0,0:0:0:0:
36,192,153648,1,0,0:0:0:0:
256,192,153777,1,0,0:0:0:0:
329,192,153819,1,0,0:0:0:0:
182,192,153841,128,0,153905:0:0:0:0:
402,192,153862,1,0,0:0:0:0:
475,192,153905,1,0,0:0:0:0:
329,192,154033,1,0,0:0:0:0:
182,192,154033,1,0,0:0:0:0:
402,192,154161,1,0,0:0:0:0:
256,192,154225,1,0,0:0:0:0:
109,192,154289,1,0,0:0:0:0:
475,192,154418,1,0,0:0:0:0:
329,192,154418,1,0,0:0:0:0:
256,192,154546,1,0,0:0:0:0:
182,192,154610,1,0,0:0:0:0:
36,192,154674,1,0,0:0:0:0:
109,192,154674,1,0,0:0:0:0:
329,192,154802,1,0,0:0:0:0:
475,192,154866,1,0,0:0:0:0:
256,192,154930,1,0,0:0:0:0:
182,192,154995,1,0,0:0:0:0:
36,192,155059,1,0,0:0:0:0:
109,192,155059,1,0,0:0:0:0:
475,192,155187,1,0,0:0:0:0:
329,192,155187,1,0,0:0:0:0:
182,192,155251,1,0,0:0:0:0:
256,192,155315,1,0,0:0:0:0:
36,192,155443,1,0,0:0:0:0:
109,192,155480,1,0,0:0:0:0:
182,192,155517,1,0,0:0:0:0:
256,192,155553,1,0,0:0:0:0:
329,192,155590,1,0,0:0:0:0:
402,192,155626,1,0,0:0:0:0:
475,192,155663,1,0,0:0:0:0:
36,192,155700,1,0,0:0:0:0:
182,192,155700,1,0,0:0:0:0:
402,192,155828,1,0,0:0:0:0:
256,192,155892,1,0,0:0:0:0:
109,192,155956,1,0,0:0:0:0:
329,192,156020,1,0,0:0:0:0:
182,192,156084,1,0,0:0:0:0:
36,192,156084,1,0,0:0:0:0:
109,192,156213,1,0,0:0:0:0:
475,192,156213,128,0,156277:0:0:0:0:
329,192,156277,1,0,0:0:0:0:
256,192,156341,1,0,0:0:0:0:
182,192,156405,1,0,0:0:0:0:
36,192,156469,1,0,0:0:0:0:
402,192,156469,128,0,156533:0:0:0:0:
109,192,156597,1,0,0:0:0:0:
475,192,156640,128,0,156704:0:0:0:0:
256,192,156661,1,0,0:0:0:0:
36,192,156725,1,0,0:0:0:0:
329,192,156725,1,0,0:0:0:0:
109,192,156811,128,0,156875:0:0:0:0:
402,192,156854,1,0,0:0:0:0:
475,192,156918,1,0,0:0:0:0:
256,192,156982,1,0,0:0:0:0:
182,192,157046,1,0,0:0:0:0:
36,192,157110,1,0,0:0:0:0:
329,192,157110,1,0,0:0:0:0:
402,192,157238,1,0,0:0:0:0:
256,192,157302,1,0,0:0:0:0:
109,192,157366,1,0,0:0:0:0:
36,192,157495,1,0,0:0:0:0:
329,192,157623,1,0,0:0:0:0:
182,192,157687,1,0,0:0:0:0:
36,192,157751,1,0,0:0:0:0:
475,192,157751,1,0,0:0:0:0:
329,192,157879,1,0,0:0:0:0:
256,192,157922,1,0,0:0:0:0:
182,192,157965,1,0,0:0:0:0:
109,192,158007,1,0,0:0:0:0:
475,192,158136,1,0,0:0:0:0:
256,192,158136,1,0,0:0:0:0:
36,192,158200,1,0,0:0:0:0:
182,192,158264,1,0,0:0:0:0:
329,192,158328,1,0,0:0:0:0:
475,192,158392,1,0,0:0:0:0:
36,192,158520,1,0,0:0:0:0:
109,192,158520,1,0,0:0:0:0:
256,192,158648,1,0,0:0:0:0:
182,192,158713,1,0,0:0:0:0:
475,192,158777,1,0,0:0:0:0:
329,192,158777,1,0,0:0:0:0:
109,192,158905,1,0,0:0:0:0:
36,192,158969,1,0,0:0:0:0:
256,192,159033,1,0,0:0:0:0:
182,192,159097,1,0,0:0:0:0:
329,192,159161,1,0,0:0:0:0:
475,192,159161,1,0,0:0:0:0:
256,192,159225,1,0,0:0:0:0:
109,192,159289,1,0,0:0:0:0:
402,192,159354,1,0,0:0:0:0:
256,192,159418,1,0,0:0:0:0:
36,192,159546,1,0,0:0:0:0:
256,192,159674,1,0,0:0:0:0:
109,192,159738,1,0,0:0:0:0:
475,192,159802,1,0,0:0:0:0:
329,192,159802,1,0,0:0:0:0:
182,192,159930,1,0,0:0:0:0:
256,192,159973,1,0,0:0:0:0:
329,192,160016,1,0,0:0:0:0:
402,192,160059,1,0,0:0:0:0:
36,192,160187,1,0,0:0:0:0:
182,192,160187,1,0,0:0:0:0:
402,192,160315,1,0,0:0:0:0:
329,192,160379,1,0,0:0:0:0:
256,192,160443,1,0,0:0:0:0:
182,192,160571,1,0,0:0:0:0:
36,192,160571,1,0,0:0:0:0:
475,192,160571,1,0,0:0:0:0:
329,192,160571,1,0,0:0:0:0:
36,192,161020,1,0,0:0:0:0:
36,192,161341,1,0,0:0:0:0:
475,192,162623,128,0,162943:0:0:0:0:
36,192,162943,1,0,0:0:0:0:
329,192,163007,1,0,0:0:0:0:
109,192,163071,1,0,0:0:0:0:
402,192,163200,1,0,0:0:0:0:
182,192,163285,1,0,0:0:0:0:
475,192,163360,1,0,0:0:0:0:
256,192,163424,1,0,0:0:0:0:
36,192,163488,1,0,0:0:0:0:
182,192,163584,1,0,0:0:0:0:
329,192,163648,1,0,0:0:0:0:
109,192,163734,1,0,0:0:0:0:
475,192,163777,1,0,0:0:0:0:
402,192,163819,1,0,0:0:0:0:
329,192,163862,1,0,0:0:0:0:
36,192,163905,128,0,164033:0:0:0:0:
109,192,163969,128,0,164097:0:0:0:0:
256,192,164033,128,0,164161:0:0:0:0:
402,192,164097,128,0,164225:0:0:0:0:
475,192,164161,128,0,164289:0:0:0:0:
36,192,164225,128,0,164354:0:0:0:0:
109,192,164289,128,0,164418:0:0:0:0:
182,192,164354,128,0,164482:0:0:0:0:
256,192,164418,128,0,164546:0:0:0:0:
329,192,164482,128,0,164610:0:0:0:0:
402,192,164546,128,0,164674:0:0:0:0:
475,192,164610,128,0,164674:0:0:0:0:
36,192,164674,128,0,165059:0:0:0:0:
182,192,164674,1,0,0:0:0:0:
109,192,164674,128,0,165059:0:0:0:0:
329,192,164930,1,0,0:0:0:0:
402,192,164995,1,0,0:0:0:0:
475,192,165059,128,0,167751:0:0:0:0:
256,192,165059,1,0,0:0:0:0:
182,192,165123,128,0,165315:0:0:0:0:
109,192,165123,1,0,0:0:0:0:
402,192,165315,1,0,0:0:0:0:
329,192,165315,1,0,0:0:0:0:
109,192,165443,1,0,0:0:0:0:
36,192,165443,128,0,165700:0:0:0:0:
256,192,165507,1,0,0:0:0:0:
402,192,165571,1,0,0:0:0:0:
329,192,165636,1,0,0:0:0:0:
182,192,165700,1,0,0:0:0:0:
109,192,165700,1,0,0:0:0:0:
402,192,165828,128,0,166084:0:0:0:0:
256,192,165828,1,0,0:0:0:0:
182,192,165956,1,0,0:0:0:0:
109,192,165988,1,0,0:0:0:0:
36,192,166020,1,0,0:0:0:0:
329,192,166084,1,0,0:0:0:0:
256,192,166084,1,0,0:0:0:0:
182,192,166148,1,0,0:0:0:0:
329,192,166213,128,0,166469:0:0:0:0:
402,192,166213,1,0,0:0:0:0:
36,192,166469,1,0,0:0:0:0:
256,192,166469,128,0,166725:0:0:0:0:
109,192,166533,1,0,0:0:0:0:
182,192,166597,1,0,0:0:0:0:
402,192,166661,1,0,0:0:0:0:
109,192,166725,1,0,0:0:0:0:
36,192,166725,128,0,166982:0:0:0:0:
329,192,166725,1,0,0:0:0:0:
402,192,166982,1,0,0:0:0:0:
256,192,167046,1,0,0:0:0:0:
109,192,167110,1,0,0:0:0:0:
182,192,167110,128,0,167366:0:0:0:0:
402,192,167366,1,0,0:0:0:0:
329,192,167366,1,0,0:0:0:0:
256,192,167495,1,0,0:0:0:0:
182,192,167495,1,0,0:0:0:0:
109,192,167559,1,0,0:0:0:0:
36,192,167559,128,0,167751:0:0:0:0:
402,192,167623,1,0,0:0:0:0:
329,192,167687,1,0,0:0:0:0:
256,192,167751,128,0,168264:0:0:0:0:
109,192,167751,1,0,0:0:0:0:
182,192,167751,1,0,0:0:0:0:
402,192,167879,128,0,168136:0:0:0:0:
475,192,167879,1,0,0:0:0:0:
36,192,168007,1,0,0:0:0:0:
109,192,168039,1,0,0:0:0:0:
182,192,168071,1,0,0:0:0:0:
329,192,168136,1,0,0:0:0:0:
475,192,168136,1,0,0:0:0:0:
36,192,168200,1,0,0:0:0:0:
182,192,168264,128,0,168648:0:0:0:0:
329,192,168264,128,0,168456:0:0:0:0:
109,192,168264,1,0,0:0:0:0:
36,192,168456,1,0,0:0:0:0:
109,192,168456,1,0,0:0:0:0:
475,192,168520,1,0,0:0:0:0:
402,192,168520,1,0,0:0:0:0:
329,192,168606,1,0,0:0:0:0:
256,192,168606,1,0,0:0:0:0:
109,192,168648,128,0,169225:0:0:0:0:
182,192,168777,1,0,0:0:0:0:
256,192,168777,1,0,0:0:0:0:
402,192,168777,128,0,169033:0:0:0:0:
475,192,168777,1,0,0:0:0:0:
182,192,169033,1,0,0:0:0:0:
256,192,169097,1,0,0:0:0:0:
402,192,169161,1,0,0:0:0:0:
329,192,169161,1,0,0:0:0:0:
36,192,169225,128,0,171854:0:0:0:0:
182,192,169225,1,0,0:0:0:0:
475,192,169225,128,0,169418:0:0:0:0:
256,192,169418,1,0,0:0:0:0:
402,192,169418,1,0,0:0:0:0:
109,192,169546,1,0,0:0:0:0:
329,192,169546,128,0,169802:0:0:0:0:
182,192,169610,1,0,0:0:0:0:
256,192,169674,1,0,0:0:0:0:
109,192,169738,1,0,0:0:0:0:
402,192,169802,1,0,0:0:0:0:
475,192,169802,1,0,0:0:0:0:
256,192,169930,1,0,0:0:0:0:
182,192,169930,1,0,0:0:0:0:
475,192,170059,1,0,0:0:0:0:
402,192,170091,1,0,0:0:0:0:
329,192,170123,1,0,0:0:0:0:
109,192,170187,1,0,0:0:0:0:
182,192,170187,1,0,0:0:0:0:
256,192,170251,1,0,0:0:0:0:
402,192,170315,1,0,0:0:0:0:
475,192,170315,1,0,0:0:0:0:
182,192,170379,1,0,0:0:0:0:
256,192,170443,1,0,0:0:0:0:
329,192,170507,1,0,0:0:0:0:
402,192,170571,1,0,0:0:0:0:
109,192,170571,1,0,0:0:0:0:
182,192,170636,1,0,0:0:0:0:
256,192,170700,1,0,0:0:0:0:
329,192,170764,1,0,0:0:0:0:
109,192,170828,1,0,0:0:0:0:
475,192,170828,1,0,0:0:0:0:
402,192,170892,1,0,0:0:0:0:
329,192,170956,1,0,0:0:0:0:
256,192,171020,1,0,0:0:0:0:
475,192,171084,1,0,0:0:0:0:
402,192,171148,1,0,0:0:0:0:
109,192,171213,1,0,0:0:0:0:
329,192,171213,1,0,0:0:0:0:
182,192,171277,1,0,0:0:0:0:
475,192,171341,1,0,0:0:0:0:
402,192,171405,1,0,0:0:0:0:
109,192,171469,1,0,0:0:0:0:
256,192,171469,1,0,0:0:0:0:
329,192,171533,1,0,0:0:0:0:
182,192,171597,1,0,0:0:0:0:
475,192,171597,1,0,0:0:0:0:
402,192,171661,1,0,0:0:0:0:
256,192,171661,1,0,0:0:0:0:
109,192,171725,1,0,0:0:0:0:
329,192,171789,1,0,0:0:0:0:
475,192,171854,1,0,0:0:0:0:
402,192,171854,1,0,0:0:0:0:
109,192,171918,1,0,0:0:0:0:
182,192,171960,1,0,0:0:0:0:
256,192,172003,1,0,0:0:0:0:
329,192,172046,1,0,0:0:0:0:
182,192,172110,1,0,0:0:0:0:
36,192,172110,1,0,0:0:0:0:
475,192,172174,1,0,0:0:0:0:
402,192,172217,1,0,0:0:0:0:
329,192,172260,1,0,0:0:0:0:
256,192,172302,1,0,0:0:0:0:
36,192,172366,1,0,0:0:0:0:
109,192,172366,1,0,0:0:0:0:
475,192,172430,128,0,172495:0:0:0:0:
402,192,172495,128,0,172559:0:0:0:0:
329,192,172559,128,0,172623:0:0:0:0:
256,192,172623,128,0,172687:0:0:0:0:
36,192,172623,1,0,0:0:0:0:
182,192,172687,128,0,172751:0:0:0:0:
475,192,172708,1,0,0:0:0:0:
109,192,172751,128,0,172815:0:0:0:0:
36,192,172815,128,0,172879:0:0:0:0:
402,192,172879,1,0,0:0:0:0:
329,192,172879,128,0,173264:0:0:0:0:
475,192,172879,1,0,0:0:0:0:
182,192,172879,128,0,173264:0:0:0:0:
109,192,173136,1,0,0:0:0:0:
256,192,173200,1,0,0:0:0:0:
475,192,173264,128,0,174418:0:0:0:0:
402,192,173264,1,0,0:0:0:0:
109,192,173328,1,0,0:0:0:0:
36,192,173328,128,0,173520:0:0:0:0:
329,192,173520,1,0,0:0:0:0:
182,192,173520,1,0,0:0:0:0:
36,192,173648,1,0,0:0:0:0:
402,192,173648,128,0,173905:0:0:0:0:
109,192,173713,1,0,0:0:0:0:
182,192,173777,1,0,0:0:0:0:
256,192,173841,1,0,0:0:0:0:
109,192,173905,1,0,0:0:0:0:
36,192,173905,1,0,0:0:0:0:
182,192,174033,1,0,0:0:0:0:
329,192,174033,128,0,174225:0:0:0:0:
36,192,174161,1,0,0:0:0:0:
109,192,174193,1,0,0:0:0:0:
182,192,174225,1,0,0:0:0:0:
329,192,174289,1,0,0:0:0:0:
402,192,174289,1,0,0:0:0:0:
256,192,174354,1,0,0:0:0:0:
109,192,174418,1,0,0:0:0:0:
182,192,174418,128,0,174674:0:0:0:0:
402,192,174418,128,0,174546:0:0:0:0:
329,192,174546,128,0,174738:0:0:0:0:
36,192,174674,128,0,174930:0:0:0:0:
109,192,174674,1,0,0:0:0:0:
256,192,174738,128,0,174930:0:0:0:0:
402,192,174802,1,0,0:0:0:0:
475,192,174930,128,0,175187:0:0:0:0:
109,192,174930,128,0,175315:0:0:0:0:
182,192,174930,1,0,0:0:0:0:
329,192,174930,1,0,0:0:0:0:
329,192,175187,1,0,0:0:0:0:
256,192,175251,1,0,0:0:0:0:
182,192,175315,1,0,0:0:0:0:
402,192,175315,128,0,175571:0:0:0:0:
36,192,175315,128,0,176640:0:0:0:0:
256,192,175571,1,0,0:0:0:0:
329,192,175571,1,0,0:0:0:0:
182,192,175700,1,0,0:0:0:0:
109,192,175700,1,0,0:0:0:0:
402,192,175764,1,0,0:0:0:0:
475,192,175764,128,0,175956:0:0:0:0:
329,192,175828,1,0,0:0:0:0:
256,192,175892,1,0,0:0:0:0:
109,192,175956,1,0,0:0:0:0:
182,192,175956,1,0,0:0:0:0:
256,192,176084,128,0,176341:0:0:0:0:
329,192,176084,1,0,0:0:0:0:
475,192,176213,1,0,0:0:0:0:
402,192,176245,1,0,0:0:0:0:
329,192,176277,1,0,0:0:0:0:
109,192,176341,1,0,0:0:0:0:
182,192,176341,1,0,0:0:0:0:
475,192,176405,1,0,0:0:0:0:
329,192,176469,128,0,176661:0:0:0:0:
256,192,176469,1,0,0:0:0:0:
402,192,176469,1,0,0:0:0:0:
182,192,176640,128,0,176811:0:0:0:0:
475,192,176661,1,0,0:0:0:0:
402,192,176661,1,0,0:0:0:0:
256,192,176725,1,0,0:0:0:0:
329,192,176725,1,0,0:0:0:0:
109,192,176811,128,0,176982:0:0:0:0:
402,192,176811,1,0,0:0:0:0:
475,192,176811,1,0,0:0:0:0:
182,192,176982,1,0,0:0:0:0:
36,192,176982,128,0,177495:0:0:0:0:
475,192,176982,128,0,177238:0:0:0:0:
256,192,176982,1,0,0:0:0:0:
329,192,177238,1,0,0:0:0:0:
256,192,177302,1,0,0:0:0:0:
182,192,177366,1,0,0:0:0:0:
109,192,177366,1,0,0:0:0:0:
475,192,177430,1,0,0:0:0:0:
402,192,177430,128,0,177623:0:0:0:0:
256,192,177495,128,0,180059:0:0:0:0:
36,192,177623,1,0,0:0:0:0:
109,192,177623,1,0,0:0:0:0:
402,192,177751,1,0,0:0:0:0:
329,192,177751,128,0,178007:0:0:0:0:
36,192,177815,1,0,0:0:0:0:
109,192,177879,1,0,0:0:0:0:
182,192,177943,1,0,0:0:0:0:
36,192,178007,1,0,0:0:0:0:
475,192,178007,1,0,0:0:0:0:
402,192,178136,1,0,0:0:0:0:
329,192,178136,1,0,0:0:0:0:
182,192,178264,1,0,0:0:0:0:
109,192,178296,1,0,0:0:0:0:
36,192,178328,1,0,0:0:0:0:
475,192,178392,1,0,0:0:0:0:
402,192,178392,1,0,0:0:0:0:
329,192,178456,1,0,0:0:0:0:
182,192,178456,1,0,0:0:0:0:
109,192,178520,1,0,0:0:0:0:
36,192,178520,1,0,0:0:0:0:
475,192,178584,1,0,0:0:0:0:
402,192,178648,1,0,0:0:0:0:
329,192,178713,1,0,0:0:0:0:
109,192,178777,1,0,0:0:0:0:
182,192,178777,1,0,0:0:0:0:
402,192,178841,1,0,0:0:0:0:
329,192,178905,1,0,0:0:0:0:
182,192,178969,1,0,0:0:0:0:
36,192,179033,1,0,0:0:0:0:
475,192,179033,1,0,0:0:0:0:
109,192,179097,1,0,0:0:0:0:
329,192,179161,1,0,0:0:0:0:
475,192,179225,1,0,0:0:0:0:
109,192,179289,1,0,0:0:0:0:
182,192,179354,1,0,0:0:0:0:
475,192,179418,1,0,0:0:0:0:
402,192,179418,1,0,0:0:0:0:
329,192,179482,1,0,0:0:0:0:
36,192,179546,1,0,0:0:0:0:
109,192,179610,1,0,0:0:0:0:
182,192,179674,1,0,0:0:0:0:
402,192,179674,1,0,0:0:0:0:
329,192,179738,1,0,0:0:0:0:
36,192,179802,1,0,0:0:0:0:
109,192,179802,1,0,0:0:0:0:
402,192,179866,1,0,0:0:0:0:
475,192,179866,1,0,0:0:0:0:
182,192,179930,1,0,0:0:0:0:
329,192,179995,1,0,0:0:0:0:
36,192,180059,1,0,0:0:0:0:
109,192,180059,1,0,0:0:0:0:
402,192,180123,1,0,0:0:0:0:
329,192,180166,1,0,0:0:0:0:
256,192,180208,1,0,0:0:0:0:
182,192,180251,1,0,0:0:0:0:
329,192,180315,1,0,0:0:0:0:
475,192,180315,1,0,0:0:0:0:
36,192,180379,1,0,0:0:0:0:
109,192,180422,1,0,0:0:0:0:
182,192,180465,1,0,0:0:0:0:
256,192,180507,1,0,0:0:0:0:
475,192,180571,1,0,0:0:0:0:
402,192,180571,1,0,0:0:0:0:
36,192,180636,128,0,180700:0:0:0:0:
109,192,180700,128,0,180764:0:0:0:0:
182,192,180764,128,0,180828:0:0:0:0:
256,192,180828,128,0,180892:0:0:0:0:
475,192,180828,1,0,0:0:0:0:
329,192,180892,128,0,180956:0:0:0:0:
36,192,180913,1,0,0:0:0:0:
402,192,180956,128,0,181020:0:0:0:0:
475,192,181020,128,0,181084:0:0:0:0:
329,192,181084,128,0,182559:0:0:0:0:
36,192,181084,128,0,181341:0:0:0:0:
109,192,181084,128,0,181341:0:0:0:0:
256,192,181084,1,0,0:0:0:0:
475,192,181341,1,0,0:0:0:0:
402,192,181405,1,0,0:0:0:0:
109,192,181469,128,0,181725:0:0:0:0:
182,192,181469,128,0,181725:0:0:0:0:
475,192,181725,1,0,0:0:0:0:
36,192,181725,1,0,0:0:0:0:
182,192,181854,128,0,182110:0:0:0:0:
256,192,181854,128,0,182110:0:0:0:0:
109,192,181918,1,0,0:0:0:0:
402,192,181982,1,0,0:0:0:0:
475,192,182046,1,0,0:0:0:0:
36,192,182110,1,0,0:0:0:0:
109,192,182110,1,0,0:0:0:0:
109,192,182238,128,0,182495:0:0:0:0:
36,192,182238,128,0,182495:0:0:0:0:
182,192,182366,1,0,0:0:0:0:
402,192,182398,1,0,0:0:0:0:
475,192,182430,1,0,0:0:0:0:
256,192,182495,1,0,0:0:0:0:
182,192,182495,1,0,0:0:0:0:
402,192,182559,128,0,182751:0:0:0:0:
475,192,182559,1,0,0:0:0:0:
36,192,182623,128,0,182879:0:0:0:0:
109,192,182623,128,0,182879:0:0:0:0:
475,192,182751,128,0,183007:0:0:0:0:
182,192,182879,128,0,183136:0:0:0:0:
329,192,182879,128,0,183136:0:0:0:0:
36,192,183007,128,0,183264:0:0:0:0:
402,192,183136,128,0,183392:0:0:0:0:
475,192,183136,128,0,183392:0:0:0:0:
256,192,183136,1,0,0:0:0:0:
182,192,183264,128,0,184610:0:0:0:0:
109,192,183392,1,0,0:0:0:0:
256,192,183456,1,0,0:0:0:0:
329,192,183520,128,0,183777:0:0:0:0:
402,192,183520,128,0,183777:0:0:0:0:
475,192,183777,1,0,0:0:0:0:
256,192,183777,1,0,0:0:0:0:
109,192,183905,1,0,0:0:0:0:
36,192,183905,1,0,0:0:0:0:
329,192,183969,128,0,184161:0:0:0:0:
256,192,183969,128,0,184161:0:0:0:0:
402,192,184033,1,0,0:0:0:0:
475,192,184097,1,0,0:0:0:0:
36,192,184161,1,0,0:0:0:0:
109,192,184161,1,0,0:0:0:0:
402,192,184289,128,0,184546:0:0:0:0:
475,192,184289,128,0,184546:0:0:0:0:
329,192,184418,1,0,0:0:0:0:
109,192,184450,1,0,0:0:0:0:
36,192,184482,1,0,0:0:0:0:
256,192,184546,1,0,0:0:0:0:
329,192,184546,1,0,0:0:0:0:
109,192,184610,128,0,184802:0:0:0:0:
36,192,184610,1,0,0:0:0:0:
402,192,184674,128,0,184866:0:0:0:0:
475,192,184674,128,0,184866:0:0:0:0:
182,192,184802,128,0,185059:0:0:0:0:
329,192,184866,1,0,0:0:0:0:
256,192,184866,1,0,0:0:0:0:
109,192,184930,1,0,0:0:0:0:
36,192,184930,1,0,0:0:0:0:
475,192,185016,1,0,0:0:0:0:
402,192,185016,1,0,0:0:0:0:
329,192,185059,128,0,185315:0:0:0:0:
109,192,185187,128,0,185443:0:0:0:0:
36,192,185187,128,0,185443:0:0:0:0:
182,192,185187,1,0,0:0:0:0:
256,192,185187,1,0,0:0:0:0:
475,192,185315,128,0,187238:0:0:0:0:
256,192,185443,1,0,0:0:0:0:
329,192,185507,1,0,0:0:0:0:
182,192,185571,128,0,185828:0:0:0:0:
109,192,185571,128,0,185828:0:0:0:0:
329,192,185828,1,0,0:0:0:0:
402,192,185828,1,0,0:0:0:0:
109,192,185956,1,0,0:0:0:0:
36,192,185956,1,0,0:0:0:0:
256,192,186020,128,0,186213:0:0:0:0:
329,192,186020,128,0,186213:0:0:0:0:
182,192,186084,1,0,0:0:0:0:
109,192,186148,1,0,0:0:0:0:
36,192,186213,1,0,0:0:0:0:
402,192,186213,1,0,0:0:0:0:
329,192,186341,1,0,0:0:0:0:
182,192,186341,1,0,0:0:0:0:
36,192,186469,1,0,0:0:0:0:
109,192,186501,1,0,0:0:0:0:
182,192,186533,1,0,0:0:0:0:
402,192,186597,1,0,0:0:0:0:
329,192,186597,1,0,0:0:0:0:
256,192,186661,1,0,0:0:0:0:
109,192,186725,1,0,0:0:0:0:
36,192,186725,1,0,0:0:0:0:
402,192,186789,1,0,0:0:0:0:
329,192,186854,1,0,0:0:0:0:
256,192,186918,1,0,0:0:0:0:
182,192,186982,1,0,0:0:0:0:
109,192,186982,1,0,0:0:0:0:
329,192,187046,1,0,0:0:0:0:
256,192,187110,1,0,0:0:0:0:
182,192,187174,1,0,0:0:0:0:
36,192,187238,128,0,188264:0:0:0:0:
109,192,187238,1,0,0:0:0:0:
402,192,187238,1,0,0:0:0:0:
329,192,187302,1,0,0:0:0:0:
182,192,187366,1,0,0:0:0:0:
256,192,187430,1,0,0:0:0:0:
475,192,187495,1,0,0:0:0:0:
109,192,187559,1,0,0:0:0:0:
182,192,187623,1,0,0:0:0:0:
402,192,187623,1,0,0:0:0:0:
329,192,187687,1,0,0:0:0:0:
475,192,187751,1,0,0:0:0:0:
256,192,187815,1,0,0:0:0:0:
182,192,187879,1,0,0:0:0:0:
402,192,187879,1,0,0:0:0:0:
109,192,187943,1,0,0:0:0:0:
256,192,188007,1,0,0:0:0:0:
475,192,188007,1,0,0:0:0:0:
182,192,188071,1,0,0:0:0:0:
402,192,188071,1,0,0:0:0:0:
329,192,188136,1,0,0:0:0:0:
256,192,188200,1,0,0:0:0:0:
475,192,188264,1,0,0:0:0:0:
402,192,188264,1,0,0:0:0:0:
109,192,188328,1,0,0:0:0:0:
182,192,188371,1,0,0:0:0:0:
256,192,188413,1,0,0:0:0:0:
329,192,188456,1,0,0:0:0:0:
36,192,188520,1,0,0:0:0:0:
182,192,188520,1,0,0:0:0:0:
475,192,188584,1,0,0:0:0:0:
402,192,188627,1,0,0:0:0:0:
329,192,188670,1,0,0:0:0:0:
256,192,188713,1,0,0:0:0:0:
109,192,188777,1,0,0:0:0:0:
36,192,188777,1,0,0:0:0:0:
475,192,188841,128,0,188905:0:0:0:0:
402,192,188905,128,0,188969:0:0:0:0:
329,192,188969,128,0,189033:0:0:0:0:
256,192,189033,128,0,189097:0:0:0:0:
36,192,189033,1,0,0:0:0:0:
182,192,189097,128,0,189161:0:0:0:0:
475,192,189119,1,0,0:0:0:0:
109,192,189161,128,0,189225:0:0:0:0:
36,192,189225,128,0,189289:0:0:0:0:
256,192,189289,128,0,190828:0:0:0:0:
402,192,189289,128,0,189546:0:0:0:0:
475,192,189289,128,0,189546:0:0:0:0:
182,192,189289,1,0,0:0:0:0:
36,192,189546,1,0,0:0:0:0:
109,192,189610,1,0,0:0:0:0:
329,192,189674,128,0,189930:0:0:0:0:
402,192,189674,128,0,189930:0:0:0:0:
109,192,189930,1,0,0:0:0:0:
36,192,189930,1,0,0:0:0:0:
402,192,190059,1,0,0:0:0:0:
329,192,190059,1,0,0:0:0:0:
36,192,190123,128,0,190315:0:0:0:0:
109,192,190123,128,0,190315:0:0:0:0:
182,192,190187,1,0,0:0:0:0:
329,192,190251,1,0,0:0:0:0:
402,192,190315,1,0,0:0:0:0:
475,192,190315,1,0,0:0:0:0:
109,192,190443,128,0,190700:0:0:0:0:
182,192,190443,128,0,190700:0:0:0:0:
475,192,190571,1,0,0:0:0:0:
402,192,190604,1,0,0:0:0:0:
329,192,190636,1,0,0:0:0:0:
475,192,190700,1,0,0:0:0:0:
36,192,190700,1,0,0:0:0:0:
402,192,190764,1,0,0:0:0:0:
329,192,190828,128,0,190956:0:0:0:0:
109,192,190828,128,0,191084:0:0:0:0:
36,192,190828,128,0,191084:0:0:0:0:
402,192,190956,128,0,191213:0:0:0:0:
329,192,191084,128,0,191341:0:0:0:0:
182,192,191084,128,0,191341:0:0:0:0:
109,192,191213,128,0,191469:0:0:0:0:
256,192,191341,1,0,0:0:0:0:
475,192,191341,128,0,191597:0:0:0:0:
402,192,191341,128,0,191597:0:0:0:0:
36,192,191469,128,0,192815:0:0:0:0:
329,192,191597,1,0,0:0:0:0:
256,192,191661,1,0,0:0:0:0:
109,192,191725,128,0,191982:0:0:0:0:
182,192,191725,128,0,191982:0:0:0:0:
329,192,191982,1,0,0:0:0:0:
402,192,191982,1,0,0:0:0:0:
182,192,192110,1,0,0:0:0:0:
109,192,192110,1,0,0:0:0:0:
256,192,192174,128,0,192366:0:0:0:0:
329,192,192174,128,0,192366:0:0:0:0:
402,192,192238,1,0,0:0:0:0:
475,192,192302,1,0,0:0:0:0:
109,192,192366,1,0,0:0:0:0:
182,192,192366,1,0,0:0:0:0:
402,192,192495,128,0,192751:0:0:0:0:
475,192,192495,128,0,192751:0:0:0:0:
329,192,192623,1,0,0:0:0:0:
182,192,192655,1,0,0:0:0:0:
109,192,192687,1,0,0:0:0:0:
256,192,192751,1,0,0:0:0:0:
329,192,192751,1,0,0:0:0:0:
109,192,192815,128,0,193071:0:0:0:0:
182,192,192815,1,0,0:0:0:0:
475,192,192879,128,0,193071:0:0:0:0:
402,192,192879,128,0,193071:0:0:0:0:
36,192,193071,128,0,193264:0:0:0:0:
256,192,193071,1,0,0:0:0:0:
329,192,193071,1,0,0:0:0:0:
402,192,193136,1,0,0:0:0:0:
475,192,193136,1,0,0:0:0:0:
256,192,193221,1,0,0:0:0:0:
182,192,193221,1,0,0:0:0:0:
329,192,193264,128,0,193584:0:0:0:0:
109,192,193392,128,0,193648:0:0:0:0:
36,192,193392,128,0,193648:0:0:0:0:
182,192,193392,1,0,0:0:0:0:
475,192,193392,1,0,0:0:0:0:
402,192,193584,128,0,193905:0:0:0:0:
256,192,193648,1,0,0:0:0:0:
329,192,193713,1,0,0:0:0:0:
109,192,193777,128,0,194033:0:0:0:0:
182,192,193777,128,0,194033:0:0:0:0:
475,192,193905,128,0,194161:0:0:0:0:
256,192,194033,1,0,0:0:0:0:
329,192,194033,1,0,0:0:0:0:
36,192,194161,1,0,0:0:0:0:
109,192,194161,1,0,0:0:0:0:
256,192,194225,128,0,194418:0:0:0:0:
182,192,194225,128,0,194418:0:0:0:0:
402,192,194289,1,0,0:0:0:0:
475,192,194289,128,0,196469:0:0:0:0:
329,192,194354,1,0,0:0:0:0:
36,192,194418,1,0,0:0:0:0:
109,192,194418,1,0,0:0:0:0:
329,192,194546,1,0,0:0:0:0:
182,192,194546,1,0,0:0:0:0:
402,192,194674,1,0,0:0:0:0:
329,192,194706,1,0,0:0:0:0:
256,192,194738,1,0,0:0:0:0:
36,192,194802,1,0,0:0:0:0:
109,192,194802,1,0,0:0:0:0:
182,192,194866,1,0,0:0:0:0:
329,192,194930,1,0,0:0:0:0:
402,192,194930,1,0,0:0:0:0:
256,192,194995,1,0,0:0:0:0:
182,192,195059,1,0,0:0:0:0:
109,192,195123,1,0,0:0:0:0:
402,192,195187,1,0,0:0:0:0:
36,192,195187,1,0,0:0:0:0:
329,192,195251,1,0,0:0:0:0:
256,192,195315,1,0,0:0:0:0:
182,192,195379,1,0,0:0:0:0:
402,192,195443,1,0,0:0:0:0:
36,192,195443,1,0,0:0:0:0:
109,192,195507,1,0,0:0:0:0:
182,192,195571,1,0,0:0:0:0:
256,192,195636,1,0,0:0:0:0:
36,192,195700,1,0,0:0:0:0:
402,192,195700,1,0,0:0:0:0:
109,192,195764,1,0,0:0:0:0:
182,192,195828,1,0,0:0:0:0:
329,192,195892,1,0,0:0:0:0:
402,192,195956,1,0,0:0:0:0:
36,192,195956,1,0,0:0:0:0:
109,192,196020,1,0,0:0:0:0:
256,192,196084,1,0,0:0:0:0:
329,192,196148,1,0,0:0:0:0:
36,192,196213,1,0,0:0:0:0:
402,192,196213,1,0,0:0:0:0:
182,192,196277,1,0,0:0:0:0:
256,192,196341,1,0,0:0:0:0:
109,192,196405,1,0,0:0:0:0:
329,192,196405,1,0,0:0:0:0:
402,192,196469,1,0,0:0:0:0:
182,192,196469,1,0,0:0:0:0:
256,192,196533,1,0,0:0:0:0:
109,192,196597,1,0,0:0:0:0:
36,192,196597,1,0,0:0:0:0:
402,192,196661,1,0,0:0:0:0:
329,192,196725,1,0,0:0:0:0:
182,192,196725,1,0,0:0:0:0:
256,192,196725,1,0,0:0:0:0:
109,192,196789,1,0,0:0:0:0:
402,192,196854,1,0,0:0:0:0:
475,192,196854,1,0,0:0:0:0:
256,192,196918,1,0,0:0:0:0:
36,192,196982,1,0,0:0:0:0:
109,192,196982,1,0,0:0:0:0:
329,192,196982,1,0,0:0:0:0:
475,192,197046,1,0,0:0:0:0:
182,192,197078,1,0,0:0:0:0:
402,192,197110,1,0,0:0:0:0:
109,192,197174,1,0,0:0:0:0:
329,192,197174,1,0,0:0:0:0:
256,192,197238,1,0,0:0:0:0:
475,192,197238,1,0,0:0:0:0:
36,192,197270,1,0,0:0:0:0:
329,192,197302,1,0,0:0:0:0:
402,192,197366,1,0,0:0:0:0:
109,192,197366,1,0,0:0:0:0:
475,192,197430,1,0,0:0:0:0:
182,192,197430,1,0,0:0:0:0:
256,192,197495,128,0,197607:0:0:0:0:
402,192,197607,128,0,197719:0:0:0:0:
182,192,197719,128,0,197879:0:0:0:0:
329,192,197879,128,0,197943:0:0:0:0:
109,192,197943,128,0,198136:0:0:0:0:
256,192,198136,128,0,198264:0:0:0:0:
475,192,198264,1,0,0:0:0:0:
402,192,198296,1,0,0:0:0:0:
36,192,198328,1,0,0:0:0:0:
329,192,198328,1,0,0:0:0:0:
109,192,198360,1,0,0:0:0:0:
182,192,198392,1,0,0:0:0:0:
329,192,198456,1,0,0:0:0:0:
402,192,198488,1,0,0:0:0:0:
109,192,198520,1,0,0:0:0:0:
36,192,198520,128,0,198777:0:0:0:0:
475,192,198520,1,0,0:0:0:0:
256,192,198520,1,0,0:0:0:0:
475,192,198777,128,0,198969:0:0:0:0:
329,192,198777,1,0,0:0:0:0:
256,192,198809,1,0,0:0:0:0:
182,192,198841,1,0,0:0:0:0:
402,192,198969,128,0,199161:0:0:0:0:
36,192,198969,1,0,0:0:0:0:
109,192,199001,1,0,0:0:0:0:
182,192,199033,1,0,0:0:0:0:
475,192,199161,128,0,199354:0:0:0:0:
329,192,199161,1,0,0:0:0:0:
256,192,199193,1,0,0:0:0:0:
182,192,199225,1,0,0:0:0:0:
402,192,199354,128,0,199546:0:0:0:0:
36,192,199354,1,0,0:0:0:0:
109,192,199386,1,0,0:0:0:0:
182,192,199418,1,0,0:0:0:0:
475,192,199546,128,0,199738:0:0:0:0:
329,192,199546,1,0,0:0:0:0:
256,192,199578,1,0,0:0:0:0:
182,192,199610,1,0,0:0:0:0:
402,192,199738,128,0,199930:0:0:0:0:
36,192,199738,1,0,0:0:0:0:
109,192,199770,1,0,0:0:0:0:
182,192,199802,1,0,0:0:0:0:
475,192,199930,128,0,200123:0:0:0:0:
329,192,199930,1,0,0:0:0:0:
256,192,199963,1,0,0:0:0:0:
182,192,199995,1,0,0:0:0:0:
402,192,200123,128,0,200315:0:0:0:0:
36,192,200123,1,0,0:0:0:0:
109,192,200155,1,0,0:0:0:0:
182,192,200187,1,0,0:0:0:0:
475,192,200315,128,0,200507:0:0:0:0:
329,192,200315,1,0,0:0:0:0:
256,192,200347,1,0,0:0:0:0:
182,192,200379,1,0,0:0:0:0:
36,192,200507,1,0,0:0:0:0:
109,192,200539,1,0,0:0:0:0:
182,192,200571,1,0,0:0:0:0:
329,192,200571,1,0,0:0:0:0:
402,192,200636,1,0,0:0:0:0:
475,192,200700,1,0,0:0:0:0:
109,192,200764,1,0,0:0:0:0:
402,192,200828,1,0,0:0:0:0:
36,192,200828,128,0,201020:0:0:0:0:
329,192,200860,1,0,0:0:0:0:
256,192,200892,1,0,0:0:0:0:
475,192,201020,128,0,201213:0:0:0:0:
109,192,201020,1,0,0:0:0:0:
182,192,201052,1,0,0:0:0:0:
256,192,201084,1,0,0:0:0:0:
36,192,201213,128,0,201405:0:0:0:0:
402,192,201213,1,0,0:0:0:0:
329,192,201245,1,0,0:0:0:0:
256,192,201277,1,0,0:0:0:0:
475,192,201405,128,0,201597:0:0:0:0:
109,192,201405,1,0,0:0:0:0:
182,192,201437,1,0,0:0:0:0:
256,192,201469,1,0,0:0:0:0:
36,192,201597,128,0,201789:0:0:0:0:
402,192,201597,1,0,0:0:0:0:
329,192,201629,1,0,0:0:0:0:
256,192,201661,1,0,0:0:0:0:
475,192,201789,128,0,201982:0:0:0:0:
109,192,201789,1,0,0:0:0:0:
182,192,201821,1,0,0:0:0:0:
256,192,201854,1,0,0:0:0:0:
36,192,201982,128,0,202110:0:0:0:0:
402,192,201982,1,0,0:0:0:0:
329,192,202014,1,0,0:0:0:0:
256,192,202046,1,0,0:0:0:0:
475,192,202110,1,0,0:0:0:0:
109,192,202110,1,0,0:0:0:0:
402,192,202174,1,0,0:0:0:0:
182,192,202238,1,0,0:0:0:0:
329,192,202238,1,0,0:0:0:0:
109,192,202302,1,0,0:0:0:0:
256,192,202366,1,0,0:0:0:0:
475,192,202366,1,0,0:0:0:0:
36,192,202366,1,0,0:0:0:0:
109,192,202430,1,0,0:0:0:0:
329,192,202495,1,0,0:0:0:0:
182,192,202495,1,0,0:0:0:0:
402,192,202559,1,0,0:0:0:0:
256,192,202623,1,0,0:0:0:0:
109,192,202623,1,0,0:0:0:0:
36,192,202623,1,0,0:0:0:0:
475,192,202623,128,0,202879:0:0:0:0:
36,192,202879,128,0,203071:0:0:0:0:
182,192,202879,1,0,0:0:0:0:
256,192,202911,1,0,0:0:0:0:
329,192,202943,1,0,0:0:0:0:
109,192,203071,128,0,203264:0:0:0:0:
475,192,203071,1,0,0:0:0:0:
402,192,203104,1,0,0:0:0:0:
329,192,203136,1,0,0:0:0:0:
36,192,203264,128,0,203456:0:0:0:0:
182,192,203264,1,0,0:0:0:0:
256,192,203296,1,0,0:0:0:0:
329,192,203328,1,0,0:0:0:0:
109,192,203456,128,0,203648:0:0:0:0:
475,192,203456,1,0,0:0:0:0:
402,192,203488,1,0,0:0:0:0:
329,192,203520,1,0,0:0:0:0:
36,192,203648,128,0,203841:0:0:0:0:
182,192,203648,1,0,0:0:0:0:
256,192,203680,1,0,0:0:0:0:
329,192,203713,1,0,0:0:0:0:
109,192,203841,128,0,204033:0:0:0:0:
475,192,203841,1,0,0:0:0:0:
402,192,203873,1,0,0:0:0:0:
329,192,203905,1,0,0:0:0:0:
36,192,204033,128,0,204225:0:0:0:0:
182,192,204033,1,0,0:0:0:0:
256,192,204065,1,0,0:0:0:0:
329,192,204097,1,0,0:0:0:0:
109,192,204225,128,0,204418:0:0:0:0:
475,192,204225,1,0,0:0:0:0:
402,192,204257,1,0,0:0:0:0:
329,192,204289,1,0,0:0:0:0:
36,192,204418,128,0,204610:0:0:0:0:
182,192,204418,1,0,0:0:0:0:
256,192,204450,1,0,0:0:0:0:
329,192,204482,1,0,0:0:0:0:
475,192,204610,1,0,0:0:0:0:
402,192,204642,1,0,0:0:0:0:
329,192,204674,1,0,0:0:0:0:
182,192,204674,1,0,0:0:0:0:
109,192,204738,1,0,0:0:0:0:
36,192,204802,1,0,0:0:0:0:
402,192,204866,1,0,0:0:0:0:
475,192,204930,128,0,205123:0:0:0:0:
256,192,204930,1,0,0:0:0:0:
182,192,204963,1,0,0:0:0:0:
109,192,204995,1,0,0:0:0:0:
36,192,205123,128,0,205315:0:0:0:0:
256,192,205123,1,0,0:0:0:0:
329,192,205155,1,0,0:0:0:0:
402,192,205187,1,0,0:0:0:0:
475,192,205315,128,0,205507:0:0:0:0:
256,192,205315,1,0,0:0:0:0:
182,192,205347,1,0,0:0:0:0:
109,192,205379,1,0,0:0:0:0:
36,192,205507,128,0,205700:0:0:0:0:
256,192,205507,1,0,0:0:0:0:
329,192,205539,1,0,0:0:0:0:
402,192,205571,1,0,0:0:0:0:
475,192,205700,128,0,205892:0:0:0:0:
256,192,205700,1,0,0:0:0:0:
182,192,205732,1,0,0:0:0:0:
109,192,205764,1,0,0:0:0:0:
36,192,205892,128,0,206084:0:0:0:0:
256,192,205892,1,0,0:0:0:0:
329,192,205924,1,0,0:0:0:0:
402,192,205956,1,0,0:0:0:0:
475,192,206084,128,0,206213:0:0:0:0:
256,192,206084,1,0,0:0:0:0:
182,192,206116,1,0,0:0:0:0:
109,192,206148,1,0,0:0:0:0:
402,192,206213,1,0,0:0:0:0:
329,192,206213,1,0,0:0:0:0:
36,192,206277,1,0,0:0:0:0:
109,192,206277,1,0,0:0:0:0:
182,192,206277,1,0,0:0:0:0:
329,192,206341,1,0,0:0:0:0:
182,192,206405,1,0,0:0:0:0:
36,192,206469,1,0,0:0:0:0:
475,192,206469,1,0,0:0:0:0:
256,192,206469,1,0,0:0:0:0:
402,192,206533,1,0,0:0:0:0:
182,192,206597,1,0,0:0:0:0:
329,192,206597,1,0,0:0:0:0:
109,192,206661,1,0,0:0:0:0:
475,192,206725,1,0,0:0:0:0:
402,192,206725,1,0,0:0:0:0:
36,192,206725,1,0,0:0:0:0:
256,192,206725,128,0,206982:0:0:0:0:
182,192,206982,1,0,0:0:0:0:
329,192,206982,128,0,207174:0:0:0:0:
109,192,207014,1,0,0:0:0:0:
36,192,207046,1,0,0:0:0:0:
256,192,207174,1,0,0:0:0:0:
402,192,207174,128,0,207366:0:0:0:0:
182,192,207206,1,0,0:0:0:0:
109,192,207238,1,0,0:0:0:0:
329,192,207366,1,0,0:0:0:0:
475,192,207366,128,0,207559:0:0:0:0:
256,192,207398,1,0,0:0:0:0:
182,192,207430,1,0,0:0:0:0:
109,192,207559,128,0,207751:0:0:0:0:
402,192,207559,1,0,0:0:0:0:
329,192,207591,1,0,0:0:0:0:
256,192,207623,1,0,0:0:0:0:
475,192,207751,1,0,0:0:0:0:
36,192,207751,128,0,207943:0:0:0:0:
402,192,207783,1,0,0:0:0:0:
329,192,207815,1,0,0:0:0:0:
256,192,207943,1,0,0:0:0:0:
475,192,207943,128,0,208136:0:0:0:0:
182,192,207975,1,0,0:0:0:0:
109,192,208007,1,0,0:0:0:0:
256,192,208136,1,0,0:0:0:0:
36,192,208136,128,0,208328:0:0:0:0:
329,192,208168,1,0,0:0:0:0:
402,192,208200,1,0,0:0:0:0:
182,192,208328,1,0,0:0:0:0:
475,192,208328,128,0,208520:0:0:0:0:
256,192,208360,1,0,0:0:0:0:
329,192,208392,1,0,0:0:0:0:
402,192,208520,128,0,208713:0:0:0:0:
109,192,208520,1,0,0:0:0:0:
182,192,208552,1,0,0:0:0:0:
256,192,208584,1,0,0:0:0:0:
36,192,208713,1,0,0:0:0:0:
109,192,208745,1,0,0:0:0:0:
182,192,208777,1,0,0:0:0:0:
329,192,208777,1,0,0:0:0:0:
402,192,208841,1,0,0:0:0:0:
109,192,208905,1,0,0:0:0:0:
475,192,208969,1,0,0:0:0:0:
36,192,209033,128,0,209225:0:0:0:0:
329,192,209033,1,0,0:0:0:0:
256,192,209065,1,0,0:0:0:0:
182,192,209097,1,0,0:0:0:0:
109,192,209225,128,0,209418:0:0:0:0:
475,192,209225,1,0,0:0:0:0:
402,192,209257,1,0,0:0:0:0:
329,192,209289,1,0,0:0:0:0:
475,192,209418,128,0,209610:0:0:0:0:
182,192,209418,1,0,0:0:0:0:
256,192,209450,1,0,0:0:0:0:
329,192,209482,1,0,0:0:0:0:
402,192,209610,128,0,209802:0:0:0:0:
36,192,209610,1,0,0:0:0:0:
109,192,209642,1,0,0:0:0:0:
182,192,209674,1,0,0:0:0:0:
329,192,209802,1,0,0:0:0:0:
36,192,209802,128,0,209995:0:0:0:0:
256,192,209834,1,0,0:0:0:0:
182,192,209866,1,0,0:0:0:0:
109,192,209995,128,0,210187:0:0:0:0:
475,192,209995,1,0,0:0:0:0:
402,192,210027,1,0,0:0:0:0:
329,192,210059,1,0,0:0:0:0:
182,192,210187,1,0,0:0:0:0:
475,192,210187,128,0,210315:0:0:0:0:
256,192,210219,1,0,0:0:0:0:
329,192,210251,1,0,0:0:0:0:
109,192,210315,1,0,0:0:0:0:
36,192,210315,1,0,0:0:0:0:
182,192,210315,1,0,0:0:0:0:
402,192,210443,1,0,0:0:0:0:
256,192,210443,1,0,0:0:0:0:
329,192,210443,1,0,0:0:0:0:
36,192,210571,1,0,0:0:0:0:
402,192,210571,1,0,0:0:0:0:
475,192,210571,1,0,0:0:0:0:
109,192,210571,1,0,0:0:0:0:
182,192,210700,1,0,0:0:0:0:
256,192,210700,1,0,0:0:0:0:
109,192,210700,1,0,0:0:0:0:
36,192,210828,1,0,0:0:0:0:
402,192,210828,1,0,0:0:0:0:
475,192,210828,1,0,0:0:0:0:
256,192,210828,128,0,211084:0:0:0:0:
329,192,211084,1,0,0:0:0:0:
182,192,211084,128,0,211277:0:0:0:0:
402,192,211116,1,0,0:0:0:0:
475,192,211148,1,0,0:0:0:0:
256,192,211277,1,0,0:0:0:0:
109,192,211277,128,0,211469:0:0:0:0:
329,192,211309,1,0,0:0:0:0:
402,192,211341,1,0,0:0:0:0:
182,192,211469,1,0,0:0:0:0:
36,192,211469,128,0,211661:0:0:0:0:
256,192,211501,1,0,0:0:0:0:
329,192,211533,1,0,0:0:0:0:
402,192,211661,128,0,211854:0:0:0:0:
109,192,211661,1,0,0:0:0:0:
182,192,211693,1,0,0:0:0:0:
256,192,211725,1,0,0:0:0:0:
36,192,211854,1,0,0:0:0:0:
475,192,211854,128,0,212046:0:0:0:0:
109,192,211886,1,0,0:0:0:0:
182,192,211918,1,0,0:0:0:0:
256,192,212046,1,0,0:0:0:0:
36,192,212046,128,0,212238:0:0:0:0:
329,192,212078,1,0,0:0:0:0:
402,192,212110,1,0,0:0:0:0:
256,192,212238,1,0,0:0:0:0:
475,192,212238,128,0,212430:0:0:0:0:
182,192,212270,1,0,0:0:0:0:
109,192,212302,1,0,0:0:0:0:
329,192,212430,1,0,0:0:0:0:
36,192,212430,128,0,212623:0:0:0:0:
256,192,212463,1,0,0:0:0:0:
182,192,212495,1,0,0:0:0:0:
109,192,212623,128,0,212815:0:0:0:0:
402,192,212623,1,0,0:0:0:0:
329,192,212655,1,0,0:0:0:0:
256,192,212687,1,0,0:0:0:0:
475,192,212815,1,0,0:0:0:0:
402,192,212847,1,0,0:0:0:0:
329,192,212879,1,0,0:0:0:0:
36,192,212879,1,0,0:0:0:0:
182,192,212943,1,0,0:0:0:0:
256,192,213007,1,0,0:0:0:0:
329,192,213071,1,0,0:0:0:0:
402,192,213136,128,0,213328:0:0:0:0:
36,192,213136,1,0,0:0:0:0:
109,192,213168,1,0,0:0:0:0:
182,192,213200,1,0,0:0:0:0:
475,192,213328,128,0,213520:0:0:0:0:
256,192,213328,1,0,0:0:0:0:
182,192,213360,1,0,0:0:0:0:
109,192,213392,1,0,0:0:0:0:
36,192,213520,128,0,213713:0:0:0:0:
402,192,213520,1,0,0:0:0:0:
329,192,213552,1,0,0:0:0:0:
256,192,213584,1,0,0:0:0:0:
109,192,213713,128,0,213905:0:0:0:0:
329,192,213713,1,0,0:0:0:0:
402,192,213745,1,0,0:0:0:0:
475,192,213777,1,0,0:0:0:0:
36,192,213905,1,0,0:0:0:0:
256,192,213905,1,0,0:0:0:0:
182,192,213905,1,0,0:0:0:0:
475,192,213969,1,0,0:0:0:0:
402,192,214033,1,0,0:0:0:0:
109,192,214097,1,0,0:0:0:0:
182,192,214161,1,0,0:0:0:0:
329,192,214225,1,0,0:0:0:0:
109,192,214289,1,0,0:0:0:0:
36,192,214289,1,0,0:0:0:0:
475,192,214289,128,0,214418:0:0:0:0:
256,192,214354,1,0,0:0:0:0:
402,192,214418,128,0,214546:0:0:0:0:
182,192,214482,1,0,0:0:0:0:
329,192,214546,128,0,214674:0:0:0:0:
109,192,214610,1,0,0:0:0:0:
256,192,214674,128,0,214802:0:0:0:0:
36,192,214738,1,0,0:0:0:0:
182,192,214802,128,0,214930:0:0:0:0:
329,192,214866,1,0,0:0:0:0:
109,192,214930,1,0,0:0:0:0:
475,192,214930,1,0,0:0:0:0:
402,192,214930,1,0,0:0:0:0:
36,192,214930,128,0,215187:0:0:0:0:
329,192,215187,1,0,0:0:0:0:
402,192,215187,1,0,0:0:0:0:
256,192,215215,1,0,0:0:0:0:
182,192,215244,1,0,0:0:0:0:
475,192,215358,1,0,0:0:0:0:
402,192,215386,1,0,0:0:0:0:
329,192,215415,1,0,0:0:0:0:
182,192,215529,1,0,0:0:0:0:
109,192,215529,1,0,0:0:0:0:
256,192,215557,1,0,0:0:0:0:
329,192,215586,1,0,0:0:0:0:
36,192,215700,1,0,0:0:0:0:
109,192,215728,1,0,0:0:0:0:
182,192,215757,1,0,0:0:0:0:
329,192,215871,1,0,0:0:0:0:
402,192,215871,1,0,0:0:0:0:
256,192,215899,1,0,0:0:0:0:
182,192,215928,1,0,0:0:0:0:
475,192,216042,1,0,0:0:0:0:
402,192,216070,1,0,0:0:0:0:
329,192,216099,1,0,0:0:0:0:
182,192,216213,1,0,0:0:0:0:
109,192,216213,1,0,0:0:0:0:
256,192,216241,1,0,0:0:0:0:
329,192,216270,1,0,0:0:0:0:
36,192,216383,1,0,0:0:0:0:
109,192,216412,1,0,0:0:0:0:
182,192,216440,1,0,0:0:0:0:
329,192,216554,1,0,0:0:0:0:
402,192,216554,1,0,0:0:0:0:
256,192,216583,1,0,0:0:0:0:
182,192,216611,1,0,0:0:0:0:
475,192,216725,1,0,0:0:0:0:
402,192,216754,1,0,0:0:0:0:
329,192,216782,1,0,0:0:0:0:
182,192,216896,1,0,0:0:0:0:
256,192,216925,1,0,0:0:0:0:
329,192,216953,1,0,0:0:0:0:
36,192,216982,1,0,0:0:0:0:
109,192,216982,1,0,0:0:0:0:
402,192,217046,1,0,0:0:0:0:
256,192,217110,1,0,0:0:0:0:
182,192,217174,1,0,0:0:0:0:
475,192,217238,1,0,0:0:0:0:
402,192,217267,1,0,0:0:0:0:
329,192,217295,1,0,0:0:0:0:
109,192,217324,1,0,0:0:0:0:
36,192,217324,1,0,0:0:0:0:
256,192,217409,1,0,0:0:0:0:
329,192,217438,1,0,0:0:0:0:
402,192,217466,1,0,0:0:0:0:
36,192,217580,1,0,0:0:0:0:
109,192,217609,1,0,0:0:0:0:
182,192,217637,1,0,0:0:0:0:
402,192,217666,1,0,0:0:0:0:
475,192,217666,1,0,0:0:0:0:
256,192,217751,1,0,0:0:0:0:
182,192,217779,1,0,0:0:0:0:
109,192,217808,1,0,0:0:0:0:
329,192,217922,1,0,0:0:0:0:
402,192,217950,1,0,0:0:0:0:
475,192,217979,1,0,0:0:0:0:
109,192,218007,1,0,0:0:0:0:
256,192,218093,1,0,0:0:0:0:
329,192,218121,1,0,0:0:0:0:
402,192,218150,1,0,0:0:0:0:
36,192,218178,1,0,0:0:0:0:
182,192,218264,1,0,0:0:0:0:
256,192,218292,1,0,0:0:0:0:
329,192,218321,1,0,0:0:0:0:
475,192,218349,1,0,0:0:0:0:
109,192,218435,1,0,0:0:0:0:
182,192,218463,1,0,0:0:0:0:
256,192,218492,1,0,0:0:0:0:
402,192,218520,1,0,0:0:0:0:
36,192,218606,1,0,0:0:0:0:
109,192,218634,1,0,0:0:0:0:
182,192,218663,1,0,0:0:0:0:
329,192,218691,1,0,0:0:0:0:
256,192,218777,1,0,0:0:0:0:
182,192,218805,1,0,0:0:0:0:
109,192,218834,1,0,0:0:0:0:
475,192,218862,1,0,0:0:0:0:
402,192,218905,1,0,0:0:0:0:
329,192,218948,1,0,0:0:0:0:
256,192,218976,1,0,0:0:0:0:
182,192,219005,1,0,0:0:0:0:
36,192,219033,1,0,0:0:0:0:
109,192,219033,1,0,0:0:0:0:
475,192,219033,128,0,219289:0:0:0:0:
402,192,219033,1,0,0:0:0:0:
182,192,219289,1,0,0:0:0:0:
329,192,219289,1,0,0:0:0:0:
109,192,219318,1,0,0:0:0:0:
36,192,219346,1,0,0:0:0:0:
256,192,219460,1,0,0:0:0:0:
182,192,219489,1,0,0:0:0:0:
109,192,219517,1,0,0:0:0:0:
329,192,219631,1,0,0:0:0:0:
475,192,219631,1,0,0:0:0:0:
182,192,219660,1,0,0:0:0:0:
36,192,219688,1,0,0:0:0:0:
402,192,219802,1,0,0:0:0:0:
256,192,219831,1,0,0:0:0:0:
109,192,219859,1,0,0:0:0:0:
329,192,219973,1,0,0:0:0:0:
182,192,219973,1,0,0:0:0:0:
402,192,220002,1,0,0:0:0:0:
475,192,220030,1,0,0:0:0:0:
256,192,220144,1,0,0:0:0:0:
329,192,220173,1,0,0:0:0:0:
402,192,220201,1,0,0:0:0:0:
36,192,220315,1,0,0:0:0:0:
182,192,220315,1,0,0:0:0:0:
329,192,220344,1,0,0:0:0:0:
475,192,220372,1,0,0:0:0:0:
109,192,220486,1,0,0:0:0:0:
256,192,220515,1,0,0:0:0:0:
402,192,220543,1,0,0:0:0:0:
182,192,220657,1,0,0:0:0:0:
329,192,220657,1,0,0:0:0:0:
109,192,220685,1,0,0:0:0:0:
36,192,220714,1,0,0:0:0:0:
402,192,220828,1,0,0:0:0:0:
256,192,220856,1,0,0:0:0:0:
109,192,220885,1,0,0:0:0:0:
475,192,220999,1,0,0:0:0:0:
402,192,221027,1,0,0:0:0:0:
329,192,221056,1,0,0:0:0:0:
36,192,221084,1,0,0:0:0:0:
109,192,221084,1,0,0:0:0:0:
182,192,221148,1,0,0:0:0:0:
475,192,221213,1,0,0:0:0:0:
329,192,221277,1,0,0:0:0:0:
36,192,221341,1,0,0:0:0:0:
109,192,221369,1,0,0:0:0:0:
182,192,221398,1,0,0:0:0:0:
402,192,221426,1,0,0:0:0:0:
475,192,221426,1,0,0:0:0:0:
256,192,221512,1,0,0:0:0:0:
182,192,221540,1,0,0:0:0:0:
109,192,221569,1,0,0:0:0:0:
475,192,221683,1,0,0:0:0:0:
402,192,221711,1,0,0:0:0:0:
329,192,221740,1,0,0:0:0:0:
109,192,221768,1,0,0:0:0:0:
36,192,221768,1,0,0:0:0:0:
256,192,221854,1,0,0:0:0:0:
329,192,221882,1,0,0:0:0:0:
402,192,221911,1,0,0:0:0:0:
182,192,222024,1,0,0:0:0:0:
109,192,222053,1,0,0:0:0:0:
36,192,222081,1,0,0:0:0:0:
402,192,222110,1,0,0:0:0:0:
256,192,222195,1,0,0:0:0:0:
182,192,222224,1,0,0:0:0:0:
109,192,222252,1,0,0:0:0:0:
475,192,222281,1,0,0:0:0:0:
329,192,222366,1,0,0:0:0:0:
256,192,222395,1,0,0:0:0:0:
182,192,222423,1,0,0:0:0:0:
36,192,222452,1,0,0:0:0:0:
402,192,222537,1,0,0:0:0:0:
329,192,222566,1,0,0:0:0:0:
256,192,222594,1,0,0:0:0:0:
109,192,222623,1,0,0:0:0:0:
475,192,222708,1,0,0:0:0:0:
402,192,222737,1,0,0:0:0:0:
329,192,222765,1,0,0:0:0:0:
182,192,222794,1,0,0:0:0:0:
256,192,222879,1,0,0:0:0:0:
329,192,222908,1,0,0:0:0:0:
402,192,222936,1,0,0:0:0:0:
36,192,222965,1,0,0:0:0:0:
109,192,223007,1,0,0:0:0:0:
182,192,223050,1,0,0:0:0:0:
256,192,223079,1,0,0:0:0:0:
329,192,223107,1,0,0:0:0:0:
475,192,223136,1,0,0:0:0:0:
402,192,223136,1,0,0:0:0:0:
36,192,223136,128,0,223392:0:0:0:0:
109,192,223136,1,0,0:0:0:0:
329,192,223392,1,0,0:0:0:0:
475,192,223392,1,0,0:0:0:0:
256,192,223421,1,0,0:0:0:0:
109,192,223449,1,0,0:0:0:0:
402,192,223563,1,0,0:0:0:0:
329,192,223591,1,0,0:0:0:0:
182,192,223620,1,0,0:0:0:0:
475,192,223734,1,0,0:0:0:0:
36,192,223734,1,0,0:0:0:0:
402,192,223762,1,0,0:0:0:0:
329,192,223791,1,0,0:0:0:0:
109,192,223905,1,0,0:0:0:0:
256,192,223933,1,0,0:0:0:0:
329,192,223962,1,0,0:0:0:0:
182,192,224076,1,0,0:0:0:0:
36,192,224076,1,0,0:0:0:0:
256,192,224104,1,0,0:0:0:0:
402,192,224133,1,0,0:0:0:0:
109,192,224247,1,0,0:0:0:0:
182,192,224275,1,0,0:0:0:0:
329,192,224304,1,0,0:0:0:0:
36,192,224418,1,0,0:0:0:0:
475,192,224418,1,0,0:0:0:0:
109,192,224446,1,0,0:0:0:0:
182,192,224475,1,0,0:0:0:0:
402,192,224589,1,0,0:0:0:0:
256,192,224617,1,0,0:0:0:0:
182,192,224646,1,0,0:0:0:0:
329,192,224760,1,0,0:0:0:0:
475,192,224760,1,0,0:0:0:0:
256,192,224788,1,0,0:0:0:0:
109,192,224817,1,0,0:0:0:0:
402,192,224930,1,0,0:0:0:0:
329,192,224959,1,0,0:0:0:0:
182,192,224987,1,0,0:0:0:0:
475,192,225101,1,0,0:0:0:0:
402,192,225130,1,0,0:0:0:0:
329,192,225158,1,0,0:0:0:0:
36,192,225187,1,0,0:0:0:0:
256,192,225187,1,0,0:0:0:0:
182,192,225251,1,0,0:0:0:0:
329,192,225315,1,0,0:0:0:0:
475,192,225379,1,0,0:0:0:0:
182,192,225443,1,0,0:0:0:0:
109,192,225472,1,0,0:0:0:0:
36,192,225500,1,0,0:0:0:0:
402,192,225529,1,0,0:0:0:0:
329,192,225529,1,0,0:0:0:0:
109,192,225614,1,0,0:0:0:0:
182,192,225643,1,0,0:0:0:0:
256,192,225671,1,0,0:0:0:0:
329,192,225785,1,0,0:0:0:0:
402,192,225814,1,0,0:0:0:0:
475,192,225842,1,0,0:0:0:0:
109,192,225871,1,0,0:0:0:0:
182,192,225871,1,0,0:0:0:0:
402,192,225956,1,0,0:0:0:0:
329,192,225985,1,0,0:0:0:0:
256,192,226013,1,0,0:0:0:0:
36,192,226127,1,0,0:0:0:0:
109,192,226156,1,0,0:0:0:0:
182,192,226184,1,0,0:0:0:0:
402,192,226213,1,0,0:0:0:0:
256,192,226298,1,0,0:0:0:0:
182,192,226326,1,0,0:0:0:0:
109,192,226355,1,0,0:0:0:0:
475,192,226383,1,0,0:0:0:0:
402,192,226469,1,0,0:0:0:0:
329,192,226497,1,0,0:0:0:0:
256,192,226526,1,0,0:0:0:0:
109,192,226554,1,0,0:0:0:0:
329,192,226640,1,0,0:0:0:0:
402,192,226668,1,0,0:0:0:0:
475,192,226697,1,0,0:0:0:0:
36,192,226725,1,0,0:0:0:0:
256,192,226811,1,0,0:0:0:0:
182,192,226839,1,0,0:0:0:0:
109,192,226868,1,0,0:0:0:0:
475,192,226896,1,0,0:0:0:0:
256,192,226982,1,0,0:0:0:0:
329,192,227010,1,0,0:0:0:0:
402,192,227039,1,0,0:0:0:0:
36,192,227067,1,0,0:0:0:0:
109,192,227110,1,0,0:0:0:0:
329,192,227153,1,0,0:0:0:0:
256,192,227181,1,0,0:0:0:0:
182,192,227210,1,0,0:0:0:0:
36,192,227238,1,0,0:0:0:0:
402,192,227238,128,0,227430:0:0:0:0:
109,192,227238,1,0,0:0:0:0:
475,192,227238,1,0,0:0:0:0:
329,192,227430,128,0,227495:0:0:0:0:
182,192,227495,1,0,0:0:0:0:
36,192,227495,1,0,0:0:0:0:
256,192,227523,1,0,0:0:0:0:
402,192,227552,1,0,0:0:0:0:
109,192,227666,1,0,0:0:0:0:
182,192,227694,1,0,0:0:0:0:
329,192,227722,1,0,0:0:0:0:
36,192,227836,1,0,0:0:0:0:
475,192,227836,1,0,0:0:0:0:
109,192,227865,1,0,0:0:0:0:
182,192,227893,1,0,0:0:0:0:
402,192,228007,1,0,0:0:0:0:
256,192,228036,1,0,0:0:0:0:
182,192,228064,1,0,0:0:0:0:
329,192,228178,1,0,0:0:0:0:
475,192,228178,1,0,0:0:0:0:
256,192,228207,1,0,0:0:0:0:
109,192,228235,1,0,0:0:0:0:
402,192,228349,1,0,0:0:0:0:
329,192,228378,1,0,0:0:0:0:
182,192,228406,1,0,0:0:0:0:
475,192,228520,1,0,0:0:0:0:
36,192,228520,1,0,0:0:0:0:
402,192,228549,1,0,0:0:0:0:
329,192,228577,1,0,0:0:0:0:
109,192,228691,1,0,0:0:0:0:
256,192,228720,1,0,0:0:0:0:
329,192,228748,1,0,0:0:0:0:
182,192,228862,1,0,0:0:0:0:
36,192,228862,1,0,0:0:0:0:
256,192,228891,1,0,0:0:0:0:
402,192,228919,1,0,0:0:0:0:
109,192,229033,1,0,0:0:0:0:
182,192,229062,1,0,0:0:0:0:
329,192,229090,1,0,0:0:0:0:
36,192,229204,1,0,0:0:0:0:
109,192,229232,1,0,0:0:0:0:
182,192,229261,1,0,0:0:0:0:
475,192,229289,1,0,0:0:0:0:
402,192,229289,1,0,0:0:0:0:
329,192,229354,1,0,0:0:0:0:
182,192,229418,1,0,0:0:0:0:
36,192,229482,1,0,0:0:0:0:
329,192,229546,1,0,0:0:0:0:
402,192,229574,1,0,0:0:0:0:
475,192,229603,1,0,0:0:0:0:
109,192,229631,1,0,0:0:0:0:
182,192,229631,1,0,0:0:0:0:
402,192,229717,1,0,0:0:0:0:
329,192,229745,1,0,0:0:0:0:
256,192,229774,1,0,0:0:0:0:
182,192,229888,1,0,0:0:0:0:
109,192,229916,1,0,0:0:0:0:
36,192,229945,1,0,0:0:0:0:
402,192,229973,1,0,0:0:0:0:
329,192,229973,1,0,0:0:0:0:
109,192,230059,1,0,0:0:0:0:
182,192,230087,1,0,0:0:0:0:
256,192,230116,1,0,0:0:0:0:
475,192,230230,1,0,0:0:0:0:
402,192,230258,1,0,0:0:0:0:
329,192,230287,1,0,0:0:0:0:
109,192,230315,1,0,0:0:0:0:
256,192,230401,1,0,0:0:0:0:
329,192,230429,1,0,0:0:0:0:
402,192,230458,1,0,0:0:0:0:
36,192,230486,1,0,0:0:0:0:
109,192,230571,1,0,0:0:0:0:
182,192,230600,1,0,0:0:0:0:
256,192,230628,1,0,0:0:0:0:
402,192,230657,1,0,0:0:0:0:
182,192,230742,1,0,0:0:0:0:
109,192,230771,1,0,0:0:0:0:
36,192,230799,1,0,0:0:0:0:
475,192,230828,1,0,0:0:0:0:
256,192,230913,1,0,0:0:0:0:
329,192,230942,1,0,0:0:0:0:
402,192,230970,1,0,0:0:0:0:
36,192,230999,1,0,0:0:0:0:
256,192,231084,1,0,0:0:0:0:
182,192,231113,1,0,0:0:0:0:
109,192,231141,1,0,0:0:0:0:
475,192,231170,1,0,0:0:0:0:
402,192,231213,1,0,0:0:0:0:
182,192,231255,1,0,0:0:0:0:
256,192,231298,1,0,0:0:0:0:
329,192,231325,1,0,0:0:0:0:
36,192,231341,1,0,0:0:0:0:
402,192,231341,1,0,0:0:0:0:
475,192,231357,128,0,235443:0:0:0:0:
109,192,231357,1,0,0:0:0:0:
109,192,234161,5,0,0:0:0:0:
329,192,234418,1,0,0:0:0:0:
256,192,234418,1,0,0:0:0:0:
402,192,234802,1,0,0:0:0:0:
36,192,235187,1,0,0:0:0:0:
182,192,235443,1,0,0:0:0:0:
402,192,235443,1,0,0:0:0:0:
329,192,235828,1,0,0:0:0:0:
256,192,236469,1,0,0:0:0:0:
109,192,236469,1,0,0:0:0:0:
182,192,236854,1,0,0:0:0:0:
36,192,237495,1,0,0:0:0:0:
329,192,237495,1,0,0:0:0:0:
256,192,237879,1,0,0:0:0:0:
402,192,239546,1,0,0:0:0:0:
182,192,239546,1,0,0:0:0:0:
36,192,239546,1,0,0:0:0:0:
329,192,240828,1,0,0:0:0:0:
402,192,241084,1,0,0:0:0:0:
475,192,241341,1,0,0:0:0:0:
256,192,241597,1,0,0:0:0:0:
109,192,241597,1,0,0:0:0:0:
402,192,241597,1,0,0:0:0:0:
329,192,242110,1,0,0:0:0:0:
109,192,242623,1,0,0:0:0:0:
182,192,243136,1,0,0:0:0:0:
329,192,243648,1,0,0:0:0:0:
402,192,243648,1,0,0:0:0:0:
182,192,243648,1,0,0:0:0:0:
256,192,244033,1,0,0:0:0:0:
36,192,244674,1,0,0:0:0:0:
256,192,244674,1,0,0:0:0:0:
329,192,245059,1,0,0:0:0:0:
109,192,245700,1,0,0:0:0:0:
182,192,245700,1,0,0:0:0:0:
329,192,245700,1,0,0:0:0:0:
402,192,246084,1,0,0:0:0:0:
329,192,246469,1,0,0:0:0:0:
182,192,246725,1,0,0:0:0:0:
256,192,246725,1,0,0:0:0:0:
36,192,247238,1,0,0:0:0:0:
109,192,247495,1,0,0:0:0:0:
402,192,247751,1,0,0:0:0:0:
475,192,247751,1,0,0:0:0:0:
182,192,247751,1,0,0:0:0:0:
109,192,248520,1,0,0:0:0:0:
109,192,248777,1,0,0:0:0:0:
182,192,249161,1,0,0:0:0:0:
256,192,249546,1,0,0:0:0:0:
402,192,249802,1,0,0:0:0:0:
109,192,249802,1,0,0:0:0:0:
256,192,249802,1,0,0:0:0:0:
329,192,250059,1,0,0:0:0:0:
402,192,250315,1,0,0:0:0:0:
36,192,250828,1,0,0:0:0:0:
475,192,251597,1,0,0:0:0:0:
256,192,251854,1,0,0:0:0:0:
182,192,251854,1,0,0:0:0:0:
402,192,251854,1,0,0:0:0:0:
475,192,252110,1,0,0:0:0:0:
402,192,252366,1,0,0:0:0:0:
256,192,252879,1,0,0:0:0:0:
329,192,253136,1,0,0:0:0:0:
256,192,253392,1,0,0:0:0:0:
182,192,253648,1,0,0:0:0:0:
329,192,253905,1,0,0:0:0:0:
402,192,253905,1,0,0:0:0:0:
109,192,253905,1,0,0:0:0:0:
182,192,254161,1,0,0:0:0:0:
109,192,254418,1,0,0:0:0:0:
182,192,255956,1,0,0:0:0:0:
256,192,255956,1,0,0:0:0:0:
36,192,255956,1,0,0:0:0:0:
329,192,256469,1,0,0:0:0:0:
109,192,256982,1,0,0:0:0:0:
329,192,257495,1,0,0:0:0:0:
402,192,257751,1,0,0:0:0:0:
182,192,258007,1,0,0:0:0:0:
109,192,258007,1,0,0:0:0:0:
475,192,258007,1,0,0:0:0:0:
329,192,258264,1,0,0:0:0:0:
256,192,258520,1,0,0:0:0:0:
36,192,260059,1,0,0:0:0:0:
182,192,260059,1,0,0:0:0:0:
329,192,260059,1,0,0:0:0:0:
256,192,260571,1,0,0:0:0:0:
475,192,261854,1,0,0:0:0:0:
109,192,262110,1,0,0:0:0:0:
329,192,262110,1,0,0:0:0:0:
256,192,263136,1,0,0:0:0:0:
109,192,264161,1,0,0:0:0:0:
402,192,264161,1,0,0:0:0:0:
256,192,264161,1,0,0:0:0:0:
109,192,266213,1,0,0:0:0:0:
36,192,266213,1,0,0:0:0:0:
182,192,268264,1,0,0:0:0:0:
402,192,268264,1,0,0:0:0:0:
36,192,268264,1,0,0:0:0:0:
475,192,268264,1,0,0:0:0:0:
329,192,270315,1,0,0:0:0:0:
475,192,270315,1,0,0:0:0:0:
256,192,272366,1,0,0:0:0:0:
402,192,272366,1,0,0:0:0:0:
109,192,272366,128,0,272751:0:0:0:0:
36,192,272366,1,0,0:0:0:0:
475,192,272366,1,0,0:0:0:0:
182,192,272751,128,0,273136:0:0:0:0:
109,192,273392,128,0,273777:0:0:0:0:
182,192,273777,128,0,274161:0:0:0:0:
109,192,274418,128,0,274802:0:0:0:0:
329,192,274418,1,0,0:0:0:0:
402,192,274418,1,0,0:0:0:0:
182,192,274802,128,0,276213:0:0:0:0:
109,192,276469,128,0,276854:0:0:0:0:
402,192,276469,1,0,0:0:0:0:
256,192,276469,1,0,0:0:0:0:
182,192,276854,128,0,277238:0:0:0:0:
109,192,277495,128,0,277879:0:0:0:0:
182,192,277879,128,0,278264:0:0:0:0:
329,192,278520,128,0,278905:0:0:0:0:
109,192,278520,1,0,0:0:0:0:
256,192,278520,1,0,0:0:0:0:
402,192,278905,128,0,280315:0:0:0:0:
475,192,280571,128,0,280956:0:0:0:0:
256,192,280571,1,0,0:0:0:0:
36,192,280571,1,0,0:0:0:0:
402,192,280956,128,0,281597:0:0:0:0:
36,192,281213,1,0,0:0:0:0:
109,192,281597,128,0,281982:0:0:0:0:
329,192,281597,1,0,0:0:0:0:
475,192,281597,1,0,0:0:0:0:
182,192,281982,128,0,282366:0:0:0:0:
475,192,282238,1,0,0:0:0:0:
256,192,282366,128,0,282623:0:0:0:0:
475,192,282495,1,0,0:0:0:0:
109,192,282623,1,0,0:0:0:0:
402,192,282623,128,0,283007:0:0:0:0:
36,192,282623,1,0,0:0:0:0:
329,192,283007,128,0,283392:0:0:0:0:
36,192,283264,1,0,0:0:0:0:
256,192,283392,128,0,283648:0:0:0:0:
182,192,283648,1,0,0:0:0:0:
402,192,283648,128,0,284033:0:0:0:0:
475,192,283648,1,0,0:0:0:0:
109,192,284033,128,0,284418:0:0:0:0:
475,192,284033,1,0,0:0:0:0:
475,192,284289,1,0,0:0:0:0:
182,192,284418,128,0,284674:0:0:0:0:
475,192,284546,1,0,0:0:0:0:
256,192,284674,128,0,285059:0:0:0:0:
402,192,284674,1,0,0:0:0:0:
36,192,284674,1,0,0:0:0:0:
329,192,285059,128,0,285956:0:0:0:0:
36,192,285315,1,0,0:0:0:0:
475,192,285700,1,0,0:0:0:0:
109,192,285956,128,0,286213:0:0:0:0:
182,192,286213,128,0,286469:0:0:0:0:
475,192,286341,1,0,0:0:0:0:
256,192,286469,128,0,286725:0:0:0:0:
475,192,286597,1,0,0:0:0:0:
329,192,286725,128,0,287110:0:0:0:0:
182,192,286725,1,0,0:0:0:0:
36,192,286725,1,0,0:0:0:0:
402,192,287110,128,0,287495:0:0:0:0:
36,192,287366,1,0,0:0:0:0:
329,192,287495,128,0,287751:0:0:0:0:
109,192,287751,128,0,288136:0:0:0:0:
256,192,287751,1,0,0:0:0:0:
475,192,287751,1,0,0:0:0:0:
475,192,288136,1,0,0:0:0:0:
182,192,288136,128,0,288520:0:0:0:0:
475,192,288392,1,0,0:0:0:0:
256,192,288520,128,0,288777:0:0:0:0:
475,192,288648,1,0,0:0:0:0:
36,192,288777,1,0,0:0:0:0:
402,192,288777,1,0,0:0:0:0:
109,192,288777,1,0,0:0:0:0:
329,192,288777,128,0,289161:0:0:0:0:
182,192,289161,1,0,0:0:0:0:
402,192,289161,128,0,289802:0:0:0:0:
36,192,289289,1,0,0:0:0:0:
329,192,289802,128,0,290187:0:0:0:0:
36,192,289802,1,0,0:0:0:0:
256,192,289802,1,0,0:0:0:0:
182,192,290187,1,0,0:0:0:0:
402,192,290187,128,0,290828:0:0:0:0:
36,192,290315,1,0,0:0:0:0:
36,192,290828,1,0,0:0:0:0:
329,192,290828,128,0,291213:0:0:0:0:
475,192,290828,1,0,0:0:0:0:
182,192,290828,1,0,0:0:0:0:
109,192,291213,1,0,0:0:0:0:
256,192,291213,128,0,292879:0:0:0:0:
36,192,291341,1,0,0:0:0:0:
36,192,291854,1,0,0:0:0:0:
36,192,292366,1,0,0:0:0:0:
36,192,292879,1,0,0:0:0:0:
109,192,292879,1,0,0:0:0:0:
475,192,292879,1,0,0:0:0:0:
329,192,292879,128,0,293264:0:0:0:0:
256,192,293264,1,0,0:0:0:0:
402,192,293264,128,0,293905:0:0:0:0:
36,192,293392,1,0,0:0:0:0:
36,192,293905,1,0,0:0:0:0:
329,192,293905,128,0,294289:0:0:0:0:
182,192,293905,1,0,0:0:0:0:
256,192,294289,1,0,0:0:0:0:
402,192,294289,128,0,294930:0:0:0:0:
36,192,294418,1,0,0:0:0:0:
36,192,294930,1,0,0:0:0:0:
109,192,294930,1,0,0:0:0:0:
256,192,294930,1,0,0:0:0:0:
329,192,294930,128,0,295315:0:0:0:0:
475,192,295315,128,0,296982:0:0:0:0:
402,192,295315,1,0,0:0:0:0:
36,192,295443,1,0,0:0:0:0:
36,192,295956,1,0,0:0:0:0:
36,192,296469,1,0,0:0:0:0:
182,192,296982,1,0,0:0:0:0:
402,192,296982,128,0,297366:0:0:0:0:
109,192,296982,1,0,0:0:0:0:
256,192,296982,1,0,0:0:0:0:
182,192,297238,1,0,0:0:0:0:
475,192,297366,1,0,0:0:0:0:
329,192,297366,128,0,298007:0:0:0:0:
182,192,297495,1,0,0:0:0:0:
182,192,297751,1,0,0:0:0:0:
475,192,298007,1,0,0:0:0:0:
402,192,298007,1,0,0:0:0:0:
36,192,298007,1,0,0:0:0:0:
182,192,298007,128,0,298392:0:0:0:0:
475,192,298264,1,0,0:0:0:0:
329,192,298392,128,0,298777:0:0:0:0:
256,192,298392,1,0,0:0:0:0:
475,192,298520,1,0,0:0:0:0:
475,192,298777,1,0,0:0:0:0:
36,192,298777,128,0,299033:0:0:0:0:
182,192,298777,1,0,0:0:0:0:
402,192,299033,1,0,0:0:0:0:
329,192,299033,1,0,0:0:0:0:
256,192,299033,1,0,0:0:0:0:
182,192,299033,128,0,299418:0:0:0:0:
329,192,299289,1,0,0:0:0:0:
109,192,299418,1,0,0:0:0:0:
36,192,299418,128,0,299802:0:0:0:0:
329,192,299546,1,0,0:0:0:0:
475,192,299802,128,0,300059:0:0:0:0:
182,192,299802,1,0,0:0:0:0:
329,192,299802,1,0,0:0:0:0:
329,192,300059,128,0,300443:0:0:0:0:
36,192,300059,1,0,0:0:0:0:
256,192,300059,1,0,0:0:0:0:
109,192,300059,1,0,0:0:0:0:
36,192,300315,1,0,0:0:0:0:
182,192,300443,128,0,300828:0:0:0:0:
402,192,300443,1,0,0:0:0:0:
36,192,300571,1,0,0:0:0:0:
329,192,300828,1,0,0:0:0:0:
36,192,300828,1,0,0:0:0:0:
256,192,300828,128,0,301084:0:0:0:0:
109,192,301084,1,0,0:0:0:0:
402,192,301084,128,0,301469:0:0:0:0:
182,192,301084,1,0,0:0:0:0:
329,192,301084,1,0,0:0:0:0:
475,192,301213,1,0,0:0:0:0:
109,192,301341,1,0,0:0:0:0:
475,192,301469,1,0,0:0:0:0:
329,192,301469,1,0,0:0:0:0:
256,192,301469,128,0,304161:0:0:0:0:
36,192,301597,1,0,0:0:0:0:
402,192,301725,1,0,0:0:0:0:
36,192,301854,1,0,0:0:0:0:
402,192,301982,1,0,0:0:0:0:
36,192,302110,1,0,0:0:0:0:
329,192,302174,1,0,0:0:0:0:
182,192,302238,1,0,0:0:0:0:
475,192,302302,1,0,0:0:0:0:
36,192,302366,1,0,0:0:0:0:
329,192,302430,1,0,0:0:0:0:
182,192,302495,1,0,0:0:0:0:
475,192,302559,1,0,0:0:0:0:
109,192,302623,1,0,0:0:0:0:
329,192,302687,1,0,0:0:0:0:
182,192,302751,1,0,0:0:0:0:
402,192,302815,1,0,0:0:0:0:
109,192,302879,1,0,0:0:0:0:
329,192,302943,1,0,0:0:0:0:
182,192,303007,1,0,0:0:0:0:
402,192,303071,1,0,0:0:0:0:
475,192,303136,128,0,305187:0:0:0:0:
109,192,303136,1,0,0:0:0:0:
36,192,303136,128,0,305187:0:0:0:0:
109,192,304161,1,0,0:0:0:0:
402,192,304161,1,0,0:0:0:0:
329,192,304289,1,0,0:0:0:0:
256,192,304354,1,0,0:0:0:0:
182,192,304418,1,0,0:0:0:0:
329,192,304482,1,0,0:0:0:0:
109,192,304546,1,0,0:0:0:0:
402,192,304546,1,0,0:0:0:0:
256,192,304674,1,0,0:0:0:0:
329,192,304760,1,0,0:0:0:0:
182,192,304845,1,0,0:0:0:0:
109,192,304930,1,0,0:0:0:0:
402,192,304930,1,0,0:0:0:0:
329,192,305059,1,0,0:0:0:0:
256,192,305123,1,0,0:0:0:0:
109,192,305187,128,0,309033:0:0:0:0:
402,192,305187,128,0,309033:0:0:0:0:
182,192,305187,128,0,305571:0:0:0:0:
329,192,305187,1,0,0:0:0:0:
329,192,305571,128,0,306213:0:0:0:0:
182,192,306213,128,0,306597:0:0:0:0:
329,192,306597,128,0,307238:0:0:0:0:
36,192,307238,128,0,309033:0:0:0:0:
475,192,307238,128,0,309033:0:0:0:0:
182,192,307238,128,0,307623:0:0:0:0:
329,192,307623,128,0,309033:0:0:0:0:
256,192,309033,128,0,309289:0:0:0:0:
402,192,309289,128,0,313136:0:0:0:0:
109,192,309289,128,0,313136:0:0:0:0:
36,192,309289,128,0,309674:0:0:0:0:
475,192,309674,128,0,310315:0:0:0:0:
36,192,310315,128,0,310700:0:0:0:0:
475,192,310700,128,0,311341:0:0:0:0:
36,192,311341,128,0,311725:0:0:0:0:
182,192,311341,128,0,313136:0:0:0:0:
329,192,311341,128,0,313136:0:0:0:0:
475,192,311725,128,0,313136:0:0:0:0:
36,192,313392,128,0,314418:0:0:0:0:
256,192,313392,128,0,314418:0:0:0:0:
475,192,313392,128,0,313777:0:0:0:0:
402,192,313777,128,0,314418:0:0:0:0:
182,192,313777,128,0,314418:0:0:0:0:
475,192,314418,128,0,315443:0:0:0:0:
109,192,314418,128,0,315187:0:0:0:0:
329,192,314418,128,0,314802:0:0:0:0:
256,192,314802,128,0,315187:0:0:0:0:
36,192,314802,128,0,315443:0:0:0:0:
182,192,315187,128,0,315443:0:0:0:0:
329,192,315187,128,0,315443:0:0:0:0:
109,192,315443,128,0,316469:0:0:0:0:
256,192,315443,128,0,315828:0:0:0:0:
402,192,315443,128,0,316213:0:0:0:0:
329,192,315828,128,0,316469:0:0:0:0:
182,192,315828,128,0,316213:0:0:0:0:
36,192,316213,128,0,316469:0:0:0:0:
256,192,316213,128,0,316469:0:0:0:0:
402,192,316469,128,0,317495:0:0:0:0:
182,192,316469,128,0,317238:0:0:0:0:
475,192,316469,128,0,316854:0:0:0:0:
36,192,316854,128,0,317495:0:0:0:0:
329,192,316854,128,0,317238:0:0:0:0:
109,192,317238,128,0,317495:0:0:0:0:
475,192,317238,128,0,317495:0:0:0:0:
182,192,317495,128,0,319546:0:0:0:0:
256,192,317495,128,0,317879:0:0:0:0:
329,192,317495,128,0,318777:0:0:0:0:
475,192,317879,128,0,318777:0:0:0:0:
36,192,317879,128,0,319033:0:0:0:0:
109,192,318777,128,0,319033:0:0:0:0:
402,192,318777,128,0,319289:0:0:0:0:
256,192,319033,128,0,319289:0:0:0:0:
329,192,319033,128,0,319546:0:0:0:0:
36,192,319289,128,0,319546:0:0:0:0:
475,192,319289,128,0,319546:0:0:0:0:
256,192,319546,128,0,321533:0:0:0:0:
402,192,319546,128,0,319930:0:0:0:0:
109,192,319546,128,0,319930:0:0:0:0:
182,192,319930,128,0,320315:0:0:0:0:
475,192,319930,128,0,320571:0:0:0:0:
36,192,320315,128,0,320956:0:0:0:0:
402,192,320315,128,0,320571:0:0:0:0:
329,192,320571,128,0,321533:0:0:0:0:
182,192,320571,128,0,321533:0:0:0:0:
109,192,320956,128,0,321533:0:0:0:0:
402,192,320956,128,0,321533:0:0:0:0:
36,192,321341,128,0,321533:0:0:0:0:
475,192,321341,128,0,321533:0:0:0:0:
36,192,321597,1,0,0:0:0:0:
109,192,321597,1,0,0:0:0:0:
402,192,321597,128,0,321982:0:0:0:0:
256,192,321597,1,0,0:0:0:0:
475,192,321597,1,0,0:0:0:0:
36,192,321854,1,0,0:0:0:0:
182,192,321854,1,0,0:0:0:0:
475,192,321982,128,0,322623:0:0:0:0:
256,192,321982,1,0,0:0:0:0:
182,192,322046,1,0,0:0:0:0:
36,192,322110,1,0,0:0:0:0:
109,192,322110,1,0,0:0:0:0:
256,192,322238,1,0,0:0:0:0:
402,192,322302,1,0,0:0:0:0:
182,192,322366,1,0,0:0:0:0:
329,192,322430,1,0,0:0:0:0:
109,192,322495,1,0,0:0:0:0:
256,192,322559,1,0,0:0:0:0:
402,192,322623,128,0,323007:0:0:0:0:
36,192,322623,1,0,0:0:0:0:
109,192,322751,1,0,0:0:0:0:
36,192,322879,1,0,0:0:0:0:
182,192,322879,1,0,0:0:0:0:
475,192,323007,128,0,323648:0:0:0:0:
256,192,323007,1,0,0:0:0:0:
36,192,323136,1,0,0:0:0:0:
329,192,323136,1,0,0:0:0:0:
182,192,323264,1,0,0:0:0:0:
36,192,323328,1,0,0:0:0:0:
256,192,323392,1,0,0:0:0:0:
109,192,323456,1,0,0:0:0:0:
329,192,323520,1,0,0:0:0:0:
182,192,323584,1,0,0:0:0:0:
402,192,323648,128,0,324033:0:0:0:0:
36,192,323648,1,0,0:0:0:0:
329,192,323713,1,0,0:0:0:0:
256,192,323777,1,0,0:0:0:0:
182,192,323841,1,0,0:0:0:0:
36,192,323905,1,0,0:0:0:0:
256,192,324033,128,0,325443:0:0:0:0:
109,192,324033,1,0,0:0:0:0:
329,192,324161,1,0,0:0:0:0:
475,192,324161,1,0,0:0:0:0:
182,192,324289,1,0,0:0:0:0:
36,192,324418,1,0,0:0:0:0:
475,192,324418,1,0,0:0:0:0:
402,192,324482,1,0,0:0:0:0:
329,192,324546,1,0,0:0:0:0:
109,192,324674,1,0,0:0:0:0:
36,192,324674,1,0,0:0:0:0:
402,192,324802,1,0,0:0:0:0:
329,192,324866,1,0,0:0:0:0:
36,192,324930,1,0,0:0:0:0:
475,192,324930,1,0,0:0:0:0:
402,192,324995,1,0,0:0:0:0:
109,192,325059,1,0,0:0:0:0:
182,192,325123,1,0,0:0:0:0:
36,192,325187,1,0,0:0:0:0:
475,192,325187,1,0,0:0:0:0:
109,192,325251,1,0,0:0:0:0:
402,192,325315,1,0,0:0:0:0:
329,192,325379,1,0,0:0:0:0:
182,192,325443,128,0,325700:0:0:0:0:
36,192,325443,1,0,0:0:0:0:
475,192,325443,1,0,0:0:0:0:
329,192,325571,1,0,0:0:0:0:
402,192,325636,1,0,0:0:0:0:
109,192,325700,128,0,326084:0:0:0:0:
475,192,325700,1,0,0:0:0:0:
256,192,325700,1,0,0:0:0:0:
475,192,325956,1,0,0:0:0:0:
329,192,325956,1,0,0:0:0:0:
256,192,326084,1,0,0:0:0:0:
36,192,326084,128,0,326725:0:0:0:0:
475,192,326213,1,0,0:0:0:0:
402,192,326213,1,0,0:0:0:0:
182,192,326341,1,0,0:0:0:0:
256,192,326405,1,0,0:0:0:0:
475,192,326469,1,0,0:0:0:0:
329,192,326469,1,0,0:0:0:0:
402,192,326597,1,0,0:0:0:0:
182,192,326725,128,0,327110:0:0:0:0:
475,192,326725,1,0,0:0:0:0:
109,192,326725,1,0,0:0:0:0:
329,192,326854,1,0,0:0:0:0:
475,192,326982,1,0,0:0:0:0:
36,192,326982,1,0,0:0:0:0:
109,192,327110,128,0,327751:0:0:0:0:
402,192,327110,1,0,0:0:0:0:
329,192,327174,1,0,0:0:0:0:
256,192,327238,1,0,0:0:0:0:
475,192,327238,1,0,0:0:0:0:
329,192,327366,1,0,0:0:0:0:
475,192,327495,1,0,0:0:0:0:
182,192,327495,1,0,0:0:0:0:
329,192,327623,1,0,0:0:0:0:
402,192,327687,1,0,0:0:0:0:
36,192,327751,128,0,329738:0:0:0:0:
475,192,327751,1,0,0:0:0:0:
256,192,327751,1,0,0:0:0:0:
475,192,328007,1,0,0:0:0:0:
402,192,328007,1,0,0:0:0:0:
256,192,328136,1,0,0:0:0:0:
475,192,328264,1,0,0:0:0:0:
182,192,328264,1,0,0:0:0:0:
329,192,328392,1,0,0:0:0:0:
475,192,328520,1,0,0:0:0:0:
109,192,328520,1,0,0:0:0:0:
256,192,328648,1,0,0:0:0:0:
329,192,328713,1,0,0:0:0:0:
475,192,328777,1,0,0:0:0:0:
402,192,328777,1,0,0:0:0:0:
182,192,328777,1,0,0:0:0:0:
256,192,328905,1,0,0:0:0:0:
475,192,329033,128,0,329738:0:0:0:0:
109,192,329033,1,0,0:0:0:0:
329,192,329033,1,0,0:0:0:0:
256,192,329161,1,0,0:0:0:0:
329,192,329225,1,0,0:0:0:0:
109,192,329289,1,0,0:0:0:0:
402,192,329289,1,0,0:0:0:0:
256,192,329418,1,0,0:0:0:0:
182,192,329482,1,0,0:0:0:0:
402,192,329546,1,0,0:0:0:0:
109,192,329546,1,0,0:0:0:0:
256,192,329674,1,0,0:0:0:0:
329,192,329738,1,0,0:0:0:0:
402,192,329802,1,0,0:0:0:0:
109,192,329802,1,0,0:0:0:0:
182,192,329802,128,0,330187:0:0:0:0:
36,192,329802,1,0,0:0:0:0:
475,192,329802,1,0,0:0:0:0:
475,192,330059,1,0,0:0:0:0:
36,192,330059,1,0,0:0:0:0:
329,192,330187,128,0,330828:0:0:0:0:
256,192,330187,1,0,0:0:0:0:
36,192,330315,1,0,0:0:0:0:
475,192,330315,1,0,0:0:0:0:
109,192,330443,1,0,0:0:0:0:
182,192,330507,1,0,0:0:0:0:
36,192,330571,1,0,0:0:0:0:
475,192,330571,1,0,0:0:0:0:
402,192,330636,1,0,0:0:0:0:
256,192,330700,1,0,0:0:0:0:
182,192,330764,1,0,0:0:0:0:
109,192,330828,128,0,331213:0:0:0:0:
36,192,330828,1,0,0:0:0:0:
475,192,330828,1,0,0:0:0:0:
329,192,330956,1,0,0:0:0:0:
475,192,331084,1,0,0:0:0:0:
36,192,331084,1,0,0:0:0:0:
402,192,331213,128,0,331854:0:0:0:0:
256,192,331213,1,0,0:0:0:0:
36,192,331341,1,0,0:0:0:0:
475,192,331341,1,0,0:0:0:0:
109,192,331469,1,0,0:0:0:0:
182,192,331533,1,0,0:0:0:0:
329,192,331597,1,0,0:0:0:0:
36,192,331597,1,0,0:0:0:0:
256,192,331661,1,0,0:0:0:0:
109,192,331725,1,0,0:0:0:0:
182,192,331789,1,0,0:0:0:0:
475,192,331854,128,0,332238:0:0:0:0:
36,192,331854,1,0,0:0:0:0:
329,192,331854,1,0,0:0:0:0:
256,192,331918,1,0,0:0:0:0:
182,192,331982,1,0,0:0:0:0:
402,192,332046,1,0,0:0:0:0:
109,192,332110,1,0,0:0:0:0:
329,192,332110,1,0,0:0:0:0:
36,192,332238,128,0,333648:0:0:0:0:
256,192,332238,1,0,0:0:0:0:
475,192,332366,1,0,0:0:0:0:
182,192,332366,1,0,0:0:0:0:
329,192,332495,1,0,0:0:0:0:
109,192,332623,1,0,0:0:0:0:
475,192,332623,1,0,0:0:0:0:
402,192,332687,1,0,0:0:0:0:
329,192,332751,1,0,0:0:0:0:
475,192,332879,1,0,0:0:0:0:
182,192,332879,1,0,0:0:0:0:
256,192,333007,1,0,0:0:0:0:
329,192,333071,1,0,0:0:0:0:
402,192,333136,1,0,0:0:0:0:
109,192,333136,1,0,0:0:0:0:
182,192,333200,1,0,0:0:0:0:
329,192,333264,1,0,0:0:0:0:
256,192,333328,1,0,0:0:0:0:
109,192,333392,1,0,0:0:0:0:
402,192,333392,1,0,0:0:0:0:
329,192,333456,1,0,0:0:0:0:
182,192,333520,1,0,0:0:0:0:
256,192,333584,1,0,0:0:0:0:
402,192,333648,128,0,333905:0:0:0:0:
109,192,333648,1,0,0:0:0:0:
475,192,333648,1,0,0:0:0:0:
182,192,333777,1,0,0:0:0:0:
256,192,333905,128,0,334289:0:0:0:0:
475,192,333905,1,0,0:0:0:0:
36,192,333905,1,0,0:0:0:0:
329,192,334033,1,0,0:0:0:0:
36,192,334161,1,0,0:0:0:0:
475,192,334161,1,0,0:0:0:0:
109,192,334289,128,0,334930:0:0:0:0:
182,192,334289,1,0,0:0:0:0:
329,192,334418,1,0,0:0:0:0:
36,192,334418,1,0,0:0:0:0:
256,192,334546,1,0,0:0:0:0:
402,192,334610,1,0,0:0:0:0:
475,192,334626,1,0,0:0:0:0:
36,192,334674,1,0,0:0:0:0:
182,192,334674,1,0,0:0:0:0:
256,192,334802,1,0,0:0:0:0:
475,192,334930,128,0,335315:0:0:0:0:
329,192,334930,1,0,0:0:0:0:
36,192,334930,1,0,0:0:0:0:
256,192,335059,1,0,0:0:0:0:
182,192,335123,1,0,0:0:0:0:
109,192,335187,1,0,0:0:0:0:
402,192,335187,1,0,0:0:0:0:
36,192,335315,128,0,335956:0:0:0:0:
256,192,335315,1,0,0:0:0:0:
329,192,335379,1,0,0:0:0:0:
475,192,335443,1,0,0:0:0:0:
109,192,335443,1,0,0:0:0:0:
402,192,335507,1,0,0:0:0:0:
329,192,335571,1,0,0:0:0:0:
256,192,335636,1,0,0:0:0:0:
475,192,335700,1,0,0:0:0:0:
109,192,335700,1,0,0:0:0:0:
182,192,335764,1,0,0:0:0:0:
256,192,335828,1,0,0:0:0:0:
329,192,335892,1,0,0:0:0:0:
475,192,335956,128,0,336148:0:0:0:0:
402,192,336020,128,0,336213:0:0:0:0:
329,192,336084,128,0,336277:0:0:0:0:
256,192,336148,128,0,336341:0:0:0:0:
182,192,336213,128,0,336405:0:0:0:0:
109,192,336277,128,0,336469:0:0:0:0:
36,192,336341,128,0,336533:0:0:0:0:
475,192,336341,1,0,0:0:0:0:
402,192,336405,1,0,0:0:0:0:
329,192,336469,1,0,0:0:0:0:
256,192,336533,1,0,0:0:0:0:
182,192,336597,1,0,0:0:0:0:
109,192,336661,1,0,0:0:0:0:
36,192,336725,128,0,336982:0:0:0:0:
475,192,336982,1,0,0:0:0:0:
402,192,337014,1,0,0:0:0:0:
329,192,337046,1,0,0:0:0:0:
109,192,337110,1,0,0:0:0:0:
36,192,337110,1,0,0:0:0:0:
475,192,337174,1,0,0:0:0:0:
402,192,337174,1,0,0:0:0:0:
256,192,337238,1,0,0:0:0:0:
182,192,337238,1,0,0:0:0:0:
329,192,337302,1,0,0:0:0:0:
36,192,337366,1,0,0:0:0:0:
109,192,337398,1,0,0:0:0:0:
182,192,337430,1,0,0:0:0:0:
402,192,337495,1,0,0:0:0:0:
475,192,337495,1,0,0:0:0:0:
109,192,337559,5,0,0:0:0:0:
36,192,337559,1,0,0:0:0:0:
329,192,337623,1,0,0:0:0:0:
256,192,337623,1,0,0:0:0:0:
182,192,337687,1,0,0:0:0:0:
475,192,337751,1,0,0:0:0:0:
402,192,337783,1,0,0:0:0:0:
329,192,337815,1,0,0:0:0:0:
182,192,337879,1,0,0:0:0:0:
109,192,337879,1,0,0:0:0:0:
256,192,337943,1,0,0:0:0:0:
329,192,337943,1,0,0:0:0:0:
475,192,338007,1,0,0:0:0:0:
36,192,338007,128,0,338264:0:0:0:0:
402,192,338007,1,0,0:0:0:0:
109,192,338007,128,0,338071:0:0:0:0:
182,192,338071,128,0,338136:0:0:0:0:
256,192,338136,128,0,338200:0:0:0:0:
329,192,338200,128,0,338264:0:0:0:0:
109,192,338264,1,0,0:0:0:0:
402,192,338264,128,0,338328:0:0:0:0:
256,192,338328,128,0,338392:0:0:0:0:
475,192,338392,128,0,338777:0:0:0:0:
182,192,338392,128,0,338456:0:0:0:0:
109,192,338456,128,0,338520:0:0:0:0:
36,192,338520,128,0,338648:0:0:0:0:
329,192,338520,1,0,0:0:0:0:
182,192,338584,128,0,338648:0:0:0:0:
109,192,338648,128,0,338777:0:0:0:0:
256,192,338713,128,0,338777:0:0:0:0:
402,192,338777,1,0,0:0:0:0:
182,192,338777,128,0,338905:0:0:0:0:
329,192,338841,128,0,338905:0:0:0:0:
256,192,338905,128,0,339033:0:0:0:0:
402,192,338969,128,0,339033:0:0:0:0:
109,192,339033,1,0,0:0:0:0:
36,192,339033,128,0,339289:0:0:0:0:
475,192,339033,128,0,339097:0:0:0:0:
329,192,339097,128,0,339161:0:0:0:0:
256,192,339161,128,0,339225:0:0:0:0:
182,192,339225,128,0,339289:0:0:0:0:
402,192,339289,1,0,0:0:0:0:
109,192,339289,128,0,339354:0:0:0:0:
256,192,339354,128,0,339418:0:0:0:0:
475,192,339418,128,0,339802:0:0:0:0:
329,192,339418,128,0,339482:0:0:0:0:
182,192,339482,128,0,339546:0:0:0:0:
36,192,339546,1,0,0:0:0:0:
402,192,339546,128,0,339674:0:0:0:0:
256,192,339610,128,0,339674:0:0:0:0:
329,192,339674,128,0,339802:0:0:0:0:
182,192,339738,128,0,339802:0:0:0:0:
36,192,339802,1,0,0:0:0:0:
256,192,339802,128,0,339930:0:0:0:0:
109,192,339866,128,0,339930:0:0:0:0:
182,192,339930,128,0,340059:0:0:0:0:
329,192,339995,128,0,340059:0:0:0:0:
475,192,340059,1,0,0:0:0:0:
36,192,340059,1,0,0:0:0:0:
256,192,340059,128,0,340315:0:0:0:0:
109,192,340059,128,0,340123:0:0:0:0:
402,192,340123,128,0,340187:0:0:0:0:
329,192,340187,128,0,340251:0:0:0:0:
36,192,340251,128,0,340315:0:0:0:0:
475,192,340315,1,0,0:0:0:0:
109,192,340315,128,0,340379:0:0:0:0:
182,192,340379,128,0,340443:0:0:0:0:
36,192,340443,128,0,341725:0:0:0:0:
256,192,340443,128,0,340507:0:0:0:0:
402,192,340507,128,0,340571:0:0:0:0:
475,192,340571,128,0,340700:0:0:0:0:
109,192,340571,1,0,0:0:0:0:
329,192,340636,128,0,340700:0:0:0:0:
402,192,340700,128,0,340828:0:0:0:0:
256,192,340764,128,0,340828:0:0:0:0:
109,192,340828,1,0,0:0:0:0:
329,192,340828,128,0,340956:0:0:0:0:
182,192,340892,128,0,340956:0:0:0:0:
256,192,340956,128,0,341084:0:0:0:0:
402,192,341020,128,0,341084:0:0:0:0:
475,192,341084,1,0,0:0:0:0:
109,192,341084,128,0,341213:0:0:0:0:
182,192,341148,128,0,341277:0:0:0:0:
256,192,341213,128,0,341341:0:0:0:0:
329,192,341277,128,0,341341:0:0:0:0:
475,192,341341,128,0,341469:0:0:0:0:
109,192,341341,1,0,0:0:0:0:
402,192,341405,128,0,341533:0:0:0:0:
329,192,341469,128,0,341597:0:0:0:0:
256,192,341533,128,0,341597:0:0:0:0:
475,192,341597,1,0,0:0:0:0:
109,192,341597,128,0,341725:0:0:0:0:
182,192,341661,128,0,341789:0:0:0:0:
256,192,341725,128,0,341854:0:0:0:0:
329,192,341789,128,0,341854:0:0:0:0:
475,192,341854,128,0,342110:0:0:0:0:
402,192,341854,1,0,0:0:0:0:
36,192,341854,128,0,341982:0:0:0:0:
109,192,341918,128,0,342046:0:0:0:0:
182,192,341982,128,0,342110:0:0:0:0:
256,192,342046,128,0,342110:0:0:0:0:
36,192,342110,1,0,0:0:0:0:
402,192,342110,128,0,342366:0:0:0:0:
329,192,342110,128,0,342174:0:0:0:0:
109,192,342110,1,0,0:0:0:0:
256,192,342174,128,0,342238:0:0:0:0:
182,192,342238,128,0,342302:0:0:0:0:
109,192,342302,128,0,342366:0:0:0:0:
475,192,342366,1,0,0:0:0:0:
36,192,342366,128,0,342430:0:0:0:0:
256,192,342430,128,0,342495:0:0:0:0:
109,192,342495,128,0,342879:0:0:0:0:
329,192,342495,128,0,342559:0:0:0:0:
402,192,342559,128,0,342623:0:0:0:0:
182,192,342623,128,0,342751:0:0:0:0:
475,192,342623,1,0,0:0:0:0:
36,192,342687,128,0,342751:0:0:0:0:
256,192,342751,128,0,342879:0:0:0:0:
475,192,342815,128,0,342879:0:0:0:0:
36,192,342879,1,0,0:0:0:0:
329,192,342879,128,0,343007:0:0:0:0:
182,192,342943,128,0,343007:0:0:0:0:
402,192,343007,128,0,343136:0:0:0:0:
256,192,343071,128,0,343136:0:0:0:0:
475,192,343136,1,0,0:0:0:0:
329,192,343136,128,0,343392:0:0:0:0:
36,192,343136,128,0,343200:0:0:0:0:
109,192,343200,128,0,343264:0:0:0:0:
182,192,343264,128,0,343328:0:0:0:0:
256,192,343328,128,0,343392:0:0:0:0:
475,192,343392,1,0,0:0:0:0:
402,192,343392,128,0,343456:0:0:0:0:
182,192,343456,128,0,343520:0:0:0:0:
36,192,343520,128,0,343905:0:0:0:0:
109,192,343520,128,0,343584:0:0:0:0:
475,192,343584,128,0,343648:0:0:0:0:
256,192,343648,128,0,343777:0:0:0:0:
329,192,343648,1,0,0:0:0:0:
402,192,343713,128,0,343777:0:0:0:0:
182,192,343777,128,0,343905:0:0:0:0:
329,192,343841,128,0,343905:0:0:0:0:
475,192,343905,1,0,0:0:0:0:
109,192,343905,128,0,344033:0:0:0:0:
256,192,343969,128,0,344033:0:0:0:0:
36,192,344033,128,0,344161:0:0:0:0:
182,192,344097,128,0,344161:0:0:0:0:
402,192,344161,1,0,0:0:0:0:
475,192,344161,128,0,345700:0:0:0:0:
329,192,344161,128,0,344289:0:0:0:0:
109,192,344161,1,0,0:0:0:0:
256,192,344225,128,0,344354:0:0:0:0:
182,192,344289,128,0,344418:0:0:0:0:
109,192,344354,128,0,344482:0:0:0:0:
402,192,344418,1,0,0:0:0:0:
36,192,344418,128,0,344482:0:0:0:0:
329,192,344482,128,0,344546:0:0:0:0:
109,192,344546,128,0,344674:0:0:0:0:
182,192,344610,128,0,344738:0:0:0:0:
36,192,344674,1,0,0:0:0:0:
256,192,344674,128,0,344802:0:0:0:0:
329,192,344738,128,0,344866:0:0:0:0:
402,192,344802,128,0,344866:0:0:0:0:
109,192,344866,128,0,344930:0:0:0:0:
36,192,344930,1,0,0:0:0:0:
256,192,344930,128,0,345059:0:0:0:0:
182,192,344995,128,0,345123:0:0:0:0:
109,192,345059,128,0,345187:0:0:0:0:
36,192,345123,128,0,345187:0:0:0:0:
182,192,345187,1,0,0:0:0:0:
402,192,345187,128,0,345315:0:0:0:0:
329,192,345251,128,0,345379:0:0:0:0:
256,192,345315,128,0,345443:0:0:0:0:
182,192,345379,128,0,345507:0:0:0:0:
402,192,345443,1,0,0:0:0:0:
109,192,345443,128,0,345507:0:0:0:0:
329,192,345507,128,0,345571:0:0:0:0:
36,192,345571,128,0,345700:0:0:0:0:
109,192,345636,128,0,345764:0:0:0:0:
329,192,345700,1,0,0:0:0:0:
182,192,345700,128,0,345828:0:0:0:0:
256,192,345764,128,0,345828:0:0:0:0:
475,192,345828,128,0,345956:0:0:0:0:
402,192,345892,128,0,346020:0:0:0:0:
182,192,345892,1,0,0:0:0:0:
36,192,345956,1,0,0:0:0:0:
329,192,345956,128,0,346084:0:0:0:0:
109,192,345956,1,0,0:0:0:0:
256,192,346020,128,0,346148:0:0:0:0:
402,192,346084,1,0,0:0:0:0:
182,192,346084,128,0,346213:0:0:0:0:
329,192,346148,1,0,0:0:0:0:
109,192,346148,128,0,346277:0:0:0:0:
475,192,346213,128,0,346469:0:0:0:0:
256,192,346213,1,0,0:0:0:0:
402,192,346213,1,0,0:0:0:0:
36,192,346213,128,0,346277:0:0:0:0:
182,192,346277,128,0,346341:0:0:0:0:
329,192,346341,128,0,346405:0:0:0:0:
256,192,346405,128,0,346469:0:0:0:0:
402,192,346469,1,0,0:0:0:0:
182,192,346469,128,0,346533:0:0:0:0:
109,192,346533,128,0,346597:0:0:0:0:
36,192,346597,128,0,346982:0:0:0:0:
256,192,346597,128,0,346661:0:0:0:0:
402,192,346661,128,0,346725:0:0:0:0:
182,192,346725,1,0,0:0:0:0:
475,192,346725,128,0,346854:0:0:0:0:
329,192,346789,128,0,346854:0:0:0:0:
402,192,346854,128,0,346982:0:0:0:0:
256,192,346918,128,0,346982:0:0:0:0:
109,192,346982,1,0,0:0:0:0:
329,192,346982,128,0,347110:0:0:0:0:
182,192,347046,128,0,347110:0:0:0:0:
402,192,347110,128,0,347238:0:0:0:0:
256,192,347174,128,0,347238:0:0:0:0:
36,192,347238,1,0,0:0:0:0:
475,192,347238,128,0,347495:0:0:0:0:
109,192,347238,128,0,347302:0:0:0:0:
182,192,347302,128,0,347366:0:0:0:0:
329,192,347366,128,0,347430:0:0:0:0:
256,192,347430,128,0,347495:0:0:0:0:
109,192,347495,1,0,0:0:0:0:
402,192,347495,128,0,347559:0:0:0:0:
182,192,347559,128,0,347623:0:0:0:0:
36,192,347623,128,0,348007:0:0:0:0:
329,192,347623,128,0,347687:0:0:0:0:
402,192,347687,128,0,347751:0:0:0:0:
256,192,347751,128,0,347879:0:0:0:0:
475,192,347751,1,0,0:0:0:0:
109,192,347815,128,0,347879:0:0:0:0:
329,192,347879,128,0,348007:0:0:0:0:
182,192,347943,128,0,348007:0:0:0:0:
475,192,348007,1,0,0:0:0:0:
256,192,348007,128,0,348136:0:0:0:0:
109,192,348071,128,0,348136:0:0:0:0:
182,192,348136,128,0,348264:0:0:0:0:
36,192,348200,128,0,348264:0:0:0:0:
475,192,348264,128,0,348520:0:0:0:0:
402,192,348264,1,0,0:0:0:0:
109,192,348264,1,0,0:0:0:0:
329,192,348264,128,0,348328:0:0:0:0:
256,192,348328,128,0,348392:0:0:0:0:
182,192,348392,128,0,348456:0:0:0:0:
109,192,348456,128,0,348520:0:0:0:0:
36,192,348520,128,0,348584:0:0:0:0:
402,192,348520,1,0,0:0:0:0:
329,192,348584,128,0,348648:0:0:0:0:
256,192,348648,128,0,349930:0:0:0:0:
109,192,348648,128,0,348713:0:0:0:0:
402,192,348713,128,0,348777:0:0:0:0:
475,192,348777,128,0,348905:0:0:0:0:
36,192,348777,1,0,0:0:0:0:
329,192,348841,128,0,348905:0:0:0:0:
402,192,348905,128,0,349033:0:0:0:0:
109,192,348969,128,0,349033:0:0:0:0:
329,192,349033,1,0,0:0:0:0:
36,192,349033,128,0,349161:0:0:0:0:
182,192,349097,128,0,349161:0:0:0:0:
109,192,349161,128,0,349289:0:0:0:0:
329,192,349225,128,0,349289:0:0:0:0:
182,192,349289,1,0,0:0:0:0:
475,192,349289,128,0,349418:0:0:0:0:
402,192,349354,128,0,349482:0:0:0:0:
329,192,349418,128,0,349546:0:0:0:0:
182,192,349482,128,0,349546:0:0:0:0:
475,192,349546,1,0,0:0:0:0:
36,192,349546,128,0,349674:0:0:0:0:
109,192,349610,128,0,349738:0:0:0:0:
182,192,349674,128,0,349802:0:0:0:0:
329,192,349738,128,0,349802:0:0:0:0:
36,192,349802,1,0,0:0:0:0:
475,192,349802,128,0,349930:0:0:0:0:
402,192,349866,128,0,349995:0:0:0:0:
329,192,349930,128,0,350059:0:0:0:0:
182,192,349995,128,0,350059:0:0:0:0:
475,192,350059,128,0,350315:0:0:0:0:
36,192,350059,128,0,350187:0:0:0:0:
256,192,350059,1,0,0:0:0:0:
109,192,350123,128,0,350251:0:0:0:0:
182,192,350187,128,0,350315:0:0:0:0:
256,192,350251,128,0,350379:0:0:0:0:
36,192,350315,1,0,0:0:0:0:
402,192,350315,128,0,350571:0:0:0:0:
329,192,350315,128,0,350379:0:0:0:0:
109,192,350315,1,0,0:0:0:0:
182,192,350379,128,0,350443:0:0:0:0:
36,192,350443,128,0,350507:0:0:0:0:
109,192,350507,128,0,350571:0:0:0:0:
475,192,350571,1,0,0:0:0:0:
256,192,350571,128,0,350636:0:0:0:0:
182,192,350636,128,0,350700:0:0:0:0:
109,192,350700,128,0,351084:0:0:0:0:
329,192,350700,128,0,350764:0:0:0:0:
402,192,350764,128,0,350828:0:0:0:0:
36,192,350828,1,0,0:0:0:0:
256,192,350828,128,0,350956:0:0:0:0:
475,192,350892,128,0,350956:0:0:0:0:
329,192,350956,128,0,351084:0:0:0:0:
182,192,351020,128,0,351084:0:0:0:0:
36,192,351084,1,0,0:0:0:0:
402,192,351084,128,0,351213:0:0:0:0:
256,192,351148,128,0,351213:0:0:0:0:
475,192,351213,128,0,351341:0:0:0:0:
329,192,351277,128,0,351341:0:0:0:0:
109,192,351341,1,0,0:0:0:0:
36,192,351341,128,0,351597:0:0:0:0:
182,192,351341,128,0,351405:0:0:0:0:
256,192,351405,128,0,351469:0:0:0:0:
329,192,351469,128,0,351533:0:0:0:0:
402,192,351533,128,0,351597:0:0:0:0:
109,192,351597,1,0,0:0:0:0:
475,192,351597,128,0,351661:0:0:0:0:
256,192,351661,128,0,351725:0:0:0:0:
182,192,351725,128,0,352110:0:0:0:0:
402,192,351725,128,0,351789:0:0:0:0:
109,192,351789,128,0,351854:0:0:0:0:
475,192,351854,128,0,351982:0:0:0:0:
36,192,351854,1,0,0:0:0:0:
329,192,351918,128,0,351982:0:0:0:0:
402,192,351982,128,0,352110:0:0:0:0:
256,192,352046,128,0,352110:0:0:0:0:
329,192,352110,128,0,352366:0:0:0:0:
475,192,352110,1,0,0:0:0:0:
36,192,352110,128,0,352238:0:0:0:0:
182,192,352174,128,0,352238:0:0:0:0:
109,192,352238,128,0,352366:0:0:0:0:
256,192,352302,128,0,352366:0:0:0:0:
36,192,352366,1,0,0:0:0:0:
475,192,352366,128,0,352623:0:0:0:0:
182,192,352366,1,0,0:0:0:0:
402,192,352366,128,0,352430:0:0:0:0:
329,192,352430,128,0,352495:0:0:0:0:
256,192,352495,128,0,352559:0:0:0:0:
182,192,352559,128,0,352623:0:0:0:0:
402,192,352623,1,0,0:0:0:0:
109,192,352623,128,0,352687:0:0:0:0:
329,192,352687,128,0,352751:0:0:0:0:
36,192,352751,128,0,353136:0:0:0:0:
475,192,352751,1,0,0:0:0:0:
182,192,352751,128,0,352879:0:0:0:0:
402,192,352815,128,0,352943:0:0:0:0:
109,192,352879,1,0,0:0:0:0:
256,192,352879,128,0,353007:0:0:0:0:
475,192,352943,128,0,353136:0:0:0:0:
329,192,353007,128,0,353136:0:0:0:0:
182,192,353071,128,0,353136:0:0:0:0:
402,192,353136,1,0,0:0:0:0:
109,192,353136,128,0,353200:0:0:0:0:
256,192,353200,128,0,353264:0:0:0:0:
329,192,353264,128,0,353328:0:0:0:0:
402,192,353328,128,0,353392:0:0:0:0:
109,192,353392,1,0,0:0:0:0:
256,192,353392,128,0,353648:0:0:0:0:
36,192,353392,1,0,0:0:0:0:
475,192,353392,1,0,0:0:0:0:
109,192,353520,1,0,0:0:0:0:
402,192,353520,1,0,0:0:0:0:
182,192,353648,1,0,0:0:0:0:
329,192,353648,1,0,0:0:0:0:
36,192,353648,1,0,0:0:0:0:
475,192,353777,128,0,354161:0:0:0:0:
329,192,353777,1,0,0:0:0:0:
402,192,353777,1,0,0:0:0:0:
36,192,353905,1,0,0:0:0:0:
109,192,353905,1,0,0:0:0:0:
256,192,353905,1,0,0:0:0:0:
182,192,354033,1,0,0:0:0:0:
402,192,354033,1,0,0:0:0:0:
329,192,354097,1,0,0:0:0:0:
256,192,354161,1,0,0:0:0:0:
36,192,354161,1,0,0:0:0:0:
402,192,354225,1,0,0:0:0:0:
109,192,354225,1,0,0:0:0:0:
182,192,354289,1,0,0:0:0:0:
329,192,354289,1,0,0:0:0:0:
402,192,354354,1,0,0:0:0:0:
256,192,354418,128,0,356084:0:0:0:0:
36,192,354418,128,0,354802:0:0:0:0:
109,192,354418,1,0,0:0:0:0:
475,192,354418,1,0,0:0:0:0:
182,192,354418,1,0,0:0:0:0:
475,192,354802,128,0,355187:0:0:0:0:
36,192,355443,128,0,355828:0:0:0:0:
475,192,355828,128,0,356084:0:0:0:0:
182,192,356084,1,0,0:0:0:0:
109,192,356084,1,0,0:0:0:0:
256,192,356213,1,0,0:0:0:0:
329,192,356213,1,0,0:0:0:0:
109,192,356277,1,0,0:0:0:0:
36,192,356277,1,0,0:0:0:0:
402,192,356341,1,0,0:0:0:0:
475,192,356341,1,0,0:0:0:0:
256,192,356405,1,0,0:0:0:0:
182,192,356405,1,0,0:0:0:0:
109,192,356469,1,0,0:0:0:0:
475,192,356469,128,0,356725:0:0:0:0:
36,192,356469,128,0,356725:0:0:0:0:
402,192,356469,1,0,0:0:0:0:
329,192,356469,128,0,356533:0:0:0:0:
182,192,356533,128,0,356597:0:0:0:0:
256,192,356597,128,0,356661:0:0:0:0:
109,192,356661,128,0,356725:0:0:0:0:
182,192,356725,128,0,356789:0:0:0:0:
402,192,356725,128,0,356982:0:0:0:0:
329,192,356725,1,0,0:0:0:0:
36,192,356789,128,0,356854:0:0:0:0:
109,192,356854,128,0,356918:0:0:0:0:
256,192,356854,128,0,357495:0:0:0:0:
182,192,356918,128,0,356982:0:0:0:0:
329,192,356982,128,0,357046:0:0:0:0:
109,192,356982,128,0,357238:0:0:0:0:
36,192,356982,1,0,0:0:0:0:
475,192,357046,128,0,357110:0:0:0:0:
402,192,357110,128,0,357174:0:0:0:0:
329,192,357174,128,0,357238:0:0:0:0:
36,192,357238,128,0,357302:0:0:0:0:
475,192,357238,128,0,357495:0:0:0:0:
402,192,357238,1,0,0:0:0:0:
182,192,357302,128,0,357366:0:0:0:0:
329,192,357366,128,0,357430:0:0:0:0:
36,192,357430,128,0,357495:0:0:0:0:
182,192,357495,128,0,357751:0:0:0:0:
402,192,357495,128,0,357559:0:0:0:0:
109,192,357495,1,0,0:0:0:0:
329,192,357559,128,0,357623:0:0:0:0:
475,192,357623,128,0,357687:0:0:0:0:
402,192,357687,128,0,357751:0:0:0:0:
36,192,357751,128,0,357815:0:0:0:0:
329,192,357751,128,0,358007:0:0:0:0:
256,192,357751,1,0,0:0:0:0:
109,192,357815,128,0,357879:0:0:0:0:
182,192,357879,128,0,357943:0:0:0:0:
475,192,357943,128,0,358007:0:0:0:0:
109,192,358007,128,0,358071:0:0:0:0:
256,192,358007,128,0,358264:0:0:0:0:
36,192,358007,1,0,0:0:0:0:
402,192,358071,128,0,358136:0:0:0:0:
182,192,358136,128,0,358200:0:0:0:0:
329,192,358200,128,0,358264:0:0:0:0:
109,192,358264,1,0,0:0:0:0:
36,192,358264,1,0,0:0:0:0:
182,192,358264,1,0,0:0:0:0:
475,192,358328,1,0,0:0:0:0:
402,192,358360,1,0,0:0:0:0:
329,192,358392,1,0,0:0:0:0:
256,192,358424,1,0,0:0:0:0:
182,192,358456,1,0,0:0:0:0:
109,192,358488,1,0,0:0:0:0:
36,192,358520,128,0,358777:0:0:0:0:
329,192,358520,128,0,358648:0:0:0:0:
402,192,358520,128,0,358584:0:0:0:0:
475,192,358520,1,0,0:0:0:0:
256,192,358584,128,0,358713:0:0:0:0:
182,192,358648,128,0,358777:0:0:0:0:
109,192,358713,128,0,358777:0:0:0:0:
256,192,358777,128,0,358905:0:0:0:0:
329,192,358777,128,0,358841:0:0:0:0:
402,192,358777,1,0,0:0:0:0:
182,192,358841,128,0,358969:0:0:0:0:
475,192,358905,128,0,359289:0:0:0:0:
109,192,358905,128,0,359033:0:0:0:0:
36,192,358969,128,0,359033:0:0:0:0:
182,192,359033,128,0,359161:0:0:0:0:
402,192,359033,128,0,359097:0:0:0:0:
329,192,359033,1,0,0:0:0:0:
256,192,359097,128,0,359225:0:0:0:0:
329,192,359161,128,0,359289:0:0:0:0:
402,192,359225,128,0,359289:0:0:0:0:
109,192,359289,128,0,359418:0:0:0:0:
36,192,359289,128,0,359354:0:0:0:0:
256,192,359289,1,0,0:0:0:0:
182,192,359354,128,0,359482:0:0:0:0:
329,192,359418,128,0,359546:0:0:0:0:
402,192,359482,128,0,359546:0:0:0:0:
475,192,359546,128,0,359802:0:0:0:0:
182,192,359546,128,0,359674:0:0:0:0:
109,192,359546,128,0,359610:0:0:0:0:
36,192,359546,1,0,0:0:0:0:
256,192,359610,128,0,359738:0:0:0:0:
329,192,359674,128,0,359802:0:0:0:0:
402,192,359738,128,0,359802:0:0:0:0:
182,192,359802,128,0,359866:0:0:0:0:
256,192,359802,128,0,359930:0:0:0:0:
109,192,359802,1,0,0:0:0:0:
329,192,359866,128,0,359995:0:0:0:0:
402,192,359930,128,0,360059:0:0:0:0:
36,192,359930,128,0,360315:0:0:0:0:
475,192,359995,128,0,360059:0:0:0:0:
329,192,360059,128,0,360187:0:0:0:0:
109,192,360059,128,0,360123:0:0:0:0:
182,192,360059,1,0,0:0:0:0:
256,192,360123,128,0,360251:0:0:0:0:
182,192,360187,128,0,360315:0:0:0:0:
109,192,360251,128,0,360315:0:0:0:0:
475,192,360315,1,0,0:0:0:0:
402,192,360315,1,0,0:0:0:0:
329,192,360315,1,0,0:0:0:0:
256,192,360443,1,0,0:0:0:0:
329,192,360443,1,0,0:0:0:0:
182,192,360443,1,0,0:0:0:0:
256,192,360571,128,0,361597:0:0:0:0:
36,192,360571,128,0,360700:0:0:0:0:
402,192,360571,1,0,0:0:0:0:
475,192,360571,128,0,360636:0:0:0:0:
109,192,360636,128,0,360764:0:0:0:0:
182,192,360700,128,0,360828:0:0:0:0:
329,192,360764,128,0,360828:0:0:0:0:
475,192,360828,128,0,360956:0:0:0:0:
109,192,360828,1,0,0:0:0:0:
36,192,360828,128,0,360892:0:0:0:0:
402,192,360892,128,0,361020:0:0:0:0:
329,192,360956,128,0,361084:0:0:0:0:
182,192,361020,128,0,361084:0:0:0:0:
36,192,361084,128,0,361213:0:0:0:0:
402,192,361084,1,0,0:0:0:0:
475,192,361084,128,0,361148:0:0:0:0:
109,192,361148,128,0,361277:0:0:0:0:
182,192,361213,128,0,361341:0:0:0:0:
329,192,361277,128,0,361341:0:0:0:0:
475,192,361341,128,0,361405:0:0:0:0:
109,192,361341,1,0,0:0:0:0:
36,192,361341,128,0,361405:0:0:0:0:
402,192,361405,128,0,361469:0:0:0:0:
109,192,361469,128,0,361533:0:0:0:0:
182,192,361469,128,0,361533:0:0:0:0:
402,192,361533,128,0,361597:0:0:0:0:
329,192,361533,128,0,361597:0:0:0:0:
475,192,361597,1,0,0:0:0:0:
182,192,361597,128,0,361725:0:0:0:0:
36,192,361597,128,0,361661:0:0:0:0:
109,192,361597,128,0,361661:0:0:0:0:
329,192,361661,128,0,361789:0:0:0:0:
475,192,361725,128,0,361789:0:0:0:0:
402,192,361725,128,0,361789:0:0:0:0:
256,192,361789,128,0,361854:0:0:0:0:
36,192,361854,128,0,361982:0:0:0:0:
182,192,361854,128,0,361918:0:0:0:0:
109,192,361854,128,0,361918:0:0:0:0:
475,192,361918,128,0,362046:0:0:0:0:
402,192,361982,128,0,362046:0:0:0:0:
329,192,361982,128,0,362046:0:0:0:0:
256,192,362046,128,0,362110:0:0:0:0:
109,192,362110,1,0,0:0:0:0:
36,192,362110,1,0,0:0:0:0:
402,192,362174,1,0,0:0:0:0:
329,192,362174,1,0,0:0:0:0:
109,192,362238,1,0,0:0:0:0:
182,192,362238,1,0,0:0:0:0:
256,192,362302,1,0,0:0:0:0:
329,192,362302,1,0,0:0:0:0:
475,192,362366,1,0,0:0:0:0:
402,192,362366,1,0,0:0:0:0:
36,192,362430,1,0,0:0:0:0:
109,192,362463,1,0,0:0:0:0:
182,192,362495,1,0,0:0:0:0:
402,192,362527,1,0,0:0:0:0:
329,192,362559,1,0,0:0:0:0:
256,192,362591,1,0,0:0:0:0:
36,192,362623,128,0,362879:0:0:0:0:
475,192,362623,128,0,362794:0:0:0:0:
109,192,362623,1,0,0:0:0:0:
182,192,362623,1,0,0:0:0:0:
402,192,362708,128,0,362879:0:0:0:0:
182,192,362751,1,0,0:0:0:0:
329,192,362794,128,0,362965:0:0:0:0:
256,192,362879,128,0,363050:0:0:0:0:
109,192,362879,1,0,0:0:0:0:
182,192,362965,128,0,363136:0:0:0:0:
475,192,363007,128,0,363392:0:0:0:0:
402,192,363007,1,0,0:0:0:0:
109,192,363050,128,0,363221:0:0:0:0:
36,192,363136,128,0,363307:0:0:0:0:
329,192,363136,1,0,0:0:0:0:
256,192,363221,128,0,363392:0:0:0:0:
402,192,363264,1,0,0:0:0:0:
182,192,363307,128,0,363477:0:0:0:0:
36,192,363392,1,0,0:0:0:0:
329,192,363392,128,0,363563:0:0:0:0:
256,192,363477,128,0,363648:0:0:0:0:
109,192,363520,1,0,0:0:0:0:
182,192,363563,128,0,363648:0:0:0:0:
475,192,363648,128,0,363905:0:0:0:0:
36,192,363648,128,0,363819:0:0:0:0:
402,192,363648,1,0,0:0:0:0:
329,192,363648,1,0,0:0:0:0:
109,192,363734,128,0,363905:0:0:0:0:
329,192,363777,1,0,0:0:0:0:
182,192,363819,128,0,363990:0:0:0:0:
256,192,363905,128,0,364076:0:0:0:0:
402,192,363905,1,0,0:0:0:0:
329,192,363990,128,0,364161:0:0:0:0:
36,192,364033,128,0,364418:0:0:0:0:
109,192,364033,1,0,0:0:0:0:
402,192,364076,128,0,364247:0:0:0:0:
475,192,364161,128,0,364332:0:0:0:0:
182,192,364161,1,0,0:0:0:0:
256,192,364247,128,0,364418:0:0:0:0:
109,192,364289,1,0,0:0:0:0:
329,192,364332,128,0,364503:0:0:0:0:
475,192,364418,1,0,0:0:0:0:
182,192,364418,128,0,364674:0:0:0:0:
256,192,364503,128,0,364674:0:0:0:0:
402,192,364546,1,0,0:0:0:0:
329,192,364589,128,0,364674:0:0:0:0:
109,192,364674,1,0,0:0:0:0:
36,192,364674,128,0,364930:0:0:0:0:
475,192,364674,128,0,364845:0:0:0:0:
402,192,364674,1,0,0:0:0:0:
329,192,364760,128,0,364930:0:0:0:0:
182,192,364802,1,0,0:0:0:0:
402,192,364845,128,0,365016:0:0:0:0:
475,192,364930,128,0,365101:0:0:0:0:
109,192,364930,1,0,0:0:0:0:
182,192,365016,128,0,365187:0:0:0:0:
256,192,365059,128,0,365614:0:0:0:0:
329,192,365059,1,0,0:0:0:0:
109,192,365101,128,0,365272:0:0:0:0:
36,192,365187,128,0,365358:0:0:0:0:
402,192,365187,1,0,0:0:0:0:
475,192,365272,128,0,365443:0:0:0:0:
182,192,365315,1,0,0:0:0:0:
402,192,365358,128,0,365529:0:0:0:0:
329,192,365443,128,0,365614:0:0:0:0:
36,192,365443,1,0,0:0:0:0:
109,192,365529,128,0,365700:0:0:0:0:
475,192,365571,1,0,0:0:0:0:
182,192,365614,128,0,365785:0:0:0:0:
475,192,365700,128,0,365871:0:0:0:0:
329,192,365700,128,0,365785:0:0:0:0:
256,192,365700,128,0,365871:0:0:0:0:
36,192,365700,128,0,365828:0:0:0:0:
402,192,365785,128,0,365956:0:0:0:0:
109,192,365828,128,0,365956:0:0:0:0:
329,192,365871,128,0,366042:0:0:0:0:
36,192,365956,128,0,366127:0:0:0:0:
256,192,365956,128,0,366127:0:0:0:0:
182,192,365956,128,0,366042:0:0:0:0:
475,192,365956,128,0,366084:0:0:0:0:
109,192,366042,128,0,366213:0:0:0:0:
402,192,366084,128,0,366213:0:0:0:0:
182,192,366127,128,0,366298:0:0:0:0:
475,192,366213,128,0,366298:0:0:0:0:
256,192,366213,128,0,366383:0:0:0:0:
329,192,366213,128,0,366298:0:0:0:0:
36,192,366213,128,0,366341:0:0:0:0:
402,192,366298,128,0,366383:0:0:0:0:
109,192,366341,1,0,0:0:0:0:
329,192,366383,128,0,366469:0:0:0:0:
182,192,366405,1,0,0:0:0:0:
109,192,366469,1,0,0:0:0:0:
36,192,366469,1,0,0:0:0:0:
475,192,366501,1,0,0:0:0:0:
402,192,366533,1,0,0:0:0:0:
329,192,366565,1,0,0:0:0:0:
256,192,366597,1,0,0:0:0:0:
182,192,366629,1,0,0:0:0:0:
109,192,366661,1,0,0:0:0:0:
36,192,366693,1,0,0:0:0:0:
329,192,366725,1,0,0:0:0:0:
402,192,366725,1,0,0:0:0:0:
475,192,366725,1,0,0:0:0:0:
475,192,368264,1,0,0:0:0:0:
256,192,368777,1,0,0:0:0:0:
182,192,368777,128,0,369033:0:0:0:0:
36,192,368841,128,0,368905:0:0:0:0:
475,192,368905,128,0,368969:0:0:0:0:
402,192,368969,128,0,369033:0:0:0:0:
329,192,369033,128,0,369289:0:0:0:0:
475,192,369097,128,0,369161:0:0:0:0:
36,192,369161,128,0,369225:0:0:0:0:
109,192,369225,128,0,369289:0:0:0:0:
182,192,369289,128,0,369546:0:0:0:0:
36,192,369354,128,0,369418:0:0:0:0:
475,192,369418,128,0,369482:0:0:0:0:
402,192,369482,128,0,369546:0:0:0:0:
329,192,369546,128,0,369802:0:0:0:0:
475,192,369610,128,0,369674:0:0:0:0:
36,192,369674,128,0,369738:0:0:0:0:
256,192,369738,128,0,369802:0:0:0:0:
109,192,369802,128,0,370059:0:0:0:0:
475,192,369802,128,0,369866:0:0:0:0:
182,192,369802,128,0,369930:0:0:0:0:
402,192,369866,128,0,369930:0:0:0:0:
256,192,369930,128,0,369995:0:0:0:0:
475,192,369995,128,0,370059:0:0:0:0:
36,192,370059,128,0,370123:0:0:0:0:
402,192,370059,128,0,370315:0:0:0:0:
329,192,370059,128,0,370187:0:0:0:0:
109,192,370123,128,0,370187:0:0:0:0:
256,192,370187,128,0,370251:0:0:0:0:
36,192,370251,128,0,370315:0:0:0:0:
475,192,370315,128,0,370379:0:0:0:0:
109,192,370315,128,0,370571:0:0:0:0:
182,192,370315,128,0,370443:0:0:0:0:
402,192,370379,128,0,370443:0:0:0:0:
256,192,370443,128,0,370507:0:0:0:0:
329,192,370507,128,0,370571:0:0:0:0:
475,192,370571,1,0,0:0:0:0:
36,192,370571,1,0,0:0:0:0:
402,192,370636,1,0,0:0:0:0:
109,192,370636,1,0,0:0:0:0:
329,192,370700,1,0,0:0:0:0:
182,192,370700,1,0,0:0:0:0:
256,192,370764,1,0,0:0:0:0:
109,192,370828,1,0,0:0:0:0:
36,192,370828,1,0,0:0:0:0:
475,192,370828,1,0,0:0:0:0:
402,192,370828,1,0,0:0:0:0:
256,192,370956,1,0,0:0:0:0:
36,192,371020,1,0,0:0:0:0:
182,192,371020,1,0,0:0:0:0:
109,192,371020,1,0,0:0:0:0:
475,192,371084,1,0,0:0:0:0:
329,192,371084,1,0,0:0:0:0:
402,192,371084,1,0,0:0:0:0:
109,192,371148,1,0,0:0:0:0:
329,192,371213,1,0,0:0:0:0:
182,192,371213,1,0,0:0:0:0:
256,192,371213,1,0,0:0:0:0:
402,192,371341,1,0,0:0:0:0:
36,192,371341,1,0,0:0:0:0:
475,192,371341,1,0,0:0:0:0:
256,192,371341,1,0,0:0:0:0:
329,192,371469,1,0,0:0:0:0:
182,192,371469,1,0,0:0:0:0:
109,192,371533,1,0,0:0:0:0:
36,192,371597,1,0,0:0:0:0:
256,192,371597,1,0,0:0:0:0:
329,192,371661,1,0,0:0:0:0:
182,192,371725,1,0,0:0:0:0:
475,192,371725,1,0,0:0:0:0:
402,192,371789,1,0,0:0:0:0:
109,192,371854,1,0,0:0:0:0:
36,192,371854,1,0,0:0:0:0:
329,192,371854,1,0,0:0:0:0:
256,192,371982,1,0,0:0:0:0:
402,192,372046,1,0,0:0:0:0:
329,192,372046,1,0,0:0:0:0:
475,192,372046,1,0,0:0:0:0:
182,192,372110,1,0,0:0:0:0:
109,192,372110,1,0,0:0:0:0:
36,192,372110,1,0,0:0:0:0:
475,192,372174,1,0,0:0:0:0:
329,192,372238,1,0,0:0:0:0:
256,192,372238,1,0,0:0:0:0:
182,192,372238,1,0,0:0:0:0:
36,192,372366,1,0,0:0:0:0:
402,192,372366,1,0,0:0:0:0:
256,192,372366,1,0,0:0:0:0:
109,192,372366,1,0,0:0:0:0:
475,192,372495,1,0,0:0:0:0:
402,192,372537,1,0,0:0:0:0:
329,192,372580,1,0,0:0:0:0:
36,192,372623,1,0,0:0:0:0:
109,192,372659,1,0,0:0:0:0:
182,192,372696,1,0,0:0:0:0:
256,192,372733,1,0,0:0:0:0:
329,192,372769,1,0,0:0:0:0:
402,192,372806,1,0,0:0:0:0:
475,192,372843,1,0,0:0:0:0:
182,192,372879,1,0,0:0:0:0:
36,192,372879,1,0,0:0:0:0:
109,192,372879,1,0,0:0:0:0:
256,192,373007,1,0,0:0:0:0:
182,192,373071,1,0,0:0:0:0:
402,192,373071,1,0,0:0:0:0:
475,192,373071,1,0,0:0:0:0:
329,192,373136,1,0,0:0:0:0:
109,192,373136,1,0,0:0:0:0:
36,192,373136,1,0,0:0:0:0:
256,192,373200,1,0,0:0:0:0:
36,192,373264,1,0,0:0:0:0:
182,192,373264,1,0,0:0:0:0:
402,192,373264,1,0,0:0:0:0:
182,192,373392,1,0,0:0:0:0:
475,192,373392,1,0,0:0:0:0:
329,192,373392,1,0,0:0:0:0:
256,192,373520,1,0,0:0:0:0:
329,192,373584,1,0,0:0:0:0:
36,192,373584,1,0,0:0:0:0:
109,192,373584,1,0,0:0:0:0:
182,192,373648,1,0,0:0:0:0:
475,192,373648,1,0,0:0:0:0:
402,192,373648,1,0,0:0:0:0:
256,192,373713,1,0,0:0:0:0:
475,192,373777,1,0,0:0:0:0:
109,192,373777,1,0,0:0:0:0:
329,192,373777,1,0,0:0:0:0:
36,192,373905,1,0,0:0:0:0:
329,192,373905,1,0,0:0:0:0:
182,192,373905,1,0,0:0:0:0:
256,192,374033,1,0,0:0:0:0:
402,192,374097,1,0,0:0:0:0:
475,192,374097,1,0,0:0:0:0:
182,192,374097,1,0,0:0:0:0:
109,192,374161,1,0,0:0:0:0:
36,192,374161,1,0,0:0:0:0:
329,192,374161,1,0,0:0:0:0:
256,192,374225,1,0,0:0:0:0:
182,192,374289,1,0,0:0:0:0:
402,192,374289,1,0,0:0:0:0:
36,192,374289,1,0,0:0:0:0:
329,192,374418,1,0,0:0:0:0:
475,192,374418,1,0,0:0:0:0:
256,192,374418,1,0,0:0:0:0:
182,192,374418,1,0,0:0:0:0:
36,192,374546,1,0,0:0:0:0:
109,192,374589,1,0,0:0:0:0:
182,192,374631,1,0,0:0:0:0:
475,192,374674,1,0,0:0:0:0:
402,192,374706,1,0,0:0:0:0:
329,192,374738,1,0,0:0:0:0:
256,192,374770,1,0,0:0:0:0:
182,192,374802,1,0,0:0:0:0:
36,192,374930,1,0,0:0:0:0:
329,192,374930,1,0,0:0:0:0:
475,192,374930,1,0,0:0:0:0:
109,192,374930,1,0,0:0:0:0:
256,192,375059,1,0,0:0:0:0:
182,192,375123,1,0,0:0:0:0:
402,192,375123,1,0,0:0:0:0:
475,192,375123,1,0,0:0:0:0:
36,192,375187,1,0,0:0:0:0:
109,192,375187,1,0,0:0:0:0:
329,192,375187,1,0,0:0:0:0:
402,192,375251,1,0,0:0:0:0:
182,192,375315,1,0,0:0:0:0:
36,192,375315,1,0,0:0:0:0:
475,192,375315,1,0,0:0:0:0:
475,192,375443,1,0,0:0:0:0:
256,192,375443,1,0,0:0:0:0:
109,192,375443,1,0,0:0:0:0:
329,192,375443,1,0,0:0:0:0:
182,192,375571,1,0,0:0:0:0:
402,192,375571,1,0,0:0:0:0:
109,192,375636,1,0,0:0:0:0:
329,192,375700,1,0,0:0:0:0:
36,192,375700,1,0,0:0:0:0:
256,192,375764,1,0,0:0:0:0:
475,192,375828,1,0,0:0:0:0:
182,192,375828,1,0,0:0:0:0:
402,192,375892,1,0,0:0:0:0:
36,192,375956,1,0,0:0:0:0:
329,192,375956,1,0,0:0:0:0:
109,192,375956,1,0,0:0:0:0:
256,192,376084,1,0,0:0:0:0:
109,192,376148,1,0,0:0:0:0:
36,192,376148,1,0,0:0:0:0:
329,192,376148,1,0,0:0:0:0:
182,192,376213,1,0,0:0:0:0:
402,192,376213,1,0,0:0:0:0:
475,192,376213,1,0,0:0:0:0:
109,192,376277,1,0,0:0:0:0:
329,192,376341,1,0,0:0:0:0:
36,192,376341,1,0,0:0:0:0:
475,192,376341,1,0,0:0:0:0:
402,192,376469,1,0,0:0:0:0:
36,192,376469,1,0,0:0:0:0:
109,192,376469,1,0,0:0:0:0:
256,192,376469,1,0,0:0:0:0:
182,192,376597,1,0,0:0:0:0:
256,192,376640,1,0,0:0:0:0:
329,192,376683,1,0,0:0:0:0:
36,192,376725,1,0,0:0:0:0:
109,192,376762,1,0,0:0:0:0:
182,192,376799,1,0,0:0:0:0:
256,192,376835,1,0,0:0:0:0:
329,192,376872,1,0,0:0:0:0:
402,192,376908,1,0,0:0:0:0:
475,192,376945,1,0,0:0:0:0:
109,192,376982,1,0,0:0:0:0:
36,192,376982,1,0,0:0:0:0:
182,192,376982,1,0,0:0:0:0:
329,192,377110,1,0,0:0:0:0:
256,192,377174,1,0,0:0:0:0:
109,192,377174,1,0,0:0:0:0:
475,192,377174,1,0,0:0:0:0:
182,192,377238,1,0,0:0:0:0:
402,192,377238,1,0,0:0:0:0:
36,192,377238,1,0,0:0:0:0:
329,192,377302,1,0,0:0:0:0:
256,192,377366,1,0,0:0:0:0:
475,192,377366,1,0,0:0:0:0:
182,192,377366,1,0,0:0:0:0:
475,192,377495,1,0,0:0:0:0:
36,192,377495,1,0,0:0:0:0:
329,192,377495,1,0,0:0:0:0:
182,192,377623,1,0,0:0:0:0:
402,192,377687,1,0,0:0:0:0:
36,192,377687,1,0,0:0:0:0:
256,192,377687,1,0,0:0:0:0:
475,192,377751,1,0,0:0:0:0:
109,192,377751,1,0,0:0:0:0:
329,192,377751,1,0,0:0:0:0:
182,192,377815,1,0,0:0:0:0:
329,192,377879,1,0,0:0:0:0:
256,192,377879,1,0,0:0:0:0:
36,192,377879,1,0,0:0:0:0:
36,192,378007,1,0,0:0:0:0:
182,192,378007,1,0,0:0:0:0:
475,192,378007,1,0,0:0:0:0:
329,192,378136,1,0,0:0:0:0:
256,192,378200,1,0,0:0:0:0:
475,192,378200,1,0,0:0:0:0:
109,192,378200,1,0,0:0:0:0:
182,192,378264,1,0,0:0:0:0:
402,192,378264,1,0,0:0:0:0:
36,192,378264,1,0,0:0:0:0:
329,192,378328,1,0,0:0:0:0:
475,192,378392,1,0,0:0:0:0:
256,192,378392,1,0,0:0:0:0:
182,192,378392,1,0,0:0:0:0:
109,192,378520,1,0,0:0:0:0:
329,192,378520,1,0,0:0:0:0:
36,192,378520,1,0,0:0:0:0:
256,192,378520,1,0,0:0:0:0:
475,192,378648,1,0,0:0:0:0:
402,192,378691,1,0,0:0:0:0:
329,192,378734,1,0,0:0:0:0:
36,192,378777,1,0,0:0:0:0:
109,192,378809,1,0,0:0:0:0:
182,192,378841,1,0,0:0:0:0:
256,192,378873,1,0,0:0:0:0:
402,192,378905,1,0,0:0:0:0:
329,192,378905,1,0,0:0:0:0:
36,192,379033,1,0,0:0:0:0:
475,192,379033,1,0,0:0:0:0:
182,192,379033,1,0,0:0:0:0:
402,192,379033,1,0,0:0:0:0:
109,192,379161,1,0,0:0:0:0:
329,192,379225,1,0,0:0:0:0:
475,192,379225,1,0,0:0:0:0:
182,192,379225,1,0,0:0:0:0:
36,192,379289,1,0,0:0:0:0:
256,192,379289,1,0,0:0:0:0:
109,192,379289,1,0,0:0:0:0:
475,192,379354,1,0,0:0:0:0:
182,192,379418,1,0,0:0:0:0:
329,192,379418,1,0,0:0:0:0:
402,192,379418,1,0,0:0:0:0:
475,192,379546,1,0,0:0:0:0:
256,192,379546,1,0,0:0:0:0:
182,192,379546,1,0,0:0:0:0:
36,192,379546,1,0,0:0:0:0:
402,192,379674,1,0,0:0:0:0:
109,192,379674,1,0,0:0:0:0:
329,192,379738,1,0,0:0:0:0:
256,192,379802,1,0,0:0:0:0:
36,192,379802,1,0,0:0:0:0:
475,192,379866,1,0,0:0:0:0:
109,192,379930,1,0,0:0:0:0:
402,192,379930,1,0,0:0:0:0:
182,192,379995,1,0,0:0:0:0:
475,192,380059,1,0,0:0:0:0:
36,192,380059,1,0,0:0:0:0:
256,192,380059,1,0,0:0:0:0:
402,192,380187,1,0,0:0:0:0:
36,192,380251,1,0,0:0:0:0:
329,192,380251,1,0,0:0:0:0:
182,192,380251,1,0,0:0:0:0:
402,192,380315,1,0,0:0:0:0:
256,192,380315,1,0,0:0:0:0:
475,192,380315,1,0,0:0:0:0:
36,192,380379,1,0,0:0:0:0:
329,192,380443,1,0,0:0:0:0:
109,192,380443,1,0,0:0:0:0:
182,192,380443,1,0,0:0:0:0:
329,192,380571,1,0,0:0:0:0:
36,192,380571,1,0,0:0:0:0:
475,192,380571,1,0,0:0:0:0:
256,192,380571,1,0,0:0:0:0:
109,192,380700,1,0,0:0:0:0:
182,192,380742,1,0,0:0:0:0:
256,192,380785,1,0,0:0:0:0:
475,192,380828,1,0,0:0:0:0:
402,192,380865,1,0,0:0:0:0:
329,192,380901,1,0,0:0:0:0:
256,192,380938,1,0,0:0:0:0:
182,192,380974,1,0,0:0:0:0:
109,192,381011,1,0,0:0:0:0:
36,192,381048,1,0,0:0:0:0:
402,192,381084,1,0,0:0:0:0:
475,192,381084,1,0,0:0:0:0:
329,192,381084,1,0,0:0:0:0:
182,192,381213,1,0,0:0:0:0:
475,192,381277,1,0,0:0:0:0:
329,192,381277,1,0,0:0:0:0:
109,192,381277,1,0,0:0:0:0:
256,192,381341,1,0,0:0:0:0:
36,192,381341,1,0,0:0:0:0:
402,192,381341,1,0,0:0:0:0:
109,192,381405,1,0,0:0:0:0:
402,192,381469,1,0,0:0:0:0:
182,192,381469,1,0,0:0:0:0:
475,192,381469,1,0,0:0:0:0:
36,192,381597,1,0,0:0:0:0:
256,192,381597,1,0,0:0:0:0:
182,192,381597,1,0,0:0:0:0:
329,192,381725,1,0,0:0:0:0:
402,192,381789,1,0,0:0:0:0:
182,192,381789,1,0,0:0:0:0:
36,192,381789,1,0,0:0:0:0:
256,192,381854,1,0,0:0:0:0:
109,192,381854,1,0,0:0:0:0:
475,192,381854,1,0,0:0:0:0:
402,192,381918,1,0,0:0:0:0:
36,192,381982,1,0,0:0:0:0:
329,192,381982,1,0,0:0:0:0:
109,192,381982,1,0,0:0:0:0:
256,192,382110,1,0,0:0:0:0:
329,192,382110,1,0,0:0:0:0:
475,192,382110,1,0,0:0:0:0:
182,192,382238,1,0,0:0:0:0:
475,192,382302,1,0,0:0:0:0:
329,192,382302,1,0,0:0:0:0:
109,192,382302,1,0,0:0:0:0:
402,192,382366,1,0,0:0:0:0:
256,192,382366,1,0,0:0:0:0:
36,192,382366,1,0,0:0:0:0:
109,192,382430,1,0,0:0:0:0:
475,192,382495,1,0,0:0:0:0:
182,192,382495,1,0,0:0:0:0:
402,192,382495,1,0,0:0:0:0:
36,192,382623,1,0,0:0:0:0:
182,192,382623,1,0,0:0:0:0:
256,192,382623,1,0,0:0:0:0:
329,192,382623,1,0,0:0:0:0:
475,192,382751,1,0,0:0:0:0:
402,192,382794,1,0,0:0:0:0:
329,192,382836,1,0,0:0:0:0:
36,192,382879,1,0,0:0:0:0:
109,192,382911,1,0,0:0:0:0:
182,192,382943,1,0,0:0:0:0:
256,192,382975,1,0,0:0:0:0:
329,192,383007,1,0,0:0:0:0:
475,192,383136,1,0,0:0:0:0:
36,192,383136,1,0,0:0:0:0:
109,192,383136,1,0,0:0:0:0:
182,192,383136,1,0,0:0:0:0:
329,192,383264,1,0,0:0:0:0:
109,192,383328,1,0,0:0:0:0:
182,192,383328,1,0,0:0:0:0:
402,192,383328,1,0,0:0:0:0:
256,192,383392,1,0,0:0:0:0:
475,192,383392,1,0,0:0:0:0:
329,192,383392,1,0,0:0:0:0:
182,192,383456,1,0,0:0:0:0:
109,192,383520,1,0,0:0:0:0:
402,192,383520,1,0,0:0:0:0:
36,192,383520,1,0,0:0:0:0:
36,192,383648,1,0,0:0:0:0:
182,192,383648,1,0,0:0:0:0:
475,192,383648,1,0,0:0:0:0:
256,192,383648,1,0,0:0:0:0:
329,192,383777,1,0,0:0:0:0:
109,192,383777,1,0,0:0:0:0:
402,192,383841,1,0,0:0:0:0:
182,192,383905,1,0,0:0:0:0:
475,192,383905,1,0,0:0:0:0:
256,192,383969,1,0,0:0:0:0:
36,192,384033,1,0,0:0:0:0:
329,192,384033,1,0,0:0:0:0:
109,192,384097,1,0,0:0:0:0:
475,192,384161,1,0,0:0:0:0:
402,192,384161,1,0,0:0:0:0:
256,192,384161,1,0,0:0:0:0:
182,192,384289,1,0,0:0:0:0:
329,192,384354,1,0,0:0:0:0:
109,192,384354,1,0,0:0:0:0:
402,192,384354,1,0,0:0:0:0:
182,192,384418,1,0,0:0:0:0:
36,192,384418,1,0,0:0:0:0:
256,192,384418,1,0,0:0:0:0:
329,192,384482,1,0,0:0:0:0:
402,192,384546,1,0,0:0:0:0:
475,192,384546,1,0,0:0:0:0:
109,192,384546,1,0,0:0:0:0:
36,192,384674,1,0,0:0:0:0:
475,192,384674,1,0,0:0:0:0:
256,192,384674,1,0,0:0:0:0:
329,192,384674,1,0,0:0:0:0:
182,192,384802,1,0,0:0:0:0:
109,192,384845,1,0,0:0:0:0:
36,192,384888,1,0,0:0:0:0:
475,192,384930,1,0,0:0:0:0:
402,192,384967,1,0,0:0:0:0:
329,192,385004,1,0,0:0:0:0:
256,192,385040,1,0,0:0:0:0:
182,192,385077,1,0,0:0:0:0:
109,192,385114,1,0,0:0:0:0:
36,192,385150,1,0,0:0:0:0:
475,192,385187,1,0,0:0:0:0:
402,192,385187,1,0,0:0:0:0:
329,192,385187,1,0,0:0:0:0:
109,192,385315,1,0,0:0:0:0:
182,192,385379,1,0,0:0:0:0:
475,192,385379,1,0,0:0:0:0:
402,192,385379,1,0,0:0:0:0:
256,192,385443,1,0,0:0:0:0:
36,192,385443,1,0,0:0:0:0:
109,192,385443,1,0,0:0:0:0:
402,192,385507,1,0,0:0:0:0:
256,192,385571,1,0,0:0:0:0:
182,192,385571,1,0,0:0:0:0:
475,192,385571,1,0,0:0:0:0:
329,192,385700,1,0,0:0:0:0:
475,192,385700,1,0,0:0:0:0:
36,192,385700,1,0,0:0:0:0:
402,192,385828,1,0,0:0:0:0:
329,192,385892,1,0,0:0:0:0:
36,192,385892,1,0,0:0:0:0:
109,192,385892,1,0,0:0:0:0:
475,192,385956,1,0,0:0:0:0:
402,192,385956,1,0,0:0:0:0:
256,192,385956,1,0,0:0:0:0:
109,192,386020,1,0,0:0:0:0:
256,192,386084,1,0,0:0:0:0:
329,192,386084,1,0,0:0:0:0:
36,192,386084,1,0,0:0:0:0:
475,192,386213,1,0,0:0:0:0:
36,192,386213,1,0,0:0:0:0:
182,192,386213,1,0,0:0:0:0:
109,192,386341,1,0,0:0:0:0:
402,192,386405,1,0,0:0:0:0:
475,192,386405,1,0,0:0:0:0:
182,192,386405,1,0,0:0:0:0:
256,192,386469,1,0,0:0:0:0:
109,192,386469,1,0,0:0:0:0:
36,192,386469,1,0,0:0:0:0:
402,192,386533,1,0,0:0:0:0:
475,192,386597,1,0,0:0:0:0:
182,192,386597,1,0,0:0:0:0:
256,192,386597,1,0,0:0:0:0:
329,192,386725,1,0,0:0:0:0:
475,192,386725,1,0,0:0:0:0:
402,192,386725,1,0,0:0:0:0:
109,192,386725,1,0,0:0:0:0:
256,192,386854,1,0,0:0:0:0:
182,192,386896,1,0,0:0:0:0:
109,192,386939,1,0,0:0:0:0:
475,192,386982,1,0,0:0:0:0:
402,192,387014,1,0,0:0:0:0:
329,192,387046,1,0,0:0:0:0:
256,192,387078,1,0,0:0:0:0:
182,192,387110,1,0,0:0:0:0:
36,192,387110,1,0,0:0:0:0:
402,192,387238,1,0,0:0:0:0:
36,192,387238,1,0,0:0:0:0:
475,192,387238,1,0,0:0:0:0:
329,192,387238,1,0,0:0:0:0:
109,192,387238,1,0,0:0:0:0:
402,192,387430,1,0,0:0:0:0:
475,192,387430,1,0,0:0:0:0:
256,192,387430,1,0,0:0:0:0:
182,192,387495,1,0,0:0:0:0:
36,192,387495,1,0,0:0:0:0:
109,192,387495,1,0,0:0:0:0:
402,192,387623,1,0,0:0:0:0:
256,192,387623,1,0,0:0:0:0:
329,192,387623,1,0,0:0:0:0:
182,192,387751,1,0,0:0:0:0:
402,192,387751,1,0,0:0:0:0:
109,192,387751,1,0,0:0:0:0:
36,192,387879,1,0,0:0:0:0:
329,192,387879,1,0,0:0:0:0:
182,192,387943,1,0,0:0:0:0:
402,192,388007,1,0,0:0:0:0:
256,192,388071,1,0,0:0:0:0:
109,192,388136,1,0,0:0:0:0:
475,192,388136,1,0,0:0:0:0:
329,192,388200,1,0,0:0:0:0:
36,192,388264,1,0,0:0:0:0:
182,192,388264,1,0,0:0:0:0:
256,192,388264,1,0,0:0:0:0:
182,192,388456,1,0,0:0:0:0:
36,192,388456,1,0,0:0:0:0:
109,192,388456,1,0,0:0:0:0:
475,192,388520,1,0,0:0:0:0:
402,192,388520,1,0,0:0:0:0:
329,192,388520,1,0,0:0:0:0:
182,192,388648,1,0,0:0:0:0:
256,192,388648,1,0,0:0:0:0:
109,192,388648,1,0,0:0:0:0:
329,192,388777,1,0,0:0:0:0:
109,192,388777,1,0,0:0:0:0:
402,192,388777,1,0,0:0:0:0:
182,192,388905,1,0,0:0:0:0:
256,192,388948,1,0,0:0:0:0:
329,192,388990,1,0,0:0:0:0:
36,192,389033,1,0,0:0:0:0:
109,192,389070,1,0,0:0:0:0:
182,192,389106,1,0,0:0:0:0:
256,192,389143,1,0,0:0:0:0:
329,192,389180,1,0,0:0:0:0:
402,192,389216,1,0,0:0:0:0:
475,192,389253,1,0,0:0:0:0:
36,192,389289,1,0,0:0:0:0:
182,192,389289,1,0,0:0:0:0:
109,192,389289,1,0,0:0:0:0:
256,192,389482,1,0,0:0:0:0:
109,192,389482,1,0,0:0:0:0:
36,192,389482,1,0,0:0:0:0:
402,192,389546,1,0,0:0:0:0:
329,192,389546,1,0,0:0:0:0:
475,192,389546,1,0,0:0:0:0:
182,192,389674,1,0,0:0:0:0:
36,192,389674,1,0,0:0:0:0:
256,192,389674,1,0,0:0:0:0:
329,192,389802,1,0,0:0:0:0:
402,192,389802,1,0,0:0:0:0:
475,192,389802,1,0,0:0:0:0:
256,192,389995,1,0,0:0:0:0:
475,192,389995,1,0,0:0:0:0:
402,192,389995,1,0,0:0:0:0:
182,192,390059,1,0,0:0:0:0:
109,192,390059,1,0,0:0:0:0:
36,192,390059,1,0,0:0:0:0:
329,192,390187,1,0,0:0:0:0:
475,192,390187,1,0,0:0:0:0:
256,192,390187,1,0,0:0:0:0:
36,192,390315,1,0,0:0:0:0:
182,192,390315,1,0,0:0:0:0:
109,192,390315,1,0,0:0:0:0:
36,192,390507,1,0,0:0:0:0:
256,192,390507,1,0,0:0:0:0:
109,192,390507,1,0,0:0:0:0:
329,192,390571,1,0,0:0:0:0:
475,192,390571,1,0,0:0:0:0:
402,192,390571,1,0,0:0:0:0:
36,192,390700,1,0,0:0:0:0:
256,192,390700,1,0,0:0:0:0:
182,192,390700,1,0,0:0:0:0:
475,192,390828,1,0,0:0:0:0:
256,192,390828,1,0,0:0:0:0:
329,192,390828,1,0,0:0:0:0:
182,192,390956,1,0,0:0:0:0:
109,192,390999,1,0,0:0:0:0:
36,192,391042,1,0,0:0:0:0:
475,192,391084,1,0,0:0:0:0:
402,192,391116,1,0,0:0:0:0:
329,192,391148,1,0,0:0:0:0:
256,192,391180,1,0,0:0:0:0:
182,192,391213,1,0,0:0:0:0:
402,192,391341,1,0,0:0:0:0:
475,192,391341,1,0,0:0:0:0:
36,192,391341,1,0,0:0:0:0:
329,192,391341,1,0,0:0:0:0:
329,192,391533,1,0,0:0:0:0:
256,192,391533,1,0,0:0:0:0:
36,192,391533,1,0,0:0:0:0:
475,192,391597,1,0,0:0:0:0:
109,192,391597,1,0,0:0:0:0:
402,192,391597,1,0,0:0:0:0:
36,192,391725,1,0,0:0:0:0:
182,192,391725,1,0,0:0:0:0:
256,192,391725,1,0,0:0:0:0:
182,192,391854,1,0,0:0:0:0:
329,192,391854,1,0,0:0:0:0:
475,192,391854,1,0,0:0:0:0:
36,192,391982,1,0,0:0:0:0:
256,192,391982,1,0,0:0:0:0:
402,192,392046,1,0,0:0:0:0:
182,192,392110,1,0,0:0:0:0:
329,192,392174,1,0,0:0:0:0:
109,192,392238,1,0,0:0:0:0:
475,192,392238,1,0,0:0:0:0:
256,192,392302,1,0,0:0:0:0:
402,192,392366,1,0,0:0:0:0:
36,192,392366,1,0,0:0:0:0:
182,192,392366,1,0,0:0:0:0:
475,192,392559,1,0,0:0:0:0:
256,192,392559,1,0,0:0:0:0:
182,192,392559,1,0,0:0:0:0:
402,192,392623,1,0,0:0:0:0:
109,192,392623,1,0,0:0:0:0:
36,192,392623,1,0,0:0:0:0:
256,192,392751,1,0,0:0:0:0:
329,192,392751,1,0,0:0:0:0:
475,192,392751,1,0,0:0:0:0:
329,192,392879,1,0,0:0:0:0:
182,192,392879,1,0,0:0:0:0:
36,192,392879,1,0,0:0:0:0:
256,192,393007,1,0,0:0:0:0:
329,192,393050,1,0,0:0:0:0:
402,192,393093,1,0,0:0:0:0:
36,192,393136,1,0,0:0:0:0:
109,192,393172,1,0,0:0:0:0:
182,192,393209,1,0,0:0:0:0:
256,192,393245,1,0,0:0:0:0:
329,192,393282,1,0,0:0:0:0:
402,192,393319,1,0,0:0:0:0:
475,192,393355,1,0,0:0:0:0:
36,192,393392,1,0,0:0:0:0:
109,192,393392,1,0,0:0:0:0:
182,192,393392,1,0,0:0:0:0:
256,192,393584,1,0,0:0:0:0:
109,192,393584,1,0,0:0:0:0:
402,192,393584,1,0,0:0:0:0:
182,192,393648,1,0,0:0:0:0:
475,192,393648,1,0,0:0:0:0:
329,192,393648,1,0,0:0:0:0:
182,192,393777,1,0,0:0:0:0:
36,192,393777,1,0,0:0:0:0:
109,192,393777,1,0,0:0:0:0:
329,192,393905,1,0,0:0:0:0:
402,192,393905,1,0,0:0:0:0:
475,192,393905,1,0,0:0:0:0:
402,192,394097,1,0,0:0:0:0:
109,192,394097,1,0,0:0:0:0:
256,192,394097,1,0,0:0:0:0:
182,192,394161,1,0,0:0:0:0:
36,192,394161,1,0,0:0:0:0:
329,192,394161,1,0,0:0:0:0:
475,192,394289,1,0,0:0:0:0:
402,192,394289,1,0,0:0:0:0:
329,192,394289,1,0,0:0:0:0:
109,192,394418,1,0,0:0:0:0:
182,192,394418,1,0,0:0:0:0:
36,192,394418,1,0,0:0:0:0:
256,192,394610,1,0,0:0:0:0:
402,192,394610,1,0,0:0:0:0:
109,192,394610,1,0,0:0:0:0:
182,192,394674,1,0,0:0:0:0:
475,192,394674,1,0,0:0:0:0:
329,192,394674,1,0,0:0:0:0:
182,192,394802,1,0,0:0:0:0:
109,192,394802,1,0,0:0:0:0:
36,192,394802,1,0,0:0:0:0:
475,192,394930,1,0,0:0:0:0:
329,192,394930,1,0,0:0:0:0:
402,192,394930,1,0,0:0:0:0:
36,192,394930,1,0,0:0:0:0:
256,192,395059,1,0,0:0:0:0:
182,192,395101,1,0,0:0:0:0:
109,192,395144,1,0,0:0:0:0:
475,192,395187,1,0,0:0:0:0:
402,192,395219,1,0,0:0:0:0:
329,192,395251,1,0,0:0:0:0:
256,192,395283,1,0,0:0:0:0:
36,192,395315,1,0,0:0:0:0:
182,192,395315,1,0,0:0:0:0:
182,192,395443,5,0,0:0:0:0:
36,192,395443,128,0,396341:0:0:0:0:
329,192,395443,1,0,0:0:0:0:
475,192,395443,1,0,0:0:0:0:
402,192,395443,1,0,0:0:0:0:
475,192,395828,128,0,396725:0:0:0:0:
36,192,396469,128,0,399460:0:0:0:0:
475,192,396854,128,0,398905:0:0:0:0:
402,192,397495,128,0,398349:0:0:0:0:
109,192,397879,128,0,398777:0:0:0:0:
329,192,397943,128,0,398520:0:0:0:0:
256,192,398178,128,0,399204:0:0:0:0:
182,192,398349,128,0,398648:0:0:0:0:
402,192,398520,128,0,399033:0:0:0:0:
329,192,398648,128,0,399119:0:0:0:0:
182,192,398777,128,0,399289:0:0:0:0:
109,192,398905,128,0,399375:0:0:0:0:
475,192,399033,128,0,399546:0:0:0:0:
402,192,399119,128,0,399546:0:0:0:0:
329,192,399204,128,0,399546:0:0:0:0:
256,192,399289,128,0,399546:0:0:0:0:
182,192,399375,128,0,399546:0:0:0:0:
109,192,399460,128,0,399546:0:0:0:0:
36,192,399546,128,0,401597:0:0:0:0:
475,192,401084,128,0,401597:0:0:0:0:
402,192,401597,1,0,0:0:0:0:
109,192,401597,1,0,0:0:0:0:
329,192,401597,128,0,402623:0:0:0:0:
182,192,402623,128,0,403136:0:0:0:0:
256,192,402623,128,0,403648:0:0:0:0:
109,192,403136,128,0,403648:0:0:0:0:
329,192,403648,5,0,0:0:0:0:
36,192,403648,128,0,403777:0:0:0:0:
402,192,403680,1,0,0:0:0:0:
475,192,403713,1,0,0:0:0:0:
182,192,403777,128,0,403969:0:0:0:0:
329,192,403969,128,0,404161:0:0:0:0:
109,192,404161,128,0,404289:0:0:0:0:
256,192,404289,128,0,404418:0:0:0:0:
402,192,404418,128,0,404674:0:0:0:0:
182,192,404658,1,0,0:0:0:0:
109,192,404674,1,0,0:0:0:0:
36,192,404690,128,0,407815:0:0:0:0:
475,192,405828,128,0,407815:0:0:0:0:
256,192,407815,1,0,0:0:0:0:
109,192,408777,5,0,0:0:0:0:
182,192,408841,5,0,0:0:0:0:
329,192,408905,5,0,0:0:0:0:
402,192,408969,5,0,0:0:0:0:
36,192,409033,1,0,0:0:0:0:
109,192,409084,1,0,0:0:0:0:
182,192,409136,1,0,0:0:0:0:
329,192,409187,1,0,0:0:0:0:
402,192,409238,1,0,0:0:0:0:
475,192,409289,1,0,0:0:0:0:
256,192,409341,1,0,0:0:0:0:
182,192,409392,1,0,0:0:0:0:
109,192,409443,1,0,0:0:0:0:
36,192,409495,1,0,0:0:0:0:
475,192,409546,1,0,0:0:0:0:
402,192,409589,1,0,0:0:0:0:
329,192,409631,1,0,0:0:0:0:
256,192,409674,1,0,0:0:0:0:
475,192,409802,1,0,0:0:0:0:
402,192,409802,1,0,0:0:0:0:
109,192,409802,1,0,0:0:0:0:
36,192,409802,1,0,0:0:0:0:
36,192,410219,1,0,0:0:0:0:
109,192,410219,1,0,0:0:0:0:
402,192,410219,1,0,0:0:0:0:
475,192,410219,1,0,0:0:0:0:
36,192,410604,1,0,0:0:0:0:
109,192,410604,1,0,0:0:0:0:
402,192,410604,1,0,0:0:0:0:
475,192,410604,1,0,0:0:0:0:
475,192,410956,1,0,0:0:0:0:
402,192,410956,1,0,0:0:0:0:
109,192,410956,1,0,0:0:0:0:
36,192,410956,1,0,0:0:0:0:
402,192,411245,1,0,0:0:0:0:
475,192,411245,1,0,0:0:0:0:
109,192,411245,1,0,0:0:0:0:
36,192,411245,1,0,0:0:0:0:
402,192,411501,1,0,0:0:0:0:
475,192,411501,1,0,0:0:0:0:
109,192,411501,1,0,0:0:0:0:
36,192,411501,1,0,0:0:0:0:
475,192,411725,1,0,0:0:0:0:
402,192,411725,1,0,0:0:0:0:
109,192,411725,1,0,0:0:0:0:
36,192,411725,1,0,0:0:0:0:
256,192,411918,1,0,0:0:0:0:
329,192,411918,1,0,0:0:0:0:
182,192,411918,1,0,0:0:0:0:
402,192,412094,1,0,0:0:0:0:
109,192,412094,1,0,0:0:0:0:
36,192,412094,1,0,0:0:0:0:
475,192,412094,1,0,0:0:0:0:
329,192,412238,1,0,0:0:0:0:
256,192,412238,1,0,0:0:0:0:
182,192,412238,1,0,0:0:0:0:
402,192,412366,1,0,0:0:0:0:
475,192,412366,1,0,0:0:0:0:
36,192,412479,1,0,0:0:0:0:
109,192,412479,1,0,0:0:0:0:
182,192,412575,1,0,0:0:0:0:
329,192,412575,1,0,0:0:0:0:
402,192,412655,1,0,0:0:0:0:
475,192,412655,1,0,0:0:0:0:
109,192,412725,1,0,0:0:0:0:
256,192,412725,1,0,0:0:0:0:
329,192,412794,1,0,0:0:0:0:
182,192,412836,1,0,0:0:0:0:
475,192,412879,1,0,0:0:0:0:
36,192,412879,1,0,0:0:0:0:
402,192,412930,1,0,0:0:0:0:
329,192,412982,1,0,0:0:0:0:
109,192,413033,1,0,0:0:0:0:
182,192,413033,1,0,0:0:0:0:
256,192,413084,1,0,0:0:0:0:
402,192,413136,1,0,0:0:0:0:
329,192,413136,1,0,0:0:0:0:
36,192,413187,1,0,0:0:0:0:
182,192,413238,1,0,0:0:0:0:
329,192,413289,1,0,0:0:0:0:
109,192,413289,1,0,0:0:0:0:
402,192,413341,1,0,0:0:0:0:
475,192,413392,1,0,0:0:0:0:
36,192,413392,1,0,0:0:0:0:
109,192,413443,1,0,0:0:0:0:
182,192,413495,1,0,0:0:0:0:
402,192,413546,1,0,0:0:0:0:
329,192,413546,1,0,0:0:0:0:
256,192,413597,1,0,0:0:0:0:
109,192,413648,1,0,0:0:0:0:
182,192,413648,1,0,0:0:0:0:
475,192,413700,1,0,0:0:0:0:
329,192,413751,1,0,0:0:0:0:
402,192,413802,1,0,0:0:0:0:
182,192,413802,1,0,0:0:0:0:
109,192,413854,1,0,0:0:0:0:
256,192,413905,1,0,0:0:0:0:
36,192,413905,1,0,0:0:0:0:
329,192,413956,1,0,0:0:0:0:
402,192,414007,1,0,0:0:0:0:
182,192,414059,1,0,0:0:0:0:
475,192,414059,1,0,0:0:0:0:
329,192,414110,1,0,0:0:0:0:
109,192,414161,1,0,0:0:0:0:
36,192,414161,1,0,0:0:0:0:
256,192,414213,1,0,0:0:0:0:
182,192,414264,1,0,0:0:0:0:
109,192,414315,1,0,0:0:0:0:
329,192,414315,1,0,0:0:0:0:
402,192,414366,1,0,0:0:0:0:
475,192,414418,1,0,0:0:0:0:
256,192,414418,1,0,0:0:0:0:
182,192,414469,1,0,0:0:0:0:
109,192,414520,1,0,0:0:0:0:
36,192,414571,1,0,0:0:0:0:
329,192,414571,1,0,0:0:0:0:
182,192,414623,1,0,0:0:0:0:
475,192,414674,1,0,0:0:0:0:
402,192,414674,1,0,0:0:0:0:
256,192,414725,1,0,0:0:0:0:
329,192,414777,1,0,0:0:0:0:
182,192,414828,1,0,0:0:0:0:
402,192,414828,1,0,0:0:0:0:
109,192,414879,1,0,0:0:0:0:
475,192,414930,1,0,0:0:0:0:
36,192,414930,1,0,0:0:0:0:
256,192,414982,1,0,0:0:0:0:
329,192,415033,1,0,0:0:0:0:
109,192,415084,1,0,0:0:0:0:
402,192,415084,1,0,0:0:0:0:
182,192,415136,1,0,0:0:0:0:
36,192,415187,1,0,0:0:0:0:
475,192,415187,1,0,0:0:0:0:
256,192,415238,1,0,0:0:0:0:
182,192,415289,1,0,0:0:0:0:
402,192,415341,1,0,0:0:0:0:
109,192,415341,1,0,0:0:0:0:
329,192,415392,1,0,0:0:0:0:
475,192,415443,1,0,0:0:0:0:
36,192,415443,1,0,0:0:0:0:
256,192,415495,1,0,0:0:0:0:
329,192,415546,1,0,0:0:0:0:
402,192,415597,1,0,0:0:0:0:
109,192,415597,1,0,0:0:0:0:
182,192,415648,1,0,0:0:0:0:
36,192,415700,1,0,0:0:0:0:
475,192,415700,1,0,0:0:0:0:
256,192,415751,1,0,0:0:0:0:
182,192,415802,1,0,0:0:0:0:
402,192,415854,1,0,0:0:0:0:
109,192,415854,1,0,0:0:0:0:
329,192,415905,1,0,0:0:0:0:
