osu file format v14

[General]
AudioFilename: audio.ogg
AudioLeadIn: 0
PreviewTime: 335930
Countdown: 0
SampleSet: Soft
StackLeniency: 0.7
Mode: 3
LetterboxInBreaks: 0
SpecialStyle: 0
WidescreenStoryboard: 1

[Editor]
DistanceSpacing: 1.4
BeatDivisor: 4
GridSize: 8
TimelineZoom: 2.300003

[Metadata]
Title:Aegleseeker ("Afterworld" Full Version)
TitleUnicode:Aegleseeker ("Afterworld" Full Version)
Artist:Silentroom vs. Frums
ArtistUnicode:Silentroom vs. Frums
Creator:Blocko
Version:Easy
Source:Arcaea
Tags:lowiro Esoteric Order Side Story Pack VI Lagrange Charon In My Heart Alter's 7K US United States Mania Tournament AUMT VGM chiptune speedcore j-core jcore song contest 2020 Arcaea楽曲コンテスト2020 winner frums.xyz frumsdotxyz Electronic Video Game Instrumental
BeatmapID:3891112
BeatmapSetID:1868798

[Difficulty]
HPDrainRate:6.5
CircleSize:7
OverallDifficulty:6.5
ApproachRate:6
SliderMultiplier:1.4
SliderTickRate:1

[Events]
//Background and Video events
0,0,"BG-1.jpg",0,0
//Break Periods
//Storyboard Layer 0 (Background)
//Storyboard Layer 1 (Fail)
//Storyboard Layer 2 (Pass)
//Storyboard Layer 3 (Foreground)
//Storyboard Layer 4 (Overlay)
//Storyboard Sound Samples

[TimingPoints]
573,256.410256410256,4,2,1,25,1,0
8778,-100,4,2,1,35,0,0
12880,-100,4,2,1,50,0,0
16983,-100,4,2,1,75,0,0
66214,-100,4,2,1,100,0,0
70316,256.410256410256,5,2,1,100,1,0
72880,256.410256410256,3,2,1,100,1,0
80572,256.410256410256,4,2,1,50,1,0
88777,-100,4,2,1,75,0,0
96982,-100,4,2,1,100,0,1
113392,-100,4,2,1,85,0,0
115443,-100,4,2,1,100,0,1
125700,-100,4,2,1,85,0,0
129802,-100,4,2,1,75,0,0
164674,-100,4,2,1,85,0,0
198777,-100,4,2,1,100,0,1
231341,-100,4,2,1,100,0,0
234418,-100,4,2,1,10,0,0
280571,-100,4,2,1,15,0,0
296982,-100,4,2,1,20,0,0
301084,-100,4,2,1,30,0,0
303136,-100,4,2,1,70,0,0
305187,-100,4,2,1,100,0,0
321597,-100,4,2,1,70,0,0
338007,-100,4,2,1,100,0,1
354418,-100,4,2,1,85,0,0
356469,-100,4,2,1,100,0,1
366725,-100,4,2,1,100,0,0
368777,-100,4,2,1,60,0,0
369802,-100,4,2,1,75,0,0
370828,-100,4,2,1,85,0,0
399546,-100,4,2,1,60,0,0
401597,-100,4,2,1,35,0,0
403648,-100,4,2,1,25,0,0
409802,-100,4,2,1,70,0,0
412879,-100,4,2,1,100,0,0

[HitObjects]
256,192,573,5,0,0:0:0:0:
36,192,2880,128,0,4675:0:0:0:0:
256,192,4675,1,0,0:0:0:0:
475,192,6726,128,0,8778:0:0:0:0:
256,192,8778,1,0,0:0:0:0:
109,192,9803,1,0,0:0:0:0:
182,192,10829,1,0,0:0:0:0:
329,192,11855,1,0,0:0:0:0:
402,192,12880,1,0,0:0:0:0:
256,192,13906,128,0,14931:0:0:0:0:
475,192,15957,128,0,16983:0:0:0:0:
256,192,16983,1,0,0:0:0:0:
36,192,16983,128,0,20060:0:0:0:0:
256,192,20060,1,0,0:0:0:0:
109,192,20316,1,0,0:0:0:0:
402,192,20572,1,0,0:0:0:0:
109,192,20829,1,0,0:0:0:0:
256,192,21085,1,0,0:0:0:0:
475,192,21085,128,0,24162:0:0:0:0:
256,192,24162,1,0,0:0:0:0:
109,192,24419,1,0,0:0:0:0:
256,192,24611,1,0,0:0:0:0:
402,192,24803,1,0,0:0:0:0:
36,192,25188,5,0,0:0:0:0:
36,192,25572,1,0,0:0:0:0:
256,192,25957,1,0,0:0:0:0:
182,192,26214,1,0,0:0:0:0:
182,192,26598,1,0,0:0:0:0:
256,192,26983,1,0,0:0:0:0:
329,192,27239,1,0,0:0:0:0:
329,192,27624,1,0,0:0:0:0:
256,192,28008,1,0,0:0:0:0:
475,192,28265,1,0,0:0:0:0:
475,192,28649,1,0,0:0:0:0:
182,192,28906,1,0,0:0:0:0:
329,192,29034,1,0,0:0:0:0:
109,192,29290,1,0,0:0:0:0:
109,192,29675,1,0,0:0:0:0:
256,192,30060,1,0,0:0:0:0:
402,192,30316,1,0,0:0:0:0:
402,192,30701,1,0,0:0:0:0:
256,192,31085,1,0,0:0:0:0:
109,192,31342,1,0,0:0:0:0:
109,192,31726,1,0,0:0:0:0:
256,192,32111,1,0,0:0:0:0:
402,192,32367,1,0,0:0:0:0:
329,192,32752,1,0,0:0:0:0:
256,192,33008,128,0,33393:0:0:0:0:
36,192,33393,1,0,0:0:0:0:
475,192,33393,1,0,0:0:0:0:
329,192,33906,1,0,0:0:0:0:
475,192,33906,1,0,0:0:0:0:
109,192,34419,1,0,0:0:0:0:
329,192,34931,1,0,0:0:0:0:
475,192,34931,1,0,0:0:0:0:
182,192,35444,1,0,0:0:0:0:
329,192,35957,1,0,0:0:0:0:
475,192,35957,1,0,0:0:0:0:
256,192,36470,1,0,0:0:0:0:
329,192,36983,1,0,0:0:0:0:
475,192,36983,1,0,0:0:0:0:
182,192,37239,1,0,0:0:0:0:
256,192,37496,1,0,0:0:0:0:
182,192,38008,1,0,0:0:0:0:
36,192,38008,1,0,0:0:0:0:
329,192,38521,1,0,0:0:0:0:
182,192,39034,1,0,0:0:0:0:
36,192,39034,1,0,0:0:0:0:
402,192,39547,1,0,0:0:0:0:
182,192,40060,1,0,0:0:0:0:
36,192,40060,1,0,0:0:0:0:
475,192,40572,1,0,0:0:0:0:
36,192,41085,1,0,0:0:0:0:
182,192,41342,1,0,0:0:0:0:
329,192,41598,1,0,0:0:0:0:
329,192,41983,1,0,0:0:0:0:
256,192,42367,1,0,0:0:0:0:
182,192,42624,1,0,0:0:0:0:
182,192,43008,1,0,0:0:0:0:
256,192,43393,1,0,0:0:0:0:
402,192,43649,1,0,0:0:0:0:
402,192,44034,1,0,0:0:0:0:
256,192,44419,1,0,0:0:0:0:
109,192,44675,1,0,0:0:0:0:
109,192,45060,1,0,0:0:0:0:
329,192,45316,1,0,0:0:0:0:
182,192,45444,1,0,0:0:0:0:
475,192,45701,1,0,0:0:0:0:
475,192,46085,1,0,0:0:0:0:
256,192,46470,1,0,0:0:0:0:
36,192,46726,1,0,0:0:0:0:
36,192,47111,1,0,0:0:0:0:
256,192,47496,1,0,0:0:0:0:
475,192,47752,1,0,0:0:0:0:
475,192,48137,1,0,0:0:0:0:
256,192,48521,1,0,0:0:0:0:
182,192,48778,128,0,49034:0:0:0:0:
329,192,49034,1,0,0:0:0:0:
36,192,49803,1,0,0:0:0:0:
475,192,49803,1,0,0:0:0:0:
256,192,50316,1,0,0:0:0:0:
182,192,50701,1,0,0:0:0:0:
182,192,50957,1,0,0:0:0:0:
36,192,51855,1,0,0:0:0:0:
475,192,51855,1,0,0:0:0:0:
256,192,52367,1,0,0:0:0:0:
402,192,52752,1,0,0:0:0:0:
402,192,53008,1,0,0:0:0:0:
256,192,53265,1,0,0:0:0:0:
109,192,53393,1,0,0:0:0:0:
109,192,53649,1,0,0:0:0:0:
36,192,53906,1,0,0:0:0:0:
475,192,53906,1,0,0:0:0:0:
256,192,54419,1,0,0:0:0:0:
329,192,54803,1,0,0:0:0:0:
329,192,55060,1,0,0:0:0:0:
182,192,55316,1,0,0:0:0:0:
182,192,55701,1,0,0:0:0:0:
36,192,55957,1,0,0:0:0:0:
475,192,55957,1,0,0:0:0:0:
256,192,56470,1,0,0:0:0:0:
402,192,56855,1,0,0:0:0:0:
402,192,57111,1,0,0:0:0:0:
256,192,57367,1,0,0:0:0:0:
109,192,57496,1,0,0:0:0:0:
109,192,57752,1,0,0:0:0:0:
182,192,58008,1,0,0:0:0:0:
329,192,58008,1,0,0:0:0:0:
256,192,58521,1,0,0:0:0:0:
475,192,58906,1,0,0:0:0:0:
475,192,59162,1,0,0:0:0:0:
182,192,60060,1,0,0:0:0:0:
329,192,60060,1,0,0:0:0:0:
256,192,60444,1,0,0:0:0:0:
36,192,60957,1,0,0:0:0:0:
36,192,61214,1,0,0:0:0:0:
256,192,61470,1,0,0:0:0:0:
475,192,61598,1,0,0:0:0:0:
475,192,61855,1,0,0:0:0:0:
109,192,62111,1,0,0:0:0:0:
402,192,62111,1,0,0:0:0:0:
256,192,62624,1,0,0:0:0:0:
182,192,63008,1,0,0:0:0:0:
182,192,63265,1,0,0:0:0:0:
109,192,64162,1,0,0:0:0:0:
402,192,64162,1,0,0:0:0:0:
256,192,64675,1,0,0:0:0:0:
329,192,65060,1,0,0:0:0:0:
329,192,65316,1,0,0:0:0:0:
256,192,65572,1,0,0:0:0:0:
36,192,65701,1,0,0:0:0:0:
182,192,65872,1,0,0:0:0:0:
329,192,66043,1,0,0:0:0:0:
475,192,66214,1,0,0:0:0:0:
256,192,66470,1,0,0:0:0:0:
36,192,66726,1,0,0:0:0:0:
109,192,66983,1,0,0:0:0:0:
182,192,67239,1,0,0:0:0:0:
256,192,67496,1,0,0:0:0:0:
475,192,67752,1,0,0:0:0:0:
402,192,68008,1,0,0:0:0:0:
329,192,68265,1,0,0:0:0:0:
256,192,68521,1,0,0:0:0:0:
182,192,68778,1,0,0:0:0:0:
109,192,69034,1,0,0:0:0:0:
36,192,69290,1,0,0:0:0:0:
256,192,69547,1,0,0:0:0:0:
329,192,69803,1,0,0:0:0:0:
402,192,70060,1,0,0:0:0:0:
475,192,70316,1,0,0:0:0:0:
36,192,70572,1,0,0:0:0:0:
109,192,70828,1,0,0:0:0:0:
256,192,71085,128,0,71598:0:0:0:0:
402,192,71598,1,0,0:0:0:0:
475,192,71854,1,0,0:0:0:0:
109,192,72110,1,0,0:0:0:0:
256,192,72367,1,0,0:0:0:0:
402,192,72623,1,0,0:0:0:0:
256,192,72880,1,0,0:0:0:0:
36,192,73136,128,0,73649:0:0:0:0:
329,192,73649,1,0,0:0:0:0:
109,192,73905,128,0,74418:0:0:0:0:
402,192,74418,1,0,0:0:0:0:
182,192,74674,128,0,75187:0:0:0:0:
475,192,75187,1,0,0:0:0:0:
256,192,75444,128,0,75956:0:0:0:0:
36,192,75956,1,0,0:0:0:0:
329,192,76213,128,0,76726:0:0:0:0:
109,192,76726,1,0,0:0:0:0:
402,192,76982,128,0,77495:0:0:0:0:
182,192,77495,1,0,0:0:0:0:
475,192,77751,128,0,78264:0:0:0:0:
256,192,78264,1,0,0:0:0:0:
109,192,78521,128,0,78905:0:0:0:0:
256,192,78905,128,0,79226:0:0:0:0:
402,192,79226,128,0,79546:0:0:0:0:
36,192,79546,128,0,79803:0:0:0:0:
182,192,79803,128,0,80059:0:0:0:0:
329,192,80059,128,0,80315:0:0:0:0:
475,192,80315,128,0,80572:0:0:0:0:
182,192,80572,1,0,0:0:0:0:
329,192,80956,1,0,0:0:0:0:
182,192,81597,1,0,0:0:0:0:
329,192,81982,1,0,0:0:0:0:
256,192,82623,1,0,0:0:0:0:
182,192,83007,1,0,0:0:0:0:
402,192,84418,1,0,0:0:0:0:
329,192,84674,1,0,0:0:0:0:
256,192,85059,1,0,0:0:0:0:
182,192,85700,1,0,0:0:0:0:
109,192,86084,1,0,0:0:0:0:
256,192,86725,1,0,0:0:0:0:
109,192,88777,1,0,0:0:0:0:
256,192,88777,1,0,0:0:0:0:
402,192,89161,1,0,0:0:0:0:
109,192,89802,1,0,0:0:0:0:
402,192,90187,1,0,0:0:0:0:
475,192,90828,1,0,0:0:0:0:
36,192,91213,1,0,0:0:0:0:
402,192,92623,1,0,0:0:0:0:
329,192,92879,1,0,0:0:0:0:
256,192,93264,1,0,0:0:0:0:
182,192,93905,1,0,0:0:0:0:
109,192,94289,1,0,0:0:0:0:
256,192,95187,128,0,96982:0:0:0:0:
109,192,96982,1,0,0:0:0:0:
182,192,96982,1,0,0:0:0:0:
329,192,97366,1,0,0:0:0:0:
402,192,97366,1,0,0:0:0:0:
256,192,97751,1,0,0:0:0:0:
182,192,98007,1,0,0:0:0:0:
109,192,98007,1,0,0:0:0:0:
329,192,98392,1,0,0:0:0:0:
402,192,98392,1,0,0:0:0:0:
256,192,98777,1,0,0:0:0:0:
475,192,99033,1,0,0:0:0:0:
402,192,99033,1,0,0:0:0:0:
109,192,99418,1,0,0:0:0:0:
36,192,99418,1,0,0:0:0:0:
256,192,99802,1,0,0:0:0:0:
109,192,100059,1,0,0:0:0:0:
182,192,100315,1,0,0:0:0:0:
329,192,100571,1,0,0:0:0:0:
402,192,100828,1,0,0:0:0:0:
182,192,101084,1,0,0:0:0:0:
36,192,101084,1,0,0:0:0:0:
329,192,101469,1,0,0:0:0:0:
475,192,101469,1,0,0:0:0:0:
256,192,101854,1,0,0:0:0:0:
329,192,102110,1,0,0:0:0:0:
475,192,102110,1,0,0:0:0:0:
182,192,102495,1,0,0:0:0:0:
36,192,102495,1,0,0:0:0:0:
256,192,102879,1,0,0:0:0:0:
109,192,103136,1,0,0:0:0:0:
402,192,103136,1,0,0:0:0:0:
329,192,103520,1,0,0:0:0:0:
182,192,103905,1,0,0:0:0:0:
475,192,104161,1,0,0:0:0:0:
402,192,104418,1,0,0:0:0:0:
109,192,104674,1,0,0:0:0:0:
36,192,104930,1,0,0:0:0:0:
475,192,105187,1,0,0:0:0:0:
329,192,105187,1,0,0:0:0:0:
109,192,105571,1,0,0:0:0:0:
182,192,105571,1,0,0:0:0:0:
256,192,105956,1,0,0:0:0:0:
475,192,106213,1,0,0:0:0:0:
329,192,106213,1,0,0:0:0:0:
109,192,106597,1,0,0:0:0:0:
182,192,106597,1,0,0:0:0:0:
256,192,106982,1,0,0:0:0:0:
402,192,107238,1,0,0:0:0:0:
329,192,107238,1,0,0:0:0:0:
182,192,107623,1,0,0:0:0:0:
36,192,107623,1,0,0:0:0:0:
256,192,108007,1,0,0:0:0:0:
109,192,108264,1,0,0:0:0:0:
329,192,108520,1,0,0:0:0:0:
182,192,108777,1,0,0:0:0:0:
402,192,109033,1,0,0:0:0:0:
182,192,109289,1,0,0:0:0:0:
36,192,109289,1,0,0:0:0:0:
329,192,109674,1,0,0:0:0:0:
402,192,109674,1,0,0:0:0:0:
256,192,110059,1,0,0:0:0:0:
109,192,110315,1,0,0:0:0:0:
182,192,110315,1,0,0:0:0:0:
475,192,110700,1,0,0:0:0:0:
329,192,110700,1,0,0:0:0:0:
256,192,111084,1,0,0:0:0:0:
109,192,111341,1,0,0:0:0:0:
402,192,111341,1,0,0:0:0:0:
182,192,111725,1,0,0:0:0:0:
329,192,112110,1,0,0:0:0:0:
36,192,112366,1,0,0:0:0:0:
109,192,112623,1,0,0:0:0:0:
402,192,112879,1,0,0:0:0:0:
475,192,113136,1,0,0:0:0:0:
182,192,113392,128,0,113777:0:0:0:0:
329,192,113777,128,0,114418:0:0:0:0:
182,192,114418,128,0,114802:0:0:0:0:
329,192,114802,128,0,115443:0:0:0:0:
36,192,115443,1,0,0:0:0:0:
475,192,115443,1,0,0:0:0:0:
109,192,115700,1,0,0:0:0:0:
182,192,115956,1,0,0:0:0:0:
256,192,116213,1,0,0:0:0:0:
475,192,116469,1,0,0:0:0:0:
402,192,116725,1,0,0:0:0:0:
329,192,116982,1,0,0:0:0:0:
256,192,117238,1,0,0:0:0:0:
109,192,117495,1,0,0:0:0:0:
402,192,117495,1,0,0:0:0:0:
329,192,117751,1,0,0:0:0:0:
182,192,118007,1,0,0:0:0:0:
36,192,118264,1,0,0:0:0:0:
109,192,118520,1,0,0:0:0:0:
256,192,118777,1,0,0:0:0:0:
402,192,119033,1,0,0:0:0:0:
475,192,119289,1,0,0:0:0:0:
329,192,119546,1,0,0:0:0:0:
182,192,119546,1,0,0:0:0:0:
36,192,119802,1,0,0:0:0:0:
256,192,120059,1,0,0:0:0:0:
109,192,120315,1,0,0:0:0:0:
329,192,120571,1,0,0:0:0:0:
475,192,120828,1,0,0:0:0:0:
256,192,121084,1,0,0:0:0:0:
402,192,121341,1,0,0:0:0:0:
36,192,121597,1,0,0:0:0:0:
256,192,121597,1,0,0:0:0:0:
182,192,121854,1,0,0:0:0:0:
329,192,122110,1,0,0:0:0:0:
475,192,122366,1,0,0:0:0:0:
36,192,122623,1,0,0:0:0:0:
256,192,122623,1,0,0:0:0:0:
182,192,122879,1,0,0:0:0:0:
329,192,123136,1,0,0:0:0:0:
475,192,123392,1,0,0:0:0:0:
402,192,123648,1,0,0:0:0:0:
109,192,123648,1,0,0:0:0:0:
329,192,123905,1,0,0:0:0:0:
182,192,124161,1,0,0:0:0:0:
109,192,124418,1,0,0:0:0:0:
475,192,124674,1,0,0:0:0:0:
36,192,124674,1,0,0:0:0:0:
329,192,124930,1,0,0:0:0:0:
182,192,125187,1,0,0:0:0:0:
36,192,125443,1,0,0:0:0:0:
256,192,125700,1,0,0:0:0:0:
402,192,125700,128,0,126084:0:0:0:0:
329,192,126084,128,0,126725:0:0:0:0:
182,192,126725,128,0,127110:0:0:0:0:
109,192,127110,128,0,127751:0:0:0:0:
256,192,127751,128,0,129802:0:0:0:0:
36,192,131854,1,0,0:0:0:0:
475,192,135571,128,0,135956:0:0:0:0:
329,192,138520,5,0,0:0:0:0:
182,192,139033,1,0,0:0:0:0:
475,192,139546,1,0,0:0:0:0:
36,192,140059,1,0,0:0:0:0:
329,192,140230,1,0,0:0:0:0:
402,192,143477,1,0,0:0:0:0:
256,192,143819,1,0,0:0:0:0:
109,192,144418,1,0,0:0:0:0:
36,192,146854,1,0,0:0:0:0:
182,192,148264,1,0,0:0:0:0:
256,192,148713,1,0,0:0:0:0:
109,192,149289,1,0,0:0:0:0:
36,192,149738,1,0,0:0:0:0:
256,192,150315,1,0,0:0:0:0:
256,192,150764,1,0,0:0:0:0:
182,192,152110,1,0,0:0:0:0:
329,192,152366,1,0,0:0:0:0:
402,192,152815,1,0,0:0:0:0:
256,192,153392,1,0,0:0:0:0:
475,192,153841,1,0,0:0:0:0:
256,192,154418,1,0,0:0:0:0:
256,192,154866,1,0,0:0:0:0:
256,192,155187,1,0,0:0:0:0:
329,192,156213,1,0,0:0:0:0:
109,192,156469,1,0,0:0:0:0:
402,192,156640,1,0,0:0:0:0:
109,192,156811,1,0,0:0:0:0:
256,192,158520,1,0,0:0:0:0:
256,192,158969,1,0,0:0:0:0:
182,192,160571,1,0,0:0:0:0:
329,192,161020,1,0,0:0:0:0:
182,192,161341,1,0,0:0:0:0:
475,192,162623,128,0,163136:0:0:0:0:
36,192,163648,128,0,164161:0:0:0:0:
475,192,164161,128,0,164674:0:0:0:0:
109,192,164674,128,0,165059:0:0:0:0:
329,192,164674,1,0,0:0:0:0:
256,192,165059,128,0,167751:0:0:0:0:
182,192,167751,128,0,168264:0:0:0:0:
475,192,168264,128,0,168648:0:0:0:0:
329,192,168648,128,0,169225:0:0:0:0:
36,192,169225,128,0,171854:0:0:0:0:
402,192,169802,1,0,0:0:0:0:
329,192,170315,1,0,0:0:0:0:
475,192,170828,1,0,0:0:0:0:
402,192,171341,1,0,0:0:0:0:
329,192,171854,1,0,0:0:0:0:
182,192,172110,1,0,0:0:0:0:
402,192,172366,1,0,0:0:0:0:
256,192,172623,1,0,0:0:0:0:
109,192,172879,128,0,173264:0:0:0:0:
475,192,172879,1,0,0:0:0:0:
256,192,173264,128,0,174418:0:0:0:0:
402,192,174418,1,0,0:0:0:0:
329,192,174546,1,0,0:0:0:0:
182,192,174738,1,0,0:0:0:0:
475,192,174930,128,0,175315:0:0:0:0:
36,192,175315,128,0,176640:0:0:0:0:
329,192,176640,1,0,0:0:0:0:
256,192,176811,1,0,0:0:0:0:
182,192,176982,128,0,177495:0:0:0:0:
475,192,177495,128,0,180059:0:0:0:0:
36,192,178007,1,0,0:0:0:0:
109,192,178520,1,0,0:0:0:0:
182,192,179033,1,0,0:0:0:0:
109,192,179546,1,0,0:0:0:0:
182,192,180059,1,0,0:0:0:0:
329,192,180315,1,0,0:0:0:0:
109,192,180571,1,0,0:0:0:0:
256,192,180828,1,0,0:0:0:0:
402,192,181084,128,0,182559:0:0:0:0:
36,192,181084,1,0,0:0:0:0:
329,192,182559,1,0,0:0:0:0:
256,192,182751,1,0,0:0:0:0:
182,192,183007,1,0,0:0:0:0:
109,192,183264,128,0,184610:0:0:0:0:
182,192,184610,1,0,0:0:0:0:
256,192,184802,1,0,0:0:0:0:
329,192,185059,1,0,0:0:0:0:
475,192,185315,128,0,187238:0:0:0:0:
182,192,186213,1,0,0:0:0:0:
109,192,186725,1,0,0:0:0:0:
36,192,187238,128,0,188264:0:0:0:0:
329,192,187238,1,0,0:0:0:0:
402,192,187751,1,0,0:0:0:0:
256,192,188264,1,0,0:0:0:0:
402,192,188520,1,0,0:0:0:0:
182,192,188777,1,0,0:0:0:0:
329,192,189033,1,0,0:0:0:0:
256,192,189289,128,0,190828:0:0:0:0:
109,192,189289,1,0,0:0:0:0:
475,192,190828,1,0,0:0:0:0:
329,192,190956,1,0,0:0:0:0:
182,192,191213,1,0,0:0:0:0:
36,192,191469,128,0,192815:0:0:0:0:
109,192,192815,1,0,0:0:0:0:
182,192,193071,1,0,0:0:0:0:
256,192,193264,1,0,0:0:0:0:
329,192,193584,1,0,0:0:0:0:
402,192,193905,1,0,0:0:0:0:
475,192,194289,128,0,196469:0:0:0:0:
36,192,194418,1,0,0:0:0:0:
182,192,194930,1,0,0:0:0:0:
109,192,195443,1,0,0:0:0:0:
256,192,195956,1,0,0:0:0:0:
329,192,196469,1,0,0:0:0:0:
182,192,196725,1,0,0:0:0:0:
402,192,196982,1,0,0:0:0:0:
256,192,197238,1,0,0:0:0:0:
109,192,197495,1,0,0:0:0:0:
36,192,198520,1,0,0:0:0:0:
256,192,198777,128,0,200571:0:0:0:0:
402,192,198777,1,0,0:0:0:0:
109,192,199161,1,0,0:0:0:0:
402,192,199546,1,0,0:0:0:0:
109,192,199930,1,0,0:0:0:0:
402,192,200315,1,0,0:0:0:0:
109,192,200828,1,0,0:0:0:0:
256,192,200828,128,0,201597:0:0:0:0:
402,192,201213,1,0,0:0:0:0:
109,192,201597,128,0,202110:0:0:0:0:
402,192,202110,128,0,202623:0:0:0:0:
475,192,202623,1,0,0:0:0:0:
36,192,202879,128,0,204674:0:0:0:0:
182,192,202879,1,0,0:0:0:0:
329,192,203264,1,0,0:0:0:0:
182,192,203648,1,0,0:0:0:0:
329,192,204033,1,0,0:0:0:0:
182,192,204418,1,0,0:0:0:0:
329,192,204930,1,0,0:0:0:0:
36,192,204930,128,0,205700:0:0:0:0:
182,192,205315,1,0,0:0:0:0:
329,192,205700,128,0,206213:0:0:0:0:
182,192,206213,128,0,206725:0:0:0:0:
256,192,206725,1,0,0:0:0:0:
475,192,206982,128,0,208777:0:0:0:0:
109,192,206982,1,0,0:0:0:0:
402,192,207366,1,0,0:0:0:0:
109,192,207751,1,0,0:0:0:0:
402,192,208136,1,0,0:0:0:0:
109,192,208520,1,0,0:0:0:0:
402,192,209033,1,0,0:0:0:0:
475,192,209033,128,0,209802:0:0:0:0:
109,192,209418,1,0,0:0:0:0:
402,192,209802,128,0,210315:0:0:0:0:
109,192,210315,128,0,210828:0:0:0:0:
256,192,210828,1,0,0:0:0:0:
182,192,211084,128,0,212879:0:0:0:0:
475,192,211084,1,0,0:0:0:0:
36,192,211469,1,0,0:0:0:0:
475,192,211854,1,0,0:0:0:0:
36,192,212238,1,0,0:0:0:0:
475,192,212623,1,0,0:0:0:0:
329,192,213136,128,0,213905:0:0:0:0:
36,192,213136,1,0,0:0:0:0:
475,192,213520,1,0,0:0:0:0:
256,192,213905,1,0,0:0:0:0:
256,192,214289,128,0,214930:0:0:0:0:
182,192,214930,1,0,0:0:0:0:
402,192,215187,1,0,0:0:0:0:
36,192,215187,128,0,216982:0:0:0:0:
329,192,215529,1,0,0:0:0:0:
402,192,215871,1,0,0:0:0:0:
329,192,216213,1,0,0:0:0:0:
402,192,216554,1,0,0:0:0:0:
36,192,217238,128,0,219033:0:0:0:0:
402,192,217238,1,0,0:0:0:0:
329,192,217580,1,0,0:0:0:0:
402,192,217922,1,0,0:0:0:0:
329,192,218264,1,0,0:0:0:0:
402,192,218606,1,0,0:0:0:0:
256,192,219033,1,0,0:0:0:0:
475,192,219289,128,0,221084:0:0:0:0:
109,192,219289,1,0,0:0:0:0:
182,192,219631,1,0,0:0:0:0:
109,192,219973,1,0,0:0:0:0:
182,192,220315,1,0,0:0:0:0:
109,192,220657,1,0,0:0:0:0:
475,192,221341,128,0,223136:0:0:0:0:
109,192,221341,1,0,0:0:0:0:
182,192,221683,1,0,0:0:0:0:
109,192,222024,1,0,0:0:0:0:
182,192,222366,1,0,0:0:0:0:
109,192,222708,1,0,0:0:0:0:
256,192,223136,1,0,0:0:0:0:
109,192,223392,128,0,225187:0:0:0:0:
475,192,223392,1,0,0:0:0:0:
329,192,223734,1,0,0:0:0:0:
475,192,224076,1,0,0:0:0:0:
329,192,224418,1,0,0:0:0:0:
475,192,224760,1,0,0:0:0:0:
402,192,225443,128,0,227238:0:0:0:0:
36,192,225443,1,0,0:0:0:0:
182,192,225785,1,0,0:0:0:0:
36,192,226127,1,0,0:0:0:0:
182,192,226469,1,0,0:0:0:0:
36,192,226811,1,0,0:0:0:0:
109,192,227238,1,0,0:0:0:0:
256,192,227495,128,0,229289:0:0:0:0:
475,192,227495,1,0,0:0:0:0:
36,192,227836,1,0,0:0:0:0:
475,192,228178,1,0,0:0:0:0:
36,192,228520,1,0,0:0:0:0:
475,192,228862,1,0,0:0:0:0:
256,192,229546,128,0,231341:0:0:0:0:
36,192,229546,1,0,0:0:0:0:
475,192,229888,1,0,0:0:0:0:
36,192,230230,1,0,0:0:0:0:
475,192,230571,1,0,0:0:0:0:
36,192,230913,1,0,0:0:0:0:
475,192,231341,128,0,235443:0:0:0:0:
256,192,234418,1,0,0:0:0:0:
182,192,235443,1,0,0:0:0:0:
109,192,236469,1,0,0:0:0:0:
36,192,237495,1,0,0:0:0:0:
256,192,239546,1,0,0:0:0:0:
329,192,241597,1,0,0:0:0:0:
402,192,243648,1,0,0:0:0:0:
182,192,244674,1,0,0:0:0:0:
329,192,245700,1,0,0:0:0:0:
475,192,246725,1,0,0:0:0:0:
402,192,247751,1,0,0:0:0:0:
329,192,249802,1,0,0:0:0:0:
256,192,251854,1,0,0:0:0:0:
182,192,253905,1,0,0:0:0:0:
36,192,255956,1,0,0:0:0:0:
109,192,258007,1,0,0:0:0:0:
36,192,260059,1,0,0:0:0:0:
329,192,262110,1,0,0:0:0:0:
256,192,264161,1,0,0:0:0:0:
182,192,266213,1,0,0:0:0:0:
36,192,268264,1,0,0:0:0:0:
475,192,268264,1,0,0:0:0:0:
329,192,270315,1,0,0:0:0:0:
109,192,272366,1,0,0:0:0:0:
475,192,272366,1,0,0:0:0:0:
182,192,272751,1,0,0:0:0:0:
109,192,273392,1,0,0:0:0:0:
182,192,273777,1,0,0:0:0:0:
109,192,274418,1,0,0:0:0:0:
402,192,274418,1,0,0:0:0:0:
182,192,274802,1,0,0:0:0:0:
329,192,276469,1,0,0:0:0:0:
109,192,276469,1,0,0:0:0:0:
182,192,276854,1,0,0:0:0:0:
109,192,277495,1,0,0:0:0:0:
182,192,277879,1,0,0:0:0:0:
36,192,278520,1,0,0:0:0:0:
329,192,278520,1,0,0:0:0:0:
402,192,278905,1,0,0:0:0:0:
475,192,280571,1,0,0:0:0:0:
402,192,280956,1,0,0:0:0:0:
36,192,281597,1,0,0:0:0:0:
109,192,281982,1,0,0:0:0:0:
182,192,282366,1,0,0:0:0:0:
475,192,282623,1,0,0:0:0:0:
402,192,283007,1,0,0:0:0:0:
329,192,283392,1,0,0:0:0:0:
182,192,283648,1,0,0:0:0:0:
256,192,284033,1,0,0:0:0:0:
329,192,284418,1,0,0:0:0:0:
36,192,284674,1,0,0:0:0:0:
109,192,285059,1,0,0:0:0:0:
182,192,285956,1,0,0:0:0:0:
256,192,286213,1,0,0:0:0:0:
329,192,286469,1,0,0:0:0:0:
36,192,286725,1,0,0:0:0:0:
475,192,287110,1,0,0:0:0:0:
402,192,287495,1,0,0:0:0:0:
109,192,287751,1,0,0:0:0:0:
256,192,288136,1,0,0:0:0:0:
402,192,288520,1,0,0:0:0:0:
182,192,288777,1,0,0:0:0:0:
475,192,288777,1,0,0:0:0:0:
256,192,289161,1,0,0:0:0:0:
182,192,289802,1,0,0:0:0:0:
256,192,290187,1,0,0:0:0:0:
182,192,290828,1,0,0:0:0:0:
475,192,290828,1,0,0:0:0:0:
36,192,291213,1,0,0:0:0:0:
182,192,292879,1,0,0:0:0:0:
402,192,292879,1,0,0:0:0:0:
256,192,293264,1,0,0:0:0:0:
182,192,293905,1,0,0:0:0:0:
256,192,294289,1,0,0:0:0:0:
329,192,294930,1,0,0:0:0:0:
109,192,294930,1,0,0:0:0:0:
402,192,295315,1,0,0:0:0:0:
475,192,296982,1,0,0:0:0:0:
182,192,296982,1,0,0:0:0:0:
402,192,297366,1,0,0:0:0:0:
36,192,298007,1,0,0:0:0:0:
329,192,298007,1,0,0:0:0:0:
109,192,298392,1,0,0:0:0:0:
182,192,298777,1,0,0:0:0:0:
256,192,299033,1,0,0:0:0:0:
475,192,299033,1,0,0:0:0:0:
329,192,299418,1,0,0:0:0:0:
402,192,299802,1,0,0:0:0:0:
256,192,300059,1,0,0:0:0:0:
36,192,300059,1,0,0:0:0:0:
182,192,300443,1,0,0:0:0:0:
109,192,300828,1,0,0:0:0:0:
402,192,301084,128,0,301469:0:0:0:0:
256,192,301084,1,0,0:0:0:0:
109,192,301469,128,0,303136:0:0:0:0:
256,192,303136,128,0,305187:0:0:0:0:
36,192,305187,128,0,305571:0:0:0:0:
329,192,305187,1,0,0:0:0:0:
475,192,305571,128,0,306213:0:0:0:0:
36,192,306213,128,0,306597:0:0:0:0:
475,192,306597,128,0,307238:0:0:0:0:
36,192,307238,128,0,307623:0:0:0:0:
475,192,307623,128,0,309033:0:0:0:0:
36,192,309289,128,0,309674:0:0:0:0:
475,192,309674,128,0,310315:0:0:0:0:
36,192,310315,128,0,310700:0:0:0:0:
475,192,310700,128,0,311341:0:0:0:0:
36,192,311341,128,0,311725:0:0:0:0:
475,192,311725,128,0,313136:0:0:0:0:
402,192,313392,128,0,313777:0:0:0:0:
109,192,313777,128,0,314418:0:0:0:0:
36,192,314418,128,0,314802:0:0:0:0:
182,192,314802,128,0,315187:0:0:0:0:
329,192,315187,128,0,315443:0:0:0:0:
475,192,315443,128,0,315828:0:0:0:0:
256,192,315828,128,0,316213:0:0:0:0:
109,192,316213,128,0,316469:0:0:0:0:
402,192,316469,128,0,316854:0:0:0:0:
256,192,316854,128,0,317238:0:0:0:0:
36,192,317238,128,0,317495:0:0:0:0:
182,192,317495,128,0,317879:0:0:0:0:
329,192,317879,128,0,318777:0:0:0:0:
36,192,318777,128,0,319033:0:0:0:0:
109,192,319033,128,0,319289:0:0:0:0:
182,192,319289,128,0,319546:0:0:0:0:
475,192,319546,128,0,319930:0:0:0:0:
402,192,319930,128,0,320315:0:0:0:0:
329,192,320315,128,0,320571:0:0:0:0:
109,192,320571,128,0,320956:0:0:0:0:
182,192,320956,128,0,321341:0:0:0:0:
256,192,321341,128,0,321597:0:0:0:0:
475,192,321597,1,0,0:0:0:0:
36,192,321597,1,0,0:0:0:0:
182,192,321982,128,0,322623:0:0:0:0:
475,192,322623,1,0,0:0:0:0:
182,192,323007,128,0,323648:0:0:0:0:
329,192,323648,1,0,0:0:0:0:
36,192,324033,128,0,325443:0:0:0:0:
329,192,324674,1,0,0:0:0:0:
329,192,325187,1,0,0:0:0:0:
402,192,325443,1,0,0:0:0:0:
182,192,325700,1,0,0:0:0:0:
475,192,326084,128,0,326725:0:0:0:0:
36,192,326725,1,0,0:0:0:0:
329,192,327110,128,0,327751:0:0:0:0:
256,192,327751,128,0,329546:0:0:0:0:
402,192,328264,1,0,0:0:0:0:
36,192,328777,1,0,0:0:0:0:
475,192,329161,1,0,0:0:0:0:
182,192,329802,1,0,0:0:0:0:
256,192,329802,1,0,0:0:0:0:
329,192,330187,128,0,330828:0:0:0:0:
109,192,330828,1,0,0:0:0:0:
402,192,331213,128,0,331854:0:0:0:0:
475,192,331854,1,0,0:0:0:0:
36,192,332238,128,0,333648:0:0:0:0:
329,192,332879,1,0,0:0:0:0:
256,192,333392,1,0,0:0:0:0:
475,192,333648,1,0,0:0:0:0:
329,192,333905,1,0,0:0:0:0:
182,192,334289,128,0,334930:0:0:0:0:
402,192,334930,1,0,0:0:0:0:
109,192,335315,128,0,335956:0:0:0:0:
475,192,335956,1,0,0:0:0:0:
256,192,336725,1,0,0:0:0:0:
182,192,336982,128,0,337495:0:0:0:0:
329,192,337495,128,0,338007:0:0:0:0:
36,192,338007,1,0,0:0:0:0:
475,192,338007,1,0,0:0:0:0:
182,192,338264,1,0,0:0:0:0:
329,192,338520,1,0,0:0:0:0:
475,192,338777,1,0,0:0:0:0:
36,192,339033,1,0,0:0:0:0:
182,192,339289,1,0,0:0:0:0:
329,192,339546,1,0,0:0:0:0:
475,192,339802,1,0,0:0:0:0:
109,192,340059,1,0,0:0:0:0:
402,192,340059,1,0,0:0:0:0:
329,192,340315,1,0,0:0:0:0:
182,192,340571,1,0,0:0:0:0:
109,192,340828,1,0,0:0:0:0:
402,192,341084,1,0,0:0:0:0:
329,192,341341,1,0,0:0:0:0:
182,192,341597,1,0,0:0:0:0:
109,192,341854,1,0,0:0:0:0:
475,192,342110,1,0,0:0:0:0:
329,192,342110,1,0,0:0:0:0:
256,192,342366,1,0,0:0:0:0:
109,192,342623,1,0,0:0:0:0:
36,192,342879,1,0,0:0:0:0:
329,192,343136,1,0,0:0:0:0:
256,192,343392,1,0,0:0:0:0:
109,192,343648,1,0,0:0:0:0:
36,192,343905,1,0,0:0:0:0:
182,192,344161,1,0,0:0:0:0:
475,192,344161,1,0,0:0:0:0:
256,192,344418,1,0,0:0:0:0:
402,192,344674,1,0,0:0:0:0:
475,192,344930,1,0,0:0:0:0:
182,192,345187,1,0,0:0:0:0:
256,192,345443,1,0,0:0:0:0:
402,192,345700,1,0,0:0:0:0:
475,192,345956,1,0,0:0:0:0:
36,192,346213,1,0,0:0:0:0:
256,192,346213,1,0,0:0:0:0:
182,192,346469,1,0,0:0:0:0:
329,192,346725,1,0,0:0:0:0:
402,192,346982,1,0,0:0:0:0:
36,192,347238,1,0,0:0:0:0:
182,192,347495,1,0,0:0:0:0:
329,192,347751,1,0,0:0:0:0:
402,192,348007,1,0,0:0:0:0:
36,192,348264,1,0,0:0:0:0:
475,192,348264,1,0,0:0:0:0:
329,192,348520,1,0,0:0:0:0:
182,192,348777,1,0,0:0:0:0:
109,192,349033,1,0,0:0:0:0:
475,192,349289,1,0,0:0:0:0:
329,192,349546,1,0,0:0:0:0:
182,192,349802,1,0,0:0:0:0:
109,192,350059,1,0,0:0:0:0:
36,192,350315,1,0,0:0:0:0:
475,192,350315,1,0,0:0:0:0:
182,192,350571,1,0,0:0:0:0:
256,192,350828,1,0,0:0:0:0:
402,192,351084,1,0,0:0:0:0:
36,192,351341,1,0,0:0:0:0:
182,192,351597,1,0,0:0:0:0:
256,192,351854,1,0,0:0:0:0:
402,192,352110,1,0,0:0:0:0:
36,192,352366,1,0,0:0:0:0:
475,192,352366,1,0,0:0:0:0:
329,192,352623,1,0,0:0:0:0:
256,192,352879,1,0,0:0:0:0:
109,192,353136,1,0,0:0:0:0:
475,192,353392,1,0,0:0:0:0:
329,192,353392,1,0,0:0:0:0:
182,192,353648,1,0,0:0:0:0:
329,192,353905,1,0,0:0:0:0:
182,192,354161,1,0,0:0:0:0:
256,192,354418,1,0,0:0:0:0:
36,192,354418,128,0,354802:0:0:0:0:
475,192,354802,128,0,355443:0:0:0:0:
36,192,355443,128,0,355828:0:0:0:0:
475,192,355828,128,0,356469:0:0:0:0:
36,192,356469,1,0,0:0:0:0:
329,192,356469,1,0,0:0:0:0:
109,192,356725,1,0,0:0:0:0:
182,192,356982,1,0,0:0:0:0:
256,192,357238,1,0,0:0:0:0:
329,192,357495,1,0,0:0:0:0:
402,192,357751,1,0,0:0:0:0:
475,192,358007,1,0,0:0:0:0:
256,192,358264,1,0,0:0:0:0:
475,192,358520,1,0,0:0:0:0:
36,192,358520,1,0,0:0:0:0:
329,192,358777,1,0,0:0:0:0:
182,192,359033,1,0,0:0:0:0:
36,192,359289,1,0,0:0:0:0:
402,192,359546,1,0,0:0:0:0:
256,192,359802,1,0,0:0:0:0:
109,192,360059,1,0,0:0:0:0:
256,192,360315,1,0,0:0:0:0:
475,192,360571,1,0,0:0:0:0:
36,192,360571,1,0,0:0:0:0:
329,192,360828,1,0,0:0:0:0:
109,192,361084,1,0,0:0:0:0:
402,192,361341,1,0,0:0:0:0:
182,192,361597,1,0,0:0:0:0:
475,192,361854,1,0,0:0:0:0:
256,192,362110,1,0,0:0:0:0:
36,192,362366,1,0,0:0:0:0:
475,192,362623,1,0,0:0:0:0:
182,192,362623,1,0,0:0:0:0:
329,192,362879,1,0,0:0:0:0:
182,192,363136,1,0,0:0:0:0:
109,192,363392,1,0,0:0:0:0:
36,192,363648,1,0,0:0:0:0:
329,192,363648,1,0,0:0:0:0:
182,192,363905,1,0,0:0:0:0:
329,192,364161,1,0,0:0:0:0:
402,192,364418,1,0,0:0:0:0:
182,192,364674,1,0,0:0:0:0:
475,192,364674,1,0,0:0:0:0:
329,192,364930,1,0,0:0:0:0:
256,192,365187,1,0,0:0:0:0:
182,192,365443,1,0,0:0:0:0:
36,192,365700,1,0,0:0:0:0:
475,192,365700,1,0,0:0:0:0:
329,192,365956,1,0,0:0:0:0:
182,192,366213,1,0,0:0:0:0:
36,192,366469,1,0,0:0:0:0:
329,192,366725,1,0,0:0:0:0:
182,192,366725,1,0,0:0:0:0:
475,192,368264,1,0,0:0:0:0:
36,192,368777,128,0,369802:0:0:0:0:
475,192,369802,128,0,370828:0:0:0:0:
36,192,370828,1,0,0:0:0:0:
182,192,370828,1,0,0:0:0:0:
329,192,371213,1,0,0:0:0:0:
182,192,371854,1,0,0:0:0:0:
36,192,371854,1,0,0:0:0:0:
329,192,372238,1,0,0:0:0:0:
109,192,372879,1,0,0:0:0:0:
256,192,372879,1,0,0:0:0:0:
402,192,373221,1,0,0:0:0:0:
109,192,373563,1,0,0:0:0:0:
475,192,373905,1,0,0:0:0:0:
36,192,373905,1,0,0:0:0:0:
402,192,374247,1,0,0:0:0:0:
109,192,374589,1,0,0:0:0:0:
329,192,374930,1,0,0:0:0:0:
475,192,374930,1,0,0:0:0:0:
182,192,375315,1,0,0:0:0:0:
329,192,375956,1,0,0:0:0:0:
475,192,375956,1,0,0:0:0:0:
36,192,376341,1,0,0:0:0:0:
402,192,376982,1,0,0:0:0:0:
329,192,376982,1,0,0:0:0:0:
256,192,377495,1,0,0:0:0:0:
182,192,378007,1,0,0:0:0:0:
109,192,378007,1,0,0:0:0:0:
256,192,378520,1,0,0:0:0:0:
36,192,379033,1,0,0:0:0:0:
329,192,379033,1,0,0:0:0:0:
475,192,379418,1,0,0:0:0:0:
36,192,380059,1,0,0:0:0:0:
329,192,380059,1,0,0:0:0:0:
475,192,380443,1,0,0:0:0:0:
402,192,381084,1,0,0:0:0:0:
109,192,381084,1,0,0:0:0:0:
329,192,381426,1,0,0:0:0:0:
182,192,381768,1,0,0:0:0:0:
36,192,382110,1,0,0:0:0:0:
475,192,382110,1,0,0:0:0:0:
256,192,382879,1,0,0:0:0:0:
36,192,383136,1,0,0:0:0:0:
329,192,383136,1,0,0:0:0:0:
182,192,383520,1,0,0:0:0:0:
109,192,384161,1,0,0:0:0:0:
402,192,384161,1,0,0:0:0:0:
256,192,384546,1,0,0:0:0:0:
329,192,384930,1,0,0:0:0:0:
475,192,385187,1,0,0:0:0:0:
182,192,385187,1,0,0:0:0:0:
36,192,385571,1,0,0:0:0:0:
109,192,386213,1,0,0:0:0:0:
402,192,386213,1,0,0:0:0:0:
475,192,386597,1,0,0:0:0:0:
36,192,387238,1,0,0:0:0:0:
256,192,387238,1,0,0:0:0:0:
475,192,387623,1,0,0:0:0:0:
36,192,388264,1,0,0:0:0:0:
256,192,388264,1,0,0:0:0:0:
475,192,388648,1,0,0:0:0:0:
329,192,389289,1,0,0:0:0:0:
182,192,389289,1,0,0:0:0:0:
256,192,389674,1,0,0:0:0:0:
402,192,390315,1,0,0:0:0:0:
109,192,390315,1,0,0:0:0:0:
256,192,391084,1,0,0:0:0:0:
475,192,391341,1,0,0:0:0:0:
36,192,391341,1,0,0:0:0:0:
182,192,391725,1,0,0:0:0:0:
402,192,392366,1,0,0:0:0:0:
109,192,392366,1,0,0:0:0:0:
329,192,392751,1,0,0:0:0:0:
36,192,393392,1,0,0:0:0:0:
475,192,393392,1,0,0:0:0:0:
109,192,393905,1,0,0:0:0:0:
256,192,393905,1,0,0:0:0:0:
36,192,394418,1,0,0:0:0:0:
475,192,394418,1,0,0:0:0:0:
256,192,394930,1,0,0:0:0:0:
402,192,394930,1,0,0:0:0:0:
109,192,395443,1,0,0:0:0:0:
475,192,395443,128,0,399546:0:0:0:0:
182,192,395828,1,0,0:0:0:0:
109,192,396469,1,0,0:0:0:0:
182,192,396854,1,0,0:0:0:0:
109,192,397495,1,0,0:0:0:0:
36,192,397879,1,0,0:0:0:0:
256,192,399546,128,0,401597:0:0:0:0:
475,192,401084,1,0,0:0:0:0:
402,192,401597,1,0,0:0:0:0:
109,192,402623,1,0,0:0:0:0:
36,192,403136,1,0,0:0:0:0:
256,192,403648,1,0,0:0:0:0:
36,192,405828,128,0,407815:0:0:0:0:
256,192,407815,1,0,0:0:0:0:
475,192,408777,128,0,409546:0:0:0:0:
109,192,409802,1,0,0:0:0:0:
402,192,410219,1,0,0:0:0:0:
109,192,410604,1,0,0:0:0:0:
402,192,410956,1,0,0:0:0:0:
109,192,411245,1,0,0:0:0:0:
402,192,411501,1,0,0:0:0:0:
109,192,411725,1,0,0:0:0:0:
402,192,411918,1,0,0:0:0:0:
109,192,412094,1,0,0:0:0:0:
182,192,412238,1,0,0:0:0:0:
256,192,412366,1,0,0:0:0:0:
329,192,412575,1,0,0:0:0:0:
402,192,412725,1,0,0:0:0:0:
36,192,412879,1,0,0:0:0:0:
475,192,413136,1,0,0:0:0:0:
109,192,413392,1,0,0:0:0:0:
402,192,413648,1,0,0:0:0:0:
182,192,413905,1,0,0:0:0:0:
256,192,414161,1,0,0:0:0:0:
329,192,414418,1,0,0:0:0:0:
182,192,414674,1,0,0:0:0:0:
402,192,414930,1,0,0:0:0:0:
109,192,415187,1,0,0:0:0:0:
475,192,415443,1,0,0:0:0:0:
36,192,415700,1,0,0:0:0:0:
