osu file format v14

[General]
AudioFilename: audio.mp3
AudioLeadIn: 0
PreviewTime: 35446
Countdown: 0
SampleSet: Normal
StackLeniency: 0.7
Mode: 1
LetterboxInBreaks: 0
WidescreenStoryboard: 0

[Editor]
DistanceSpacing: 1
BeatDivisor: 6
GridSize: 32
TimelineZoom: 2.1

[Metadata]
Title:where to start
TitleUnicode:where to start
Artist:Silentroom
ArtistUnicode:Silentroom
Creator:Antti
Version:introduction
Source:
Tags:Focalsketch I unisphere electronic instrumental swing fa featured artist mappers' guild mpg mg tag2 tag4 coop co-op compatible
BeatmapID:4457617
BeatmapSetID:2121384

[Difficulty]
HPDrainRate:6
CircleSize:2
OverallDifficulty:6
ApproachRate:10
SliderMultiplier:1.4
SliderTickRate:1

[Events]
//Background and Video events
0,0,"introduction.png",0,-10
//Break Periods
//Storyboard Layer 0 (Background)
//Storyboard Layer 1 (Fail)
//Storyboard Layer 2 (Pass)
//Storyboard Layer 3 (Foreground)
//Storyboard Layer 4 (Overlay)
//Storyboard Sound Samples

[TimingPoints]
537,545.454545454546,4,1,0,50,1,0
33715,-98.1390088422784,4,1,0,55,0,0
33806,-97.2292961189773,4,1,0,55,0,0
33988,-95.4595459545955,4,1,0,55,0,0
34079,-94.5986124876115,4,1,0,55,0,0
34261,-92.922507788162,4,1,0,55,0,0
34352,-92.1065328572807,4,1,0,55,0,0
34534,-90.5168326220958,4,1,0,55,0,0
34624,-89.7508227550541,4,1,0,55,0,0
34806,-88.2407321808265,4,1,0,55,0,0
34897,-87.5045837917125,4,1,0,55,0,0
34988,-86.7806164196745,4,1,0,55,0,0
35079,-86.068530207394,4,1,0,55,0,0
35170,-85.3680350594759,4,1,0,55,0,0
35261,-84.6788502484031,4,1,0,55,0,0
35352,-84.0007040394262,4,1,0,55,0,0
35446,-83.3333333333333,4,1,0,60,0,1
35624,-83.4157185538799,4,1,0,60,0,1
35715,-83.4572003147679,4,1,0,60,0,1
35897,-83.5402877304305,4,1,0,60,0,1
35988,-83.5818935086116,4,1,0,60,0,1
36079,-83.6235407495017,4,1,0,60,0,1
36170,-83.665229515112,4,1,0,60,0,1
36261,-83.7069598675773,4,1,0,60,0,1
36443,-83.7905455822324,4,1,0,60,0,1
36534,-83.8324010693132,4,1,0,60,0,1
36715,-83.9157765176491,4,1,0,60,0,1
36806,-83.9577572415765,4,1,0,60,0,1
36988,-84.0418448263528,4,1,0,60,0,1
37079,-84.083951813597,4,1,0,60,0,1
37170,-84.12610101522,4,1,0,60,0,1
37261,-84.1682924947367,4,1,0,60,0,1
37352,-84.2105263157895,4,1,0,60,0,1
37624,-84.3370167271362,4,1,0,60,0,1
37806,-84.4218661035594,4,1,0,60,0,1
37897,-84.4643548476301,4,1,0,60,0,1
38079,-84.5494607702017,4,1,0,60,0,1
38170,-84.5920780781779,4,1,0,60,0,1
38261,-84.634738370482,4,1,0,60,0,1
38352,-84.6774417121788,4,1,0,60,0,1
38443,-84.720188168464,4,1,0,60,0,1
38624,-84.8053397599996,4,1,0,60,0,1
38715,-84.8482154762434,4,1,0,60,0,1
38897,-84.9340971024971,4,1,0,60,0,1
38988,-84.9771031443531,4,1,0,60,0,1
39170,-85.0632460161415,4,1,0,60,0,1
39261,-85.1063829787234,4,1,0,60,0,1
39352,-85.1495637144211,4,1,0,60,0,1
39443,-85.1927882898965,4,1,0,60,0,1
39534,-85.2360567719467,4,1,0,60,0,1
39715,-85.3222490390632,4,1,0,60,0,1
39806,-85.3656491579141,4,1,0,60,0,1
39988,-85.4525819862466,4,1,0,60,0,1
40079,-85.4961148308216,4,1,0,60,0,1
40261,-85.5833137195566,4,1,0,60,0,1
40352,-85.6269798996384,4,1,0,60,0,1
40443,-85.670690661042,4,1,0,60,0,1
40534,-85.714446072076,4,1,0,60,0,1
40624,-85.7577646378374,4,1,0,60,0,1
40806,-85.8454983389638,4,1,0,60,0,1
40897,-85.8894325403521,4,1,0,60,0,1
41079,-85.9774359898214,4,1,0,60,0,1
41170,-86.0215053763441,4,1,0,60,0,1
41352,-86.1097798201348,4,1,0,60,0,1
41443,-86.1539850166983,4,1,0,60,0,1
41534,-86.1982356228093,4,1,0,60,0,1
41624,-86.2420446909077,4,1,0,60,0,1
41715,-86.286385825348,4,1,0,60,0,1
41988,-86.4196832259123,4,1,0,60,0,1
42170,-86.5087771968483,4,1,0,60,0,1
42261,-86.5533931061061,4,1,0,60,0,1
42443,-86.6427631280352,4,1,0,60,0,1
42534,-86.687517383481,4,1,0,60,0,1
42624,-86.7318253323717,4,1,0,60,0,1
42715,-86.776671666894,4,1,0,60,0,1
42806,-86.8215644027038,4,1,0,60,0,1
42988,-86.9114893665455,4,1,0,60,0,1
43079,-86.9565217391304,4,1,0,60,0,1
43261,-87.0467266281363,4,1,0,60,0,1
43352,-87.0918992900117,4,1,0,60,0,1
43534,-87.1823854132772,4,1,0,60,0,1
43624,-87.2272008133285,4,1,0,60,0,1
43715,-87.2725610313614,4,1,0,60,0,1
43806,-87.3179684507236,4,1,0,60,0,1
43897,-87.363423145129,4,1,0,60,0,1
44079,-87.4544746546946,4,1,0,60,0,1
44170,-87.5000716180523,4,1,0,60,0,1
44352,-87.5914083335723,4,1,0,60,0,1
44443,-87.6371482348621,4,1,0,60,0,1
44624,-87.7282675505362,4,1,0,60,0,1
44715,-87.7741505356568,4,1,0,60,0,1
44806,-87.8200815406467,4,1,0,60,0,1
44897,-87.8660606409297,4,1,0,60,0,1
44988,-87.9120879120879,4,1,0,60,0,1
45170,-88.0042872701499,4,1,0,60,0,1
45261,-88.0504595090114,4,1,0,60,0,1
45443,-88.1429494874873,4,1,0,60,0,1
45534,-88.1892673800188,4,1,0,60,0,1
45715,-88.2815390307066,4,1,0,60,0,1
45806,-88.3280027298859,4,1,0,60,0,1
45897,-88.3745153636942,4,1,0,60,0,1
45988,-88.4210770094778,4,1,0,60,0,1
46079,-88.4676877447459,4,1,0,60,0,1
46352,-88.6078152650054,4,1,0,60,0,1
46534,-88.701480487649,4,1,0,60,0,1
46624,-88.7478716665795,4,1,0,60,0,1
46806,-88.8418333808413,4,1,0,60,0,1
46897,-88.8888888888889,4,1,0,60,0,1
46988,-88.9359942697081,4,1,0,60,0,1
47079,-88.9831496026289,4,1,0,60,0,1
47170,-89.0303549671499,4,1,0,60,0,1
47352,-89.1249161098305,4,1,0,60,0,1
47443,-89.1722720478326,4,1,0,60,0,1
47624,-89.2666132812728,4,1,0,60,0,1
47715,-89.3141199588285,4,1,0,60,0,1
47897,-89.4092851706574,4,1,0,60,0,1
47988,-89.4569438668221,4,1,0,60,0,1
48079,-89.5046533980355,4,1,0,60,0,1
48170,-89.5524138456757,4,1,0,60,0,1
48261,-89.6002252912946,4,1,0,60,0,1
48443,-89.6960015035474,4,1,0,60,0,1
48534,-89.7439664341582,4,1,0,60,0,1
48715,-89.8395218598522,4,1,0,60,0,1
48806,-89.8876404494382,4,1,0,60,0,1
48988,-89.9840324300756,4,1,0,60,0,1
49079,-90.0323059872191,4,1,0,60,0,1
49170,-90.0806313666043,4,1,0,60,0,1
49261,-90.1290086517238,4,1,0,60,0,1
49352,-90.1774379262496,4,1,0,60,0,1
49534,-90.2744527791078,4,1,0,60,0,1
49624,-90.3225043321919,4,1,0,60,0,1
49806,-90.4198317357505,4,1,0,60,0,1
49897,-90.4685741366033,4,1,0,60,0,1
50079,-90.5662167611547,4,1,0,60,0,1
50170,-90.6151171552834,4,1,0,60,0,1
50261,-90.6640703845743,4,1,0,60,0,1
50352,-90.7130765347035,4,1,0,60,0,1
50443,-90.7621356915323,4,1,0,60,0,1
50715,-90.9090909090909,4,1,0,60,0,1
50897,-90.2249421104863,4,1,0,60,0,1
50988,-89.8867147270855,4,1,0,60,0,1
51170,-89.2178108516989,4,1,0,60,0,1
51261,-88.8870783770572,4,1,0,60,0,1
51443,-88.2329154872624,4,1,0,60,0,1
51534,-87.909431529753,4,1,0,60,0,1
51715,-87.2730181585473,4,1,0,60,0,1
51806,-86.9565217391304,4,1,0,60,0,1
51988,-86.3303659742829,4,1,0,60,0,1
52079,-86.0206575731294,4,1,0,60,0,1
52261,-85.4078597150462,4,1,0,60,0,1
52352,-85.1047232731386,4,1,0,60,0,1
52534,-84.504860384958,4,1,0,60,0,1
52624,-84.2113388136313,4,1,0,60,0,1
52806,-83.6239604491626,4,1,0,60,0,1
52897,-83.3333333333333,4,1,0,60,0,1
52988,-83.2912249918097,4,1,0,60,0,1
53079,-83.2491591834923,4,1,0,60,0,1
53170,-83.20713584397,4,1,0,60,0,1
53352,-83.1232163143166,4,1,0,60,0,1
53443,-83.0813199960121,4,1,0,60,0,1
53624,-82.9981131762271,4,1,0,60,0,1
53715,-82.9563428419737,4,1,0,60,0,1
53897,-82.8729281767956,4,1,0,60,0,1
53988,-82.8312837192351,4,1,0,60,0,1
54079,-82.7896810941484,4,1,0,60,0,1
54170,-82.7481202385353,4,1,0,60,0,1
54261,-82.7066010895216,4,1,0,60,0,1
54443,-82.6236876604277,4,1,0,60,0,1
54534,-82.5822932552288,4,1,0,60,0,1
54715,-82.5000825000825,4,1,0,60,0,1
54806,-82.4588118234942,4,1,0,60,0,1
55079,-82.335247170412,4,1,0,60,0,1
55170,-82.2941412057738,4,1,0,60,0,1
55261,-82.2530762650523,4,1,0,60,0,1
55352,-82.2120522868653,4,1,0,60,0,1
55534,-82.1301269731763,4,1,0,60,0,1
55624,-82.0896747607086,4,1,0,60,0,1
55806,-82.0079930457222,4,1,0,60,0,1
55897,-81.9672131147541,4,1,0,60,0,1
56079,-81.8857748032012,4,1,0,60,0,1
56170,-81.8451163019103,4,1,0,60,0,1
56261,-81.804498156672,4,1,0,60,0,1
56352,-81.7639203074323,4,1,0,60,0,1
56443,-81.7233826942565,4,1,0,60,0,1
56624,-81.6428723051049,4,1,0,60,0,1
56715,-81.6024546018344,4,1,0,60,0,1
56897,-81.5217391304348,4,1,0,60,0,1
56988,-81.4814412437327,4,1,0,60,0,1
57261,-81.3607862706385,4,1,0,60,0,1
57352,-81.3206473123526,4,1,0,60,0,1
57443,-81.2805479392672,4,1,0,60,0,1
57534,-81.2404880928525,4,1,0,60,0,1
57715,-81.1609258838425,4,1,0,60,0,1
57806,-81.120983835292,4,1,0,60,0,1
57988,-81.0412175632527,4,1,0,60,0,1
58079,-81.0013932239634,4,1,0,60,0,1
58261,-80.9218618501974,4,1,0,60,0,1
58352,-80.8821547006012,4,1,0,60,0,1
58443,-80.8424864993048,4,1,0,60,0,1
58534,-80.8028571890302,4,1,0,60,0,1
58624,-80.76370156197,4,1,0,60,0,1
58806,-80.6846360316069,4,1,0,60,0,1
58897,-80.6451612903226,4,1,0,60,0,1
59079,-80.5663275719457,4,1,0,60,0,1
59170,-80.5269684817445,4,1,0,60,0,1
59352,-80.4483655573731,4,1,0,60,0,1
59443,-80.4091216107555,4,1,0,60,0,1
59624,-80.3311786726076,4,1,0,60,0,1
59715,-80.292048946033,4,1,0,60,0,1
59897,-80.2139037433155,4,1,0,60,0,1
59988,-80.174888156031,4,1,0,60,0,1
60170,-80.0969707325669,4,1,0,60,0,1
60261,-80.0580687858927,4,1,0,60,0,1
60443,-79.9803781472279,4,1,0,60,0,1
60534,-79.941589345385,4,1,0,60,0,1
60715,-79.8645497236687,4,1,0,60,0,1
60806,-79.8258731620093,4,1,0,60,0,1
60988,-79.7486323109559,4,1,0,60,0,1
61079,-79.7100679129779,4,1,0,60,0,1
61261,-79.6330509014461,4,1,0,60,0,1
61352,-79.5945981799369,4,1,0,60,0,1
61534,-79.5178040363237,4,1,0,60,0,1
61624,-79.4798836414503,4,1,0,60,0,1
61715,-79.4415786630512,4,1,0,60,0,1
61806,-79.4033105886961,4,1,0,60,0,1
61897,-79.3650793650794,4,1,0,60,0,1
62079,-79.2887272573501,4,1,0,60,0,1
62170,-79.250606267138,4,1,0,60,0,1
62352,-79.1744741495342,4,1,0,60,0,1
62443,-79.1364629166535,4,1,0,60,0,1
62715,-79.0230641983374,4,1,0,60,0,1
62806,-78.9851981738622,4,1,0,60,0,1
62897,-78.9473684210526,4,1,0,60,0,1
62988,-78.9095748878169,4,1,0,60,0,1
63170,-78.8340962721984,4,1,0,60,0,1
63261,-78.7964110861297,4,1,0,60,0,1
63443,-78.7211486990018,4,1,0,60,0,1
63534,-78.6835713948499,4,1,0,60,0,1
63806,-78.5714659864124,4,1,0,60,0,1
63897,-78.5340314136126,4,1,0,60,0,1
63988,-78.496632494466,4,1,0,60,0,1
64079,-78.4592691780607,4,1,0,60,0,1
64261,-78.3846491503104,4,1,0,60,0,1
64352,-78.347392337625,4,1,0,60,0,1
64534,-78.2729848620047,4,1,0,60,0,1
64624,-78.2362421568167,4,1,0,60,0,1
64897,-78.125,4,1,0,60,0,1
64988,-78.0879895466211,4,1,0,60,0,1
65079,-78.0510141428438,4,1,0,60,0,1
65170,-78.0140737389025,4,1,0,60,0,1
65352,-77.9402977319373,4,1,0,60,0,1
65443,-77.9034620298526,4,1,0,60,0,1
65624,-77.8302988164606,4,1,0,60,0,1
65715,-77.7935669906337,4,1,0,60,0,1
65897,-77.720207253886,4,1,0,60,0,1
65988,-77.6835792450192,4,1,0,65,0,1
66079,-77.6469857440134,4,1,0,65,0,1
66170,-77.610426702126,4,1,0,65,0,1
66261,-77.573902070706,4,1,0,65,0,1
66443,-77.5009558451221,4,1,0,65,0,1
66534,-77.4645341541131,4,1,0,65,0,1
66624,-77.4285463564707,4,1,0,65,0,1
66715,-77.3921926756029,4,1,0,65,0,1
66806,-77.3558731157399,4,1,0,65,0,1
66988,-77.2833361670557,4,1,0,65,0,1
67079,-77.2471186824731,4,1,0,65,0,1
67170,-77.2109351273723,4,1,0,65,0,1
67261,-77.1747854540964,4,1,0,65,0,1
67352,-77.138669615078,4,1,0,65,0,1
67534,-77.0665392499884,4,1,0,65,0,1
67624,-77.0309202113728,4,1,0,65,0,1
67806,-76.9589911189324,4,1,0,65,0,1
67897,-76.9230769230769,4,1,0,65,0,1
68170,-95.2380952380952,4,1,0,55,0,1
68352,-95.6178790534619,4,1,0,55,0,1
68443,-95.8089090869174,4,1,0,55,0,1
68715,-96.3844777701703,4,1,0,55,0,1
68897,-96.7734782126622,4,1,0,55,0,1
68988,-96.9691582970403,4,1,0,55,0,1
69170,-97.3629021462675,4,1,0,55,0,1
69261,-97.5609756097561,4,1,0,55,0,1
69443,-97.9595501582527,4,1,0,55,0,1
69534,-98.1600611813397,4,1,0,55,0,1
69715,-98.5613298100594,4,1,0,55,0,1
69806,-98.7643144887521,4,1,0,55,0,1
69988,-99.1728024725025,4,1,0,55,0,1
70079,-99.3783162161547,4,1,0,55,0,1
70355,-100,4,1,0,50,0,0

[HitObjects]
256,192,537,5,0,0:0:0:0:
256,192,809,1,8,0:0:0:0:
256,192,991,1,0,0:0:0:0:
256,192,1082,1,8,0:0:0:0:
256,192,1355,1,8,0:0:0:0:
256,192,1537,1,0,0:0:0:0:
256,192,1627,1,8,0:0:0:0:
256,192,1809,1,0,0:0:0:0:
256,192,1900,1,0,0:0:0:0:
256,192,2082,1,0,0:0:0:0:
256,192,2173,1,8,0:0:0:0:
256,192,2446,1,0,0:0:0:0:
256,192,2627,1,8,0:0:0:0:
256,192,2718,1,8,0:0:0:0:
256,192,2900,5,0,0:0:0:0:
256,192,2991,1,0,0:0:0:0:
256,192,3173,1,0,0:0:0:0:
256,192,3264,1,8,0:0:0:0:
256,192,3537,1,0,0:0:0:0:
256,192,3718,1,8,0:0:0:0:
256,192,3809,1,0,0:0:0:0:
256,192,3991,1,8,0:0:0:0:
256,192,4082,1,8,0:0:0:0:
256,192,4264,1,0,0:0:0:0:
256,192,4355,1,8,0:0:0:0:
256,192,4537,1,8,0:0:0:0:
256,192,4627,1,0,0:0:0:0:
256,192,4809,1,0,0:0:0:0:
256,192,4900,5,8,0:0:0:0:
256,192,5173,1,0,0:0:0:0:
256,192,5355,1,0,0:0:0:0:
256,192,5446,1,8,0:0:0:0:
256,192,5718,1,8,0:0:0:0:
256,192,5900,1,8,0:0:0:0:
256,192,5991,1,0,0:0:0:0:
256,192,6173,1,0,0:0:0:0:
256,192,6264,1,0,0:0:0:0:
256,192,6446,1,0,0:0:0:0:
256,192,6537,1,8,0:0:0:0:
256,192,6809,1,0,0:0:0:0:
256,192,6991,1,8,0:0:0:0:
256,192,7082,1,0,0:0:0:0:
256,192,7264,5,8,0:0:0:0:
256,192,7355,1,8,0:0:0:0:
256,192,7537,1,0,0:0:0:0:
256,192,7627,1,8,0:0:0:0:
256,192,7900,1,0,0:0:0:0:
256,192,8082,1,8,0:0:0:0:
256,192,8173,1,0,0:0:0:0:
256,192,8355,1,8,0:0:0:0:
256,192,8446,1,8,0:0:0:0:
256,192,8627,1,0,0:0:0:0:
256,192,8718,1,8,0:0:0:0:
256,192,8900,1,8,0:0:0:0:
256,192,8991,1,0,0:0:0:0:
256,192,9173,1,0,0:0:0:0:
256,192,9264,5,8,0:0:0:0:
256,192,9537,1,0,0:0:0:0:
256,192,9718,1,0,0:0:0:0:
256,192,9809,1,8,0:0:0:0:
256,192,10082,1,8,0:0:0:0:
256,192,10264,1,8,0:0:0:0:
256,192,10355,1,0,0:0:0:0:
256,192,10537,1,0,0:0:0:0:
256,192,10627,1,0,0:0:0:0:
256,192,10809,1,0,0:0:0:0:
256,192,10900,1,8,0:0:0:0:
256,192,11173,1,8,0:0:0:0:
256,192,11355,1,8,0:0:0:0:
256,192,11446,1,0,0:0:0:0:
256,192,11627,5,8,0:0:0:0:
256,192,11718,1,8,0:0:0:0:
256,192,11900,1,0,0:0:0:0:
256,192,11991,1,8,0:0:0:0:
256,192,12264,1,0,0:0:0:0:
256,192,12446,1,8,0:0:0:0:
256,192,12537,1,0,0:0:0:0:
256,192,12718,1,8,0:0:0:0:
256,192,12809,1,8,0:0:0:0:
256,192,12991,1,0,0:0:0:0:
256,192,13082,1,8,0:0:0:0:
256,192,13264,1,0,0:0:0:0:
256,192,13355,1,0,0:0:0:0:
256,192,13537,1,0,0:0:0:0:
256,192,13627,5,8,0:0:0:0:
256,192,13900,1,0,0:0:0:0:
256,192,14082,1,0,0:0:0:0:
256,192,14173,1,8,0:0:0:0:
256,192,14446,1,0,0:0:0:0:
256,192,14627,1,8,0:0:0:0:
256,192,14718,1,0,0:0:0:0:
256,192,14900,1,0,0:0:0:0:
256,192,14991,1,8,0:0:0:0:
256,192,15173,1,8,0:0:0:0:
256,192,15264,1,8,0:0:0:0:
256,192,15446,1,0,0:0:0:0:
256,192,15537,1,0,0:0:0:0:
256,192,15718,1,8,0:0:0:0:
256,192,15809,1,0,0:0:0:0:
256,192,16082,5,8,0:0:0:0:
256,192,16264,1,8,0:0:0:0:
256,192,16355,1,0,0:0:0:0:
256,192,16627,1,8,0:0:0:0:
256,192,16809,1,0,0:0:0:0:
256,192,16900,1,8,0:0:0:0:
256,192,17082,1,0,0:0:0:0:
256,192,17173,1,0,0:0:0:0:
256,192,17355,1,8,0:0:0:0:
256,192,17446,1,0,0:0:0:0:
256,192,17627,1,8,0:0:0:0:
256,192,17718,1,8,0:0:0:0:
256,192,17900,1,8,0:0:0:0:
256,192,17991,5,0,0:0:0:0:
256,192,18264,1,0,0:0:0:0:
256,192,18446,1,0,0:0:0:0:
256,192,18537,1,8,0:0:0:0:
256,192,18809,1,8,0:0:0:0:
256,192,18991,1,8,0:0:0:0:
256,192,19082,1,0,0:0:0:0:
256,192,19264,1,0,0:0:0:0:
256,192,19355,1,0,0:0:0:0:
256,192,19537,1,0,0:0:0:0:
256,192,19627,1,8,0:0:0:0:
256,192,19900,1,0,0:0:0:0:
256,192,20082,1,8,0:0:0:0:
256,192,20173,1,0,0:0:0:0:
256,192,20355,5,8,0:0:0:0:
256,192,20446,1,8,0:0:0:0:
256,192,20627,1,0,0:0:0:0:
256,192,20718,1,8,0:0:0:0:
256,192,20991,1,0,0:0:0:0:
256,192,21173,1,8,0:0:0:0:
256,192,21264,1,0,0:0:0:0:
256,192,21537,1,8,0:0:0:0:
256,192,21718,1,0,0:0:0:0:
256,192,21809,1,8,0:0:0:0:
256,192,21991,1,8,0:0:0:0:
256,192,22082,1,0,0:0:0:0:
256,192,22264,1,8,0:0:0:0:
256,192,22355,5,0,0:0:0:0:
256,192,22627,1,8,0:0:0:0:
256,192,22809,1,0,0:0:0:0:
256,192,22900,1,8,0:0:0:0:
256,192,23173,1,0,0:0:0:0:
256,192,23355,1,8,0:0:0:0:
256,192,23446,1,0,0:0:0:0:
256,192,23627,1,8,0:0:0:0:
256,192,23718,1,8,0:0:0:0:
256,192,23900,1,0,0:0:0:0:
256,192,23991,1,8,0:0:0:0:
256,192,24264,1,0,0:0:0:0:
256,192,24446,1,8,0:0:0:0:
256,192,24537,1,8,0:0:0:0:
256,192,24718,5,0,0:0:0:0:
256,192,24809,1,8,0:0:0:0:
256,192,24991,1,0,0:0:0:0:
256,192,25082,1,8,0:0:0:0:
256,192,25355,1,0,0:0:0:0:
256,192,25537,1,8,0:0:0:0:
256,192,25627,1,0,0:0:0:0:
256,192,25809,1,8,0:0:0:0:
256,192,25900,1,8,0:0:0:0:
256,192,26082,1,0,0:0:0:0:
256,192,26173,1,8,0:0:0:0:
256,192,26355,1,0,0:0:0:0:
256,192,26446,1,0,0:0:0:0:
256,192,26627,1,0,0:0:0:0:
256,192,26718,5,8,0:0:0:0:
256,192,26991,1,0,0:0:0:0:
256,192,27173,1,0,0:0:0:0:
256,192,27264,1,8,0:0:0:0:
256,192,27537,1,8,0:0:0:0:
256,192,27718,1,8,0:0:0:0:
256,192,27809,1,0,0:0:0:0:
256,192,27991,1,8,0:0:0:0:
256,192,28082,1,8,0:0:0:0:
256,192,28264,1,0,0:0:0:0:
256,192,28355,1,8,0:0:0:0:
256,192,28627,1,8,0:0:0:0:
256,192,28809,1,8,0:0:0:0:
256,192,28900,1,0,0:0:0:0:
256,192,29082,5,0,0:0:0:0:
256,192,29173,1,8,0:0:0:0:
256,192,29355,1,0,0:0:0:0:
256,192,29446,1,8,0:0:0:0:
256,192,29718,1,0,0:0:0:0:
256,192,29900,1,8,0:0:0:0:
256,192,29991,1,0,0:0:0:0:
256,192,30173,1,8,0:0:0:0:
256,192,30264,1,8,0:0:0:0:
256,192,30446,1,0,0:0:0:0:
256,192,30537,1,8,0:0:0:0:
256,192,30718,1,0,0:0:0:0:
256,192,30809,1,0,0:0:0:0:
256,192,30991,1,0,0:0:0:0:
256,192,31082,5,8,0:0:0:0:
256,192,31355,1,0,0:0:0:0:
256,192,31537,1,0,0:0:0:0:
256,192,31627,1,8,0:0:0:0:
256,192,31900,1,0,0:0:0:0:
256,192,32082,1,8,0:0:0:0:
256,192,32173,1,0,0:0:0:0:
256,192,32355,1,0,0:0:0:0:
256,192,32446,1,8,0:0:0:0:
256,192,32627,1,0,0:0:0:0:
256,192,32718,1,8,0:0:0:0:
256,192,32991,1,8,0:0:0:0:
256,192,33173,1,8,0:0:0:0:
256,192,33264,1,0,0:0:0:0:
256,192,33537,5,8,0:0:0:0:
256,192,33718,1,0,0:0:0:0:
256,192,33809,1,8,0:0:0:0:
256,192,33991,5,8,0:0:0:0:
256,192,34082,1,8,0:0:0:0:
256,192,34264,5,0,0:0:0:0:
256,192,34355,1,8,0:0:0:0:
256,192,34537,5,8,0:0:0:0:
256,192,34627,1,0,0:0:0:0:
256,192,34809,5,0,0:0:0:0:
256,192,34900,1,8,0:0:0:0:
256,192,34991,1,8,0:0:0:0:
256,192,35082,1,8,0:0:0:0:
256,192,35173,1,0,0:0:0:0:
256,192,35264,1,0,0:0:0:0:
256,192,35355,1,0,0:0:0:0:
256,192,35446,5,8,0:0:0:0:
256,192,35627,1,0,0:0:0:0:
256,192,35718,1,8,0:0:0:0:
256,192,35900,1,0,0:0:0:0:
256,192,35991,1,8,0:0:0:0:
256,192,36082,1,8,0:0:0:0:
256,192,36173,1,0,0:0:0:0:
256,192,36264,1,8,0:0:0:0:
256,192,36446,1,0,0:0:0:0:
256,192,36537,1,8,0:0:0:0:
256,192,36718,1,8,0:0:0:0:
256,192,36809,1,0,0:0:0:0:
256,192,36991,1,8,0:0:0:0:
256,192,37082,1,8,0:0:0:0:
256,192,37173,1,0,0:0:0:0:
256,192,37264,1,8,0:0:0:0:
256,192,37355,1,0,0:0:0:0:
256,192,37627,5,8,0:0:0:0:
256,192,37809,1,8,0:0:0:0:
256,192,37900,1,0,0:0:0:0:
256,192,38082,1,0,0:0:0:0:
256,192,38173,1,8,0:0:0:0:
256,192,38264,1,0,0:0:0:0:
256,192,38355,1,0,0:0:0:0:
256,192,38446,1,8,0:0:0:0:
256,192,38627,1,0,0:0:0:0:
256,192,38718,1,8,0:0:0:0:
256,192,38900,1,8,0:0:0:0:
256,192,38991,1,0,0:0:0:0:
256,192,39173,1,8,0:0:0:0:
256,192,39264,1,8,0:0:0:0:
256,192,39355,1,8,0:0:0:0:
256,192,39446,1,8,0:0:0:0:
256,192,39537,1,0,0:0:0:0:
256,192,39718,1,0,0:0:0:0:
256,192,39809,5,8,0:0:0:0:
256,192,39991,1,8,0:0:0:0:
256,192,40082,1,0,0:0:0:0:
256,192,40264,1,0,0:0:0:0:
256,192,40355,1,8,0:0:0:0:
256,192,40446,1,8,0:0:0:0:
256,192,40537,1,8,0:0:0:0:
256,192,40627,1,8,0:0:0:0:
256,192,40809,1,0,0:0:0:0:
256,192,40900,1,8,0:0:0:0:
256,192,41082,1,8,0:0:0:0:
256,192,41173,1,0,0:0:0:0:
256,192,41355,1,8,0:0:0:0:
256,192,41446,1,8,0:0:0:0:
256,192,41537,1,0,0:0:0:0:
256,192,41627,1,0,0:0:0:0:
256,192,41718,1,0,0:0:0:0:
256,192,41991,5,8,0:0:0:0:
256,192,42173,1,0,0:0:0:0:
256,192,42264,1,8,0:0:0:0:
256,192,42446,1,0,0:0:0:0:
256,192,42537,1,8,0:0:0:0:
256,192,42627,1,8,0:0:0:0:
256,192,42718,1,0,0:0:0:0:
256,192,42809,1,8,0:0:0:0:
256,192,42991,1,0,0:0:0:0:
256,192,43082,1,8,0:0:0:0:
256,192,43264,1,8,0:0:0:0:
256,192,43355,1,8,0:0:0:0:
256,192,43537,1,0,0:0:0:0:
256,192,43627,1,8,0:0:0:0:
256,192,43718,1,8,0:0:0:0:
256,192,43809,1,8,0:0:0:0:
256,192,43900,1,0,0:0:0:0:
256,192,44082,1,8,0:0:0:0:
256,192,44173,5,8,0:0:0:0:
256,192,44355,1,0,0:0:0:0:
256,192,44446,1,8,0:0:0:0:
256,192,44627,1,0,0:0:0:0:
256,192,44718,1,8,0:0:0:0:
256,192,44809,1,0,0:0:0:0:
256,192,44900,1,0,0:0:0:0:
256,192,44991,1,0,0:0:0:0:
256,192,45173,1,8,0:0:0:0:
256,192,45264,1,8,0:0:0:0:
256,192,45446,1,0,0:0:0:0:
256,192,45537,1,8,0:0:0:0:
256,192,45718,1,8,0:0:0:0:
256,192,45809,1,8,0:0:0:0:
256,192,45900,1,8,0:0:0:0:
256,192,45991,1,0,0:0:0:0:
256,192,46082,1,8,0:0:0:0:
256,192,46355,5,0,0:0:0:0:
256,192,46537,1,8,0:0:0:0:
256,192,46627,1,0,0:0:0:0:
256,192,46809,1,0,0:0:0:0:
256,192,46900,1,8,0:0:0:0:
256,192,46991,1,0,0:0:0:0:
256,192,47082,1,0,0:0:0:0:
256,192,47173,1,8,0:0:0:0:
256,192,47355,1,0,0:0:0:0:
256,192,47446,1,8,0:0:0:0:
256,192,47627,1,8,0:0:0:0:
256,192,47718,1,8,0:0:0:0:
256,192,47900,1,0,0:0:0:0:
256,192,47991,1,8,0:0:0:0:
256,192,48082,1,0,0:0:0:0:
256,192,48173,1,8,0:0:0:0:
256,192,48264,1,0,0:0:0:0:
256,192,48446,1,0,0:0:0:0:
256,192,48537,5,8,0:0:0:0:
256,192,48718,1,8,0:0:0:0:
256,192,48809,1,8,0:0:0:0:
256,192,48991,1,0,0:0:0:0:
256,192,49082,1,8,0:0:0:0:
256,192,49173,1,8,0:0:0:0:
256,192,49264,1,0,0:0:0:0:
256,192,49355,1,8,0:0:0:0:
256,192,49537,1,0,0:0:0:0:
256,192,49627,1,8,0:0:0:0:
256,192,49809,1,8,0:0:0:0:
256,192,49900,1,0,0:0:0:0:
256,192,50082,1,0,0:0:0:0:
256,192,50173,1,8,0:0:0:0:
256,192,50264,1,8,0:0:0:0:
256,192,50355,1,8,0:0:0:0:
256,192,50446,1,0,0:0:0:0:
256,192,50718,5,8,0:0:0:0:
256,192,50900,1,0,0:0:0:0:
256,192,50991,1,8,0:0:0:0:
256,192,51173,5,0,0:0:0:0:
256,192,51264,1,0,0:0:0:0:
256,192,51446,5,0,0:0:0:0:
256,192,51537,1,8,0:0:0:0:
256,192,51718,5,0,0:0:0:0:
256,192,51809,1,8,0:0:0:0:
256,192,51991,5,8,0:0:0:0:
256,192,52082,1,8,0:0:0:0:
256,192,52264,5,0,0:0:0:0:
256,192,52355,1,8,0:0:0:0:
256,192,52537,5,0,0:0:0:0:
256,192,52627,1,0,0:0:0:0:
256,192,52809,5,0,0:0:0:0:
256,192,52900,1,8,0:0:0:0:
256,192,52991,1,8,0:0:0:0:
256,192,53082,1,8,0:0:0:0:
256,192,53173,1,8,0:0:0:0:
256,192,53355,1,0,0:0:0:0:
256,192,53446,1,8,0:0:0:0:
256,192,53627,1,8,0:0:0:0:
256,192,53718,1,8,0:0:0:0:
256,192,53900,1,8,0:0:0:0:
256,192,53991,1,0,0:0:0:0:
256,192,54082,1,0,0:0:0:0:
256,192,54173,1,0,0:0:0:0:
256,192,54264,1,8,0:0:0:0:
256,192,54446,1,0,0:0:0:0:
256,192,54537,1,8,0:0:0:0:
256,192,54718,1,8,0:0:0:0:
256,192,54809,1,0,0:0:0:0:
256,192,55082,5,8,0:0:0:0:
256,192,55173,1,8,0:0:0:0:
256,192,55264,1,0,0:0:0:0:
256,192,55355,1,8,0:0:0:0:
256,192,55537,1,0,0:0:0:0:
256,192,55627,1,8,0:0:0:0:
256,192,55809,1,8,0:0:0:0:
256,192,55900,1,8,0:0:0:0:
256,192,56082,1,0,0:0:0:0:
256,192,56173,1,0,0:0:0:0:
256,192,56264,1,0,0:0:0:0:
256,192,56355,1,8,0:0:0:0:
256,192,56446,1,8,0:0:0:0:
256,192,56627,1,0,0:0:0:0:
256,192,56718,1,8,0:0:0:0:
256,192,56900,1,8,0:0:0:0:
256,192,56991,1,0,0:0:0:0:
256,192,57264,5,8,0:0:0:0:
256,192,57355,1,8,0:0:0:0:
256,192,57446,1,8,0:0:0:0:
256,192,57537,1,8,0:0:0:0:
256,192,57718,1,0,0:0:0:0:
256,192,57809,1,8,0:0:0:0:
256,192,57991,1,8,0:0:0:0:
256,192,58082,1,0,0:0:0:0:
256,192,58264,1,8,0:0:0:0:
256,192,58355,1,8,0:0:0:0:
256,192,58446,1,8,0:0:0:0:
256,192,58537,1,8,0:0:0:0:
256,192,58627,1,8,0:0:0:0:
256,192,58809,1,0,0:0:0:0:
256,192,58900,1,8,0:0:0:0:
256,192,59082,1,8,0:0:0:0:
256,192,59173,1,0,0:0:0:0:
256,192,59355,1,8,0:0:0:0:
256,192,59446,5,8,0:0:0:0:
256,192,59627,1,0,0:0:0:0:
256,192,59718,1,8,0:0:0:0:
256,192,59900,5,0,0:0:0:0:
256,192,59991,1,0,0:0:0:0:
256,192,60173,5,0,0:0:0:0:
256,192,60264,1,8,0:0:0:0:
256,192,60446,5,0,0:0:0:0:
256,192,60537,1,8,0:0:0:0:
256,192,60718,5,0,0:0:0:0:
256,192,60809,1,8,0:0:0:0:
256,192,60991,5,8,0:0:0:0:
256,192,61082,1,8,0:0:0:0:
256,192,61264,5,0,0:0:0:0:
256,192,61355,1,8,0:0:0:0:
256,192,61537,5,8,0:0:0:0:
256,192,61627,1,0,0:0:0:0:
256,192,61718,1,0,0:0:0:0:
256,192,61809,1,0,0:0:0:0:
256,192,61900,1,0,0:0:0:0:
256,192,62082,1,0,0:0:0:0:
256,192,62173,1,8,0:0:0:0:
256,192,62355,1,0,0:0:0:0:
256,192,62446,1,0,0:0:0:0:
256,192,62718,5,8,0:0:0:0:
256,192,62809,1,0,0:0:0:0:
256,192,62900,1,0,0:0:0:0:
256,192,62991,1,0,0:0:0:0:
256,192,63173,1,0,0:0:0:0:
256,192,63264,1,8,0:0:0:0:
256,192,63446,1,8,0:0:0:0:
256,192,63537,1,0,0:0:0:0:
256,192,63809,5,0,0:0:0:0:
256,192,63900,1,8,0:0:0:0:
256,192,63991,1,0,0:0:0:0:
256,192,64082,1,0,0:0:0:0:
256,192,64264,1,0,0:0:0:0:
256,192,64355,1,8,0:0:0:0:
256,192,64537,1,8,0:0:0:0:
256,192,64627,1,0,0:0:0:0:
256,192,64900,5,8,0:0:0:0:
256,192,64991,1,0,0:0:0:0:
256,192,65082,1,8,0:0:0:0:
256,192,65173,1,0,0:0:0:0:
256,192,65355,1,8,0:0:0:0:
256,192,65446,1,8,0:0:0:0:
256,192,65627,1,0,0:0:0:0:
256,192,65718,1,8,0:0:0:0:
256,192,65900,5,0,0:0:0:0:
256,192,65991,1,8,0:0:0:0:
256,192,66082,1,8,0:0:0:0:
256,192,66173,1,0,0:0:0:0:
256,192,66264,1,8,0:0:0:0:
256,192,66446,5,0,0:0:0:0:
256,192,66537,1,8,0:0:0:0:
256,192,66627,1,8,0:0:0:0:
256,192,66718,1,8,0:0:0:0:
256,192,66809,1,8,0:0:0:0:
256,192,66991,5,0,0:0:0:0:
256,192,67082,1,0,0:0:0:0:
256,192,67173,1,8,0:0:0:0:
256,192,67264,1,8,0:0:0:0:
256,192,67355,1,8,0:0:0:0:
256,192,67537,5,0,0:0:0:0:
256,192,67627,1,8,0:0:0:0:
256,192,67809,5,0,0:0:0:0:
256,192,67900,1,8,0:0:0:0:
256,192,68173,5,0,0:0:0:0:
256,192,68355,1,8,0:0:0:0:
256,192,68446,1,8,0:0:0:0:
256,192,68718,1,0,0:0:0:0:
256,192,68900,1,8,0:0:0:0:
256,192,68991,1,8,0:0:0:0:
256,192,69173,1,0,0:0:0:0:
256,192,69264,1,8,0:0:0:0:
256,192,69446,1,0,0:0:0:0:
256,192,69537,1,0,0:0:0:0:
256,192,69718,1,8,0:0:0:0:
256,192,69809,1,0,0:0:0:0:
256,192,69991,1,0,0:0:0:0:
256,192,70082,1,8,0:0:0:0:
256,192,70355,5,0,0:0:0:0:
256,192,70627,1,8,0:0:0:0:
256,192,70809,1,0,0:0:0:0:
256,192,70900,1,8,0:0:0:0:
256,192,71173,1,8,0:0:0:0:
256,192,71355,1,0,0:0:0:0:
256,192,71446,1,8,0:0:0:0:
256,192,71627,1,8,0:0:0:0:
256,192,71718,1,0,0:0:0:0:
256,192,71900,1,0,0:0:0:0:
256,192,71991,1,8,0:0:0:0:
256,192,72264,1,0,0:0:0:0:
256,192,72446,1,8,0:0:0:0:
256,192,72537,1,8,0:0:0:0:
256,192,72718,5,8,0:0:0:0:
256,192,72809,1,0,0:0:0:0:
256,192,72991,1,0,0:0:0:0:
256,192,73082,1,8,0:0:0:0:
256,192,73355,1,0,0:0:0:0:
256,192,73537,1,8,0:0:0:0:
256,192,73627,1,0,0:0:0:0:
256,192,73809,1,8,0:0:0:0:
256,192,73900,1,8,0:0:0:0:
256,192,74082,1,0,0:0:0:0:
256,192,74173,1,8,0:0:0:0:
256,192,74355,1,8,0:0:0:0:
256,192,74446,1,0,0:0:0:0:
256,192,74627,1,0,0:0:0:0:
256,192,74718,5,8,0:0:0:0:
256,192,74991,1,0,0:0:0:0:
256,192,75173,1,0,0:0:0:0:
256,192,75264,1,8,0:0:0:0:
256,192,75537,1,8,0:0:0:0:
256,192,75718,1,8,0:0:0:0:
256,192,75809,1,0,0:0:0:0:
256,192,75991,1,0,0:0:0:0:
256,192,76082,1,0,0:0:0:0:
256,192,76264,1,0,0:0:0:0:
256,192,76355,1,8,0:0:0:0:
256,192,76627,1,0,0:0:0:0:
256,192,76809,1,8,0:0:0:0:
256,192,76900,1,0,0:0:0:0:
256,192,77082,5,0,0:0:0:0:
256,192,77173,1,8,0:0:0:0:
256,192,77355,1,0,0:0:0:0:
256,192,77446,1,8,0:0:0:0:
256,192,77718,1,0,0:0:0:0:
256,192,77900,1,8,0:0:0:0:
256,192,77991,1,0,0:0:0:0:
256,192,78173,1,8,0:0:0:0:
256,192,78264,1,8,0:0:0:0:
256,192,78446,1,0,0:0:0:0:
256,192,78537,1,8,0:0:0:0:
256,192,78718,1,8,0:0:0:0:
256,192,78809,1,0,0:0:0:0:
256,192,78991,1,0,0:0:0:0:
256,192,79082,5,8,0:0:0:0:
256,192,79355,1,0,0:0:0:0:
256,192,79537,1,0,0:0:0:0:
256,192,79627,1,8,0:0:0:0:
256,192,79900,1,8,0:0:0:0:
256,192,80082,1,8,0:0:0:0:
256,192,80173,1,0,0:0:0:0:
256,192,80355,1,8,0:0:0:0:
256,192,80446,1,0,0:0:0:0:
256,192,80627,1,0,0:0:0:0:
256,192,80718,1,8,0:0:0:0:
256,192,80991,1,8,0:0:0:0:
256,192,81173,1,8,0:0:0:0:
256,192,81264,1,0,0:0:0:0:
256,192,81446,5,8,0:0:0:0:
256,192,81537,1,8,0:0:0:0:
256,192,81718,1,0,0:0:0:0:
256,192,81809,1,8,0:0:0:0:
256,192,82082,1,0,0:0:0:0:
256,192,82264,1,8,0:0:0:0:
256,192,82355,1,0,0:0:0:0:
256,192,82537,1,8,0:0:0:0:
256,192,82627,1,8,0:0:0:0:
256,192,82809,1,0,0:0:0:0:
256,192,82900,1,8,0:0:0:0:
256,192,83082,1,0,0:0:0:0:
256,192,83173,1,0,0:0:0:0:
256,192,83355,1,0,0:0:0:0:
256,192,83446,5,8,0:0:0:0:
256,192,83718,1,0,0:0:0:0:
256,192,83900,1,0,0:0:0:0:
256,192,83991,1,8,0:0:0:0:
256,192,84264,1,0,0:0:0:0:
256,192,84446,1,8,0:0:0:0:
256,192,84537,1,0,0:0:0:0:
256,192,84718,1,0,0:0:0:0:
256,192,84809,1,8,0:0:0:0:
256,192,84991,1,8,0:0:0:0:
256,192,85082,1,8,0:0:0:0:
256,192,85264,1,0,0:0:0:0:
256,192,85355,1,0,0:0:0:0:
256,192,85537,1,8,0:0:0:0:
256,192,85627,1,0,0:0:0:0:
256,192,85809,5,8,0:0:0:0:
256,192,85900,1,8,0:0:0:0:
256,192,86082,5,8,0:0:0:0:
256,192,86173,1,0,0:0:0:0:
256,192,86355,5,0,0:0:0:0:
256,192,86446,1,8,0:0:0:0:
256,192,86627,5,0,0:0:0:0:
256,192,86718,1,8,0:0:0:0:
256,192,86900,5,0,0:0:0:0:
256,192,86991,1,0,0:0:0:0:
256,192,87173,5,8,0:0:0:0:
256,192,87264,1,0,0:0:0:0:
256,192,87446,5,8,0:0:0:0:
256,192,87537,1,8,0:0:0:0:
256,192,87718,5,8,0:0:0:0:
256,192,87809,1,0,0:0:0:0:
256,192,88082,1,0,0:0:0:0:
256,192,88264,1,0,0:0:0:0:
256,192,88355,1,8,0:0:0:0:
256,192,88627,1,8,0:0:0:0:
256,192,88809,1,8,0:0:0:0:
256,192,88900,1,0,0:0:0:0:
256,192,89082,1,0,0:0:0:0:
256,192,89173,1,0,0:0:0:0:
256,192,89355,1,0,0:0:0:0:
256,192,89446,1,8,0:0:0:0:
256,192,89718,1,0,0:0:0:0:
256,192,89900,1,8,0:0:0:0:
256,192,89991,1,0,0:0:0:0:
256,192,90173,5,8,0:0:0:0:
256,192,90264,1,8,0:0:0:0:
256,192,90446,1,0,0:0:0:0:
256,192,90537,1,8,0:0:0:0:
256,192,90809,1,0,0:0:0:0:
256,192,90991,1,8,0:0:0:0:
256,192,91082,1,0,0:0:0:0:
256,192,91264,1,8,0:0:0:0:
256,192,91355,1,8,0:0:0:0:
256,192,91537,1,0,0:0:0:0:
256,192,91627,1,8,0:0:0:0:
256,192,91809,1,8,0:0:0:0:
256,192,91900,1,0,0:0:0:0:
256,192,92082,1,8,0:0:0:0:
256,192,92173,5,0,0:0:0:0:
256,192,92446,1,8,0:0:0:0:
256,192,92627,1,0,0:0:0:0:
256,192,92718,1,8,0:0:0:0:
256,192,92991,1,0,0:0:0:0:
256,192,93173,1,8,0:0:0:0:
256,192,93264,1,0,0:0:0:0:
256,192,93446,1,8,0:0:0:0:
256,192,93537,1,8,0:0:0:0:
256,192,93718,1,0,0:0:0:0:
256,192,93809,1,8,0:0:0:0:
256,192,94082,1,0,0:0:0:0:
256,192,94264,1,8,0:0:0:0:
256,192,94355,1,8,0:0:0:0:
256,192,94537,5,0,0:0:0:0:
256,192,94627,1,8,0:0:0:0:
256,192,94809,1,0,0:0:0:0:
256,192,94900,1,8,0:0:0:0:
256,192,95173,1,0,0:0:0:0:
256,192,95355,1,8,0:0:0:0:
256,192,95446,1,0,0:0:0:0:
256,192,95627,1,8,0:0:0:0:
256,192,95718,1,8,0:0:0:0:
256,192,95900,1,0,0:0:0:0:
256,192,95991,1,8,0:0:0:0:
256,192,96173,1,0,0:0:0:0:
256,192,96264,1,0,0:0:0:0:
256,192,96446,1,0,0:0:0:0:
256,192,96537,5,8,0:0:0:0:
256,192,96809,1,0,0:0:0:0:
256,192,96991,1,0,0:0:0:0:
256,192,97082,1,8,0:0:0:0:
256,192,97355,1,8,0:0:0:0:
256,192,97537,1,8,0:0:0:0:
256,192,97627,1,0,0:0:0:0:
256,192,97809,1,8,0:0:0:0:
256,192,97900,1,8,0:0:0:0:
256,192,98082,1,0,0:0:0:0:
256,192,98173,1,8,0:0:0:0:
256,192,98446,1,8,0:0:0:0:
256,192,98627,1,8,0:0:0:0:
256,192,98718,1,0,0:0:0:0:
256,192,98900,5,0,0:0:0:0:
256,192,98991,1,8,0:0:0:0:
256,192,99173,1,0,0:0:0:0:
256,192,99264,1,8,0:0:0:0:
256,192,99537,1,0,0:0:0:0:
256,192,99718,1,8,0:0:0:0:
256,192,99809,1,0,0:0:0:0:
256,192,99991,1,8,0:0:0:0:
256,192,100082,1,8,0:0:0:0:
256,192,100264,1,0,0:0:0:0:
256,192,100355,1,8,0:0:0:0:
256,192,100537,1,0,0:0:0:0:
256,192,100627,1,0,0:0:0:0:
256,192,100809,1,0,0:0:0:0:
256,192,100900,5,8,0:0:0:0:
256,192,101173,1,0,0:0:0:0:
256,192,101355,1,0,0:0:0:0:
256,192,101446,1,8,0:0:0:0:
256,192,101718,1,0,0:0:0:0:
256,192,101900,1,8,0:0:0:0:
256,192,101991,1,0,0:0:0:0:
256,192,102173,1,0,0:0:0:0:
256,192,102264,1,8,0:0:0:0:
256,192,102446,1,0,0:0:0:0:
256,192,102537,1,8,0:0:0:0:
256,192,102718,1,8,0:0:0:0:
256,192,102809,5,0,0:0:0:0:
