osu file format v14

[General]
AudioFilename: audio.mp3
AudioLeadIn: 0
PreviewTime: 35446
Countdown: 0
SampleSet: Normal
StackLeniency: 0.7
Mode: 1
LetterboxInBreaks: 0
WidescreenStoryboard: 1

[Editor]
DistanceSpacing: 1
BeatDivisor: 2
GridSize: 32
TimelineZoom: 2.1

[Metadata]
Title:where to start
TitleUnicode:where to start
Artist:Silentroom
ArtistUnicode:Silentroom
Creator:Antti
Version:futsuu
Source:
Tags:Focalsketch I unisphere electronic instrumental swing fa featured artist mappers' guild mpg mg tag2 tag4 coop co-op compatible
BeatmapID:4457616
BeatmapSetID:2121384

[Difficulty]
HPDrainRate:8
CircleSize:2
OverallDifficulty:4
ApproachRate:10
SliderMultiplier:1.4
SliderTickRate:1

[Events]
//Background and Video events
0,0,"introduction.png",0,-10
//Break Periods
//Storyboard Layer 0 (Background)
//Storyboard Layer 1 (Fail)
//Storyboard Layer 2 (Pass)
//Storyboard Layer 3 (Foreground)
//Storyboard Layer 4 (Overlay)
//Storyboard Sound Samples

[TimingPoints]
537,545.454545454546,4,1,0,50,1,0
33715,-100,4,1,0,55,0,0
35446,-100,4,1,0,60,0,1
65988,-100,4,1,0,65,0,1
68170,-100,4,1,0,55,0,1
70355,-100,4,1,0,50,0,0

[HitObjects]
256,192,537,5,0,0:0:0:0:
256,192,809,1,0,0:0:0:0:
256,192,1082,1,8,0:0:0:0:
256,192,1355,1,8,0:0:0:0:
256,192,1900,1,8,0:0:0:0:
256,192,2173,1,0,0:0:0:0:
256,192,2446,1,8,0:0:0:0:
256,192,2718,1,0,0:0:0:0:
256,192,2991,1,0,0:0:0:0:
256,192,3264,1,8,0:0:0:0:
256,192,3809,1,0,0:0:0:0:
256,192,4082,1,8,0:0:0:0:
256,192,4355,1,8,0:0:0:0:
256,192,4900,5,8,0:0:0:0:
256,192,5173,1,0,0:0:0:0:
256,192,5446,1,0,0:0:0:0:
256,192,5718,1,8,0:0:0:0:
256,192,6264,1,0,0:0:0:0:
256,192,6537,1,8,0:0:0:0:
256,192,6809,1,8,0:0:0:0:
256,192,7082,1,8,0:0:0:0:
256,192,7355,1,0,0:0:0:0:
256,192,7627,1,8,0:0:0:0:
256,192,8173,1,0,0:0:0:0:
256,192,9264,5,8,0:0:0:0:
256,192,9537,1,0,0:0:0:0:
256,192,9809,1,8,0:0:0:0:
256,192,10082,1,8,0:0:0:0:
256,192,10627,1,0,0:0:0:0:
256,192,10900,1,8,0:0:0:0:
256,192,11173,1,8,0:0:0:0:
256,192,11446,1,0,0:0:0:0:
256,192,11718,1,8,0:0:0:0:
256,192,11991,1,8,0:0:0:0:
256,192,12537,1,0,0:0:0:0:
256,192,12809,1,8,0:0:0:0:
256,192,13082,1,0,0:0:0:0:
256,192,13627,5,8,0:0:0:0:
256,192,13900,1,8,0:0:0:0:
256,192,14173,1,0,0:0:0:0:
256,192,14446,1,0,0:0:0:0:
256,192,14991,1,8,0:0:0:0:
256,192,15264,1,8,0:0:0:0:
256,192,15809,1,0,0:0:0:0:
256,192,16082,5,8,0:0:0:0:
256,192,16355,1,0,0:0:0:0:
256,192,16627,1,8,0:0:0:0:
256,192,16900,1,8,0:0:0:0:
256,192,17991,5,0,0:0:0:0:
256,192,18264,1,8,0:0:0:0:
256,192,18537,1,0,0:0:0:0:
256,192,18809,1,8,0:0:0:0:
256,192,19355,1,8,0:0:0:0:
256,192,19627,1,0,0:0:0:0:
256,192,19900,1,8,0:0:0:0:
256,192,20173,1,0,0:0:0:0:
256,192,20446,1,8,0:0:0:0:
256,192,20718,1,8,0:0:0:0:
256,192,21264,1,0,0:0:0:0:
256,192,21537,1,8,0:0:0:0:
256,192,21809,1,8,0:0:0:0:
256,192,22355,5,0,0:0:0:0:
256,192,22627,1,8,0:0:0:0:
256,192,22900,1,0,0:0:0:0:
256,192,23173,1,8,0:0:0:0:
256,192,23718,1,0,0:0:0:0:
256,192,23991,1,8,0:0:0:0:
256,192,24264,1,8,0:0:0:0:
256,192,24537,1,8,0:0:0:0:
256,192,24809,1,0,0:0:0:0:
256,192,25082,1,8,0:0:0:0:
256,192,25627,1,0,0:0:0:0:
256,192,26718,5,8,0:0:0:0:
256,192,26991,1,0,0:0:0:0:
256,192,27264,1,8,0:0:0:0:
256,192,27537,1,0,0:0:0:0:
256,192,28082,1,0,0:0:0:0:
256,192,28355,1,8,0:0:0:0:
256,192,28627,1,8,0:0:0:0:
256,192,28900,1,0,0:0:0:0:
256,192,29173,1,0,0:0:0:0:
256,192,29446,1,8,0:0:0:0:
256,192,29991,1,0,0:0:0:0:
256,192,30264,1,8,0:0:0:0:
256,192,30537,1,8,0:0:0:0:
256,192,31082,5,8,0:0:0:0:
256,192,31355,1,0,0:0:0:0:
256,192,31627,1,8,0:0:0:0:
256,192,31900,1,8,0:0:0:0:
256,192,32446,1,0,0:0:0:0:
256,192,32718,1,8,0:0:0:0:
256,192,32991,1,0,0:0:0:0:
256,192,33537,5,8,0:0:0:0:
256,192,33809,1,0,0:0:0:0:
256,192,34082,1,8,0:0:0:0:
256,192,34355,1,8,0:0:0:0:
256,192,35446,5,8,0:0:0:0:
256,192,35718,1,8,0:0:0:0:
256,192,35991,1,0,0:0:0:0:
256,192,36264,1,0,0:0:0:0:
256,192,36537,1,8,0:0:0:0:
256,192,36809,1,0,0:0:0:0:
256,192,37082,1,8,0:0:0:0:
256,192,37627,5,8,0:0:0:0:
256,192,37900,1,0,0:0:0:0:
256,192,38173,1,8,0:0:0:0:
256,192,38446,1,0,0:0:0:0:
256,192,38718,1,8,0:0:0:0:
256,192,38991,1,8,0:0:0:0:
256,192,39264,1,0,0:0:0:0:
256,192,39809,5,8,0:0:0:0:
256,192,40082,1,0,0:0:0:0:
256,192,40355,1,8,0:0:0:0:
256,192,40627,1,8,0:0:0:0:
256,192,40900,1,8,0:0:0:0:
256,192,41173,1,8,0:0:0:0:
256,192,41446,1,0,0:0:0:0:
256,192,41991,5,8,0:0:0:0:
256,192,42264,1,8,0:0:0:0:
256,192,42537,1,8,0:0:0:0:
256,192,42809,1,0,0:0:0:0:
256,192,43082,1,8,0:0:0:0:
256,192,44173,5,8,0:0:0:0:
256,192,44446,1,0,0:0:0:0:
256,192,44718,1,8,0:0:0:0:
256,192,44991,1,0,0:0:0:0:
256,192,45264,1,8,0:0:0:0:
256,192,45537,1,0,0:0:0:0:
256,192,45809,1,8,0:0:0:0:
256,192,46355,5,0,0:0:0:0:
256,192,46627,1,8,0:0:0:0:
256,192,46900,1,0,0:0:0:0:
256,192,47173,1,8,0:0:0:0:
256,192,47446,1,0,0:0:0:0:
256,192,47718,1,8,0:0:0:0:
256,192,47991,1,0,0:0:0:0:
256,192,48537,5,0,0:0:0:0:
256,192,48809,1,0,0:0:0:0:
256,192,49082,1,8,0:0:0:0:
256,192,49355,1,0,0:0:0:0:
256,192,49627,1,8,0:0:0:0:
256,192,49900,1,0,0:0:0:0:
256,192,50173,1,8,0:0:0:0:
256,192,50718,5,8,0:0:0:0:
256,192,50991,1,8,0:0:0:0:
256,192,51264,1,0,0:0:0:0:
256,192,51537,1,8,0:0:0:0:
256,192,51809,1,0,0:0:0:0:
256,192,52900,5,8,0:0:0:0:
256,192,53173,1,8,0:0:0:0:
256,192,53446,1,0,0:0:0:0:
256,192,53718,1,8,0:0:0:0:
256,192,53991,1,0,0:0:0:0:
256,192,54264,1,8,0:0:0:0:
256,192,54537,1,8,0:0:0:0:
256,192,55082,5,8,0:0:0:0:
256,192,55355,1,0,0:0:0:0:
256,192,55627,1,8,0:0:0:0:
256,192,55900,1,8,0:0:0:0:
256,192,56173,1,0,0:0:0:0:
256,192,56446,1,0,0:0:0:0:
256,192,56718,1,8,0:0:0:0:
256,192,57264,5,8,0:0:0:0:
256,192,57537,1,8,0:0:0:0:
256,192,57809,1,0,0:0:0:0:
256,192,58082,1,8,0:0:0:0:
256,192,58355,1,8,0:0:0:0:
256,192,58627,1,8,0:0:0:0:
256,192,58900,1,0,0:0:0:0:
256,192,59446,5,8,0:0:0:0:
256,192,59718,1,0,0:0:0:0:
256,192,59991,1,8,0:0:0:0:
256,192,60264,1,0,0:0:0:0:
256,192,60537,1,8,0:0:0:0:
256,192,61627,5,8,0:0:0:0:
256,192,61900,1,0,0:0:0:0:
256,192,62173,1,8,0:0:0:0:
256,192,62446,1,0,0:0:0:0:
256,192,62718,5,8,0:0:0:0:
256,192,62991,1,0,0:0:0:0:
256,192,63264,1,8,0:0:0:0:
256,192,63809,5,0,0:0:0:0:
256,192,64082,1,8,0:0:0:0:
256,192,64355,1,8,0:0:0:0:
256,192,64627,1,0,0:0:0:0:
256,192,64900,5,8,0:0:0:0:
256,192,65173,1,8,0:0:0:0:
256,192,65446,1,0,0:0:0:0:
256,192,65991,5,8,0:0:0:0:
256,192,67082,5,0,0:0:0:0:
256,192,67355,1,0,0:0:0:0:
256,192,67627,1,0,0:0:0:0:
256,192,67900,1,8,0:0:0:0:
256,192,68355,5,8,0:0:0:0:
256,192,68718,1,0,0:0:0:0:
256,192,68991,1,8,0:0:0:0:
256,192,69264,1,8,0:0:0:0:
256,192,69537,1,0,0:0:0:0:
256,192,69718,1,8,0:0:0:0:
256,192,70355,5,0,0:0:0:0:
256,192,70627,1,0,0:0:0:0:
256,192,70900,1,8,0:0:0:0:
256,192,71173,1,8,0:0:0:0:
256,192,71718,1,8,0:0:0:0:
256,192,71991,1,8,0:0:0:0:
256,192,72264,1,0,0:0:0:0:
256,192,72537,1,8,0:0:0:0:
256,192,72809,1,0,0:0:0:0:
256,192,73082,1,8,0:0:0:0:
256,192,73627,1,0,0:0:0:0:
256,192,74718,5,8,0:0:0:0:
256,192,74991,1,0,0:0:0:0:
256,192,75264,1,8,0:0:0:0:
256,192,75537,1,8,0:0:0:0:
256,192,76082,1,0,0:0:0:0:
256,192,76355,1,8,0:0:0:0:
256,192,76627,1,0,0:0:0:0:
256,192,76900,1,8,0:0:0:0:
256,192,77173,1,0,0:0:0:0:
256,192,77446,1,8,0:0:0:0:
256,192,77991,1,0,0:0:0:0:
256,192,78264,1,8,0:0:0:0:
256,192,78537,1,0,0:0:0:0:
256,192,79082,5,8,0:0:0:0:
256,192,79355,1,0,0:0:0:0:
256,192,79627,1,8,0:0:0:0:
256,192,79900,1,8,0:0:0:0:
256,192,80446,1,0,0:0:0:0:
256,192,80718,1,8,0:0:0:0:
256,192,80991,1,8,0:0:0:0:
256,192,81264,1,0,0:0:0:0:
256,192,81537,1,8,0:0:0:0:
256,192,81809,1,8,0:0:0:0:
256,192,82355,1,0,0:0:0:0:
256,192,83446,5,8,0:0:0:0:
256,192,83718,1,0,0:0:0:0:
256,192,83991,1,8,0:0:0:0:
256,192,84264,1,8,0:0:0:0:
256,192,84809,1,0,0:0:0:0:
256,192,85082,1,8,0:0:0:0:
256,192,85355,1,8,0:0:0:0:
256,192,85900,1,8,0:0:0:0:
256,192,86173,1,0,0:0:0:0:
256,192,86446,1,8,0:0:0:0:
256,192,86718,1,0,0:0:0:0:
256,192,86991,1,8,0:0:0:0:
256,192,87264,1,0,0:0:0:0:
256,192,87809,5,0,0:0:0:0:
256,192,88082,1,8,0:0:0:0:
256,192,88355,1,0,0:0:0:0:
256,192,88627,1,8,0:0:0:0:
256,192,89173,1,0,0:0:0:0:
256,192,89446,1,8,0:0:0:0:
256,192,89718,1,8,0:0:0:0:
256,192,89991,1,0,0:0:0:0:
256,192,90264,1,8,0:0:0:0:
256,192,90537,1,8,0:0:0:0:
256,192,91082,1,0,0:0:0:0:
256,192,92173,5,0,0:0:0:0:
256,192,92446,1,8,0:0:0:0:
256,192,92718,1,0,0:0:0:0:
256,192,92991,1,8,0:0:0:0:
256,192,93537,1,0,0:0:0:0:
256,192,93809,1,8,0:0:0:0:
256,192,94082,1,0,0:0:0:0:
256,192,94355,1,8,0:0:0:0:
256,192,94627,1,0,0:0:0:0:
256,192,94900,1,8,0:0:0:0:
256,192,95446,1,0,0:0:0:0:
256,192,95718,1,8,0:0:0:0:
256,192,95991,1,0,0:0:0:0:
256,192,96537,5,8,0:0:0:0:
256,192,96809,1,0,0:0:0:0:
256,192,97082,1,8,0:0:0:0:
256,192,97355,1,0,0:0:0:0:
256,192,97900,1,0,0:0:0:0:
256,192,98173,1,8,0:0:0:0:
256,192,98446,1,8,0:0:0:0:
256,192,98718,1,0,0:0:0:0:
256,192,98991,1,0,0:0:0:0:
256,192,99264,1,8,0:0:0:0:
256,192,99809,1,0,0:0:0:0:
256,192,100900,5,8,0:0:0:0:
256,192,101173,1,0,0:0:0:0:
256,192,101446,1,8,0:0:0:0:
256,192,101718,1,8,0:0:0:0:
256,192,102264,1,0,0:0:0:0:
256,192,102537,1,8,0:0:0:0:
256,192,102809,1,0,0:0:0:0:
