osu file format v14

[General]
AudioFilename: audio.mp3
AudioLeadIn: 0
PreviewTime: 94809
Countdown: 0
SampleSet: Soft
StackLeniency: 0.7
Mode: 2
LetterboxInBreaks: 0
WidescreenStoryboard: 0

[Editor]
Bookmarks: 67571
DistanceSpacing: 1
BeatDivisor: 4
GridSize: 32
TimelineZoom: 2.699999

[Metadata]
Title:XHRONOXAPSULE
TitleUnicode:XHRONOXAPSULΞ
Artist:Silentroom
ArtistUnicode:Silentroom
Creator:Jemzuu
Version:XATAXLYSM
Source:SOUND VOLTEX EXCEED GEAR
Tags:ajamez rocma x_angelkawaii_x bigh bighzonda verti nakano ichika -[ Asuna ]- dika312 -joakh joakh sinnoh xinnoh lacrima myle electronic instrumental the 10th kac sdvx speedcore video game chronocapsule chrono capsule クロノカプセル cataclysm cronicle chronicle
BeatmapID:3504487
BeatmapSetID:1715139

[Difficulty]
HPDrainRate:3
CircleSize:4.2
OverallDifficulty:10
ApproachRate:10
SliderMultiplier:1.9
SliderTickRate:2

[Events]
//Background and Video events
0,0,"95577715_p0.jpg",0,0
//Break Periods
2,92452,94402
//Storyboard Layer 0 (Background)
//Storyboard Layer 1 (Fail)
//Storyboard Layer 2 (Pass)
//Storyboard Layer 3 (Foreground)
//Storyboard Layer 4 (Overlay)
//Storyboard Sound Samples

[TimingPoints]
1278,216.606498194946,3,2,2,80,1,0
1332,-100,3,2,1,60,0,0
3877,-100,3,2,2,80,0,0
3931,-100,3,2,1,60,0,0
5826,-100,3,2,2,80,0,0
5880,-100,3,2,1,60,0,0
6476,-100,3,2,1,70,0,0
10375,-100,3,2,1,80,0,0
11296,-100,3,2,2,70,0,0
11675,-100,3,2,3,80,0,0
11837,-100,3,2,1,55,0,0
13624,-100,3,2,1,55,0,0
13678,-100,3,2,2,55,0,0
13949,-100,3,2,1,55,0,0
14003,-100,3,2,2,65,0,0
14274,-100,3,2,1,75,0,0
14382,-100,3,2,1,60,0,0
16223,-100,3,2,4,70,0,0
16657,-100,3,2,2,60,0,0
16819,-100,3,2,1,75,0,0
16927,-100,3,2,1,60,0,0
19310,-100,3,2,2,60,0,0
19472,-100,3,2,1,60,0,0
23805,-100,3,2,2,60,0,0
24021,-100,3,2,1,60,0,0
26620,-100,3,2,4,60,0,0
27054,-100,3,2,2,60,0,0
27270,-100,3,2,1,60,0,0
29653,-100,3,2,5,60,0,0
29870,-100,3,2,3,60,0,0
30303,-100,3,2,1,60,0,0
30519,-100,3,2,2,60,0,0
30736,-100,3,2,1,60,0,0
30953,-100,3,2,2,60,0,0
31169,-100,3,2,1,60,0,0
31602,-100,3,2,1,60,0,0
31819,-100,3,2,2,60,0,0
32036,-100,3,2,1,60,0,0
32252,-100,3,2,2,60,0,0
32469,-100,3,2,1,60,0,0
32902,-100,3,2,2,60,0,0
33119,-40.8163265306122,3,2,1,60,0,0
33552,-40.8163265306122,3,2,98,60,0,0
33660,-40.8163265306122,3,2,1,60,0,0
33768,-100,3,2,97,60,0,0
33823,-100,3,2,1,60,0,0
34202,-100,3,2,2,60,0,0
34418,-100,3,2,1,60,0,0
40050,-100,3,2,2,60,0,0
40267,-100,3,2,1,60,0,0
40916,-100,3,2,2,60,0,0
41025,-100,3,2,1,60,0,0
41133,-100,3,2,3,60,0,0
41241,-100,3,2,1,60,0,0
41566,-100,3,2,4,60,0,0
41891,-100,3,2,1,60,0,0
42216,-100,3,2,2,60,0,0
42324,-100,3,2,1,60,0,0
43515,-100,3,2,2,60,0,0
43624,-100,3,2,1,60,0,0
43732,-100,3,2,3,60,0,0
43840,-100,3,2,1,60,0,0
44165,-100,3,2,4,60,0,0
44490,-100,3,2,1,60,0,0
44815,-100,3,2,2,60,0,0
44923,-100,3,2,1,60,0,0
45465,-100,3,2,1,70,0,0
46115,-100,3,2,2,70,0,0
46765,-100,3,2,1,70,0,0
47415,-100,3,2,2,70,0,0
48065,-100,3,2,1,70,0,0
49364,-100,3,2,1,80,0,0
50014,-66.6666666666667,3,2,1,80,0,0
50231,-66.6666666666667,3,2,99,60,0,0
50285,-66.6666666666667,3,2,1,60,0,0
50447,-66.6666666666667,3,2,99,60,0,0
50555,-66.6666666666667,3,2,1,60,0,0
50664,-40,3,2,1,90,0,1
50772,-100,3,2,1,80,0,1
50989,-40,3,2,1,80,0,1
51097,-40,3,2,95,80,0,1
51205,-100,3,2,1,80,0,1
51963,-40,3,2,1,80,0,1
52071,-100,3,2,1,80,0,1
52288,-40,3,2,1,80,0,1
52396,-100,3,2,95,80,0,1
52505,-100,3,2,1,80,0,1
53263,-40,3,2,1,80,0,1
53371,-100,3,2,1,80,0,1
53588,-40,3,2,1,80,0,1
53696,-100,3,2,95,80,0,1
53913,-100,3,2,5,80,0,1
54563,-80,3,2,1,80,0,1
54996,-80,3,2,95,80,0,1
55104,-80,3,2,1,80,0,1
55213,-100,3,2,1,80,0,1
57162,-36.3636363636364,3,2,1,80,0,1
57216,-100,3,2,1,80,0,1
57487,-40,3,2,1,80,0,1
57812,-41.6666666666667,3,2,1,80,0,1
58137,-66.6666666666667,3,2,1,80,0,1
58245,-100,3,2,1,80,0,1
58462,-100,3,2,1,80,0,0
59761,-100,3,2,4,80,0,0
59870,-100,3,2,1,80,0,0
60844,-100,3,2,5,80,0,0
61061,-100,3,2,4,80,0,1
61169,-100,3,2,1,80,0,1
63010,-100,3,2,1,80,0,0
63660,-100,3,2,1,80,0,1
63985,-100,3,2,6,80,0,1
64093,-100,3,2,1,80,0,1
65285,-100,3,2,6,80,0,1
65393,-100,3,2,1,80,0,1
65610,-100,3,2,6,80,0,1
65826,-100,3,2,6,80,0,0
66043,-100,3,2,5,80,0,0
66259,-100,3,2,1,80,0,1
66909,-100,3,2,6,80,0,1
67342,-100,3,2,5,80,0,1
67397,-100,3,2,1,80,0,1
68209,-100,3,2,1,80,0,0
68642,-100,3,2,5,80,0,0
68859,-100,3,2,6,80,0,0
68913,-100,3,2,1,80,0,0
69075,-142.857142857143,3,2,4,60,0,0
69089,-142.857142857143,3,2,1,5,0,0
70158,-83.3333333333333,3,2,4,60,0,0
70172,-83.3333333333333,3,2,1,5,0,0
70375,-142.857142857143,3,2,4,60,0,0
70389,-142.857142857143,3,2,1,5,0,0
71025,-142.857142857143,3,2,4,60,0,0
71458,-100,3,2,6,60,0,0
71675,-142.857142857143,3,2,4,60,0,0
71688,-142.857142857143,3,2,1,5,0,0
72758,-83.3333333333333,3,2,4,60,0,0
72771,-83.3333333333333,3,2,1,5,0,0
72975,-142.857142857143,3,2,4,60,0,0
72988,-142.857142857143,3,2,1,5,0,0
73407,-142.857142857143,3,2,1,60,0,0
74057,-100,3,2,6,60,0,0
74274,-100,3,2,1,60,0,0
74707,-100,3,2,2,60,0,0
74924,-100,3,2,1,60,0,0
75357,-100,3,2,4,60,0,0
75574,-100,3,2,1,60,0,0
76007,-100,3,2,2,60,0,0
76223,-100,3,2,1,60,0,0
76657,-100,3,2,4,60,0,0
76873,-100,3,2,1,60,0,0
77306,-100,3,2,2,60,0,0
77523,-100,3,2,1,60,0,0
77956,-100,3,2,4,60,0,0
78173,-100,3,2,1,60,0,0
78606,-100,3,2,2,60,0,0
78714,-100,3,2,1,60,0,0
79256,-100,3,2,7,70,0,0
79364,-100,3,2,1,70,0,0
79472,-100,3,2,1,55,0,0
79906,-100,3,2,1,58,0,0
80339,-100,3,2,1,62,0,0
80772,-100,3,2,1,65,0,0
81205,-100,3,2,1,68,0,0
81639,-100,3,2,1,71,0,0
82072,-100,3,2,1,74,0,0
82505,-100,3,2,1,76,0,0
82938,-100,3,2,1,78,0,0
83371,-100,3,2,1,80,0,0
83805,-100,3,2,1,82,0,0
84238,-100,3,2,1,84,0,0
84671,-100,3,2,1,45,0,0
84888,-100,3,2,1,47,0,0
85104,-100,3,2,1,50,0,0
85321,-100,3,2,1,52,0,0
85537,-100,3,2,1,54,0,0
85754,-100,3,2,1,57,0,0
85971,-100,3,2,1,60,0,0
86187,-100,3,2,1,62,0,0
86404,-100,3,2,1,64,0,0
86620,-100,3,2,1,66,0,0
86837,-100,3,2,1,68,0,0
87054,-100,3,2,1,70,0,0
87270,-100,3,2,1,72,0,0
87487,-100,3,2,1,74,0,0
87703,-100,3,2,1,76,0,0
87920,-100,3,2,1,78,0,0
88137,-100,3,2,1,80,0,0
88353,-100,3,2,1,82,0,0
88570,-100,3,2,1,84,0,0
88787,-100,3,2,1,86,0,0
89003,-100,3,2,1,88,0,0
89220,-100,3,2,1,90,0,0
89436,-100,3,2,1,93,0,0
89653,-133.333333333333,3,2,6,80,0,0
90736,-133.333333333333,3,2,1,80,0,0
92252,-133.333333333333,3,2,3,80,0,0
94852,-133.333333333333,3,2,3,75,0,0
94960,-133.333333333333,3,2,3,60,0,0
95068,-100,3,2,3,75,0,0
95285,-100,3,2,3,50,0,0
95501,-100,3,2,3,50,0,0
95718,-100,3,2,3,50,0,0
95934,-100,3,2,3,50,0,0
96151,-100,3,2,3,75,0,0
96259,-100,3,2,3,50,0,0
96367,-100,3,2,3,75,0,0
96584,-100,3,2,3,50,0,0
96800,-100,3,2,3,50,0,0
97018,-100,3,2,3,50,0,0
97234,-100,3,2,3,50,0,0
97667,-39.2156862745098,3,2,1,80,0,1
97776,-39.2156862745098,3,2,99,80,0,1
97830,-39.2156862745098,3,2,1,80,0,1
97992,-39.2156862745098,3,2,99,80,0,1
98046,-39.2156862745098,3,2,1,80,0,1
98209,-39.2156862745098,3,2,99,80,0,1
98263,-39.2156862745098,3,2,1,80,0,1
98426,-39.2156862745098,3,2,99,80,0,1
98480,-39.2156862745098,3,2,1,80,0,1
98750,-39.2156862745098,3,2,1,80,0,1
99075,-66.6666666666667,3,2,1,70,0,1
99400,-66.6666666666667,3,2,1,80,0,1
99725,-66.6666666666667,3,2,1,70,0,1
100050,-100,3,2,1,80,0,1
100483,-100,3,2,1,75,0,1
100700,-100,3,2,1,80,0,1
100916,-100,3,2,1,75,0,1
101133,-100,3,2,1,80,0,1
101350,-100,3,2,1,75,0,1
101567,-100,3,2,1,80,0,1
101783,-100,3,2,1,75,0,1
102000,-100,3,2,1,80,0,1
102216,-100,3,2,1,75,0,1
102433,-100,3,2,1,80,0,1
102649,-100,3,2,1,75,0,1
102866,-100,3,2,1,80,0,1
103083,-100,3,2,1,75,0,1
103300,-100,3,2,1,80,0,1
103516,-100,3,2,1,75,0,1
103733,-100,3,2,1,80,0,1
103949,-100,3,2,1,80,0,0
104707,-100,3,2,3,80,0,0
105249,-100,3,2,1,80,0,1
105465,-100,3,2,1,85,0,1
105682,-100,3,2,1,80,0,1
105898,-100,3,2,5,80,0,1
105953,-100,3,2,1,80,0,1
106115,-100,3,2,1,85,0,1
106332,-100,3,2,1,80,0,1
106548,-100,3,2,1,85,0,1
106765,-100,3,2,1,80,0,1
106981,-100,3,2,1,85,0,1
107198,-100,3,2,5,80,0,1
107252,-100,3,2,1,80,0,1
107415,-100,3,2,1,85,0,1
107632,-100,3,2,1,80,0,1
107848,-100,3,2,1,85,0,1
108065,-100,3,2,1,80,0,1
108281,-100,3,2,1,85,0,1
108498,-100,3,2,5,80,0,1
108552,-100,3,2,1,80,0,1
108714,-100,3,2,1,85,0,1
108931,-100,3,2,1,80,0,1
109148,-100,3,2,1,85,0,1
109365,-100,3,2,1,80,0,1
109581,-100,3,2,1,85,0,1
109797,-100,3,2,5,80,0,1
109852,-100,3,2,1,80,0,1
110122,-100,3,2,3,50,0,1
110231,-100,3,2,1,80,0,0
110447,-100,3,2,4,80,0,1
110664,-100,3,2,4,75,0,1
110880,-100,3,2,4,80,0,1
111097,-100,3,2,4,75,0,1
111313,-100,3,2,4,80,0,1
111530,-100,3,2,4,75,0,1
111746,-100,3,2,4,80,0,1
111963,-100,3,2,4,75,0,1
112179,-100,3,2,4,80,0,1
112397,-100,3,2,4,75,0,1
112613,-100,3,2,4,80,0,1
112830,-100,3,2,4,75,0,1
113046,-100,3,2,4,80,0,1
113263,-100,3,2,4,75,0,1
113479,-100,3,2,4,80,0,1
113696,-100,3,2,4,75,0,1
113912,-100,3,2,4,80,0,1
114129,-100,3,2,4,75,0,1
114345,-100,3,2,4,80,0,1
114563,-100,3,2,4,75,0,1
114779,-100,3,2,4,80,0,1
114996,-100,3,2,1,80,0,1
115321,-100,3,2,2,80,0,1
115537,-100,3,2,1,80,0,1
115646,-100,3,2,1,80,0,0
115754,-100,3,2,1,60,0,0
116296,-100,3,2,1,65,0,0
116512,-100,3,2,1,60,0,0
116729,-100,3,2,1,65,0,0
116945,-100,3,2,1,60,0,0
117162,-100,3,2,1,65,0,0
117378,-100,3,2,1,60,0,0
117595,-100,3,2,1,65,0,0
117649,-100,3,2,1,65,0,0
117811,-100,3,2,1,60,0,0
118028,-100,3,2,1,65,0,0
118245,-100,3,2,1,80,0,1
118462,-100,3,2,1,90,0,1
118678,-100,3,2,1,80,0,1
118895,-100,3,2,1,90,0,1
119111,-100,3,2,1,80,0,1
119328,-100,3,2,1,90,0,1
119545,-100,3,2,1,80,0,1
119762,-100,3,2,1,90,0,1
119978,-100,3,2,1,80,0,1
120195,-100,3,2,1,90,0,1
120303,-100,3,2,1,80,0,0

[Colours]
Combo1 : 128,255,255
Combo2 : 100,177,255
Combo3 : 140,140,255
Combo4 : 255,166,210

[HitObjects]
255,43,1278,5,4,3:1:0:0:
341,57,1386,1,0,0:0:0:0:
407,119,1494,1,2,0:0:0:0:
432,209,1602,1,0,0:0:0:0:
408,299,1711,1,2,0:0:0:0:
342,362,1819,1,0,0:0:0:0:
255,377,1927,5,2,0:3:0:0:
347,365,2035,1,0,0:0:0:0:
417,302,2143,1,2,0:0:0:0:
443,212,2252,1,0,0:0:0:0:
416,122,2360,1,2,0:0:0:0:
346,60,2468,1,0,0:0:0:0:
254,46,2577,5,2,0:3:0:0:
161,60,2685,1,0,0:0:0:0:
91,122,2793,1,2,0:0:0:0:
64,212,2901,1,0,0:0:0:0:
90,302,3010,1,2,0:0:0:0:
160,365,3118,1,0,0:0:0:0:
390,363,3227,6,0,L|422:316,2,47.5,2|0|0,0:3|0:0|0:0,0:0:0:0:
281,361,3444,1,2,0:0:0:0:
234,267,3552,1,0,0:0:0:0:
281,361,3660,1,2,0:0:0:0:
390,363,3768,1,0,0:0:0:0:
178,190,3877,6,0,L|59:160,1,95,4|0,3:1|0:0,0:0:0:0:
200,118,4093,2,0,L|209:226,1,95,2|0,0:0|0:0,0:0:0:0:
324,238,4310,2,0,L|193:238,1,95,2|0,0:0|0:0,0:0:0:0:
24,346,4527,2,0,L|21:218,1,95,2|0,0:3|0:0,0:0:0:0:
139,320,4743,2,0,L|139:217,1,95,2|0,0:0|0:0,0:0:0:0:
21,251,4960,2,0,L|12:144,1,95,2|0,0:0|0:0,0:0:0:0:
285,46,5176,6,0,L|322:100,2,47.5,2|0|0,0:3|0:0|0:0,0:0:0:0:
163,47,5393,2,0,L|123:102,2,47.5,2|0|0,0:0|0:0|0:0,0:0:0:0:
274,153,5610,2,0,L|154:166,1,95,2|0,0:0|0:0,0:0:0:0:
426,126,5826,5,10,3:2:0:0:
470,139,5880,1,0,0:0:0:0:
489,181,5934,1,2,0:0:0:0:
471,223,5988,1,0,0:0:0:0:
427,237,6043,1,2,3:0:0:0:
380,244,6097,1,0,0:0:0:0:
359,285,6151,1,2,0:0:0:0:
382,325,6205,1,0,0:0:0:0:
429,330,6259,2,0,L|488:328,1,47.5,2|0,3:0|0:0,0:0:0:0:
296,353,6368,2,0,L|230:353,1,47.5,2|0,0:0|0:0,0:0:0:0:
70,345,6476,6,0,L|59:232,1,95,6|0,1:0|0:0,0:0:0:0:
294,160,6693,2,0,L|188:145,1,95,2|0,1:0|0:0,0:0:0:0:
82,71,6909,2,2,L|204:50,1,95,2|2,0:0|0:0,0:0:0:0:
415,109,7126,6,0,L|424:232,1,95,2|0,1:0|0:0,0:0:0:0:
213,275,7342,2,0,L|99:282,1,95,2|0,1:0|0:0,0:0:0:0:
354,347,7559,2,0,L|381:299,2,47.5,2|2|2,1:0|0:0|0:0,0:0:0:0:
305,353,7722,1,2,0:0:0:0:
140,361,7776,6,0,L|27:363,1,95,6|0,1:0|0:0,0:0:0:0:
276,222,7992,2,0,L|284:111,1,95,2|0,1:0|0:0,0:0:0:0:
150,126,8209,2,0,L|141:31,1,95,0|0,0:0|0:0,0:0:0:0:
377,51,8426,6,2,L|440:49,1,47.5,2|2,1:1|0:2,0:0:0:0:
269,181,8534,2,2,L|214:193,1,47.5,2|2,0:2|0:2,0:0:0:0:
269,181,8642,2,2,L|336:183,1,47.5,2|2,1:2|0:2,0:0:0:0:
150,272,8750,2,2,L|99:279,1,47.5,2|2,0:2|0:2,0:0:0:0:
271,329,8859,2,2,L|332:338,1,47.5,2|2,1:2|0:2,0:0:0:0:
122,368,8967,2,2,L|57:371,1,47.5,2|2,0:2|0:2,0:0:0:0:
278,360,9075,5,6,1:1:0:0:
377,353,9184,1,0,0:0:0:0:
278,360,9292,1,0,0:0:0:0:
52,322,9400,1,2,1:1:0:0:
94,304,9454,1,2,0:2:0:0:
111,261,9508,1,2,0:2:0:0:
92,219,9562,1,2,0:2:0:0:
41,208,9617,2,2,L|39:151,1,47.5,2|2,0:2|0:2,0:0:0:0:
222,191,9725,5,2,1:1:0:0:
180,173,9779,1,2,0:2:0:0:
163,130,9833,1,2,0:2:0:0:
182,88,9887,1,2,0:2:0:0:
233,77,9942,2,0,L|238:18,1,47.5,2|2,0:2|0:2,0:0:0:0:
67,23,10050,2,2,L|10:28,1,47.5,2|2,1:1|0:2,0:0:0:0:
179,119,10158,2,2,L|243:117,1,47.5,2|2,0:2|0:2,0:0:0:0:
68,230,10267,2,2,L|15:238,1,47.5,2|2,0:2|0:2,0:0:0:0:
205,294,10375,6,0,L|279:299,1,47.5,0|0,3:0|3:0,0:0:0:0:
438,323,10483,2,0,L|365:338,1,47.5,0|0,3:0|3:0,0:0:0:0:
221,373,10592,2,0,L|215:302,1,47.5,0|0,3:0|3:0,0:0:0:0:
404,307,10700,2,0,L|409:246,1,47.5,0|0,3:0|3:0,0:0:0:0:
232,226,10808,2,0,L|226:160,1,47.5,2|0,3:1|3:0,0:0:0:0:
52,156,10916,2,0,L|34:92,1,47.5,0|0,3:0|3:0,0:0:0:0:
241,70,11025,6,0,L|352:65,1,95,0|0,3:1|3:0,0:0:0:0:
83,315,11241,2,0,L|74:251,3,47.5,10|2|2|2,3:1|0:3|0:3|0:3,0:0:0:0:
255,196,11458,2,2,L|262:141,3,47.5,2|2|2|2,0:3|0:3|0:3|0:3,0:0:0:0:
458,84,11675,5,4,3:1:0:0:
288,53,11891,2,0,L|271:260,1,190,2|0,0:0|0:0,0:0:0:0:
79,321,12324,2,0,L|271:268,1,190,2|0,0:0|0:0,0:0:0:0:
64,224,12758,1,2,0:0:0:0:
262,270,12974,6,2,P|272:211|91:110,2,285,2|2|2,0:0|0:0|0:3,0:0:0:0:
262,270,13678,6,2,L|261:328,4,47.5,2|2|2|2|2,0:3|0:3|0:3|0:3|0:3,0:0:0:0:
202,262,13949,1,2,0:3:0:0:
157,250,14003,1,2,0:3:0:0:
137,208,14057,1,2,0:3:0:0:
155,166,14111,1,2,0:3:0:0:
202,262,14166,2,2,L|273:259,1,47.5,2|2,0:3|0:3,0:0:0:0:
446,257,14274,5,4,3:1:0:0:
492,169,14382,1,0,0:0:0:0:
446,257,14490,1,0,0:0:0:0:
223,342,14599,2,0,L|335:282,1,95,2|0,3:1|0:0,0:0:0:0:
419,284,14815,1,0,0:0:0:0:
194,266,14924,6,0,L|174:149,1,95,2|0,3:1|0:0,0:0:0:0:
66,169,15140,1,0,0:0:0:0:
282,148,15249,2,0,L|302:31,1,95,2|0,3:1|0:1,0:0:0:0:
411,46,15465,1,0,0:0:0:0:
176,49,15574,2,0,L|311:32,1,95,2|0,3:1|0:0,0:0:0:0:
163,98,15790,1,0,0:0:0:0:
368,194,15898,2,0,L|233:177,1,95,2|0,3:1|0:0,0:0:0:0:
381,242,16114,1,0,0:0:0:0:
116,287,16223,6,0,L|-3:304,1,95,6|0,3:1|0:0,0:0:0:0:
355,345,16440,2,0,L|478:360,1,95,6|0,3:1|0:0,0:0:0:0:
215,351,16657,2,8,L|208:246,1,95,8|8,0:2|0:2,0:0:0:0:
468,229,16873,6,0,L|472:110,1,95,6|0,3:1|0:0,0:0:0:0:
259,95,17090,2,0,L|353:83,1,95,2|0,3:1|0:0,0:0:0:0:
130,35,17306,2,0,L|12:40,1,95,2|0,3:1|0:0,0:0:0:0:
258,197,17523,6,0,L|360:206,1,95,2|0,3:1|0:0,0:0:0:0:
121,317,17740,2,0,L|107:208,1,95,2|0,3:1|0:0,0:0:0:0:
336,338,17956,2,0,L|241:325,1,95,2|0,3:1|0:0,0:0:0:0:
21,168,18173,6,0,L|114:82,1,95,2|0,3:1|0:0,0:0:0:0:
289,103,18389,1,0,3:0:0:0:
84,93,18498,2,0,L|191:40,1,95,2|0,0:1|3:0,0:0:0:0:
382,49,18714,1,0,0:0:0:0:
159,41,18823,6,0,L|253:31,1,95,2|0,3:1|0:0,0:0:0:0:
42,177,19039,1,0,3:0:0:0:
253,284,19148,1,2,0:1:0:0:
145,304,19256,2,0,L|120:256,2,47.5,0|2|2,3:0|0:3|0:3,0:0:0:0:
185,314,19418,1,2,0:3:0:0:
372,348,19472,6,0,L|492:333,1,95,2|0,3:1|0:0,0:0:0:0:
254,356,19689,2,0,L|244:246,1,95,0|0,3:0|0:0,0:0:0:0:
28,201,19906,1,2,3:1:0:0:
245,178,20014,1,0,0:0:0:0:
28,201,20122,6,0,L|61:85,1,95,2|0,3:1|0:0,0:0:0:0:
261,77,20339,1,0,3:1:0:0:
471,205,20447,2,0,L|353:220,1,95,2|0,0:1|3:0,0:0:0:0:
151,284,20664,1,0,0:0:0:0:
379,237,20772,6,0,L|288:298,1,95,2|0,3:1|0:0,0:0:0:0:
87,321,20989,1,0,3:0:0:0:
301,304,21097,2,0,L|226:379,1,95,2|0,0:1|3:0,0:0:0:0:
436,363,21314,1,0,0:0:0:0:
206,375,21422,6,0,L|90:364,1,95,2|0,3:1|0:0,0:0:0:0:
376,216,21639,2,0,L|489:201,1,95,2|0,3:1|0:0,0:0:0:0:
226,156,21855,2,2,L|143:149,1,47.5,2|2,3:2|3:2,0:0:0:0:
375,87,21963,2,2,L|299:87,1,47.5,2|2,3:2|3:2,0:0:0:0:
120,48,22072,6,0,L|7:60,1,95,6|0,3:1|0:0,0:0:0:0:
236,170,22288,2,0,L|245:272,1,95,2|0,3:1|0:0,0:0:0:0:
455,326,22505,1,2,3:1:0:0:
249,354,22613,1,2,0:1:0:0:
35,289,22722,2,0,L|160:265,1,95,2|0,3:1|0:0,0:0:0:0:
338,251,22938,1,0,3:0:0:0:
125,248,23046,2,0,L|229:206,1,95,2|0,0:1|3:0,0:0:0:0:
418,192,23263,1,0,0:0:0:0:
136,121,23371,6,0,L|15:118,1,95,6|0,3:1|0:0,0:0:0:0:
280,71,23588,1,2,0:2:0:0:
35,38,23696,1,2,3:1:0:0:
280,71,23805,2,2,L|301:28,2,47.5,2|2|2,0:3|0:3|0:3,0:0:0:0:
229,86,23967,1,2,0:3:0:0:
432,143,24021,5,6,3:1:0:0:
479,103,24129,1,2,0:0:0:0:
432,143,24238,1,2,0:0:0:0:
216,276,24346,2,0,L|330:279,1,95,2|2,3:1|0:0,0:0:0:0:
107,361,24563,1,2,0:0:0:0:
357,372,24671,6,0,L|489:365,1,95,6|0,3:1|0:0,0:0:0:0:
225,370,24888,2,0,L|211:236,1,95,2|0,3:1|0:0,0:0:0:0:
450,250,25104,2,0,L|462:137,1,95,2|0,3:1|0:0,0:0:0:0:
215,129,25321,6,0,L|100:129,1,95,2|0,3:1|0:0,0:0:0:0:
327,73,25537,1,2,3:1:0:0:
112,104,25646,2,0,L|1:104,1,95,2|0,0:1|3:0,0:0:0:0:
243,218,25862,1,0,0:0:0:0:
17,104,25971,6,0,L|123:97,1,95,6|0,3:1|0:0,0:0:0:0:
333,31,26187,2,2,L|283:58,1,47.5,2|2,3:1|0:2,0:0:0:0:
234,83,26296,2,2,L|286:90,1,47.5,2|2,0:2|0:2,0:0:0:0:
463,155,26404,2,0,L|471:28,1,95,2|0,3:1|0:0,0:0:0:0:
216,239,26620,6,0,L|104:238,1,95,6|0,3:1|0:0,0:0:0:0:
395,346,26837,2,0,L|499:336,1,95,6|0,3:1|0:0,0:0:0:0:
261,356,27054,2,8,L|250:235,1,95,8|8,0:2|0:2,0:0:0:0:
21,175,27270,6,0,L|143:161,1,95,6|0,3:1|0:0,0:0:0:0:
330,67,27487,2,0,L|219:70,1,95,2|0,3:1|0:0,0:0:0:0:
459,168,27703,2,0,L|350:166,1,95,2|0,3:1|0:0,0:0:0:0:
161,278,27920,2,0,L|276:278,1,95,2|0,3:1|0:0,0:0:0:0:
42,347,28137,2,2,L|10:290,2,47.5,2|2|2,3:1|0:2|0:2,0:0:0:0:
93,352,28299,1,2,0:2:0:0:
263,363,28353,2,2,L|318:363,1,47.5,2|0,3:1|0:2,0:0:0:0:
123,196,28462,2,2,L|115:131,1,47.5,2|2,0:2|0:2,0:0:0:0:
322,139,28570,6,0,L|317:72,1,47.5,6|0,3:1|0:0,0:0:0:0:
255,90,28678,2,2,L|243:28,1,47.5,2|2,0:2|0:2,0:0:0:0:
444,68,28787,2,2,L|420:128,1,47.5,2|2,3:1|0:2,0:0:0:0:
270,199,28895,2,2,L|222:240,1,47.5,2|2,0:2|0:2,0:0:0:0:
451,277,29003,2,2,L|392:323,1,47.5,2|2,3:1|0:2,0:0:0:0:
251,355,29111,2,2,L|176:367,1,47.5,2|2,0:2|0:2,0:0:0:0:
21,286,29220,5,6,3:2:0:0:
265,261,29328,1,0,3:0:0:0:
21,286,29436,2,0,L|19:84,1,190,8|4,3:1|0:2,0:0:0:0:
444,68,29870,5,4,3:3:0:0:
444,68,30303,1,2,0:0:0:0:
257,93,30519,1,2,0:0:0:0:
444,68,30736,1,2,0:0:0:0:
266,197,30953,1,2,0:0:0:0:
88,304,31169,6,0,P|59:235|255:51,1,380,2|2,0:3|0:0,0:0:0:0:
52,35,31819,1,2,0:0:0:0:
164,30,32036,1,2,0:0:0:0:
52,35,32252,1,2,0:0:0:0:
263,31,32469,6,0,P|286:118|75:316,1,380,2|2,0:3|0:0,0:0:0:0:
286,26,33119,6,0,B|288:146|288:146|286:28|286:28|294:151|294:151|288:43|288:43|294:150|294:150|291:52|291:52|299:310|299:310|421:115|421:115|187:97|187:97|147:-33|147:-33|76:142|76:142|103:333|103:333|142:162|142:162|176:296|176:296|225:176,1,2327.50002219677,2|2,0:3|0:2,0:0:0:0:
399,199,34418,5,2,0:3:0:0:
418,152,34472,1,2,0:0:0:0:
399,199,34526,1,2,0:0:0:0:
357,82,34580,1,2,0:0:0:0:
307,73,34635,2,2,L|241:67,1,47.5,2|2,0:0|0:0,0:0:0:0:
307,73,34743,2,2,L|374:60,1,47.5,2|2,0:1|0:0,0:0:0:0:
185,172,34852,2,2,L|113:175,1,47.5,2|2,0:1|0:0,0:0:0:0:
332,289,34960,2,2,L|390:289,1,47.5,2|2,0:1|0:0,0:0:0:0:
141,352,35068,6,0,L|32:345,1,95,6|0,3:1|0:0,0:0:0:0:
253,357,35285,2,0,L|260:241,1,95,2|0,3:1|0:0,0:0:0:0:
38,226,35501,2,0,L|31:118,1,95,2|0,3:1|0:0,0:0:0:0:
251,75,35718,6,0,L|134:73,1,95,2|0,3:1|0:0,0:0:0:0:
381,162,35935,2,0,L|516:169,1,95,2|0,3:1|0:0,0:0:0:0:
254,295,36151,2,0,L|245:189,1,95,2|0,3:1|0:0,0:0:0:0:
475,253,36368,6,0,L|479:144,1,95,2|0,3:1|0:0,0:0:0:0:
277,126,36584,1,0,3:0:0:0:
476,124,36693,2,0,L|389:68,1,95,2|0,0:1|3:0,0:0:0:0:
197,52,36909,1,0,0:0:0:0:
393,48,37018,6,0,L|497:37,1,95,2|0,3:1|0:0,0:0:0:0:
264,180,37234,2,0,L|392:183,1,95,2|0,3:1|0:0,0:0:0:0:
145,274,37451,2,0,L|88:271,1,47.5,2|0,3:1|3:0,0:0:0:0:
274,346,37559,2,0,L|322:342,1,47.5,0|0,3:0|3:0,0:0:0:0:
140,364,37667,6,0,L|19:360,1,95,2|0,3:1|0:0,0:0:0:0:
262,336,37884,2,0,L|271:226,1,95,2|0,3:1|0:0,0:0:0:0:
48,229,38101,2,0,L|34:111,1,95,2|0,3:1|0:0,0:0:0:0:
252,89,38317,6,0,L|126:77,1,95,2|0,3:1|0:0,0:0:0:0:
374,147,38534,2,0,L|493:138,1,95,2|0,3:1|0:0,0:0:0:0:
248,242,38750,2,0,L|237:138,1,95,2|0,3:1|0:0,0:0:0:0:
469,270,38967,6,0,L|476:148,1,95,2|0,3:1|0:0,0:0:0:0:
265,330,39184,2,0,L|258:192,1,95,2|0,3:1|0:0,0:0:0:0:
53,222,39400,2,0,L|41:121,1,95,2|0,3:1|0:0,0:0:0:0:
266,69,39617,6,0,L|377:59,1,95,2|0,3:1|0:0,0:0:0:0:
129,22,39833,2,0,L|127:129,1,95,2|0,3:1|0:0,0:0:0:0:
383,169,40050,2,2,L|395:235,3,47.5,2|2|2|2,0:3|0:3|0:3|0:3,0:0:0:0:
176,286,40267,6,0,L|76:294,1,95,6|0,3:1|0:0,0:0:0:0:
326,355,40483,2,0,L|222:347,1,95,2|0,3:1|0:0,0:0:0:0:
119,347,40700,2,8,L|108:216,1,95,8|8,0:1|0:1,0:0:0:0:
350,262,40916,5,8,0:1:0:0:
261,238,41024,1,0,0:0:0:0:
221,156,41133,1,2,0:3:0:0:
259,71,41240,1,0,0:0:0:0:
353,51,41350,1,8,0:1:0:0:
241,35,41458,1,8,0:1:0:0:
479,33,41566,6,0,L|485:148,1,95,6|0,3:1|0:0,0:0:0:0:
265,221,41783,1,6,3:1:0:0:
483,127,41891,2,0,L|370:141,1,95,2|8,0:2|0:1,0:0:0:0:
483,127,42108,1,8,0:1:0:0:
268,96,42216,6,0,L|156:91,1,95,8|2,0:1|0:0,0:0:0:0:
288,175,42433,2,2,L|186:173,1,95,2|2,0:3|0:0,0:0:0:0:
61,254,42649,2,8,L|119:268,1,47.5,8|8,0:1|0:1,0:0:0:0:
280,326,42758,2,8,L|341:323,1,47.5,8|8,0:1|0:1,0:0:0:0:
137,364,42866,6,0,L|12:349,1,95,6|0,3:1|0:0,0:0:0:0:
267,351,43083,2,0,L|273:239,1,95,2|0,3:1|0:0,0:0:0:0:
45,228,43299,2,0,L|38:169,3,47.5,8|8|8|8,0:1|0:1|0:1|0:1,0:0:0:0:
227,40,43516,5,8,0:1:0:0:
316,64,43624,1,0,0:0:0:0:
356,146,43732,1,2,0:3:0:0:
318,231,43840,1,0,0:0:0:0:
224,251,43949,1,8,0:1:0:0:
329,266,44058,1,8,0:1:0:0:
114,326,44166,6,0,L|2:316,1,95,6|0,3:1|0:0,0:0:0:0:
224,355,44382,1,6,3:1:0:0:
19,317,44490,1,8,0:1:0:0:
115,296,44599,2,2,L|116:222,1,47.5,8|2,0:1|0:2,0:2:0:0:
52,242,44707,2,0,L|46:171,1,47.5,8|8,0:1|0:1,0:0:0:0:
221,162,44815,6,0,L|342:146,1,95,8|2,0:1|0:0,0:0:0:0:
205,81,45032,2,0,L|179:33,2,47.5,8|8|8,0:3|0:3|0:3,0:0:0:0:
450,208,45249,2,0,L|385:225,1,47.5,8|8,3:1|3:1,0:0:0:0:
216,269,45357,2,0,L|145:270,1,47.5,8|8,3:1|3:1,0:0:0:0:
375,331,45465,6,0,L|508:342,1,95,6|0,3:1|0:0,0:0:0:0:
246,359,45682,1,0,3:0:0:0:
24,269,45790,1,2,0:1:0:0:
121,261,45898,2,0,L|146:206,2,47.5,2|2|2,3:2|0:2|0:2,0:0:0:0:
68,275,46061,1,2,0:2:0:0:
256,233,46115,6,0,L|344:225,1,47.5,8|8,0:1|0:1,0:0:0:0:
144,138,46223,2,0,L|85:135,1,47.5,8|8,0:1|0:1,0:0:0:0:
296,159,46332,2,0,L|360:155,1,47.5,8|8,0:1|0:1,0:0:0:0:
168,72,46440,2,0,L|95:64,1,47.5,8|8,0:1|0:1,0:0:0:0:
333,88,46548,2,0,L|397:82,1,47.5,8|8,0:1|0:1,0:0:0:0:
193,4,46657,2,0,L|126:2,1,47.5,8|8,0:1|0:1,0:0:0:0:
368,20,46765,6,0,L|479:20,1,95,6|0,3:1|0:0,0:0:0:0:
242,108,46981,1,0,3:1:0:0:
463,20,47090,1,2,0:1:0:0:
418,30,47144,1,2,0:2:0:0:
399,72,47198,1,2,3:2:0:0:
421,112,47252,1,2,0:2:0:0:
466,120,47306,2,0,L|381:126,1,47.5,2|2,0:2|0:2,0:0:0:0:
232,137,47415,6,0,L|144:145,1,47.5,8|8,0:1|0:1,0:0:0:0:
344,232,47523,2,0,L|403:235,1,47.5,8|8,0:1|0:1,0:0:0:0:
192,211,47632,2,0,L|128:215,1,47.5,8|8,0:1|0:1,0:0:0:0:
320,298,47740,2,0,L|393:306,1,47.5,8|8,0:1|0:1,0:0:0:0:
155,282,47848,2,0,L|91:288,1,47.5,8|8,0:1|0:1,0:0:0:0:
295,366,47957,2,0,L|362:368,1,47.5,8|8,0:1|0:1,0:0:0:0:
122,355,48065,6,0,L|3:351,1,95,6|0,3:1|3:0,0:0:0:0:
244,287,48281,1,2,3:1:0:0:
27,351,48389,1,0,3:0:0:0:
244,287,48498,2,0,L|303:278,1,47.5,2|0,3:1|0:0,0:0:0:0:
244,287,48606,2,0,L|173:288,1,47.5,2|2,3:2|0:2,0:0:0:0:
386,258,48714,5,6,3:1:0:0:
431,250,48768,1,2,0:2:0:0:
450,208,48822,1,2,3:2:0:0:
428,169,48876,1,2,0:2:0:0:
383,163,48930,1,2,3:1:0:0:
173,168,49039,1,0,3:0:0:0:
383,163,49148,1,2,3:1:0:0:
173,168,49256,1,0,3:0:0:0:
404,115,49364,6,0,L|479:107,1,47.5,6|0,3:1|3:0,0:0:0:0:
284,73,49472,2,0,L|221:71,1,47.5,0|0,3:0|3:0,0:0:0:0:
63,31,49581,2,0,L|128:25,1,47.5,2|0,3:1|3:0,0:0:0:0:
289,92,49689,2,0,L|225:96,1,47.5,0|0,3:0|3:0,0:0:0:0:
60,209,49797,1,2,3:1:0:0:
187,248,49852,1,0,3:0:0:0:
381,328,49906,1,0,3:0:0:0:
254,367,49961,1,0,3:0:0:0:
61,366,50014,6,0,B|61:224|61:224|176:137|176:137|176:-3|176:-3|58:78|58:78|58:224,1,712.500027179719,4|0,3:3|0:1,0:0:0:0:
367,236,50664,6,0,B|129:229|129:229|217:5,1,475,6|0,3:1|3:0,0:0:0:0:
48,50,50989,2,0,B|286:57|286:57|198:281,1,475,2|0,0:1|0:0,0:0:0:0:
376,56,51314,6,0,L|449:56,1,47.5,6|0,3:2|0:0,0:0:0:0:
257,125,51422,1,2,0:1:0:0:
212,136,51476,1,2,0:2:0:0:
192,177,51530,1,2,3:2:0:0:
211,218,51584,1,2,0:2:0:0:
257,125,51639,2,0,L|333:125,1,47.5,2|2,0:1|0:2,0:0:0:0:
140,296,51747,2,0,L|92:290,1,47.5,2|2,3:1|0:0,0:0:0:0:
257,125,51855,2,0,L|304:125,1,47.5,2|2,0:1|0:0,0:0:0:0:
458,136,51963,6,0,B|220:143|220:143|308:367,1,475,6|0,3:1|3:0,0:0:0:0:
128,336,52288,2,0,B|366:329|366:329|278:105,1,475,2|0,0:1|0:0,0:0:0:0:
45,36,52613,5,6,3:2:0:0:
92,45,52667,1,2,0:2:0:0:
114,87,52721,1,2,0:2:0:0:
91,127,52775,1,2,0:2:0:0:
45,36,52830,2,0,L|99:30,1,47.5,2|2,3:1|0:2,0:0:0:0:
253,109,52938,2,0,L|303:103,1,47.5,2|2,0:1|0:2,0:0:0:0:
148,228,53046,2,0,L|216:225,1,47.5,2|2,3:1|0:2,0:0:0:0:
369,271,53155,2,0,L|416:274,1,47.5,2|2,0:1|0:2,0:0:0:0:
253,109,53263,6,0,B|15:116|15:116|103:340,1,475,6|0,3:1|3:0,0:0:0:0:
212,343,53534,1,0,3:0:0:0:
323,344,53588,2,0,B|85:337|85:337|173:113,1,475,2|0,3:1|0:0,0:0:0:0:
414,57,53913,6,0,L|376:100,1,47.5,6|2,3:1|0:2,0:0:0:0:
246,157,54021,2,0,L|187:183,1,47.5,2|2,0:2|0:2,0:0:0:0:
391,204,54129,2,0,L|326:228,1,47.5,2|2,3:1|0:2,0:0:0:0:
203,269,54238,2,0,L|141:275,1,47.5,2|2,0:2|0:2,0:0:0:0:
339,347,54346,1,2,3:1:0:0:
390,349,54400,2,0,L|413:300,2,47.5,2|2|2,0:2|0:2|0:2,0:0:0:0:
206,373,54563,6,0,B|165:262|165:262|327:216,1,237.5,6|0,3:1|3:0,0:0:0:0:
74,229,54888,2,0,B|33:118|33:118|195:72,1,237.5,2|0,3:1|0:0,0:0:0:0:
422,302,55213,6,0,L|311:324,1,95,2|0,3:1|0:0,0:0:0:0:
37,330,55429,1,2,3:1:0:0:
242,358,55537,1,2,3:1:0:0:
452,214,55646,2,0,L|339:210,1,95,2|0,3:1|0:0,0:0:0:0:
43,212,55862,6,0,L|31:101,1,95,6|0,3:1|0:0,0:0:0:0:
245,127,56079,2,0,L|253:21,1,95,2|0,3:1|0:0,0:0:0:0:
473,47,56296,2,0,L|369:64,1,95,2|0,3:1|0:0,0:0:0:0:
149,82,56512,5,2,3:1:0:0:
194,88,56566,1,2,0:2:0:0:
215,128,56620,1,2,0:2:0:0:
194,168,56674,1,2,0:2:0:0:
148,174,56729,2,0,L|90:173,1,47.5,2|2,3:1|0:2,0:0:0:0:
276,258,56837,2,0,L|336:264,1,47.5,2|2,0:2|0:2,0:0:0:0:
129,336,56945,2,0,L|19:350,1,95,2|0,3:1|3:0,0:0:0:0:
311,366,57162,6,0,B|67:271|67:271|134:3,1,522.500004982948,6|0,3:1|3:0,0:0:0:0:
373,267,57487,6,0,B|149:183|149:183|180:70|180:70|217:188,1,475,6|0,3:1|3:0,0:0:0:0:
434,162,57812,6,0,B|239:44|239:44|259:160|259:160|317:48,1,455.999986083985,6|0,3:1|3:0,0:0:0:0:
127,326,58137,5,2,3:1:0:0:
145,258,58191,1,2,0:0:0:0:
184,201,58245,1,2,0:0:0:0:
239,162,58299,1,2,0:0:0:0:
303,146,58353,1,2,3:1:0:0:
44,208,58462,6,0,L|32:75,1,95,6|0,3:1|0:0,0:0:0:0:
254,50,58678,2,0,L|307:51,1,47.5,2|2,3:1|0:0,0:0:0:0:
252,67,58787,2,0,L|184:83,1,47.5,2|2,0:0|0:0,0:0:0:0:
397,212,58895,2,0,L|507:221,1,95,2|0,3:1|0:0,0:0:0:0:
264,335,59111,6,0,L|259:233,1,95,2|0,3:1|0:0,0:0:0:0:
488,176,59328,2,0,L|379:170,1,95,2|0,3:1|0:0,0:0:0:0:
173,142,59545,1,2,3:1:0:0:
393,170,59653,1,0,0:0:0:0:
149,172,59761,6,0,L|34:171,1,95,6|0,3:1|0:0,0:0:0:0:
285,237,59978,1,2,3:1:0:0:
49,89,60086,1,2,0:1:0:0:
141,47,60194,2,0,L|207:44,1,47.5,0|0,3:0|3:0,0:0:0:0:
375,155,60303,2,0,L|312:151,1,47.5,0|0,3:0|3:0,0:0:0:0:
137,242,60411,6,0,L|126:320,1,47.5,2|0,3:1|3:0,0:0:0:0:
319,294,60519,2,0,L|328:357,1,47.5,0|0,3:0|3:0,0:0:0:0:
131,367,60628,2,0,L|20:358,1,95,2|0,3:1|0:0,0:0:0:0:
157,352,60844,2,0,L|168:248,1,95,6|0,0:2|0:0,0:0:0:0:
419,218,61061,6,0,L|341:202,1,47.5,14|0,3:2|3:2,0:0:0:0:
232,157,61169,2,0,L|142:146,1,47.5,0|0,3:2|3:2,0:0:0:0:
40,71,61278,2,0,L|104:56,1,47.5,10|0,3:2|3:2,0:0:0:0:
257,67,61386,2,0,L|262:153,1,47.5,0|0,3:2|3:2,0:0:0:0:
101,185,61494,2,0,L|28:196,1,47.5,10|0,3:2|3:2,0:0:0:0:
208,258,61602,2,0,L|286:260,1,47.5,0|0,3:2|3:2,0:0:0:0:
106,371,61711,6,0,L|99:286,1,47.5,10|0,3:2|3:2,0:0:0:0:
248,307,61819,2,0,L|258:250,1,47.5,0|0,3:2|3:2,0:0:0:0:
403,243,61927,2,0,L|474:233,1,47.5,10|0,3:2|3:2,0:0:0:0:
288,161,62036,2,0,L|226:159,1,47.5,0|0,3:2|3:2,0:0:0:0:
399,126,62144,2,0,L|470:121,1,47.5,10|0,3:2|3:2,0:0:0:0:
302,225,62252,2,0,L|289:155,1,47.5,0|0,3:2|3:2,0:0:0:0:
143,143,62361,6,0,L|61:136,1,47.5,10|0,3:2|3:2,0:0:0:0:
242,33,62469,2,0,L|257:114,1,47.5,0|0,3:2|3:2,0:0:0:0:
103,43,62577,2,0,L|33:47,1,47.5,10|0,3:2|3:2,0:0:0:0:
230,156,62685,2,0,L|240:225,1,47.5,0|0,3:2|3:2,0:0:0:0:
103,226,62794,2,0,L|38:228,1,47.5,10|0,3:2|3:2,0:0:0:0:
221,300,62902,2,0,L|232:361,1,47.5,0|0,3:2|3:2,0:0:0:0:
73,364,63010,6,0,L|0:355,1,47.5,10|2,3:2|3:2,0:0:0:0:
157,321,63119,1,2,3:2:0:0:
287,314,63173,1,2,3:2:0:0:
155,287,63227,2,0,L|84:282,1,47.5,10|2,3:2|3:2,0:0:0:0:
236,244,63335,1,2,3:2:0:0:
366,241,63389,1,2,3:2:0:0:
228,213,63444,2,0,L|174:218,1,47.5,10|2,3:2|3:2,0:0:0:0:
59,207,63552,1,2,3:2:0:0:
180,217,63606,1,2,3:2:0:0:
307,201,63660,6,0,L|316:132,1,47.5,14|0,3:2|3:2,0:0:0:0:
172,108,63768,2,0,L|161:52,1,47.5,0|0,3:2|3:2,0:0:0:0:
295,36,63877,2,0,L|351:36,1,47.5,10|0,3:2|3:2,0:0:0:0:
191,149,63985,2,0,L|109:166,1,47.5,4|0,3:2|3:2,0:0:0:0:
292,222,64093,2,0,L|300:285,1,47.5,10|0,3:2|3:2,0:0:0:0:
448,295,64202,2,0,L|464:360,1,47.5,0|0,3:2|3:2,0:0:0:0:
294,365,64310,6,0,L|216:360,1,47.5,10|2,3:2|3:2,0:0:0:0:
364,320,64418,1,2,3:2:0:0:
482,308,64472,1,2,3:2:0:0:
339,288,64527,2,0,L|277:286,1,47.5,10|2,3:2|3:2,0:0:0:0:
146,228,64635,2,0,L|209:216,1,47.5,2|2,3:2|3:2,0:0:0:0:
319,180,64743,1,10,3:2:0:0:
185,164,64797,1,2,3:2:0:0:
48,120,64852,2,0,L|119:115,1,47.5,2|2,3:2|3:2,0:0:0:0:
265,32,64960,6,0,L|205:27,1,47.5,14|0,3:2|3:2,0:0:0:0:
56,65,65068,2,0,L|42:139,1,47.5,0|0,3:2|3:2,0:0:0:0:
194,161,65176,2,0,L|200:213,1,47.5,10|0,3:2|3:2,0:0:0:0:
349,260,65285,2,0,L|362:308,1,47.5,4|0,3:2|3:2,0:0:0:0:
182,347,65393,2,0,L|91:358,1,47.5,10|0,3:2|3:2,0:0:0:0:
283,370,65501,2,0,L|286:316,1,47.5,0|0,3:2|3:2,0:0:0:0:
132,264,65610,5,14,3:2:0:0:
260,229,65664,1,0,3:2:0:0:
388,207,65718,2,0,L|443:206,1,47.5,0|0,3:2|3:2,0:0:0:0:
244,141,65826,2,0,L|147:142,1,95,14|0,3:2|3:0,0:0:0:0:
402,66,66043,2,0,L|508:64,1,95,6|0,0:2|0:0,0:0:0:0:
195,33,66259,5,4,3:1:0:0:
312,62,66314,1,0,3:0:0:0:
430,76,66368,1,0,3:0:0:0:
310,101,66422,1,0,3:0:0:0:
185,118,66476,1,0,3:0:0:0:
307,148,66530,1,0,3:0:0:0:
434,169,66584,1,0,3:0:0:0:
304,195,66639,1,0,3:0:0:0:
178,216,66693,1,0,3:0:0:0:
302,239,66747,1,0,3:0:0:0:
441,262,66801,1,0,3:0:0:0:
298,287,66855,1,0,3:0:0:0:
168,313,66909,6,0,L|243:330,1,47.5,12|0,3:2|0:2,0:0:0:0:
448,365,67018,2,0,L|384:378,1,47.5,0|0,3:2|0:2,0:0:0:0:
240,361,67126,2,0,L|171:364,1,47.5,12|0,3:2|0:2,0:0:0:0:
31,255,67234,2,0,L|87:247,1,47.5,0|0,3:2|0:2,0:0:0:0:
273,210,67342,2,0,L|295:160,2,47.5,12|0|0,3:2|0:2|3:2,0:0:0:0:
221,223,67505,1,0,0:2:0:0:
42,46,67559,5,4,3:1:0:0:
161,75,67614,1,0,3:0:0:0:
280,95,67668,1,0,3:0:0:0:
159,115,67722,1,0,3:0:0:0:
35,129,67776,1,0,3:0:0:0:
162,155,67830,1,0,3:0:0:0:
289,184,67884,1,0,3:0:0:0:
158,195,67939,1,0,3:0:0:0:
23,213,67993,1,0,3:0:0:0:
162,235,68047,1,0,3:0:0:0:
302,276,68101,1,0,3:0:0:0:
442,299,68155,1,0,3:0:0:0:
254,355,68209,5,4,3:0:0:0:
186,337,68317,2,0,L|152:276,1,47.5,2|2,0:0|0:0,0:0:0:0:
186,337,68426,2,0,L|384:310,1,190,2|6,0:0|0:2,0:0:0:0:
28,224,68859,6,0,L|217:195,1,190,6|2,3:1|0:2,0:0:0:0:
213,13,69089,6,0,P|148:26|312:338,1,656.687479959489,0|2,0:0|0:0,0:0:0:0:
311,338,70172,2,0,L|138:195,1,213.749993476868,0|2,0:0|0:0,0:0:0:0:
143,15,70389,6,0,P|265:14|315:238,1,390.687488077164,0|2,0:0|0:0,0:0:0:0:
121,344,71241,1,2,0:0:0:0:
467,118,71458,6,0,L|278:147,1,190,4|2,3:1|0:0,0:0:0:0:
282,329,71688,6,0,P|347:316|183:4,1,656.687479959489,0|2,0:0|0:0,0:0:0:0:
184,4,72771,2,0,L|357:147,1,213.749993476868,0|2,0:0|0:0,0:0:0:0:
352,327,72988,6,0,P|230:328|99:283,1,257.687492136002,0|2,0:0|0:0,0:0:0:0:
227,148,73624,1,2,0:0:0:0:
92,58,73841,1,2,0:0:0:0:
452,69,74057,5,14,3:1:0:0:
302,56,74274,1,2,0:0:0:0:
294,150,74382,1,2,0:0:0:0:
286,245,74490,1,2,0:0:0:0:
278,340,74598,1,2,0:0:0:0:
149,366,74707,1,4,0:0:0:0:
283,291,74924,1,2,0:0:0:0:
127,228,75140,1,2,0:0:0:0:
459,183,75357,5,4,3:0:0:0:
300,186,75574,1,0,0:0:0:0:
323,118,75682,1,2,0:0:0:0:
300,186,75790,1,2,0:0:0:0:
323,118,75898,1,2,0:0:0:0:
449,83,76007,1,4,0:0:0:0:
315,26,76223,1,2,0:0:0:0:
483,222,76440,1,2,0:0:0:0:
68,333,76657,5,4,3:0:0:0:
203,359,76873,1,2,0:0:0:0:
212,264,76981,1,2,0:0:0:0:
221,169,77089,1,2,0:0:0:0:
231,75,77197,1,2,0:0:0:0:
360,53,77306,1,4,0:0:0:0:
175,21,77523,1,2,0:0:0:0:
373,180,77740,1,2,0:0:0:0:
41,281,77956,5,12,3:0:0:0:
200,309,78173,1,2,0:0:0:0:
177,241,78281,1,2,0:0:0:0:
200,309,78389,1,2,0:0:0:0:
177,241,78497,1,2,0:0:0:0:
47,200,78606,5,6,0:0:0:0:
136,178,78714,1,2,0:0:0:0:
172,94,78822,1,2,0:0:0:0:
128,14,78930,1,2,0:0:0:0:
37,2,79039,1,2,0:0:0:0:
142,41,79148,1,2,0:0:0:0:
398,222,79256,6,0,L|289:244,1,95,12|0,3:0|0:0,0:0:0:0:
418,307,79472,2,0,L|433:180,1,95,2|0,3:2|0:0,0:0:0:0:
308,165,79689,2,0,L|297:58,1,95,2|0,3:2|0:0,0:0:0:0:
82,37,79906,2,0,L|184:45,1,95,2|0,3:2|0:2,0:0:0:0:
69,122,80122,2,0,L|56:232,1,95,2|0,3:2|0:2,0:0:0:0:
170,255,80339,2,0,L|59:281,1,95,2|0,3:2|0:2,0:0:0:0:
310,345,80555,6,0,L|428:326,1,95,2|0,3:2|0:2,0:0:0:0:
291,316,80772,2,0,L|279:198,1,95,2|0,3:2|0:2,0:0:0:0:
396,185,80989,2,0,L|294:180,1,95,2|0,3:2|0:2,0:0:0:0:
90,134,81205,6,0,L|137:103,1,47.5,2|0,3:2|0:2,0:0:0:0:
181,97,81314,1,2,0:2:0:0:
72,57,81422,1,2,3:2:0:0:
183,62,81530,1,0,0:2:0:0:
299,78,81639,1,2,3:2:0:0:
184,141,81747,1,0,0:2:0:0:
419,180,81855,6,0,L|432:301,1,95,2|0,3:2|0:2,0:0:0:0:
321,307,82072,2,0,L|428:320,1,95,2|0,3:2|0:2,0:0:0:0:
305,230,82288,2,0,L|184:245,1,95,2|0,3:2|0:2,0:0:0:0:
423,351,82505,6,0,L|430:246,1,95,2|0,3:2|0:2,0:0:0:0:
309,267,82722,2,0,L|298:162,1,95,2|0,3:2|0:2,0:0:0:0:
179,131,82938,2,0,L|309:112,1,95,2|0,3:2|0:2,0:0:0:0:
33,22,83155,5,2,3:2:0:0:
78,25,83209,1,2,0:2:0:0:
100,65,83263,1,2,0:2:0:0:
80,105,83317,1,2,0:2:0:0:
34,111,83371,1,2,3:2:0:0:
139,151,83480,1,0,0:2:0:0:
33,218,83588,1,2,3:2:0:0:
144,179,83696,1,0,0:2:0:0:
380,117,83805,5,2,3:2:0:0:
289,127,83913,1,2,0:2:0:0:
247,209,84021,1,2,3:2:0:0:
291,288,84129,1,2,0:2:0:0:
382,296,84238,2,0,L|437:301,1,47.5,2|2,3:2|3:2,0:0:0:0:
248,358,84346,2,0,L|188:366,1,47.5,2|2,3:2|3:2,0:0:0:0:
398,205,84454,6,0,L|523:195,1,95,6|0,1:1|0:2,0:0:0:0:
269,190,84671,1,2,1:2:0:0:
268,173,84779,1,0,0:2:0:0:
267,156,84888,1,10,0:1:0:0:
70,125,84996,1,10,0:1:0:0:
269,71,85104,6,0,L|154:63,1,95,2|0,1:1|0:2,0:0:0:0:
406,64,85321,1,2,1:1:0:0:
407,81,85429,1,0,0:2:0:0:
408,98,85538,1,10,0:1:0:0:
195,188,85646,1,10,0:1:0:0:
417,226,85754,6,0,L|310:242,1,95,6|0,1:1|0:2,0:0:0:0:
83,348,85971,1,2,1:1:0:0:
82,331,86079,1,0,0:2:0:0:
81,314,86188,1,10,0:1:0:0:
289,296,86296,1,10,0:1:0:0:
63,226,86404,6,0,L|128:188,1,47.5,2|0,1:1|0:1,0:0:0:0:
159,191,86512,1,0,0:1:0:0:
42,142,86620,2,0,L|34:44,1,95,2|0,1:1|0:1,0:0:0:0:
262,28,86837,2,0,L|148:35,1,95,10|8,1:1|0:1,0:0:0:0:
396,134,87054,5,6,1:1:0:0:
166,115,87162,2,0,L|152:218,1,95,2|0,1:1|0:1,0:0:0:0:
380,250,87379,2,0,L|266:300,1,95,2|8,1:1|0:1,0:0:0:0:
176,301,87595,1,10,3:1:0:0:
434,352,87703,6,0,L|439:244,1,95,6|0,1:1|0:1,0:0:0:0:
230,190,87920,1,2,1:1:0:0:
438,257,88028,1,2,3:1:0:0:
230,190,88137,2,0,L|95:180,1,95,10|8,1:1|0:1,0:0:0:0:
441,142,88353,5,6,1:1:0:0:
245,110,88462,2,0,L|238:10,1,95,10|8,3:1|0:1,0:0:0:0:
44,226,88678,1,2,1:1:0:0:
239,251,88787,2,0,L|252:349,1,95,10|8,3:1|0:1,0:0:0:0:
468,358,89003,6,0,L|352:344,1,95,6|8,1:1|0:1,0:0:0:0:
73,144,89220,1,10,1:1:0:0:
373,346,89328,1,2,3:1:0:0:
73,144,89436,2,0,L|173:133,1,95,10|8,1:1|0:1,0:0:0:0:
470,3,89653,6,0,P|294:44|487:374,1,712.500027179719,6|2,3:1|0:0,0:0:0:0:
352,367,90844,1,2,0:0:0:0:
57,13,90953,6,0,P|239:56|6:391,1,783.750029897691,6|0,0:2|0:0,0:0:0:0:
285,191,92252,5,4,3:3:0:0:
256,198,94852,5,2,1:2:0:0:
256,198,94960,1,0,0:0:0:0:
378,243,95068,1,2,1:2:0:0:
287,225,95176,1,0,0:0:0:0:
245,144,95284,1,2,0:2:0:0:
284,61,95392,1,2,0:2:0:0:
378,243,95501,5,2,0:2:0:0:
287,225,95610,1,0,0:0:0:0:
245,144,95718,1,2,0:0:0:0:
284,61,95826,1,0,0:0:0:0:
374,40,95935,1,2,0:2:0:0:
284,61,96043,1,2,0:2:0:0:
402,109,96151,5,2,1:2:0:0:
402,109,96259,1,0,0:0:0:0:
284,152,96367,1,2,1:2:0:0:
375,170,96475,1,0,0:0:0:0:
417,251,96583,1,2,0:2:0:0:
378,334,96693,1,2,0:2:0:0:
282,349,96801,6,0,L|333:325,1,47.5,2|2,0:2|0:2,0:0:0:0:
378,334,96909,1,2,0:2:0:0:
178,316,97018,2,0,L|146:254,2,47.5,2|2|2,1:0|1:0|1:0,0:0:0:0:
228,328,97180,1,2,1:0:0:0:
376,262,97234,5,10,1:2:0:0:
241,215,97288,5,10,1:2:0:0:
105,201,97342,6,0,L|35:203,1,47.5,10|10,1:2|1:2,0:0:0:0:
403,59,97667,6,0,B|167:124|167:124|402:81,4,484.499993531227,6|2|2|2|2,3:1|3:1|3:1|3:1|3:1,0:0:0:0:
288,39,98642,1,2,3:1:0:0:
61,367,98750,6,0,B|288:282|288:282|288:34,1,484.499993531227,6|0,3:1|3:0,0:0:0:0:
65,195,99075,5,6,3:1:0:0:
134,182,99129,1,2,0:2:0:0:
202,169,99183,1,2,0:2:0:0:
204,99,99237,1,2,0:2:0:0:
204,28,99291,1,2,3:2:0:0:
438,189,99400,5,6,3:1:0:0:
375,202,99454,1,2,0:2:0:0:
313,215,99508,1,2,0:2:0:0:
311,285,99562,1,2,0:2:0:0:
311,356,99616,1,2,3:2:0:0:
83,189,99725,5,6,3:1:0:0:
139,202,99779,1,2,0:2:0:0:
193,215,99833,1,2,0:2:0:0:
195,285,99887,1,2,0:2:0:0:
195,356,99941,1,2,3:2:0:0:
455,304,100050,6,0,L|352:304,1,95,6|0,3:1|0:0,0:0:0:0:
149,304,100267,1,2,3:1:0:0:
360,304,100375,1,0,0:0:0:0:
149,304,100483,2,0,L|98:303,1,47.5,2|0,3:1|0:0,0:0:0:0:
280,212,100592,2,0,L|335:211,1,47.5,2|0,3:1|0:0,0:0:0:0:
142,189,100700,5,2,3:1:0:0:
188,187,100754,1,2,0:2:0:0:
211,148,100808,1,2,0:2:0:0:
190,108,100862,1,2,0:2:0:0:
145,104,100916,2,0,L|87:104,1,47.5,2|2,3:1|0:2,0:0:0:0:
275,90,101025,2,0,L|322:91,1,47.5,2|2,0:2|0:2,0:0:0:0:
128,59,101133,2,0,L|64:58,1,47.5,2|2,3:1|0:2,0:0:0:0:
285,56,101241,2,0,L|338:53,1,47.5,2|2,3:1|0:2,0:0:0:0:
112,13,101350,6,0,L|6:20,1,95,6|0,3:1|0:0,0:0:0:0:
235,149,101566,2,0,L|306:151,1,47.5,0|0,3:2|0:0,0:0:0:0:
97,272,101675,2,0,L|191:265,1,95,2|0,3:1|0:0,0:0:0:0:
409,315,101891,1,0,3:2:0:0:
202,277,102000,6,0,L|274:261,1,47.5,2|2,3:1|0:2,0:0:0:0:
300,267,102108,1,2,0:2:0:0:
121,183,102216,2,0,L|-20:178,1,95,2|0,3:1|0:0,0:0:0:0:
273,105,102433,2,0,L|159:110,1,95,2|0,3:1|0:0,0:0:0:0:
428,32,102649,6,0,L|437:148,1,95,2|0,3:1|0:0,0:0:0:0:
228,198,102866,1,0,3:0:0:0:
443,221,102974,2,0,L|449:334,1,95,2|0,3:1|0:0,0:0:0:0:
229,363,103191,1,0,3:0:0:0:
449,359,103299,6,0,L|335:358,1,95,2|0,3:1|0:0,0:0:0:0:
106,275,103516,2,0,L|181:276,1,47.5,2|2,3:1|0:2,0:0:0:0:
344,202,103624,2,0,L|285:204,1,47.5,2|2,0:2|0:2,0:0:0:0:
110,164,103732,1,2,3:1:0:0:
56,164,103787,2,0,L|30:112,2,47.5,2|2|2,0:2|0:2|0:2,0:0:0:0:
218,90,103949,6,0,L|142:92,1,47.5,6|2,3:1|0:2,0:0:0:0:
329,65,104057,1,2,3:2:0:0:
383,65,104112,2,0,L|409:13,2,47.5,2|2|2,3:2|3:2|3:2,0:0:0:0:
216,133,104274,2,0,L|285:134,1,47.5,2|2,3:1|3:2,0:0:0:0:
461,244,104382,2,0,L|377:250,1,47.5,2|2,3:2|3:2,0:0:0:0:
230,291,104490,2,0,L|156:296,1,47.5,2|2,3:2|3:2,0:0:0:0:
382,352,104599,5,2,3:1:0:0:
115,362,104707,2,0,P|92:293|317:143,1,380,8|0,3:1|0:0,0:0:0:0:
41,149,105249,6,0,L|36:72,1,47.5,4|0,3:2|3:0,0:0:0:0:
183,83,105357,2,0,L|186:23,1,47.5,0|0,3:0|3:0,0:0:0:0:
332,31,105465,2,0,L|339:91,1,47.5,0|0,3:2|3:0,0:0:0:0:
175,183,105574,2,0,L|117:190,1,47.5,0|0,3:0|3:0,0:0:0:0:
297,243,105682,2,0,L|373:241,1,47.5,0|0,3:2|3:0,0:0:0:0:
225,310,105790,1,0,3:0:0:0:
103,320,105844,1,0,3:0:0:0:
232,341,105898,6,0,L|280:344,1,47.5,4|0,3:2|3:0,0:0:0:0:
102,241,106007,2,0,L|17:241,1,47.5,0|0,3:0|3:0,0:0:0:0:
205,204,106115,2,0,L|212:128,1,47.5,0|0,3:0|3:0,0:0:0:0:
360,128,106223,2,0,L|428:122,1,47.5,0|0,3:0|3:0,0:0:0:0:
239,62,106332,2,0,L|175:64,1,47.5,0|0,3:0|3:0,0:0:0:0:
318,25,106440,1,0,3:0:0:0:
446,23,106494,1,0,3:0:0:0:
317,71,106548,6,0,L|265:78,1,47.5,4|0,3:2|3:0,0:0:0:0:
440,169,106657,2,0,L|506:175,1,47.5,0|0,3:0|3:0,0:0:0:0:
344,228,106765,2,0,L|335:296,1,47.5,0|0,3:0|3:0,0:0:0:0:
195,317,106873,2,0,L|188:243,1,47.5,0|0,3:0|3:0,0:0:0:0:
326,333,106981,2,0,L|393:337,1,47.5,0|0,3:0|3:0,0:0:0:0:
237,371,107090,1,0,3:0:0:0:
102,359,107144,1,0,3:0:0:0:
224,323,107198,6,0,L|291:312,1,47.5,4|0,3:2|3:0,0:0:0:0:
88,257,107306,2,0,L|16:249,1,47.5,0|0,3:0|3:0,0:0:0:0:
245,227,107415,1,2,3:2:0:0:
291,140,107523,1,2,0:2:0:0:
245,227,107631,1,2,0:2:0:0:
139,237,107740,1,2,0:2:0:0:
393,74,107848,6,0,L|325:66,1,47.5,4|0,3:2|3:0,0:0:0:0:
183,23,107956,2,0,L|250:15,1,47.5,0|0,3:0|3:0,0:0:0:0:
412,157,108065,2,0,L|417:227,1,47.5,0|0,3:0|3:0,0:0:0:0:
262,246,108173,2,0,L|257:306,1,47.5,0|0,3:0|3:0,0:0:0:0:
104,342,108281,2,0,L|35:354,1,47.5,0|0,3:0|3:0,0:0:0:0:
187,369,108389,1,0,3:0:0:0:
319,365,108444,1,0,3:0:0:0:
180,320,108498,6,0,L|112:318,1,47.5,4|0,3:2|3:0,0:0:0:0:
314,263,108606,2,0,L|363:261,1,47.5,0|0,3:0|3:0,0:0:0:0:
200,238,108714,2,0,L|190:150,1,47.5,0|0,3:0|3:0,0:0:0:0:
330,162,108823,2,0,L|334:92,1,47.5,0|0,3:0|3:0,0:0:0:0:
466,53,108931,2,0,L|475:135,1,47.5,0|0,3:0|3:0,0:0:0:0:
342,154,109039,1,0,3:0:0:0:
212,149,109093,1,0,3:0:0:0:
338,71,109148,6,0,L|393:77,1,47.5,4|0,3:2|3:0,0:0:0:0:
223,172,109256,2,0,L|152:180,1,47.5,0|0,3:0|3:0,0:0:0:0:
338,248,109364,2,0,L|391:244,1,47.5,0|0,3:0|3:0,0:0:0:0:
230,354,109472,2,0,L|219:272,1,47.5,0|0,3:0|3:0,0:0:0:0:
385,244,109581,2,0,L|393:189,1,47.5,0|0,3:0|3:0,0:0:0:0:
213,218,109689,2,0,L|157:222,1,47.5,0|0,3:0|3:0,0:0:0:0:
307,164,109797,1,4,3:2:0:0:
452,164,109852,1,0,3:2:0:0:
249,35,109906,5,2,3:2:0:0:
154,79,110014,1,2,0:0:0:0:
108,163,110122,1,8,0:0:0:0:
154,79,110231,1,2,0:0:0:0:
249,35,110339,1,2,0:0:0:0:
484,329,110447,6,0,L|422:334,1,47.5,12|0,3:2|3:0,0:0:0:0:
228,350,110555,2,0,L|161:350,1,47.5,0|0,3:0|3:0,0:0:0:0:
354,313,110664,2,0,L|363:237,1,47.5,8|0,3:2|3:0,0:0:0:0:
170,257,110772,2,0,L|101:258,1,47.5,0|0,3:0|3:0,0:0:0:0:
305,212,110880,2,0,L|314:142,1,47.5,8|0,3:2|3:0,0:0:0:0:
124,165,110989,2,0,L|59:167,1,47.5,0|0,3:0|3:0,0:0:0:0:
303,88,111097,6,0,L|391:82,1,47.5,12|0,3:2|3:0,0:0:0:0:
192,36,111205,2,0,L|187:88,1,47.5,0|0,3:0|3:0,0:0:0:0:
26,178,111314,2,0,L|86:182,1,47.5,8|0,3:2|3:0,0:0:0:0:
252,245,111422,2,0,L|308:245,1,47.5,0|0,3:2|3:2,0:0:0:0:
108,301,111530,2,0,L|36:312,1,47.5,8|0,3:2|3:2,0:0:0:0:
249,345,111639,2,0,L|308:353,1,47.5,0|0,3:2|3:2,0:0:0:0:
78,367,111747,6,0,L|5:366,1,47.5,12|0,3:2|3:2,0:0:0:0:
189,348,111855,2,0,L|198:277,1,47.5,0|0,3:2|3:2,0:0:0:0:
353,274,111963,2,0,L|412:268,1,47.5,8|0,3:2|3:2,0:0:0:0:
234,221,112072,2,0,L|229:142,1,47.5,0|0,3:2|3:2,0:0:0:0:
405,153,112180,2,0,L|481:147,1,47.5,8|0,3:2|3:2,0:0:0:0:
281,107,112288,2,0,L|274:46,1,47.5,0|0,3:2|3:2,0:0:0:0:
459,33,112397,5,12,3:2:0:0:
343,36,112451,1,0,3:2:0:0:
227,52,112505,2,0,L|212:120,1,47.5,0|0,3:2|3:2,0:0:0:0:
389,174,112613,2,0,L|410:249,1,47.5,8|0,3:2|3:2,0:0:0:0:
254,218,112722,2,0,L|243:283,1,47.5,0|0,3:2|3:2,0:0:0:0:
99,282,112830,2,0,L|35:286,1,47.5,8|0,3:2|3:2,0:0:0:0:
243,354,112938,2,0,L|311:360,1,47.5,0|0,3:2|3:2,0:0:0:0:
70,358,113046,6,0,L|-10:355,1,47.5,12|0,3:2|3:2,0:0:0:0:
170,335,113155,2,0,L|176:268,1,47.5,0|0,3:2|3:2,0:0:0:0:
321,276,113263,2,0,L|328:207,1,47.5,8|0,3:2|3:2,0:0:0:0:
475,190,113371,2,0,L|486:107,1,47.5,0|0,3:2|3:2,0:0:0:0:
262,106,113480,2,0,L|325:99,1,47.5,8|0,3:2|3:2,0:0:0:0:
479,59,113588,2,0,L|401:55,1,47.5,0|0,3:2|3:2,0:0:0:0:
70,358,113696,6,0,L|-10:355,1,47.5,12|0,3:2|3:2,0:0:0:0:
170,335,113805,2,0,L|176:268,1,47.5,0|0,3:2|3:2,0:0:0:0:
321,276,113913,2,0,L|328:207,1,47.5,8|0,3:2|3:2,0:0:0:0:
475,190,114021,2,0,L|482:133,1,47.5,0|0,3:2|3:2,0:0:0:0:
358,98,114129,1,8,3:2:0:0:
231,148,114184,1,0,3:2:0:0:
358,98,114238,2,0,L|415:94,1,47.5,0|0,3:2|3:2,0:0:0:0:
184,89,114346,6,0,L|124:97,1,47.5,12|0,1:2|1:2,0:0:0:0:
280,198,114454,2,0,L|350:200,1,47.5,0|0,1:2|1:2,0:0:0:0:
193,277,114563,1,8,1:2:0:0:
58,304,114617,1,0,1:2:0:0:
196,331,114671,1,0,1:2:0:0:
335,344,114725,1,0,1:2:0:0:
197,355,114779,1,8,1:2:0:0:
58,362,114833,1,0,1:2:0:0:
197,355,114888,1,0,1:2:0:0:
335,344,114942,1,0,1:2:0:0:
180,308,114996,6,0,L|76:297,1,95,2|8,3:1|0:1,0:0:0:0:
193,277,115213,1,8,0:1:0:0:
429,249,115321,2,0,L|379:228,1,47.5,8|8,0:1|0:1,0:0:0:0:
336,230,115429,1,8,0:1:0:0:
444,176,115537,1,2,3:2:0:0:
139,30,115646,5,6,3:1:0:0:
225,44,115754,1,2,0:2:0:0:
291,106,115862,1,2,0:2:0:0:
316,196,115970,1,2,0:2:0:0:
292,286,116079,1,2,0:2:0:0:
226,349,116187,1,2,0:2:0:0:
121,361,116295,5,2,0:3:0:0:
231,352,116403,1,2,0:2:0:0:
301,289,116511,1,2,0:2:0:0:
327,199,116620,1,2,0:2:0:0:
300,109,116728,1,2,0:2:0:0:
230,47,116836,1,2,0:2:0:0:
124,28,116945,5,2,0:3:0:0:
230,47,117053,1,2,0:2:0:0:
300,109,117161,1,2,0:2:0:0:
327,199,117269,1,2,0:2:0:0:
301,289,117378,1,2,0:2:0:0:
231,352,117486,1,2,0:2:0:0:
23,332,117595,6,0,L|84:297,1,47.5,2|2,0:3|0:2,0:0:0:0:
117,298,117703,1,2,0:2:0:0:
231,288,117812,1,2,0:2:0:0:
125,258,117920,1,2,0:2:0:0:
243,254,118028,1,2,0:2:0:0:
134,218,118137,1,2,0:2:0:0:
441,221,118245,6,0,L|504:210,1,47.5,6|0,3:1|3:0,0:0:0:0:
340,197,118353,2,0,L|331:128,1,47.5,0|0,3:0|3:0,0:0:0:0:
178,136,118462,2,0,L|169:73,1,47.5,2|0,3:1|3:0,0:0:0:0:
15,43,118570,2,0,L|4:115,1,47.5,0|0,3:0|3:0,0:0:0:0:
210,20,118678,2,0,L|276:27,1,47.5,2|0,3:1|3:0,0:0:0:0:
466,94,118787,2,0,L|406:102,1,47.5,2|0,3:1|3:0,0:0:0:0:
71,163,118895,6,0,L|8:174,1,47.5,6|0,3:1|3:0,0:0:0:0:
172,187,119003,2,0,L|181:256,1,47.5,0|0,3:0|3:0,0:0:0:0:
334,248,119111,2,0,L|343:311,1,47.5,2|0,3:1|3:0,0:0:0:0:
497,340,119220,2,0,L|506:272,1,47.5,0|0,3:0|3:0,0:0:0:0:
298,353,119328,2,0,L|232:346,1,47.5,2|0,3:1|3:0,0:0:0:0:
46,290,119436,2,0,L|106:282,1,47.5,2|0,3:1|3:0,0:0:0:0:
334,248,119545,5,6,3:1:0:0:
209,268,119599,1,2,3:2:0:0:
79,218,119653,1,2,3:2:0:0:
208,220,119707,1,2,3:2:0:0:
343,176,119761,1,2,3:2:0:0:
207,173,119815,1,2,3:2:0:0:
66,146,119870,1,2,3:2:0:0:
206,125,119924,1,2,3:2:0:0:
353,100,119978,1,2,3:2:0:0:
205,78,120032,1,2,3:2:0:0:
53,76,120086,1,2,3:2:0:0:
204,30,120140,1,2,3:2:0:0:
364,25,120194,5,6,3:1:0:0:
41,6,120303,1,2,3:1:0:0:
