osu file format v14

[General]
AudioFilename: audio.mp3
AudioLeadIn: 0
PreviewTime: 94809
Countdown: 0
SampleSet: Soft
StackLeniency: 0.7
Mode: 2
LetterboxInBreaks: 0
WidescreenStoryboard: 1

[Editor]
Bookmarks: 61061
DistanceSpacing: 1.2
BeatDivisor: 4
GridSize: 32
TimelineZoom: 2.699999

[Metadata]
Title:XHRONOXAPSULE
TitleUnicode:XHRONOXAPSULΞ
Artist:Silentroom
ArtistUnicode:Silentroom
Creator:Jemzuu
Version:NOVIXE
Source:SOUND VOLTEX EXCEED GEAR
Tags:ajamez rocma x_angelkawaii_x bigh bighzonda verti nakano ichika -[ Asuna ]- dika312 -joakh joakh sinnoh xinnoh lacrima myle electronic instrumental the 10th kac sdvx speedcore video game chronocapsule chrono capsule クロノカプセル cataclysm cronicle chronicle
BeatmapID:3520929
BeatmapSetID:1715139

[Difficulty]
HPDrainRate:3
CircleSize:3
OverallDifficulty:7.4
ApproachRate:7.4
SliderMultiplier:1.02
SliderTickRate:0.5

[Events]
//Background and Video events
0,0,"95577715_p0.jpg",0,0
//Break Periods
2,11875,13435
2,30070,34229
2,92452,94013
//Storyboard Layer 0 (Background)
//Storyboard Layer 1 (Fail)
//Storyboard Layer 2 (Pass)
//Storyboard Layer 3 (Foreground)
//Storyboard Layer 4 (Overlay)
//Storyboard Sound Samples

[TimingPoints]
1278,216.606498194946,3,2,2,80,1,0
1332,-100,3,2,1,60,0,0
3877,-100,3,2,2,80,0,0
3931,-100,3,2,1,60,0,0
5826,-100,3,2,2,80,0,0
5880,-100,3,2,1,60,0,0
6476,-100,3,2,1,70,0,0
10375,-100,3,2,1,80,0,0
11296,-100,3,2,2,70,0,0
11675,-100,3,2,3,80,0,0
11837,-100,3,2,1,55,0,0
13678,-100,3,2,2,55,0,0
13949,-100,3,2,1,55,0,0
14003,-100,3,2,2,65,0,0
14274,-100,3,2,1,75,0,0
14382,-100,3,2,1,60,0,0
16223,-100,3,2,4,70,0,0
16657,-100,3,2,2,60,0,0
16819,-100,3,2,1,75,0,0
16927,-100,3,2,1,60,0,0
19310,-100,3,2,2,60,0,0
19472,-100,3,2,1,60,0,0
23805,-100,3,2,2,60,0,0
24021,-100,3,2,1,60,0,0
26620,-100,3,2,4,60,0,0
27054,-100,3,2,2,60,0,0
27270,-100,3,2,1,60,0,0
29653,-100,3,2,5,60,0,0
29870,-100,3,2,3,60,0,0
30303,-100,3,2,1,60,0,0
30519,-100,3,2,2,60,0,0
30736,-100,3,2,1,60,0,0
30953,-100,3,2,2,60,0,0
31169,-100,3,2,1,60,0,0
31819,-100,3,2,2,60,0,0
32036,-100,3,2,1,60,0,0
32252,-100,3,2,2,60,0,0
32469,-100,3,2,1,60,0,0
32902,-100,3,2,2,60,0,0
33119,-100,3,2,1,60,0,0
33552,-100,3,2,98,60,0,0
33660,-100,3,2,1,60,0,0
33768,-100,3,2,97,60,0,0
33823,-100,3,2,1,60,0,0
34202,-100,3,2,2,60,0,0
34418,-100,3,2,1,60,0,0
40050,-100,3,2,2,60,0,0
40267,-100,3,2,1,60,0,0
40916,-100,3,2,2,60,0,0
41025,-100,3,2,1,60,0,0
41133,-100,3,2,3,60,0,0
41241,-100,3,2,1,60,0,0
41566,-100,3,2,4,60,0,0
41891,-100,3,2,1,60,0,0
42216,-100,3,2,2,60,0,0
42324,-100,3,2,1,60,0,0
43515,-100,3,2,2,60,0,0
43624,-100,3,2,1,60,0,0
43732,-100,3,2,3,60,0,0
43840,-100,3,2,1,60,0,0
44165,-100,3,2,4,60,0,0
44490,-100,3,2,1,60,0,0
44815,-100,3,2,2,60,0,0
44923,-100,3,2,1,60,0,0
45465,-100,3,2,1,70,0,0
46115,-100,3,2,2,70,0,0
46765,-100,3,2,1,70,0,0
47415,-100,3,2,2,70,0,0
48065,-100,3,2,1,70,0,0
49364,-100,3,2,1,80,0,0
50014,-100,3,2,1,80,0,0
50231,-100,3,2,99,60,0,0
50285,-100,3,2,1,60,0,0
50447,-100,3,2,99,60,0,0
50555,-100,3,2,1,60,0,0
50664,-100,3,2,1,90,0,1
50772,-100,3,2,1,80,0,1
51097,-100,3,2,95,80,0,1
51205,-100,3,2,1,80,0,1
52396,-100,3,2,95,80,0,1
52505,-100,3,2,1,80,0,1
53696,-100,3,2,95,80,0,1
53913,-100,3,2,5,80,0,1
54563,-100,3,2,1,80,0,1
54996,-100,3,2,95,80,0,1
55104,-100,3,2,1,80,0,1
58462,-100,3,2,1,80,0,0
59761,-100,3,2,4,80,0,0
59870,-100,3,2,1,80,0,0
60844,-100,3,2,5,80,0,0
61061,-100,3,2,4,80,0,1
61169,-100,3,2,1,80,0,1
63010,-100,3,2,1,80,0,0
63660,-100,3,2,1,80,0,1
63985,-100,3,2,6,80,0,1
64093,-100,3,2,1,80,0,1
65285,-100,3,2,6,80,0,1
65393,-100,3,2,1,80,0,1
65610,-100,3,2,6,80,0,1
65826,-100,3,2,6,80,0,0
66043,-100,3,2,5,80,0,0
66259,-100,3,2,1,80,0,1
66909,-100,3,2,6,80,0,1
67342,-100,3,2,5,80,0,1
67397,-100,3,2,1,80,0,1
68209,-100,3,2,1,80,0,0
68642,-100,3,2,5,80,0,0
68859,-100,3,2,6,80,0,0
68913,-100,3,2,1,80,0,0
69075,-100,3,2,4,60,0,0
69089,-100,3,2,1,5,0,0
70158,-100,3,2,4,60,0,0
70172,-100,3,2,1,5,0,0
70375,-100,3,2,4,60,0,0
70389,-100,3,2,1,5,0,0
71025,-100,3,2,4,60,0,0
71458,-100,3,2,6,60,0,0
71675,-100,3,2,4,60,0,0
71688,-100,3,2,1,5,0,0
72758,-100,3,2,4,60,0,0
72771,-100,3,2,1,5,0,0
72975,-100,3,2,4,60,0,0
72988,-100,3,2,1,5,0,0
73407,-100,3,2,1,60,0,0
74057,-100,3,2,6,60,0,0
74274,-100,3,2,1,60,0,0
74707,-100,3,2,2,60,0,0
74924,-100,3,2,1,60,0,0
75357,-100,3,2,4,60,0,0
75574,-100,3,2,1,60,0,0
76007,-100,3,2,2,60,0,0
76223,-100,3,2,1,60,0,0
76657,-100,3,2,4,60,0,0
76873,-100,3,2,1,60,0,0
77306,-100,3,2,2,60,0,0
77523,-100,3,2,1,60,0,0
77956,-100,3,2,4,60,0,0
78173,-100,3,2,1,60,0,0
78606,-100,3,2,2,60,0,0
78714,-100,3,2,1,60,0,0
79256,-100,3,2,7,70,0,0
79364,-100,3,2,1,70,0,0
79472,-100,3,2,1,55,0,0
79906,-100,3,2,1,58,0,0
80339,-100,3,2,1,62,0,0
80772,-100,3,2,1,65,0,0
81205,-100,3,2,1,68,0,0
81639,-100,3,2,1,71,0,0
82072,-100,3,2,1,74,0,0
82505,-100,3,2,1,76,0,0
82938,-100,3,2,1,78,0,0
83371,-100,3,2,1,80,0,0
83805,-100,3,2,1,82,0,0
84238,-100,3,2,1,84,0,0
84671,-100,3,2,1,45,0,0
84888,-100,3,2,1,47,0,0
85104,-100,3,2,1,50,0,0
85321,-100,3,2,1,52,0,0
85537,-100,3,2,1,54,0,0
85754,-100,3,2,1,57,0,0
85971,-100,3,2,1,60,0,0
86187,-100,3,2,1,62,0,0
86404,-100,3,2,1,64,0,0
86620,-100,3,2,1,66,0,0
86837,-100,3,2,1,68,0,0
87054,-100,3,2,1,70,0,0
87270,-100,3,2,1,72,0,0
87487,-100,3,2,1,74,0,0
87703,-100,3,2,1,76,0,0
87920,-100,3,2,1,78,0,0
88137,-100,3,2,1,80,0,0
88353,-100,3,2,1,82,0,0
88570,-100,3,2,1,84,0,0
88787,-100,3,2,1,86,0,0
89003,-100,3,2,1,88,0,0
89220,-100,3,2,1,90,0,0
89436,-100,3,2,1,93,0,0
89653,-100,3,2,6,80,0,0
90736,-100,3,2,1,80,0,0
92252,-100,3,2,8,80,0,0
94852,-100,3,2,3,75,0,0
95068,-100,3,2,3,75,0,0
95285,-100,3,2,3,50,0,0
96151,-100,3,2,3,75,0,0
97234,-100,3,2,3,55,0,0
97667,-100,3,2,1,80,0,1
97776,-100,3,2,99,80,0,1
97830,-100,3,2,1,80,0,1
97992,-100,3,2,99,80,0,1
98046,-100,3,2,1,80,0,1
98209,-100,3,2,99,80,0,1
98263,-100,3,2,1,80,0,1
98426,-100,3,2,99,80,0,1
98480,-100,3,2,1,80,0,1
99075,-100,3,2,1,70,0,1
99400,-100,3,2,1,80,0,1
99725,-100,3,2,1,70,0,1
100050,-100,3,2,1,80,0,1
100483,-100,3,2,1,75,0,1
100700,-100,3,2,1,80,0,1
100916,-100,3,2,1,75,0,1
101133,-100,3,2,1,80,0,1
101350,-100,3,2,1,75,0,1
101567,-100,3,2,1,80,0,1
101783,-100,3,2,1,75,0,1
102000,-100,3,2,1,80,0,1
102216,-100,3,2,1,75,0,1
102433,-100,3,2,1,80,0,1
102649,-100,3,2,1,75,0,1
102866,-100,3,2,1,80,0,1
103083,-100,3,2,1,75,0,1
103300,-100,3,2,1,80,0,1
103516,-100,3,2,1,75,0,1
103733,-100,3,2,1,80,0,1
103949,-100,3,2,1,80,0,0
104707,-100,3,2,3,80,0,0
105249,-100,3,2,1,80,0,1
105465,-100,3,2,1,85,0,1
105682,-100,3,2,1,80,0,1
105898,-100,3,2,5,80,0,1
105953,-100,3,2,1,80,0,1
106115,-100,3,2,1,85,0,1
106332,-100,3,2,1,80,0,1
106548,-100,3,2,1,85,0,1
106765,-100,3,2,1,80,0,1
106981,-100,3,2,1,85,0,1
107198,-100,3,2,5,80,0,1
107252,-100,3,2,1,80,0,1
107415,-100,3,2,1,85,0,1
107632,-100,3,2,1,80,0,1
107848,-100,3,2,1,85,0,1
108065,-100,3,2,1,80,0,1
108281,-100,3,2,1,85,0,1
108498,-100,3,2,5,80,0,1
108552,-100,3,2,1,80,0,1
108714,-100,3,2,1,85,0,1
108931,-100,3,2,1,80,0,1
109148,-100,3,2,1,85,0,1
109365,-100,3,2,1,80,0,1
109581,-100,3,2,1,85,0,1
109797,-100,3,2,5,80,0,1
109852,-100,3,2,1,80,0,1
110122,-100,3,2,3,50,0,1
110231,-100,3,2,1,80,0,0
110447,-100,3,2,4,80,0,1
110664,-100,3,2,4,75,0,1
110880,-100,3,2,4,80,0,1
111097,-100,3,2,4,75,0,1
111313,-100,3,2,4,80,0,1
111530,-100,3,2,4,75,0,1
111746,-100,3,2,4,80,0,1
111963,-100,3,2,4,75,0,1
112179,-100,3,2,4,80,0,1
112397,-100,3,2,4,75,0,1
112613,-100,3,2,4,80,0,1
112830,-100,3,2,4,75,0,1
113046,-100,3,2,4,80,0,1
113263,-100,3,2,4,75,0,1
113479,-100,3,2,4,80,0,1
113696,-100,3,2,4,75,0,1
113912,-100,3,2,4,80,0,1
114129,-100,3,2,4,75,0,1
114345,-100,3,2,4,80,0,1
114563,-100,3,2,4,75,0,1
114779,-100,3,2,4,80,0,1
114996,-100,3,2,1,80,0,1
115321,-100,3,2,2,80,0,1
115537,-100,3,2,1,80,0,1
115646,-100,3,2,1,80,0,0
115754,-100,3,2,1,60,0,0
116296,-100,3,2,1,65,0,0
116512,-100,3,2,1,60,0,0
116729,-100,3,2,1,65,0,0
116945,-100,3,2,1,60,0,0
117162,-100,3,2,1,65,0,0
117378,-100,3,2,1,60,0,0
117595,-100,3,2,1,65,0,0
117811,-100,3,2,1,60,0,0
118028,-100,3,2,1,65,0,0
118245,-100,3,2,1,80,0,1
118462,-100,3,2,1,90,0,1
118678,-100,3,2,1,80,0,1
118895,-100,3,2,1,90,0,1
119111,-100,3,2,1,80,0,1
119328,-100,3,2,1,90,0,1
119545,-100,3,2,1,80,0,1
119762,-100,3,2,1,90,0,1
119978,-100,3,2,1,80,0,1
120195,-100,3,2,1,90,0,1
120303,-100,3,2,1,80,0,0

[Colours]
Combo1 : 128,255,255
Combo2 : 100,177,255
Combo3 : 140,140,255
Combo4 : 255,166,210

[HitObjects]
343,210,1278,6,0,L|410:98,2,102,4|2|2,3:1|0:0|0:0,0:0:0:0:
244,243,1927,2,0,L|117:213,2,102,2|2|2,0:3|0:0|0:0,0:0:0:0:
349,291,2577,6,0,L|354:171,1,102,2|2,0:3|0:0,0:0:0:0:
259,169,3010,1,2,0:0:0:0:
144,172,3227,2,0,L|117:109,2,51,2|0|2,0:3|0:0|0:0,0:0:0:0:
256,190,3660,1,2,0:0:0:0:
59,320,3877,6,0,L|44:205,1,102,4|2,3:1|0:0,0:0:0:0:
135,178,4310,1,2,0:0:0:0:
234,175,4527,2,0,L|237:61,1,102,2|2,0:3|0:0,0:0:0:0:
147,55,4960,1,2,0:0:0:0:
252,75,5176,6,0,L|337:91,2,51,2|0|2,0:3|0:0|0:0,0:0:0:0:
151,156,5610,1,2,0:0:0:0:
262,220,5826,2,0,L|412:229,2,102,10|2|2,3:2|3:0|3:0,0:0:0:0:
61,345,6476,6,0,L|48:225,1,102,6|2,1:0|1:0,0:0:0:0:
341,249,7126,2,0,L|351:106,1,102,2|2,1:0|1:0,0:0:0:0:
257,126,7559,1,2,1:0:0:0:
70,173,7776,6,0,L|62:54,1,102,6|2,1:0|1:0,0:0:0:0:
229,49,8426,6,0,L|117:55,2,102,2|2|2,1:1|1:2|1:2,0:0:0:0:
422,100,9075,6,0,L|437:261,1,153,6|2,1:1|1:1,0:0:0:0:
283,363,9725,2,0,L|462:368,1,153,2|2,1:1|1:1,0:0:0:0:
171,306,10375,6,0,L|162:184,1,102,0|0,3:0|3:0,0:0:0:0:
247,184,10808,1,2,3:1:0:0:
347,137,11025,2,0,L|231:126,1,102,0|10,3:1|3:1,0:0:0:0:
245,127,11350,1,2,0:3:0:0:
245,127,11458,1,2,0:3:0:0:
471,158,11675,5,4,3:1:0:0:
319,96,14274,6,0,L|171:87,1,102,4|0,3:1|0:0,0:0:0:0:
154,153,14599,2,0,L|268:171,1,102,2|0,3:1|0:0,0:0:0:0:
312,183,14924,1,2,3:1:0:0:
424,292,15140,2,0,L|432:234,1,51,0|2,0:0|3:1,0:0:0:0:
323,353,15465,6,0,L|309:288,1,51,0|2,0:0|3:1,0:0:0:0:
199,280,15790,1,0,0:0:0:0:
150,267,15898,1,2,3:1:0:0:
430,241,16223,6,0,L|434:119,1,102,6|6,3:1|3:1,0:0:0:0:
348,111,16657,1,8,0:2:0:0:
137,80,16873,6,0,L|6:84,2,102,6|2|2,3:1|3:1|3:1,0:0:0:0:
244,113,17523,2,0,L|250:237,1,102,2|2,3:1|3:1,0:0:0:0:
144,227,17956,1,2,3:1:0:0:
251,259,18173,6,0,L|392:287,1,102,2|0,3:1|3:0,0:0:0:0:
300,320,18498,2,0,L|250:329,1,51,2|0,0:1|3:0,0:0:0:0:
363,368,18823,2,0,L|466:358,1,102,2|0,3:1|3:0,0:0:0:0:
490,314,19148,2,0,L|459:367,1,51,2|0,0:1|3:0,0:0:0:0:
348,331,19472,6,0,L|221:322,2,102,2|0|2,3:1|3:0|3:1,0:0:0:0:
231,236,20122,2,0,L|106:236,1,102,2|0,3:1|3:1,0:0:0:0:
94,189,20447,2,0,L|134:241,1,51,2|0,0:1|3:0,0:0:0:0:
237,240,20772,6,0,L|243:125,1,102,2|0,3:1|3:0,0:0:0:0:
186,115,21097,2,0,L|134:109,1,51,2|0,0:1|3:0,0:0:0:0:
258,49,21422,6,0,L|385:35,2,102,2|2|2,3:1|3:1|3:2,0:0:0:0:
42,158,22072,6,0,L|45:289,1,102,6|2,3:1|3:1,0:0:0:0:
127,300,22505,2,0,L|195:316,1,51,2|2,3:1|0:1,0:0:0:0:
226,319,22722,6,0,L|240:194,1,102,2|0,3:1|3:0,0:0:0:0:
186,195,23046,2,0,L|116:205,1,51,2|0,0:1|3:0,0:0:0:0:
328,148,23371,6,0,L|444:151,1,102,6|2,3:1|0:2,0:0:0:0:
460,109,23696,2,0,L|419:165,1,51,2|2,3:1|0:3,0:0:0:0:
211,205,24021,6,0,L|195:66,1,102,6|2,3:1|0:0,0:0:0:0:
247,75,24346,2,0,L|314:65,1,51,2|2,3:1|0:0,0:0:0:0:
83,43,24671,6,0,L|75:159,1,102,6|2,3:1|3:1,0:0:0:0:
125,173,24996,1,0,0:0:0:0:
175,191,25104,1,2,3:1:0:0:
274,248,25321,6,0,L|160:273,1,102,2|2,3:1|3:1,0:0:0:0:
141,230,25646,2,0,L|195:294,1,51,2|0,0:1|3:0,0:0:0:0:
398,331,25971,6,0,L|407:201,1,102,6|2,3:1|3:1,0:0:0:0:
312,202,26404,1,2,3:1:0:0:
199,172,26620,5,6,3:1:0:0:
303,118,26837,1,6,3:1:0:0:
408,108,27054,1,8,0:2:0:0:
182,51,27270,6,0,L|63:46,2,102,6|2|2,3:1|3:1|3:1,0:0:0:0:
287,74,27920,2,0,L|295:177,1,102,2|2,3:1|3:1,0:0:0:0:
197,199,28353,1,2,3:1:0:0:
413,268,28570,6,0,L|417:156,1,102,6|2,3:1|3:1,0:0:0:0:
326,144,29003,1,2,3:1:0:0:
214,114,29220,1,6,3:2:0:0:
327,87,29436,1,8,3:1:0:0:
30,55,29870,5,4,3:3:0:0:
310,138,35068,6,0,L|415:124,2,102,6|2|2,3:1|3:1|3:1,0:0:0:0:
197,175,35718,1,2,3:1:0:0:
146,268,35935,1,2,3:1:0:0:
197,175,36151,1,2,3:1:0:0:
319,159,36368,6,0,L|194:151,1,102,2|0,3:1|3:0,0:0:0:0:
179,117,36693,2,0,L|229:163,1,51,2|0,0:1|3:0,0:0:0:0:
334,88,37018,2,0,L|342:209,1,102,2|2,3:1|3:1,0:0:0:0:
248,228,37451,1,2,3:1:0:0:
51,286,37667,6,0,L|47:175,1,102,2|2,3:1|3:1,0:0:0:0:
138,155,38101,1,2,3:1:0:0:
253,163,38317,1,2,3:1:0:0:
155,131,38534,1,2,3:1:0:0:
103,51,38750,1,2,3:1:0:0:
155,131,38967,5,2,3:1:0:0:
253,163,39184,1,2,3:1:0:0:
152,207,39400,1,2,3:1:0:0:
247,241,39617,1,2,3:1:0:0:
350,253,39833,1,2,3:1:0:0:
357,350,40050,1,2,0:3:0:0:
141,360,40267,6,0,L|20:340,2,102,6|2|8,3:1|3:1|0:1,0:0:0:0:
254,358,40916,2,0,P|270:292|139:234,1,204,8|8,0:1|0:1,0:0:0:0:
62,243,41566,6,0,L|57:118,1,102,6|6,3:1|3:1,0:0:0:0:
148,116,42000,1,8,0:1:0:0:
257,122,42216,2,0,L|259:14,1,102,8|2,0:1|0:3,0:0:0:0:
169,22,42649,1,8,0:1:0:0:
387,102,42866,6,0,L|494:144,2,102,6|2|8,3:1|3:1|0:1,0:0:0:0:
272,132,43516,2,0,P|252:198|377:269,1,204,8|8,0:1|0:1,0:0:0:0:
457,302,44166,6,0,L|456:186,1,102,6|6,3:1|3:1,0:0:0:0:
399,182,44490,2,0,L|265:173,1,102,10|8,0:1|0:1,0:0:0:0:
248,168,44815,1,8,0:1:0:0:
343,124,45032,1,8,0:3:0:0:
248,168,45249,1,8,3:1:0:0:
32,303,45465,6,0,L|33:185,1,102,6|0,3:1|3:0,0:0:0:0:
84,193,45790,2,0,L|148:198,1,51,2|2,0:1|3:2,0:0:0:0:
41,253,46115,2,0,L|8:203,2,51,8|8|8,0:1|0:1|0:1,0:0:0:0:
139,255,46548,1,8,0:1:0:0:
360,288,46765,6,0,L|362:182,1,102,6|0,3:1|3:1,0:0:0:0:
297,186,47090,2,0,L|295:126,1,51,2|2,0:1|3:2,0:0:0:0:
412,100,47415,2,0,L|441:47,2,51,8|8|8,0:1|0:1|0:1,0:0:0:0:
303,103,47848,1,8,0:1:0:0:
77,152,48065,6,0,L|72:268,1,102,6|2,3:1|3:1,0:0:0:0:
186,300,48498,1,2,3:1:0:0:
241,231,48714,1,6,3:1:0:0:
186,300,48931,1,2,3:1:0:0:
76,331,49148,1,2,3:1:0:0:
292,355,49364,6,0,L|328:298,2,51,6|0|2,3:1|3:0|3:1,0:0:0:0:
194,363,49797,1,2,3:1:0:0:
415,346,50014,5,4,3:3:0:0:
444,197,50664,6,0,L|313:176,1,102,6|0,3:1|3:0,0:0:0:0:
289,145,50989,2,0,L|403:118,1,102,2|0,0:1|0:0,0:0:0:0:
444,116,51314,2,0,L|474:68,2,51,6|2|2,3:2|0:1|3:2,0:0:0:0:
345,150,51747,1,2,3:1:0:0:
125,248,51963,6,0,L|121:140,1,102,6|0,3:1|3:0,0:0:0:0:
181,129,52288,2,0,L|290:111,1,102,2|0,0:1|0:0,0:0:0:0:
223,101,52613,2,0,L|192:47,2,51,6|2|2,3:2|0:2|3:1,0:0:0:0:
334,137,53046,1,2,3:1:0:0:
110,202,53263,6,0,L|100:317,1,102,6|0,3:1|3:0,0:0:0:0:
161,324,53588,2,0,L|277:337,1,102,2|0,3:1|0:0,0:0:0:0:
206,362,53913,1,6,3:1:0:0:
90,358,54129,1,2,3:1:0:0:
197,290,54346,1,2,3:1:0:0:
421,302,54563,6,0,L|428:186,1,102,6|0,3:1|3:0,0:0:0:0:
368,183,54888,2,0,L|248:176,1,102,2|0,3:1|0:0,0:0:0:0:
207,160,55213,1,2,3:1:0:0:
310,113,55429,1,2,3:1:0:0:
421,100,55646,1,2,3:1:0:0:
203,50,55862,6,0,L|68:70,1,102,6|2,3:1|3:1,0:0:0:0:
219,152,56296,2,0,L|231:264,1,102,2|2,3:1|3:1,0:0:0:0:
115,284,56729,2,0,L|-9:293,1,102,2|2,3:1|3:1,0:0:0:0:
239,347,57162,6,0,L|358:332,1,102,6|0,3:1|3:0,0:0:0:0:
281,308,57487,2,0,L|173:295,1,102,6|0,3:1|3:0,0:0:0:0:
238,262,57812,6,0,L|345:244,1,102,6|0,3:1|3:0,0:0:0:0:
370,284,58137,2,0,L|329:233,1,51,2|2,3:1|0:0,0:0:0:0:
122,243,58462,6,0,L|105:121,1,102,6|2,3:1|3:1,0:0:0:0:
203,118,58895,1,2,3:1:0:0:
305,83,59111,2,0,L|170:67,1,102,2|2,3:1|3:1,0:0:0:0:
108,71,59545,1,2,3:1:0:0:
322,197,59761,6,0,L|448:209,1,102,6|2,3:1|3:1,0:0:0:0:
373,256,60086,2,0,L|309:271,1,51,2|0,0:1|3:0,0:0:0:0:
442,333,60411,6,0,L|475:269,2,51,2|0|2,3:1|3:0|3:1,0:0:0:0:
347,355,60844,1,6,0:2:0:0:
120,361,61061,5,14,3:2:0:0:
68,267,61278,1,10,3:2:0:0:
120,361,61494,1,10,3:2:0:0:
227,362,61711,1,10,3:2:0:0:
120,361,61927,1,10,3:2:0:0:
68,267,62144,1,10,3:2:0:0:
120,361,62361,5,10,3:2:0:0:
234,369,62577,1,10,3:2:0:0:
289,284,62794,1,10,3:2:0:0:
234,369,63010,1,10,3:2:0:0:
128,363,63227,1,10,3:2:0:0:
234,369,63444,1,10,3:2:0:0:
450,366,63660,6,0,L|453:246,1,102,14|10,3:2|3:2,0:0:0:0:
398,244,63985,2,0,L|335:235,1,51,4|10,3:2|3:2,0:0:0:0:
229,244,64310,2,0,L|219:133,1,102,10|10,3:2|3:2,0:0:0:0:
321,113,64743,1,10,3:2:0:0:
106,55,64960,6,0,L|-4:92,1,102,14|10,3:2|3:2,0:0:0:0:
62,143,65285,2,0,L|146:142,1,51,4|10,3:2|3:2,0:0:0:0:
224,195,65610,5,14,3:2:0:0:
112,142,65826,1,14,3:2:0:0:
224,195,66043,1,6,0:2:0:0:
461,172,66259,6,0,L|470:288,1,102,4|0,3:1|3:0,0:0:0:0:
368,304,66693,1,0,3:0:0:0:
261,348,66909,2,0,L|365:331,1,102,12|12,3:2|3:2,0:0:0:0:
470,336,67342,1,12,3:2:0:0:
248,264,67559,5,4,3:1:0:0:
200,251,67667,1,0,3:0:0:0:
178,207,67775,1,0,3:0:0:0:
197,161,67883,1,0,3:0:0:0:
244,146,67992,1,0,3:0:0:0:
363,153,68209,5,4,3:0:0:0:
363,153,68426,1,2,0:0:0:0:
363,153,68642,1,6,0:2:0:0:
138,77,68859,6,0,L|21:131,1,102,6|2,3:1|0:2,0:0:0:0:
239,204,70158,2,0,L|241:309,1,102,2|2,0:0|0:0,0:0:0:0:
454,346,71458,6,0,L|352:351,1,102,4|2,3:1|0:0,0:0:0:0:
120,351,72758,2,0,L|103:237,1,102,2|2,0:0|0:0,0:0:0:0:
361,240,74057,5,14,3:1:0:0:
430,166,74274,2,0,L|355:67,1,102,2|2,0:0|0:0,0:0:0:0:
265,64,74707,1,4,0:0:0:0:
362,48,74924,1,2,0:0:0:0:
261,100,75140,1,2,0:0:0:0:
142,121,75357,6,0,L|262:147,1,102,4|0,3:0|0:0,0:0:0:0:
425,194,76007,2,0,L|432:306,1,102,4|2,0:0|0:0,0:0:0:0:
337,325,76440,1,2,0:0:0:0:
228,337,76657,6,0,L|347:320,1,102,4|2,3:0|0:0,0:0:0:0:
156,245,77306,2,0,L|49:236,1,102,4|2,0:0|0:0,0:0:0:0:
46,150,77740,1,2,0:0:0:0:
155,156,77956,5,12,3:0:0:0:
207,73,78173,1,2,0:0:0:0:
155,156,78389,1,2,0:0:0:0:
51,185,78606,1,6,0:0:0:0:
51,185,78823,1,2,0:0:0:0:
51,185,79039,1,2,0:0:0:0:
267,267,79256,6,0,L|390:238,2,102,12|2|2,3:0|3:2|3:2,0:0:0:0:
156,271,79906,2,0,L|111:162,2,102,2|2|2,3:2|3:2|3:2,0:0:0:0:
272,322,80555,2,0,L|286:191,1,102,2|2,3:2|3:2,0:0:0:0:
383,191,80989,1,2,3:2:0:0:
270,170,81205,6,0,L|230:98,2,51,2|2|2,3:2|0:2|3:2,0:0:0:0:
370,200,81639,1,2,3:2:0:0:
475,127,81855,6,0,L|352:100,1,102,2|2,3:2|3:2,0:0:0:0:
264,81,82288,1,2,3:2:0:0:
380,80,82505,1,2,3:2:0:0:
431,18,82722,1,2,3:2:0:0:
380,80,82938,1,2,3:2:0:0:
263,117,83155,6,0,L|198:116,2,51,2|2|2,3:2|0:2|3:2,0:0:0:0:
373,146,83588,1,2,3:2:0:0:
252,208,83805,2,0,L|130:222,2,102,2|2|2,3:2|3:2|3:2,0:0:0:0:
42,303,84454,6,0,L|26:168,1,102,6|2,1:1|1:2,0:0:0:0:
306,209,85104,2,0,L|314:84,1,102,2|2,1:1|1:1,0:0:0:0:
224,82,85537,1,10,0:1:0:0:
427,59,85754,6,0,L|437:190,1,102,6|2,1:1|1:1,0:0:0:0:
231,313,86404,1,2,1:1:0:0:
275,291,86512,1,0,0:1:0:0:
327,281,86620,1,2,1:1:0:0:
330,197,86837,1,10,1:1:0:0:
103,233,87054,6,0,L|86:106,1,102,6|0,1:1|0:1,0:0:0:0:
142,107,87379,2,0,L|208:98,1,51,2|8,1:1|0:1,0:0:0:0:
306,51,87703,6,0,L|179:27,1,102,6|2,1:1|1:1,0:0:0:0:
115,48,88137,1,10,1:1:0:0:
331,171,88353,6,0,L|467:198,1,102,6|8,1:1|0:1,0:0:0:0:
458,147,88678,2,0,L|425:200,1,51,2|10,1:1|3:1,0:0:0:0:
310,275,89003,6,0,L|193:281,2,102,6|10|10,1:1|1:1|1:1,0:0:0:0:
89,362,89653,5,6,3:1:0:0:
256,192,89978,12,2,92252,2:2:0:0:
250,210,94852,6,0,L|253:100,1,102,2|2,1:2|1:2,0:0:0:0:
454,91,96151,2,0,L|332:89,1,102,2|2,1:2|1:2,0:0:0:0:
109,229,97018,6,0,L|43:231,1,51,2|2,1:0|1:0,0:0:0:0:
109,229,97234,2,0,L|173:227,1,51,10|10,1:2|1:2,0:0:0:0:
450,296,97667,6,0,L|453:185,1,102,6|2,3:1|3:1,0:0:0:0:
359,171,98101,1,2,3:1:0:0:
258,145,98317,1,2,3:1:0:0:
363,119,98534,1,2,3:1:0:0:
144,51,98750,6,0,L|17:67,1,102,6|0,3:1|3:0,0:0:0:0:
92,116,99075,2,0,L|166:130,1,51,6|2,3:1|0:2,0:0:0:0:
257,192,99400,2,0,L|137:221,1,102,6|2,3:1|3:2,0:0:0:0:
106,214,99725,2,0,L|168:216,1,51,6|2,3:1|0:2,0:0:0:0:
378,325,100050,6,0,L|385:220,1,102,6|2,3:1|3:1,0:0:0:0:
279,194,100483,2,0,L|208:197,1,51,2|2,3:1|3:1,0:0:0:0:
285,176,100700,2,0,L|403:159,1,102,2|2,3:1|3:1,0:0:0:0:
384,73,101133,1,2,3:1:0:0:
159,47,101350,6,0,L|21:62,1,102,6|0,3:1|3:2,0:0:0:0:
33,103,101675,2,0,L|60:52,1,51,2|0,3:1|0:0,0:0:0:0:
172,136,102000,2,0,L|183:265,1,102,2|2,3:1|3:1,0:0:0:0:
81,271,102433,1,2,3:1:0:0:
301,314,102649,6,0,L|403:292,1,102,2|0,3:1|3:0,0:0:0:0:
451,295,102974,2,0,L|388:291,1,51,2|0,3:1|0:0,0:0:0:0:
287,293,103299,2,0,L|280:181,1,102,2|2,3:1|3:1,0:0:0:0:
377,164,103732,1,2,3:1:0:0:
157,131,103949,6,0,L|23:117,1,102,6|2,3:1|3:2,0:0:0:0:
109,179,104274,2,0,L|181:195,1,51,2|2,3:1|3:2,0:0:0:0:
366,278,104599,1,2,3:1:0:0:
417,282,104707,2,0,P|436:227|364:163,1,153,8|0,3:1|0:0,0:0:0:0:
142,74,105249,5,4,3:2:0:0:
239,84,105465,1,0,3:2:0:0:
287,170,105682,1,0,3:2:0:0:
246,259,105898,1,4,3:2:0:0:
149,277,106115,1,0,3:0:0:0:
254,289,106332,1,0,3:0:0:0:
148,317,106548,6,0,L|37:296,2,102,4|0|0,3:2|3:0|3:0,0:0:0:0:
359,337,107198,2,0,L|388:276,2,51,4|0|2,3:2|3:0|3:2,0:0:0:0:
257,351,107631,1,2,0:2:0:0:
472,42,107848,5,4,3:2:0:0:
374,52,108064,1,0,3:0:0:0:
326,138,108281,1,0,3:0:0:0:
367,227,108497,1,4,3:2:0:0:
464,245,108714,1,0,3:0:0:0:
362,275,108931,1,0,3:0:0:0:
143,308,109148,6,0,L|130:167,1,102,4|0,3:2|3:0,0:0:0:0:
241,171,109581,1,0,3:0:0:0:
442,157,109797,1,4,3:2:0:0:
443,115,109906,2,0,L|296:77,1,102,2|8,3:2|0:0,0:0:0:0:
65,234,110447,6,0,L|52:115,1,102,12|8,3:2|3:2,0:0:0:0:
146,98,110880,1,8,3:2:0:0:
261,98,111097,2,0,L|291:46,2,51,12|0|8,3:2|3:0|3:2,0:0:0:0:
163,136,111530,1,8,3:2:0:0:
386,197,111747,6,0,L|488:162,2,102,12|8|8,3:2|3:2|3:2,0:0:0:0:
275,208,112397,2,0,L|243:144,2,51,12|0|8,3:2|3:2|3:2,0:0:0:0:
325,242,112722,1,0,3:2:0:0:
377,255,112830,1,8,3:2:0:0:
159,320,113046,6,0,L|51:299,2,102,12|8|8,3:2|3:2|3:2,0:0:0:0:
272,261,113696,2,0,L|154:224,1,102,12|8,3:2|3:2,0:0:0:0:
75,227,114129,1,8,3:2:0:0:
298,183,114346,5,12,1:2:0:0:
345,171,114454,1,0,1:2:0:0:
366,127,114562,1,8,1:2:0:0:
344,83,114670,1,0,1:2:0:0:
296,73,114779,1,8,1:2:0:0:
197,62,114996,1,2,3:1:0:0:
94,56,115213,2,0,L|157:42,1,51,8|8,0:1|0:1,0:0:0:0:
457,192,115646,5,6,3:1:0:0:
256,192,115971,12,2,117595,0:3:0:0:
319,81,118245,5,6,3:1:0:0:
367,87,118353,1,0,3:0:0:0:
391,129,118461,1,2,3:1:0:0:
371,174,118569,1,0,3:0:0:0:
323,185,118678,1,2,3:1:0:0:
115,212,118895,5,6,3:1:0:0:
66,218,119003,1,0,3:0:0:0:
42,260,119111,1,2,3:1:0:0:
62,305,119219,1,0,3:0:0:0:
110,316,119328,1,2,3:1:0:0:
323,338,119545,5,6,3:1:0:0:
298,293,119653,1,2,3:2:0:0:
258,262,119761,1,2,3:2:0:0:
209,248,119869,1,2,3:2:0:0:
159,254,119978,1,2,3:2:0:0:
380,201,120194,6,0,L|445:193,1,51,6|2,3:1|3:1,0:0:0:0:
