osu file format v14

[General]
AudioFilename: audio.mp3
AudioLeadIn: 0
PreviewTime: 94809
Countdown: 0
SampleSet: Soft
StackLeniency: 0.7
Mode: 2
LetterboxInBreaks: 0
WidescreenStoryboard: 1

[Editor]
Bookmarks: 71458
DistanceSpacing: 1.2
BeatDivisor: 4
GridSize: 32
TimelineZoom: 2.699999

[Metadata]
Title:XHRONOXAPSULE
TitleUnicode:XHRONOXAPSULΞ
Artist:Silentroom
ArtistUnicode:Silentroom
Creator:Jemzuu
Version:INFINITE
Source:SOUND VOLTEX EXCEED GEAR
Tags:ajamez rocma x_angelkawaii_x bigh bighzonda verti nakano ichika -[ Asuna ]- dika312 -joakh joakh sinnoh xinnoh lacrima myle electronic instrumental the 10th kac sdvx speedcore video game chronocapsule chrono capsule クロノカプセル cataclysm cronicle chronicle
BeatmapID:3563232
BeatmapSetID:1715139

[Difficulty]
HPDrainRate:5.5
CircleSize:4
OverallDifficulty:9.6
ApproachRate:9.6
SliderMultiplier:1.69
SliderTickRate:2

[Events]
//Background and Video events
0,0,"95577715_p0.jpg",0,0
//Break Periods
2,92452,94343
//Storyboard Layer 0 (Background)
//Storyboard Layer 1 (Fail)
//Storyboard Layer 2 (Pass)
//Storyboard Layer 3 (Foreground)
//Storyboard Layer 4 (Overlay)
//Storyboard Sound Samples

[TimingPoints]
1278,216.606498194946,3,2,2,80,1,0
1278,-100,3,2,2,80,0,0
1279,-100,3,2,2,80,0,0
1332,-100,3,2,1,60,0,0
3877,-100,3,2,2,80,0,0
3931,-100,3,2,1,60,0,0
5826,-100,3,2,2,80,0,0
5880,-100,3,2,1,60,0,0
6476,-100,3,2,1,70,0,0
10375,-100,3,2,1,80,0,0
11296,-100,3,2,2,70,0,0
11675,-100,3,2,3,80,0,0
11837,-100,3,2,1,55,0,0
13678,-100,3,2,2,55,0,0
13949,-100,3,2,1,55,0,0
14003,-100,3,2,2,65,0,0
14274,-100,3,2,1,75,0,0
14382,-100,3,2,1,60,0,0
16223,-100,3,2,4,70,0,0
16657,-100,3,2,2,60,0,0
16819,-100,3,2,1,75,0,0
16927,-100,3,2,1,60,0,0
19310,-100,3,2,2,60,0,0
19472,-100,3,2,1,60,0,0
23805,-100,3,2,2,60,0,0
24021,-100,3,2,1,60,0,0
26620,-100,3,2,4,60,0,0
27054,-100,3,2,2,60,0,0
27270,-100,3,2,1,60,0,0
29653,-100,3,2,5,60,0,0
29870,-100,3,2,3,60,0,0
30303,-100,3,2,1,60,0,0
30519,-100,3,2,2,60,0,0
30736,-100,3,2,1,60,0,0
30953,-100,3,2,2,60,0,0
31169,-100,3,2,1,60,0,0
31819,-100,3,2,2,60,0,0
32036,-100,3,2,1,60,0,0
32252,-100,3,2,2,60,0,0
32469,-100,3,2,1,60,0,0
32902,-100,3,2,2,60,0,0
33119,-100,3,2,1,60,0,0
33552,-100,3,2,98,60,0,0
33660,-100,3,2,1,60,0,0
33823,-100,3,2,1,60,0,0
34202,-100,3,2,98,60,0,0
34310,-100,3,2,2,60,0,0
34418,-100,3,2,1,60,0,0
40050,-100,3,2,2,60,0,0
40267,-100,3,2,1,60,0,0
40916,-100,3,2,2,60,0,0
41025,-100,3,2,1,60,0,0
41133,-100,3,2,3,60,0,0
41241,-100,3,2,1,60,0,0
41566,-100,3,2,4,60,0,0
41891,-100,3,2,1,60,0,0
42216,-100,3,2,2,60,0,0
42324,-100,3,2,1,60,0,0
43515,-100,3,2,2,60,0,0
43624,-100,3,2,1,60,0,0
43732,-100,3,2,3,60,0,0
43840,-100,3,2,1,60,0,0
44165,-100,3,2,4,60,0,0
44490,-100,3,2,1,60,0,0
44815,-100,3,2,2,60,0,0
44923,-100,3,2,1,60,0,0
45465,-100,3,2,1,70,0,0
46115,-100,3,2,2,70,0,0
46765,-100,3,2,1,70,0,0
47415,-100,3,2,2,70,0,0
48065,-100,3,2,1,70,0,0
49364,-100,3,2,1,80,0,0
50231,-100,3,2,1,60,0,0
50285,-100,3,2,1,60,0,0
50447,-100,3,2,1,60,0,0
50555,-100,3,2,1,60,0,0
50664,-90.0900900900901,3,2,1,90,0,1
50772,-90.0900900900901,3,2,1,80,0,1
51097,-90.0900900900901,3,2,95,80,0,1
51205,-90.0900900900901,3,2,1,80,0,1
52396,-90.0900900900901,3,2,95,80,0,1
52505,-90.0900900900901,3,2,1,80,0,1
53696,-90.0900900900901,3,2,95,80,0,1
53913,-90.0900900900901,3,2,5,80,0,1
54563,-90.0900900900901,3,2,1,80,0,1
54996,-90.0900900900901,3,2,95,80,0,1
55104,-90.0900900900901,3,2,1,80,0,1
58462,-100,3,2,1,80,0,0
59761,-100,3,2,4,80,0,0
59870,-100,3,2,1,80,0,0
60844,-100,3,2,5,80,0,0
61061,-100,3,2,4,80,0,1
61169,-100,3,2,1,80,0,1
63010,-100,3,2,1,80,0,0
63660,-100,3,2,1,80,0,1
63985,-100,3,2,6,80,0,1
64093,-100,3,2,1,80,0,1
65285,-100,3,2,6,80,0,1
65393,-100,3,2,1,80,0,1
65610,-100,3,2,6,80,0,1
65826,-100,3,2,6,80,0,0
66043,-100,3,2,5,80,0,0
66259,-100,3,2,1,80,0,1
66909,-100,3,2,6,80,0,1
67342,-100,3,2,5,80,0,1
67397,-100,3,2,1,80,0,1
68209,-100,3,2,1,80,0,0
68642,-100,3,2,5,80,0,0
68859,-100,3,2,6,80,0,0
68913,-100,3,2,1,80,0,0
69075,-100,3,2,4,60,0,0
69089,-100,3,2,1,5,0,0
70158,-100,3,2,4,60,0,0
70172,-100,3,2,1,5,0,0
70375,-100,3,2,4,60,0,0
70389,-100,3,2,1,5,0,0
71025,-100,3,2,4,60,0,0
71458,-100,3,2,6,60,0,0
71675,-100,3,2,4,60,0,0
71688,-100,3,2,1,5,0,0
72758,-100,3,2,4,60,0,0
72771,-100,3,2,1,5,0,0
72975,-100,3,2,4,60,0,0
72988,-100,3,2,1,5,0,0
73407,-100,3,2,1,60,0,0
74057,-100,3,2,6,60,0,0
74274,-100,3,2,1,60,0,0
74707,-100,3,2,2,60,0,0
74924,-100,3,2,1,60,0,0
75357,-100,3,2,4,60,0,0
75574,-100,3,2,1,60,0,0
76007,-100,3,2,2,60,0,0
76223,-100,3,2,1,60,0,0
76657,-100,3,2,4,60,0,0
76873,-100,3,2,1,60,0,0
77306,-100,3,2,2,60,0,0
77523,-100,3,2,1,60,0,0
77956,-100,3,2,4,60,0,0
78173,-100,3,2,1,60,0,0
78606,-100,3,2,2,60,0,0
78714,-100,3,2,1,60,0,0
79256,-100,3,2,7,70,0,0
79364,-100,3,2,1,70,0,0
79472,-100,3,2,1,55,0,0
79906,-100,3,2,1,58,0,0
80339,-100,3,2,1,62,0,0
80772,-100,3,2,1,65,0,0
81205,-100,3,2,1,68,0,0
81639,-100,3,2,1,71,0,0
82072,-100,3,2,1,74,0,0
82505,-100,3,2,1,76,0,0
82938,-100,3,2,1,78,0,0
83371,-100,3,2,1,80,0,0
83805,-100,3,2,1,82,0,0
84238,-100,3,2,1,84,0,0
84671,-100,3,2,1,45,0,0
84888,-100,3,2,1,47,0,0
85104,-100,3,2,1,50,0,0
85321,-100,3,2,1,52,0,0
85537,-100,3,2,1,54,0,0
85754,-100,3,2,1,57,0,0
85971,-100,3,2,1,60,0,0
86187,-100,3,2,1,62,0,0
86404,-100,3,2,1,64,0,0
86620,-100,3,2,1,66,0,0
86837,-100,3,2,1,68,0,0
87054,-100,3,2,1,70,0,0
87270,-100,3,2,1,72,0,0
87487,-100,3,2,1,74,0,0
87703,-100,3,2,1,76,0,0
87920,-100,3,2,1,78,0,0
88137,-100,3,2,1,80,0,0
88353,-100,3,2,1,82,0,0
88570,-100,3,2,1,84,0,0
88787,-100,3,2,1,86,0,0
89003,-100,3,2,1,88,0,0
89220,-100,3,2,1,90,0,0
89436,-100,3,2,1,93,0,0
89653,-100,3,2,6,80,0,0
90736,-100,3,2,1,80,0,0
90953,-133.333333333333,3,2,1,80,0,0
92252,-100,3,2,3,80,0,0
94852,-100,3,2,3,75,0,0
94960,-100,3,2,3,60,0,0
95068,-100,3,2,3,75,0,0
95285,-100,3,2,3,50,0,0
96151,-100,3,2,3,75,0,0
96259,-100,3,2,3,50,0,0
96367,-100,3,2,3,75,0,0
96584,-100,3,2,3,50,0,0
97667,-100,3,2,1,80,0,1
97776,-100,3,2,1,80,0,1
97830,-100,3,2,1,80,0,1
97992,-100,3,2,1,80,0,1
98046,-100,3,2,1,80,0,1
98209,-100,3,2,1,80,0,1
98263,-100,3,2,1,80,0,1
98426,-100,3,2,1,80,0,1
98480,-100,3,2,1,80,0,1
98750,-90.9090909090909,3,2,1,80,0,1
99075,-100,3,2,1,70,0,1
99400,-100,3,2,1,80,0,1
99725,-100,3,2,1,70,0,1
100050,-100,3,2,1,80,0,1
100483,-100,3,2,1,75,0,1
100700,-100,3,2,1,80,0,1
100916,-100,3,2,1,75,0,1
101133,-100,3,2,1,80,0,1
101350,-100,3,2,1,75,0,1
101567,-100,3,2,1,80,0,1
101783,-100,3,2,1,75,0,1
102000,-100,3,2,1,80,0,1
102216,-100,3,2,1,75,0,1
102433,-100,3,2,1,80,0,1
102649,-100,3,2,1,75,0,1
102866,-100,3,2,1,80,0,1
103083,-100,3,2,1,75,0,1
103300,-100,3,2,1,80,0,1
103516,-100,3,2,1,75,0,1
103733,-100,3,2,1,80,0,1
103949,-100,3,2,1,80,0,0
104707,-100,3,2,3,80,0,0
105249,-100,3,2,1,80,0,1
105465,-100,3,2,1,85,0,1
105682,-100,3,2,1,80,0,1
105898,-100,3,2,5,80,0,1
105953,-100,3,2,1,80,0,1
106115,-100,3,2,1,85,0,1
106332,-100,3,2,1,80,0,1
106548,-100,3,2,1,85,0,1
106765,-100,3,2,1,80,0,1
106981,-100,3,2,1,85,0,1
107198,-100,3,2,5,80,0,1
107252,-100,3,2,1,80,0,1
107415,-100,3,2,1,85,0,1
107632,-100,3,2,1,80,0,1
107848,-100,3,2,1,85,0,1
108065,-100,3,2,1,80,0,1
108281,-100,3,2,1,85,0,1
108498,-100,3,2,5,80,0,1
108552,-100,3,2,1,80,0,1
108714,-100,3,2,1,85,0,1
108931,-100,3,2,1,80,0,1
109148,-100,3,2,1,85,0,1
109365,-100,3,2,1,80,0,1
109581,-100,3,2,1,85,0,1
109797,-100,3,2,5,80,0,1
109852,-100,3,2,1,80,0,1
110122,-100,3,2,3,50,0,1
110231,-100,3,2,1,80,0,0
110447,-100,3,2,4,80,0,1
110664,-100,3,2,4,75,0,1
110880,-100,3,2,4,80,0,1
111097,-100,3,2,4,75,0,1
111313,-100,3,2,4,80,0,1
111530,-100,3,2,4,75,0,1
111746,-100,3,2,4,80,0,1
111963,-100,3,2,4,75,0,1
112179,-100,3,2,4,80,0,1
112397,-100,3,2,4,75,0,1
112613,-100,3,2,4,80,0,1
112830,-100,3,2,4,75,0,1
113046,-100,3,2,4,80,0,1
113263,-100,3,2,4,75,0,1
113479,-100,3,2,4,80,0,1
113696,-100,3,2,4,75,0,1
113912,-100,3,2,4,80,0,1
114129,-100,3,2,4,75,0,1
114345,-100,3,2,4,80,0,1
114563,-100,3,2,4,75,0,1
114779,-100,3,2,4,80,0,1
114996,-100,3,2,1,80,0,1
115321,-100,3,2,2,80,0,1
115537,-100,3,2,1,80,0,1
115646,-100,3,2,1,80,0,0
115754,-100,3,2,1,60,0,0
116296,-100,3,2,1,65,0,0
116512,-100,3,2,1,60,0,0
116729,-100,3,2,1,65,0,0
116945,-100,3,2,1,60,0,0
117162,-100,3,2,1,65,0,0
117378,-100,3,2,1,60,0,0
117595,-100,3,2,1,65,0,0
117811,-100,3,2,1,60,0,0
118028,-100,3,2,1,65,0,0
118245,-100,3,2,1,80,0,1
118462,-100,3,2,1,90,0,1
118678,-100,3,2,1,80,0,1
118895,-100,3,2,1,90,0,1
119111,-100,3,2,1,80,0,1
119328,-100,3,2,1,90,0,1
119545,-100,3,2,1,80,0,1
119762,-100,3,2,1,90,0,1
119978,-100,3,2,1,80,0,1
120195,-100,3,2,1,90,0,1
120303,-100,3,2,1,80,0,0

[Colours]
Combo1 : 100,177,255
Combo2 : 140,140,255
Combo3 : 255,166,210
Combo0 : 128,255,255

[HitObjects]
328,335,1278,5,4,3:1:0:0:
355,255,1386,1,0,0:0:0:0:
340,173,1494,1,2,0:0:0:0:
286,109,1602,1,0,0:0:0:0:
208,80,1711,1,2,0:0:0:0:
304,50,1819,1,0,0:0:0:0:
201,35,1927,5,2,0:3:0:0:
174,115,2035,1,0,0:0:0:0:
189,197,2143,1,2,0:0:0:0:
243,261,2251,1,0,0:0:0:0:
321,290,2360,1,2,0:0:0:0:
220,332,2469,1,0,0:0:0:0:
321,344,2577,5,2,0:3:0:0:
348,264,2685,1,0,0:0:0:0:
333,182,2793,1,2,0:0:0:0:
279,118,2901,1,0,0:0:0:0:
201,89,3010,1,2,0:0:0:0:
114,83,3119,1,0,0:0:0:0:
214,70,3227,6,0,L|246:20,2,42.25,2|0|0,0:3|0:0|0:0,0:0:0:0:
115,168,3444,2,0,L|214:184,1,84.5,2|0,0:0|0:0,0:0:0:0:
299,251,3660,2,0,L|206:271,1,84.5,2|0,0:0|0:0,0:0:0:0:
437,349,3877,6,0,L|449:253,1,84.5,4|0,3:1|0:0,0:0:0:0:
350,251,4093,2,0,L|343:153,1,84.5,2|0,0:0|0:0,0:0:0:0:
446,128,4310,2,0,L|354:114,1,84.5,2|0,0:0|0:0,0:0:0:0:
259,123,4527,5,2,0:3:0:0:
215,46,4635,1,0,0:0:0:0:
259,123,4743,1,2,0:0:0:0:
352,147,4852,1,0,0:0:0:0:
259,123,4960,1,2,0:0:0:0:
352,147,5068,1,0,0:0:0:0:
115,206,5176,6,0,L|44:215,2,42.25,2|0|0,0:3|0:0|0:0,0:0:0:0:
211,291,5393,2,0,L|122:293,1,84.5,2|0,0:0|0:0,0:0:0:0:
29,185,5610,2,0,L|144:161,1,84.5,2|0,0:0|0:0,0:0:0:0:
349,169,5826,6,0,L|376:123,2,42.25,10|0|2,3:2|0:0|0:0,0:0:0:0:
303,184,5989,1,0,0:0:0:0:
255,191,6043,2,0,L|226:143,2,42.25,2|0|2,3:0|0:0|0:0,0:0:0:0:
303,204,6205,1,0,0:0:0:0:
439,240,6259,2,0,L|497:232,1,42.25,2|0,3:0|0:0,0:0:0:0:
342,319,6368,2,0,L|283:321,1,42.25,2|0,0:0|0:0,0:0:0:0:
459,366,6476,6,0,L|463:253,1,84.5,6|0,1:0|0:0,0:0:0:0:
234,258,6693,2,0,L|223:155,1,84.5,2|0,1:0|0:0,0:0:0:0:
336,138,6909,2,0,L|233:130,1,84.5,2|2,0:0|0:0,0:0:0:0:
33,42,7126,6,0,L|134:28,1,84.5,2|0,1:0|0:0,0:0:0:0:
339,42,7342,2,0,L|236:49,1,84.5,2|0,1:0|0:0,0:0:0:0:
149,91,7559,2,0,L|123:149,2,42.25,2|2|2,1:0|0:0|0:0,0:0:0:0:
195,82,7722,1,2,0:0:0:0:
359,200,7776,6,0,L|452:205,1,84.5,6|0,1:0|0:0,0:0:0:0:
226,330,7992,2,0,L|218:231,1,84.5,2|0,1:0|0:0,0:0:0:0:
323,259,8209,2,0,L|335:139,1,84.5,0|0,0:0|0:0,0:0:0:0:
113,162,8426,2,0,L|86:120,2,42.25,2|2|2,1:1|0:2|0:2,0:0:0:0:
211,109,8642,2,0,L|101:95,1,84.5,2|2,1:2|0:2,0:0:0:0:
336,89,8859,2,0,L|361:44,2,42.25,2|2|2,1:2|0:2|0:2,0:0:0:0:
290,99,9021,1,2,0:2:0:0:
117,248,9075,6,0,L|13:252,2,84.5,6|0|0,1:1|0:0|0:0,0:0:0:0:
333,332,9400,1,2,1:1:0:0:
309,296,9454,1,2,0:2:0:0:
276,271,9508,1,2,0:2:0:0:
235,260,9562,1,2,0:2:0:0:
193,262,9616,1,2,0:2:0:0:
408,94,9725,6,0,L|512:98,2,84.5,2|2|2,1:1|0:2|0:2,0:0:0:0:
192,178,10050,1,2,1:1:0:0:
216,142,10104,1,2,0:2:0:0:
249,117,10158,1,2,0:2:0:0:
290,106,10212,1,2,0:2:0:0:
332,108,10266,1,2,0:2:0:0:
112,63,10375,6,0,L|10:61,1,84.5,0|0,3:0|3:0,0:0:0:0:
246,218,10592,2,0,L|137:214,1,84.5,0|0,3:0|3:0,0:0:0:0:
380,304,10808,2,0,L|261:299,1,84.5,2|0,3:1|3:0,0:0:0:0:
190,310,11025,2,0,L|183:199,1,84.5,0|0,3:1|3:0,0:0:0:0:
414,198,11241,6,0,L|440:150,2,42.25,10|2|2,3:1|0:3|0:3,0:0:0:0:
368,207,11404,1,2,0:3:0:0:
207,103,11458,1,2,0:3:0:0:
159,96,11513,2,0,L|138:58,2,42.25,2|2|2,0:3|0:3|0:3,0:0:0:0:
357,97,11675,5,4,3:1:0:0:
446,322,11891,6,0,L|266:255,1,169,2|0,0:0|0:0,0:0:0:0:
100,246,12324,2,0,L|90:78,1,169,2|0,0:0|0:0,0:0:0:0:
263,45,12758,1,2,0:0:0:0:
66,52,12974,6,0,P|65:104|239:212,3,253.5,2|2|2|2,0:0|0:0|0:3|0:3,0:0:0:0:
251,215,14003,1,2,0:3:0:0:
283,190,14057,1,2,0:3:0:0:
295,150,14111,1,2,0:3:0:0:
281,110,14165,1,2,0:3:0:0:
50,52,14274,6,0,L|43:229,1,169,4|0,3:1|0:0,0:0:0:0:
256,233,14599,2,0,L|263:322,1,84.5,2|0,3:1|0:0,0:0:0:0:
171,351,14815,1,0,0:0:0:0:
386,358,14924,6,0,L|485:355,2,84.5,2|0|0,3:1|0:0|0:0,0:0:0:0:
180,258,15249,2,0,L|173:169,1,84.5,2|0,3:1|0:1,0:0:0:0:
265,140,15465,1,0,0:0:0:0:
480,144,15574,2,0,L|485:53,1,84.5,2|0,3:1|0:0,0:0:0:0:
390,46,15790,1,0,0:0:0:0:
175,75,15898,2,0,L|270:126,1,84.5,2|0,3:1|0:0,0:0:0:0:
344,122,16115,1,0,0:0:0:0:
126,215,16223,6,0,L|27:227,1,84.5,6|0,3:1|0:0,0:0:0:0:
285,315,16440,2,0,L|385:318,1,84.5,6|0,3:1|0:0,0:0:0:0:
148,353,16657,2,0,L|135:251,1,84.5,8|8,0:2|0:2,0:0:0:0:
389,231,16873,6,0,L|401:122,1,84.5,6|0,3:1|0:0,0:0:0:0:
293,147,17090,2,0,L|287:54,1,84.5,2|0,3:1|0:0,0:0:0:0:
74,42,17306,2,0,L|173:28,1,84.5,2|0,3:1|0:0,0:0:0:0:
363,284,17523,2,0,L|278:275,1,84.5,2|0,3:1|0:0,0:0:0:0:
181,240,17740,2,0,L|283:215,1,84.5,2|0,3:1|0:0,0:0:0:0:
476,229,17956,2,0,L|486:111,1,84.5,2|0,3:1|0:0,0:0:0:0:
271,105,18173,6,0,L|175:99,2,84.5,2|0|0,3:1|0:0|3:0,0:0:0:0:
66,151,18498,2,0,L|58:34,1,84.5,2|0,0:1|3:0,0:0:0:0:
152,45,18714,1,0,0:0:0:0:
369,146,18823,6,0,L|270:184,1,84.5,2|0,3:1|0:0,0:0:0:0:
198,172,19039,1,0,3:0:0:0:
415,243,19148,1,2,0:1:0:0:
321,274,19256,2,0,L|296:325,2,42.25,0|2|2,3:0|0:3|0:3,0:0:0:0:
365,267,19418,1,2,0:3:0:0:
211,320,19472,5,2,3:1:0:0:
118,324,19581,1,0,0:0:0:0:
79,241,19689,1,0,3:0:0:0:
118,324,19797,1,0,0:0:0:0:
329,181,19906,2,0,L|232:177,1,84.5,2|0,3:1|0:0,0:0:0:0:
24,72,20122,6,0,L|124:58,2,84.5,2|0|0,3:1|0:0|3:1,0:0:0:0:
225,78,20447,2,0,L|327:68,2,84.5,2|0|0,0:1|3:0|0:0,0:0:0:0:
438,145,20772,2,0,L|475:43,2,84.5,2|0|0,3:1|0:0|3:0,0:0:0:0:
344,178,21097,2,0,L|252:186,2,84.5,2|0|0,0:1|3:0|0:0,0:0:0:0:
149,271,21422,6,0,L|45:288,1,84.5,2|0,3:1|0:0,0:0:0:0:
281,342,21639,2,0,L|376:348,1,84.5,2|0,3:1|0:0,0:0:0:0:
167,339,21855,2,0,L|142:390,2,42.25,2|2|2,3:2|3:2|3:2,0:0:0:0:
211,332,22017,1,2,3:2:0:0:
375,292,22072,6,0,L|466:279,1,84.5,6|0,3:1|0:0,0:0:0:0:
261,254,22288,2,0,L|246:162,1,84.5,2|0,3:1|0:0,0:0:0:0:
448,131,22505,2,0,L|351:119,1,84.5,2|2,3:1|0:1,0:0:0:0:
149,50,22722,6,0,L|336:30,1,169,2|0,3:1|3:0,0:0:0:0:
106,144,23046,2,0,L|56:46,2,84.5,2|0|0,0:1|3:0|0:0,0:0:0:0:
325,180,23371,6,0,L|246:224,1,84.5,6|0,3:1|0:0,0:0:0:0:
156,234,23588,1,2,0:2:0:0:
377,314,23696,2,0,L|403:266,2,42.25,2|0|2,3:1|0:0|0:3,0:0:0:0:
283,336,23913,1,2,0:3:0:0:
46,278,24021,6,0,L|139:237,1,84.5,6|2,3:1|0:0,0:0:0:0:
216,235,24238,1,2,0:0:0:0:
432,186,24346,1,2,3:1:0:0:
338,148,24454,1,2,0:0:0:0:
295,146,24508,1,0,0:0:0:0:
253,144,24562,1,2,0:0:0:0:
472,47,24671,6,0,L|479:151,1,84.5,6|0,3:1|0:0,0:0:0:0:
369,162,24888,2,0,L|360:265,1,84.5,2|0,3:1|0:0,0:0:0:0:
249,317,25104,2,0,L|355:314,1,84.5,2|0,3:1|0:0,0:0:0:0:
129,213,25321,6,0,L|26:211,2,84.5,2|0|2,3:1|0:0|3:1,0:0:0:0:
334,137,25646,2,0,L|237:113,1,84.5,2|0,0:1|3:0,0:0:0:0:
156,116,25862,1,0,0:0:0:0:
375,50,25971,6,0,L|483:43,1,84.5,6|0,3:1|0:0,0:0:0:0:
242,37,26187,1,2,3:1:0:0:
339,61,26296,2,0,L|368:129,2,42.25,2|2|2,0:2|0:2|3:1,0:0:0:0:
242,37,26512,1,0,0:0:0:0:
21,245,26620,6,0,L|145:262,1,84.5,6|0,3:1|0:0,0:0:0:0:
330,352,26837,2,0,L|229:364,1,84.5,6|0,3:1|0:0,0:0:0:0:
46,366,27054,2,0,L|41:270,1,84.5,8|8,0:2|0:2,0:0:0:0:
273,191,27270,6,0,L|175:189,1,84.5,6|0,3:1|0:0,0:0:0:0:
89,125,27487,2,0,L|193:102,1,84.5,2|0,3:1|0:0,0:0:0:0:
264,91,27703,1,2,3:1:0:0:
63,29,27812,2,0,L|10:35,1,42.25,0|0,0:0|0:0,0:0:0:0:
176,169,27920,6,0,L|296:187,1,84.5,2|0,3:1|0:0,0:0:0:0:
43,275,28137,2,0,L|11:224,2,42.25,2|2|2,3:1|0:2|0:2,0:0:0:0:
87,286,28299,1,2,0:2:0:0:
243,319,28353,2,0,L|341:321,1,84.5,2|2,3:1|0:2,0:0:0:0:
72,371,28570,5,6,3:1:0:0:
170,364,28678,2,0,L|194:312,2,42.25,2|2|2,0:2|0:2|3:1,0:0:0:0:
72,371,28895,1,2,0:2:0:0:
297,235,29003,2,0,L|193:232,1,84.5,2|2,3:1|0:2,0:0:0:0:
421,135,29220,1,6,3:2:0:0:
212,232,29328,1,0,3:0:0:0:
421,135,29436,6,0,L|434:319,1,169,8|4,3:1|0:2,0:0:0:0:
86,333,29870,5,4,3:3:0:0:
57,197,30303,1,2,0:0:0:0:
218,232,30519,1,2,0:0:0:0:
136,97,30736,1,2,0:0:0:0:
218,232,30953,1,2,0:0:0:0:
53,264,31169,6,0,P|43:149|223:17,1,338,2|2,0:3|0:0,0:0:0:0:
366,25,31819,1,2,0:0:0:0:
428,173,32036,1,2,0:0:0:0:
366,25,32252,1,2,0:0:0:0:
187,24,32469,6,0,L|185:376,1,338,2|2,0:3|0:0,0:0:0:0:
379,355,33119,2,0,P|383:270|155:384,2,507,2|2|2,0:3|0:3|0:3,0:0:0:0:
338,361,34472,5,2,0:0:0:0:
302,340,34526,1,2,0:0:0:0:
288,301,34580,1,2,0:0:0:0:
303,263,34634,1,2,0:0:0:0:
339,242,34688,1,0,0:0:0:0:
381,241,34743,2,0,L|445:243,1,42.25,2|2,0:1|0:0,0:0:0:0:
282,161,34852,2,0,L|219:166,1,42.25,2|2,0:1|0:0,0:0:0:0:
381,241,34960,2,0,L|432:242,1,42.25,2|2,0:1|0:0,0:0:0:0:
252,279,35068,6,0,L|138:286,1,84.5,6|0,3:1|0:0,0:0:0:0:
270,355,35285,2,0,L|274:240,1,84.5,2|0,3:1|0:0,0:0:0:0:
57,248,35501,2,0,L|50:161,1,84.5,2|0,3:1|0:0,0:0:0:0:
266,128,35718,2,0,L|379:117,1,84.5,2|0,3:1|0:0,0:0:0:0:
141,102,35935,2,0,L|134:-4,1,84.5,2|0,3:1|0:0,0:0:0:0:
344,15,36151,2,0,L|356:129,1,84.5,2|0,3:1|0:0,0:0:0:0:
143,192,36368,6,0,L|46:204,2,84.5,2|0|0,3:1|0:0|3:0,0:0:0:0:
362,258,36693,2,0,L|246:301,1,84.5,2|0,0:1|3:0,0:0:0:0:
188,300,36909,1,0,0:0:0:0:
403,349,37018,6,0,L|505:351,1,84.5,2|0,3:1|0:0,0:0:0:0:
278,357,37234,2,0,L|266:251,1,84.5,2|0,3:1|0:0,0:0:0:0:
479,213,37451,2,0,L|503:165,2,42.25,2|0|0,3:1|3:0|3:0,0:0:0:0:
433,226,37613,1,0,3:0:0:0:
260,182,37667,6,0,L|152:169,1,84.5,2|0,3:1|0:0,0:0:0:0:
286,102,37884,2,0,L|389:83,1,84.5,2|0,3:1|0:0,0:0:0:0:
152,24,38101,2,0,L|38:37,1,84.5,2|0,3:1|0:0,0:0:0:0:
293,128,38317,2,0,L|303:250,1,84.5,2|0,3:1|0:0,0:0:0:0:
81,241,38534,2,0,L|72:358,1,84.5,2|0,3:1|0:0,0:0:0:0:
291,267,38750,2,0,L|303:374,1,84.5,2|0,3:1|0:0,0:0:0:0:
82,357,38967,6,0,L|188:326,1,84.5,2|0,3:1|0:0,0:0:0:0:
272,326,39184,2,0,L|278:210,1,84.5,2|0,3:1|0:0,0:0:0:0:
64,190,39400,2,0,L|156:178,1,84.5,2|0,3:1|0:0,0:0:0:0:
361,170,39617,2,0,L|367:75,1,84.5,2|0,3:1|0:0,0:0:0:0:
154,51,39833,2,0,L|255:35,1,84.5,2|0,3:1|0:0,0:0:0:0:
466,80,40050,6,0,L|475:143,3,42.25,2|2|2|2,0:3|0:3|0:3|0:3,0:0:0:0:
283,266,40267,6,0,L|172:286,1,84.5,6|0,3:1|0:0,0:0:0:0:
414,355,40483,2,0,L|419:242,1,84.5,2|0,3:1|0:0,0:0:0:0:
316,244,40700,2,0,L|432:234,1,84.5,8|8,0:1|0:1,0:0:0:0:
164,296,40916,5,8,0:1:0:0:
244,286,41024,1,0,0:0:0:0:
282,214,41132,1,2,0:3:0:0:
244,142,41240,1,0,0:0:0:0:
163,133,41349,1,8,0:1:0:0:
260,110,41458,1,8,0:1:0:0:
51,127,41566,6,0,L|43:34,1,84.5,6|0,3:1|0:0,0:0:0:0:
243,24,41783,1,6,3:1:0:0:
158,51,41891,2,0,L|57:54,1,84.5,2|8,0:2|0:1,0:0:0:0:
164,148,42108,2,0,L|227:147,1,42.25,8|0,0:1|0:0,0:0:0:0:
350,309,42216,5,8,0:1:0:0:
391,220,42324,1,2,0:0:0:0:
350,309,42433,1,2,0:3:0:0:
255,343,42541,1,2,0:0:0:0:
360,353,42649,2,0,L|370:288,3,42.25,8|8|8|8,0:1|0:1|0:1|0:1,0:0:0:0:
203,260,42866,6,0,L|113:257,1,84.5,6|0,3:1|0:0,0:0:0:0:
329,186,43083,2,0,L|417:179,1,84.5,2|0,3:1|0:0,0:0:0:0:
316,134,43299,1,8,0:1:0:0:
216,100,43407,2,0,L|273:91,1,42.25,8|8,0:1|0:1,0:0:0:0:
417,85,43516,2,0,L|421:191,1,84.5,8|0,0:1|0:0,0:0:0:0:
315,224,43732,2,0,L|417:224,1,84.5,2|0,0:3|0:0,0:0:0:0:
293,299,43949,2,0,L|186:312,1,84.5,8|8,0:1|0:1,0:0:0:0:
426,359,44166,6,0,L|432:269,1,84.5,6|0,3:1|0:0,0:0:0:0:
221,219,44382,1,6,3:1:0:0:
316,218,44490,2,0,L|208:189,1,84.5,8|8,0:1|0:1,0:0:0:0:
132,131,44707,2,0,L|174:130,1,42.25,8|8,0:1|0:1,0:0:0:0:
335,37,44815,5,8,0:1:0:0:
428,49,44924,1,2,0:0:0:0:
466,144,45032,1,8,0:3:0:0:
428,49,45140,1,8,0:3:0:0:
222,27,45249,2,0,L|278:16,1,42.25,8|8,3:1|3:1,0:0:0:0:
406,139,45357,2,0,L|339:147,1,42.25,8|8,3:1|3:1,0:0:0:0:
203,175,45465,6,0,L|98:182,1,84.5,6|0,3:1|0:0,0:0:0:0:
325,266,45682,1,0,3:0:0:0:
121,293,45790,2,0,L|14:304,1,84.5,2|2,0:1|3:2,0:0:0:0:
243,349,46007,1,2,0:2:0:0:
37,329,46115,6,0,L|14:286,2,42.25,8|8|8,0:1|0:1|0:1,0:0:0:0:
82,338,46278,1,8,0:1:0:0:
238,329,46332,2,0,L|248:278,3,42.25,8|8|8|8,0:1|0:1|0:1|0:1,0:0:0:0:
402,243,46548,2,0,L|453:238,1,42.25,8|8,0:1|0:1,0:0:0:0:
301,173,46657,2,0,L|230:175,1,42.25,8|8,0:1|0:1,0:0:0:0:
434,143,46765,6,0,L|437:46,1,84.5,6|0,3:1|0:0,0:0:0:0:
237,37,46981,1,0,3:1:0:0:
442,48,47090,2,0,L|470:6,2,42.25,2|2|2,0:1|0:2|3:2,0:0:0:0:
235,114,47306,1,2,0:2:0:0:
453,162,47415,6,0,L|476:205,2,42.25,8|8|8,0:1|0:1|0:1,0:0:0:0:
408,153,47578,1,8,0:1:0:0:
249,180,47632,2,0,L|239:231,3,42.25,8|8|8|8,0:1|0:1|0:1|0:1,0:0:0:0:
80,259,47848,2,0,L|29:264,1,42.25,8|8,0:1|0:1,0:0:0:0:
189,318,47957,2,0,L|260:316,1,42.25,8|8,0:1|0:1,0:0:0:0:
50,362,48065,6,0,L|40:264,1,84.5,6|0,3:1|3:0,0:0:0:0:
244,229,48281,2,0,L|131:231,1,84.5,2|0,3:1|3:0,0:0:0:0:
380,156,48498,2,0,L|467:154,1,84.5,2|2,3:1|3:2,0:0:0:0:
241,152,48714,5,6,3:1:0:0:
200,146,48768,1,2,0:2:0:0:
181,110,48822,1,2,3:2:0:0:
199,74,48876,1,2,0:2:0:0:
239,67,48930,1,2,3:1:0:0:
343,63,49039,1,0,3:0:0:0:
121,23,49148,2,0,L|13:30,1,84.5,2|0,3:1|3:0,0:0:0:0:
271,210,49364,6,0,L|296:166,2,42.25,6|0|0,3:1|3:0|3:0,0:0:0:0:
226,221,49527,1,0,3:0:0:0:
58,169,49581,2,0,L|33:125,2,42.25,2|0|0,3:1|3:0|3:0,0:0:0:0:
103,180,49744,1,0,3:0:0:0:
269,297,49797,2,0,L|333:300,1,42.25,2|0,3:1|3:0,0:0:0:0:
135,357,49906,2,0,L|83:362,1,42.25,0|0,3:0|3:0,0:0:0:0:
299,376,50014,5,4,3:3:0:0:
454,368,50231,2,2,L|459:184,1,169,2|2,0:1|0:1,0:1:0:0:
94,161,50664,6,0,L|303:138,1,187.590004579834,6|0,3:1|3:0,0:0:0:0:
27,65,50989,2,0,L|220:40,1,187.590004579834,2|0,0:1|0:0,0:0:0:0:
443,147,51314,5,6,3:2:0:0:
349,151,51422,1,2,0:1:0:0:
307,164,51476,1,2,0:2:0:0:
290,205,51530,1,2,3:2:0:0:
307,164,51584,1,2,0:2:0:0:
349,151,51639,2,0,L|403:161,1,46.8975011449585,2|2,0:1|0:2,0:0:0:0:
244,315,51747,2,0,L|177:325,1,46.8975011449585,2|2,3:1|0:0,0:0:0:0:
346,355,51855,2,0,L|408:360,1,46.8975011449585,2|2,0:1|0:0,0:0:0:0:
221,368,51963,6,0,L|23:323,1,187.590004579834,6|0,3:1|3:0,0:0:0:0:
253,278,52288,2,0,L|51:240,1,187.590004579834,2|0,0:1|0:0,0:0:0:0:
299,209,52613,6,0,L|332:150,2,46.8975011449585,6|2|2,3:2|0:2|0:2,0:0:0:0:
250,220,52776,1,2,0:2:0:0:
90,131,52830,2,0,L|57:72,2,46.8975011449585,2|2|2,3:1|0:2|0:1,0:0:0:0:
138,141,52993,1,2,0:2:0:0:
283,99,53046,2,0,L|348:89,1,46.8975011449585,2|2,3:1|0:2,0:0:0:0:
184,36,53155,2,0,L|105:37,1,46.8975011449585,2|2,0:1|0:2,0:0:0:0:
297,145,53263,6,0,L|485:195,1,187.590004579834,6|0,3:1|3:0,0:0:0:0:
251,245,53588,2,0,L|441:300,1,187.590004579834,2|0,3:1|0:0,0:0:0:0:
216,350,53913,6,0,L|152:339,1,46.8975011449585,6|2,3:1|0:2,0:0:0:0:
215,331,54021,2,0,L|282:327,1,46.8975011449585,2|2,0:2|0:2,0:0:0:0:
127,276,54129,2,0,L|74:270,1,46.8975011449585,2|2,3:1|0:2,0:0:0:0:
223,231,54238,2,0,L|278:220,1,46.8975011449585,2|2,0:2|0:2,0:0:0:0:
107,182,54346,1,2,3:1:0:0:
58,180,54400,2,0,L|29:123,2,46.8975011449585,2|2|2,0:2|0:2|0:2,0:0:0:0:
227,158,54563,6,0,P|240:102|127:51,1,187.590004579834,6|0,3:1|3:0,0:0:0:0:
383,226,54888,2,0,P|396:170|283:119,1,187.590004579834,2|0,3:1|0:0,0:0:0:0:
72,264,55213,6,0,L|181:290,1,93.7950022899171,2|0,3:1|0:0,0:0:0:0:
395,338,55429,2,0,L|281:364,1,93.7950022899171,2|2,3:1|3:1,0:0:0:0:
61,360,55646,2,0,L|50:245,1,93.7950022899171,2|0,3:1|0:0,0:0:0:0:
259,188,55862,6,0,L|127:185,1,93.7950022899171,6|0,3:1|0:0,0:0:0:0:
381,126,56079,2,0,L|488:109,1,93.7950022899171,2|0,3:1|0:0,0:0:0:0:
273,108,56296,2,0,L|261:-1,1,93.7950022899171,2|0,3:1|0:0,0:0:0:0:
465,6,56512,5,2,3:1:0:0:
424,10,56566,1,2,0:2:0:0:
405,50,56620,1,2,0:2:0:0:
426,89,56674,1,2,0:2:0:0:
469,117,56729,2,0,L|421:128,1,46.8975011449585,2|2,3:1|0:2,0:0:0:0:
282,205,56837,2,0,L|226:213,1,46.8975011449585,2|2,0:2|0:2,0:0:0:0:
377,292,56945,2,0,L|492:317,1,93.7950022899171,2|0,3:1|3:0,3:0:0:0:
193,346,57162,6,0,L|89:342,2,93.7950022899171,6|0|0,3:1|0:0|3:0,0:0:0:0:
375,316,57487,2,0,L|269:293,2,93.7950022899171,6|0|0,3:1|0:0|3:0,0:0:0:0:
168,245,57812,6,0,L|364:175,1,187.590004579834,6|0,3:1|3:0,0:0:0:0:
137,128,58137,2,0,L|72:120,1,46.8975011449585,2|2,3:1|0:0,0:0:0:0:
233,113,58245,1,2,0:0:0:0:
279,110,58299,2,0,L|303:47,2,46.8975011449585,2|2|0,0:0|3:1|0:0,0:0:0:0:
106,181,58462,6,0,L|6:191,1,84.5,6|0,3:1|0:0,0:0:0:0:
231,237,58678,2,0,L|243:340,1,84.5,2|2,3:1|0:0,0:0:0:0:
452,334,58895,2,0,L|458:241,1,84.5,2|0,3:1|0:0,0:0:0:0:
253,142,59111,6,0,L|371:129,1,84.5,2|0,3:1|0:0,0:0:0:0:
132,67,59328,2,0,L|38:58,1,84.5,2|0,3:1|0:0,0:0:0:0:
275,30,59545,2,0,L|285:146,1,84.5,2|0,3:1|0:0,0:0:0:0:
47,164,59761,6,0,L|41:260,1,84.5,6|0,3:1|0:0,0:0:0:0:
238,291,59978,1,2,3:1:0:0:
41,353,60086,2,0,L|10:301,2,42.25,2|0|0,0:1|0:0|3:0,0:0:0:0:
85,358,60249,1,0,3:0:0:0:
223,358,60303,2,0,L|273:360,1,42.25,0|0,3:0|3:0,0:0:0:0:
109,258,60411,2,0,L|10:261,1,84.5,2|0,3:1|3:0,0:0:0:0:
276,169,60628,6,0,L|454:131,1,169,2|6,3:1|0:2,0:0:0:0:
72,38,61061,6,0,L|61:137,1,84.5,14|0,3:2|3:2,0:0:0:0:
265,241,61278,2,0,L|148:251,1,84.5,10|0,3:2|3:2,0:0:0:0:
382,302,61494,2,0,L|505:309,1,84.5,10|0,3:2|3:2,0:0:0:0:
248,370,61711,6,0,L|241:273,1,84.5,10|0,3:2|3:2,0:0:0:0:
25,221,61927,2,0,L|114:214,1,84.5,10|0,3:2|3:2,0:0:0:0:
319,104,62144,2,0,L|230:100,1,84.5,10|0,3:2|3:2,0:0:0:0:
454,178,62361,6,0,L|459:58,1,84.5,10|0,3:2|3:2,0:0:0:0:
252,220,62577,2,0,L|241:119,1,84.5,10|0,3:2|3:2,0:0:0:0:
35,73,62794,2,0,L|27:166,1,84.5,10|0,3:2|3:2,0:0:0:0:
245,184,63010,5,10,3:2:0:0:
290,187,63065,2,0,L|314:131,2,42.25,2|2|2,3:2|3:2|3:2,3:0:0:0:
125,269,63227,1,10,3:2:0:0:
80,272,63282,2,0,L|56:216,2,42.25,2|0|0,3:2|3:0|3:0,3:0:0:0:
234,309,63444,2,0,L|279:311,1,42.25,10|2,3:2|3:2,3:0:0:0:
111,364,63552,2,0,L|57:368,1,42.25,2|2,3:2|3:2,3:0:0:0:
251,358,63660,6,0,L|353:349,2,84.5,14|0|10,3:2|3:2|3:2,0:0:0:0:
467,306,63985,1,4,3:2:0:0:
374,290,64093,2,0,L|366:171,1,84.5,10|0,3:2|3:2,0:0:0:0:
155,180,64310,6,0,L|192:133,1,42.25,10|2,3:2|3:2,0:0:0:0:
228,131,64418,2,0,L|279:122,1,42.25,2|2,3:2|3:2,0:0:0:0:
424,104,64527,2,0,L|387:57,1,42.25,10|2,3:2|3:2,0:0:0:0:
351,55,64635,2,0,L|300:46,1,42.25,2|2,3:2|3:2,0:0:0:0:
154,44,64743,2,0,L|89:47,1,42.25,10|2,3:2|3:2,0:0:0:0:
277,148,64852,2,0,L|328:145,1,42.25,2|2,3:2|3:2,0:0:0:0:
144,258,64960,6,0,L|38:257,2,84.5,14|0|10,3:2|3:2|3:2,0:0:0:0:
356,350,65285,2,0,L|305:328,1,42.25,4|0,3:2|3:2,0:0:0:0:
270,334,65393,1,10,3:2:0:0:
369,289,65501,1,0,3:2:0:0:
140,308,65610,6,0,L|109:259,2,42.25,14|0|0,3:2|3:2|3:2,3:0:0:0:
186,313,65772,1,0,3:2:0:0:
339,206,65826,2,0,L|385:198,1,42.25,14|0,3:2|3:0,3:0:0:0:
212,146,65935,2,0,L|130:142,1,42.25,0|0,3:0|3:0,3:0:0:0:
336,101,66043,2,0,L|440:91,1,84.5,6|0,0:2|0:0,0:0:0:0:
128,26,66259,6,0,L|103:81,2,42.25,4|0|0,3:1|3:0|3:0,0:0:0:0:
172,19,66422,1,0,3:0:0:0:
330,88,66476,2,0,L|380:83,1,42.25,0|0,3:0|3:0,0:0:0:0:
218,193,66584,2,0,L|162:200,1,42.25,0|0,3:0|3:0,0:0:0:0:
343,264,66693,2,0,L|368:319,2,42.25,0|0|0,3:0|3:0|3:0,0:0:0:0:
299,257,66856,1,0,3:0:0:0:
128,356,66909,5,12,3:2:0:0:
85,281,67018,1,0,3:2:0:0:
128,356,67126,1,12,3:2:0:0:
223,364,67234,1,0,3:2:0:0:
16,197,67342,2,0,L|114:180,1,84.5,12|0,3:2|3:2,0:0:0:0:
341,142,67559,6,0,L|295:102,1,42.25,4|0,3:1|3:0,0:0:0:0:
263,103,67667,2,0,L|201:102,1,42.25,0|0,3:0|3:0,0:0:0:0:
370,55,67776,2,0,L|450:45,1,42.25,0|0,3:0|3:0,0:0:0:0:
274,20,67884,2,0,L|204:27,1,42.25,0|0,3:0|3:0,0:0:0:0:
381,149,67992,2,0,L|438:145,1,42.25,0|0,3:0|3:0,0:0:0:0:
283,195,68101,2,0,L|224:200,1,42.25,0|0,3:0|3:0,0:0:0:0:
404,324,68209,5,4,3:0:0:0:
471,333,68317,2,0,L|491:288,1,42.25,2|2,0:0|0:0,0:0:0:0:
471,333,68426,2,0,L|310:280,1,169,2|6,0:0|0:2,0:0:0:0:
14,25,68859,5,6,3:1:0:0:
165,16,69075,1,2,0:2:0:0:
498,359,70158,5,2,0:0:0:0:
347,368,70374,1,2,0:0:0:0:
62,351,71025,1,2,0:0:0:0:
60,320,71241,1,2,0:0:0:0:
449,181,71458,5,4,3:1:0:0:
309,169,71674,1,2,0:0:0:0:
26,18,72758,5,2,0:0:0:0:
170,3,72974,1,2,0:0:0:0:
427,160,73407,1,2,0:0:0:0:
430,186,73624,1,2,0:0:0:0:
84,334,74057,5,14,3:1:0:0:
218,351,74274,1,2,0:0:0:0:
226,266,74382,1,2,0:0:0:0:
235,182,74490,1,2,0:0:0:0:
244,98,74598,1,2,0:0:0:0:
130,60,74707,1,4,0:0:0:0:
287,24,74924,1,2,0:0:0:0:
128,31,75140,1,2,0:0:0:0:
458,82,75357,5,4,3:0:0:0:
310,109,75574,1,0,0:0:0:0:
285,188,75682,1,2,0:0:0:0:
307,268,75790,1,2,0:0:0:0:
369,323,75898,1,2,0:0:0:0:
485,354,76007,1,4,0:0:0:0:
328,352,76223,1,2,0:0:0:0:
485,354,76440,1,2,0:0:0:0:
131,350,76657,5,4,3:0:0:0:
259,354,76873,1,2,0:0:0:0:
264,269,76981,1,2,0:0:0:0:
269,185,77089,1,2,0:0:0:0:
274,100,77197,1,2,0:0:0:0:
164,80,77306,1,4,0:0:0:0:
319,40,77523,1,2,0:0:0:0:
162,62,77740,1,2,0:0:0:0:
470,32,77956,5,12,3:0:0:0:
321,57,78173,1,2,0:0:0:0:
400,75,78281,1,2,0:0:0:0:
437,148,78389,1,2,0:0:0:0:
405,223,78497,1,2,0:0:0:0:
326,246,78606,6,0,L|207:243,1,84.5,6|2,0:0|0:0,0:0:0:0:
339,281,78823,2,0,L|448:275,1,84.5,2|0,0:0|0:0,0:0:0:0:
320,315,79039,2,0,L|411:311,1,84.5,2|2,0:0|0:0,0:0:0:0:
170,356,79256,6,0,L|45:351,1,84.5,12|0,3:0|0:0,0:0:0:0:
190,359,79472,1,2,3:2:0:0:
196,274,79580,1,0,0:0:0:0:
203,190,79688,1,2,3:2:0:0:
210,106,79796,1,0,0:0:0:0:
99,44,79906,6,0,L|205:27,1,84.5,2|0,3:2|0:2,0:0:0:0:
285,40,80122,1,2,3:2:0:0:
290,124,80230,1,0,0:2:0:0:
296,208,80338,1,2,3:2:0:0:
302,292,80446,1,0,0:0:0:0:
82,336,80555,6,0,L|77:220,1,84.5,2|0,3:2|0:2,0:0:0:0:
183,239,80772,1,2,3:2:0:0:
92,220,80880,1,0,0:2:0:0:
48,143,80989,1,2,3:2:0:0:
92,220,81097,1,0,0:2:0:0:
308,226,81205,6,0,L|334:181,2,42.25,2|0|2,3:2|0:2|0:2,0:0:0:0:
209,272,81422,2,0,L|305:295,1,84.5,2|0,3:2|0:2,0:0:0:0:
193,345,81639,2,0,L|186:231,1,84.5,2|0,3:2|0:2,0:0:0:0:
404,209,81855,6,0,L|297:186,1,84.5,2|0,3:2|0:2,0:0:0:0:
224,138,82072,2,0,L|320:117,1,84.5,2|0,3:2|0:2,0:0:0:0:
404,117,82288,2,0,L|410:18,1,84.5,2|0,3:2|0:2,0:0:0:0:
196,185,82505,6,0,L|303:208,1,84.5,2|0,3:2|0:2,0:0:0:0:
376,255,82722,2,0,L|280:276,1,84.5,2|0,3:2|0:2,0:0:0:0:
196,277,82938,2,0,L|188:374,1,84.5,2|0,3:2|0:2,0:0:0:0:
410,362,83155,6,0,L|437:319,2,42.25,2|2|2,3:2|0:2|0:2,0:0:0:0:
310,358,83371,1,2,3:2:0:0:
266,283,83480,1,0,0:2:0:0:
310,358,83588,1,2,3:2:0:0:
410,362,83696,1,0,0:2:0:0:
189,161,83805,5,2,3:2:0:0:
289,165,83913,1,2,0:2:0:0:
333,240,84021,1,2,3:2:0:0:
289,165,84129,1,2,0:2:0:0:
189,161,84238,1,2,3:2:0:0:
282,141,84346,2,0,L|336:139,1,42.25,2|2,3:2|3:2,0:0:0:0:
151,71,84454,6,0,L|51:70,1,84.5,6|0,1:1|0:2,0:0:0:0:
286,50,84671,1,2,1:2:0:0:
294,134,84779,1,0,0:2:0:0:
302,218,84887,1,10,0:1:0:0:
310,302,84995,1,10,0:1:0:0:
85,366,85104,6,0,L|197:364,1,84.5,2|0,1:1|0:2,0:0:0:0:
273,354,85321,2,0,L|280:261,1,84.5,2|0,1:1|0:2,0:0:0:0:
61,258,85537,2,0,L|50:154,1,84.5,10|10,0:1|0:1,0:0:0:0:
266,139,85754,6,0,L|350:139,1,84.5,6|0,1:1|0:2,0:0:0:0:
115,38,85971,1,2,1:1:0:0:
107,122,86079,1,0,0:2:0:0:
99,206,86187,1,10,0:1:0:0:
91,290,86295,1,10,0:1:0:0:
314,359,86404,6,0,L|342:302,2,42.25,2|0|0,1:1|0:1|0:1,0:0:0:0:
212,360,86620,1,2,1:1:0:0:
169,288,86729,1,0,0:1:0:0:
212,360,86837,1,10,1:1:0:0:
312,360,86945,1,8,0:1:0:0:
120,296,87054,5,6,1:1:0:0:
314,271,87162,2,0,L|414:256,1,84.5,2|0,1:1|0:1,0:0:0:0:
183,223,87379,1,2,1:1:0:0:
176,138,87487,1,8,0:1:0:0:
170,54,87595,1,10,3:1:0:0:
391,69,87703,2,0,L|285:64,1,84.5,6|0,1:1|0:1,0:0:0:0:
83,41,87920,2,0,L|188:27,1,84.5,2|2,1:1|3:1,0:0:0:0:
388,135,88137,2,0,L|403:239,1,84.5,10|8,1:1|0:1,0:0:0:0:
191,272,88353,5,6,1:1:0:0:
402,266,88462,2,0,L|313:332,1,84.5,10|8,3:1|0:1,0:0:0:0:
113,376,88678,2,0,L|191:335,1,84.5,2|10,1:1|3:1,0:0:0:0:
283,338,88895,1,8,0:1:0:0:
65,302,89003,2,0,L|50:193,1,84.5,6|8,1:1|0:1,0:0:0:0:
281,237,89220,2,0,L|294:131,1,84.5,10|2,1:1|3:1,0:0:0:0:
47,98,89436,2,0,L|15:51,2,42.25,10|0|8,1:1|0:0|0:1,0:0:0:0:
94,105,89599,1,0,0:0:0:0:
283,338,89653,6,0,P|332:257|121:374,1,845,6|2,3:1|0:0,0:0:0:0:
190,368,90844,1,2,0:0:0:0:
432,369,90953,6,0,P|314:340|495:-4,1,697.125026593209,6|0,0:2|0:0,0:0:0:0:
228,192,92252,5,4,3:3:0:0:
249,234,94852,6,0,L|244:125,1,84.5,2|0,1:2|0:0,0:0:0:0:
140,189,95068,1,2,1:2:0:0:
183,118,95176,1,0,0:0:0:0:
262,93,95284,1,2,0:2:0:0:
171,84,95393,1,2,0:2:0:0:
262,93,95501,6,0,L|350:89,1,84.5,2|0,0:2|0:0,0:0:0:0:
251,167,95718,2,0,L|248:264,1,84.5,2|0,0:0|0:0,0:0:0:0:
349,251,95935,2,0,L|355:358,1,84.5,2|2,0:2|0:2,0:0:0:0:
247,362,96151,6,0,L|242:270,1,84.5,2|0,1:2|0:0,0:0:0:0:
349,251,96368,1,2,1:2:0:0:
306,180,96476,1,0,0:0:0:0:
227,155,96584,1,2,0:2:0:0:
318,146,96693,1,2,0:2:0:0:
225,124,96801,6,0,L|114:118,1,84.5,2|2,0:2|0:2,0:0:0:0:
244,107,97018,2,0,L|269:58,2,42.25,2|2|2,1:0|1:0|1:0,0:0:0:0:
200,119,97180,1,2,1:0:0:0:
53,221,97234,2,0,L|117:235,1,42.25,10|10,1:2|1:2,0:0:0:0:
241,277,97342,2,0,L|285:274,1,42.25,10|10,1:2|1:2,0:0:0:0:
83,365,97667,6,0,L|69:253,1,84.5,6|2,3:1|0:1,0:0:0:0:
270,203,97884,2,0,L|150:202,1,84.5,2|2,3:1|0:1,0:0:0:0:
394,134,98101,2,0,L|272:129,1,84.5,2|2,3:1|0:1,0:0:0:0:
88,55,98317,2,0,L|211:44,1,84.5,2|2,3:1|0:1,0:0:0:0:
395,26,98534,2,0,L|294:22,1,84.5,2|2,3:1|3:1,0:0:0:0:
86,179,98750,6,0,L|279:202,1,185.900005673218,6|0,3:1|3:0,0:0:0:0:
45,342,99075,1,6,3:1:0:0:
30,302,99129,1,2,0:2:0:0:
40,262,99183,1,2,0:2:0:0:
71,234,99237,1,2,0:2:0:0:
112,228,99291,1,2,3:2:0:0:
339,263,99400,5,6,3:1:0:0:
312,230,99454,1,2,0:2:0:0:
277,206,99508,1,2,0:2:0:0:
237,195,99562,1,2,0:2:0:0:
195,196,99616,1,2,3:2:0:0:
409,131,99725,5,6,3:1:0:0:
450,137,99779,1,2,0:2:0:0:
481,165,99833,1,2,0:2:0:0:
491,205,99887,1,2,0:2:0:0:
476,245,99941,1,2,3:2:0:0:
247,340,100050,6,0,L|133:340,1,84.5,6|0,3:1|0:0,0:0:0:0:
384,372,100267,2,0,L|390:263,1,84.5,2|0,3:1|0:0,0:0:0:0:
171,230,100483,2,0,L|278:217,1,84.5,2|2,3:1|3:1,0:0:0:0:
41,182,100700,6,0,L|17:140,2,42.25,2|2|2,3:1|0:2|0:2,0:0:0:0:
86,192,100862,1,2,0:2:0:0:
224,209,100916,2,0,L|283:205,1,42.25,2|2,3:1|0:2,0:0:0:0:
111,302,101025,2,0,L|17:296,2,84.5,2|2|2,0:2|3:1|3:1,0:0:0:0:
343,346,101350,6,0,L|154:333,1,169,6|0,3:1|3:2,0:0:0:0:
413,272,101675,1,2,3:1:0:0:
428,232,101729,1,0,0:0:0:0:
418,192,101783,1,0,0:0:0:0:
387,164,101837,1,0,0:0:0:0:
346,158,101891,1,0,3:2:0:0:
110,117,102000,6,0,L|45:121,2,42.25,2|0|0,3:1|0:0|0:0,0:0:0:0:
327,49,102216,2,0,L|236:40,1,84.5,2|0,3:1|0:0,0:0:0:0:
144,151,102433,2,0,L|238:128,1,84.5,2|0,3:1|0:0,0:0:0:0:
453,225,102649,6,0,L|332:228,2,84.5,2|0|0,3:1|0:0|3:0,0:0:0:0:
225,348,102974,2,0,P|212:297|321:249,1,169,2|0,3:1|3:0,0:0:0:0:
71,260,103299,2,0,L|56:150,1,84.5,2|0,3:1|0:0,0:0:0:0:
265,155,103516,2,0,L|274:56,1,84.5,2|2,3:1|0:2,0:0:0:0:
54,55,103732,2,0,L|153:40,1,84.5,2|2,3:1|0:2,0:0:0:0:
371,87,103949,5,6,3:1:0:0:
353,125,104003,1,2,3:2:0:0:
323,154,104057,1,2,3:2:0:0:
284,170,104111,1,2,3:2:0:0:
242,170,104165,1,2,3:2:0:0:
459,206,104274,5,2,3:2:0:0:
441,244,104328,1,2,3:2:0:0:
411,273,104382,1,2,3:2:0:0:
372,289,104436,1,2,3:2:0:0:
330,289,104490,1,2,3:2:0:0:
101,357,104599,5,2,3:1:0:0:
350,375,104707,6,0,P|401:353|313:144,1,338,8|0,3:1|0:0,0:0:0:0:
76,97,105249,6,0,L|64:212,1,84.5,4|0,3:2|3:0,0:0:0:0:
268,241,105465,2,0,L|178:250,1,84.5,0|0,3:2|3:0,0:0:0:0:
393,340,105682,2,0,L|417:295,2,42.25,0|0|0,3:2|3:0|3:0,0:0:0:0:
175,362,105898,5,4,3:2:0:0:
134,356,105952,1,0,3:0:0:0:
114,320,106006,1,0,3:0:0:0:
130,283,106060,1,0,0:0:0:0:
169,272,106115,2,0,L|234:269,1,42.25,0|0,3:0|3:0,0:0:0:0:
61,184,106223,2,0,L|1:185,1,42.25,0|0,3:0|3:0,0:0:0:0:
174,125,106332,2,0,L|274:114,1,84.5,0|0,3:0|3:0,0:0:0:0:
39,67,106548,6,0,L|15:26,2,42.25,4|0|0,3:2|3:0|3:0,0:0:0:0:
246,55,106765,2,0,L|146:62,1,84.5,0|0,3:0|3:0,0:0:0:0:
368,149,106981,2,0,L|477:146,1,84.5,0|0,3:0|3:0,0:0:0:0:
260,238,107198,5,4,3:2:0:0:
459,311,107306,1,0,3:0:0:0:
379,291,107414,1,2,3:2:0:0:
343,217,107522,1,2,0:2:0:0:
376,143,107630,1,2,0:2:0:0:
455,120,107739,1,2,0:2:0:0:
217,89,107848,6,0,L|119:89,1,84.5,4|0,3:2|3:0,0:0:0:0:
361,40,108065,2,0,L|368:130,1,84.5,0|0,3:0|3:0,0:0:0:0:
159,192,108281,2,0,L|212:227,1,42.25,0|0,3:0|3:0,0:0:0:0:
242,223,108389,1,0,3:0:0:0:
31,271,108498,6,0,L|37:355,1,84.5,4|0,3:2|3:0,0:0:0:0:
257,319,108715,2,0,L|172:319,1,84.5,0|0,3:0|3:0,0:0:0:0:
397,355,108931,2,0,L|424:306,2,42.25,0|0|0,3:0|3:0|3:0,0:0:0:0:
149,355,109148,6,0,L|45:352,1,84.5,4|0,3:2|3:0,0:0:0:0:
286,265,109364,2,0,L|192:262,1,84.5,0|0,3:0|3:0,0:0:0:0:
433,228,109581,2,0,L|455:181,2,42.25,0|0|0,3:0|3:0|3:0,0:0:0:0:
388,242,109743,1,0,3:0:0:0:
231,248,109797,5,4,3:2:0:0:
151,228,109905,1,2,3:2:0:0:
115,154,110013,1,2,0:0:0:0:
148,80,110121,1,8,0:0:0:0:
227,57,110231,1,2,0:0:0:0:
314,61,110339,1,2,0:0:0:0:
67,38,110447,5,12,3:2:0:0:
51,76,110501,1,0,3:0:0:0:
60,117,110555,1,0,3:0:0:0:
91,144,110609,1,0,3:0:0:0:
134,151,110664,2,0,L|202:149,1,42.25,8|0,3:2|3:0,0:0:0:0:
132,188,110772,2,0,L|73:194,1,42.25,0|0,3:0|3:0,0:0:0:0:
233,246,110880,2,0,L|301:244,1,42.25,8|0,3:2|3:0,0:0:0:0:
231,283,110988,2,0,L|172:289,1,42.25,0|0,3:0|3:0,0:0:0:0:
336,329,111097,6,0,L|381:331,1,42.25,12|0,3:2|3:0,0:0:0:0:
231,370,111205,2,0,L|159:377,1,42.25,0|0,3:0|3:0,0:0:0:0:
354,367,111314,1,8,3:2:0:0:
401,369,111368,2,0,L|422:324,2,42.25,0|0|0,3:0|3:2|3:2,0:0:0:0:
247,279,111530,1,8,3:2:0:0:
200,281,111584,2,0,L|179:236,2,42.25,0|0|0,3:2|3:2|3:2,0:0:0:0:
368,346,111747,5,12,3:2:0:0:
383,307,111801,1,0,3:2:0:0:
374,267,111855,1,0,3:2:0:0:
343,239,111909,1,0,3:2:0:0:
301,233,111964,2,0,L|233:235,1,42.25,8|0,3:2|3:2,0:0:0:0:
303,196,112072,2,0,L|362:190,1,42.25,0|0,3:2|3:2,0:0:0:0:
202,138,112180,2,0,L|134:140,1,42.25,8|0,3:2|3:2,0:0:0:0:
204,101,112288,2,0,L|263:95,1,42.25,0|0,3:2|3:2,0:0:0:0:
97,53,112397,6,0,L|52:51,1,42.25,12|0,3:2|3:2,0:0:0:0:
204,13,112505,2,0,L|276:6,1,42.25,0|0,3:2|3:2,0:0:0:0:
79,18,112614,1,8,3:2:0:0:
32,16,112668,2,0,L|11:61,2,42.25,0|0|0,3:2|3:2|3:2,0:0:0:0:
188,105,112830,1,8,3:2:0:0:
235,103,112884,2,0,L|256:148,2,42.25,0|0|0,3:2|3:2|3:2,0:0:0:0:
58,134,113046,6,0,L|46:235,1,84.5,12|0,3:2|3:2,0:0:0:0:
260,275,113263,2,0,L|149:293,1,84.5,8|0,3:2|3:2,0:0:0:0:
388,339,113480,2,0,L|477:348,1,84.5,8|0,3:2|3:2,0:0:0:0:
242,371,113696,6,0,L|232:276,1,84.5,12|0,3:2|3:2,0:0:0:0:
465,225,113913,2,0,L|358:226,1,84.5,8|0,3:2|3:2,0:0:0:0:
150,169,114129,2,0,L|188:128,1,42.25,8|0,3:2|3:2,0:0:0:0:
224,128,114238,2,0,L|291:118,1,42.25,0|0,3:2|3:2,0:0:0:0:
96,70,114346,6,0,L|35:67,1,42.25,12|0,1:2|1:2,0:0:0:0:
209,35,114454,2,0,L|257:29,1,42.25,0|0,1:2|1:2,0:0:0:0:
83,88,114563,2,0,L|22:85,1,42.25,8|0,1:2|1:2,0:0:0:0:
196,53,114671,2,0,L|244:47,1,42.25,0|0,1:2|1:2,0:0:0:0:
70,108,114779,2,0,L|9:105,1,42.25,8|0,1:2|1:2,0:0:0:0:
183,73,114887,2,0,L|231:67,1,42.25,0|0,1:2|1:2,0:0:0:0:
60,215,114996,5,2,3:1:0:0:
18,291,115104,1,8,0:1:0:0:
60,215,115213,1,8,0:1:0:0:
298,300,115321,2,0,L|245:279,1,42.25,8|8,0:1|0:1,0:0:0:0:
212,281,115429,1,8,0:1:0:0:
112,291,115537,1,2,3:2:0:0:
374,75,115646,5,6,3:1:0:0:
290,77,115754,1,2,0:2:0:0:
224,127,115862,1,2,0:2:0:0:
199,206,115970,1,2,0:2:0:0:
225,285,116079,1,2,0:2:0:0:
293,334,116187,1,2,0:2:0:0:
384,77,116296,5,2,0:3:0:0:
290,77,116404,1,2,0:2:0:0:
224,127,116512,1,2,0:2:0:0:
199,206,116620,1,2,0:2:0:0:
225,285,116729,1,2,0:2:0:0:
293,334,116837,1,2,0:2:0:0:
384,77,116945,5,2,0:3:0:0:
290,77,117053,1,2,0:2:0:0:
224,127,117161,1,2,0:2:0:0:
199,206,117269,1,2,0:2:0:0:
225,285,117378,1,2,0:2:0:0:
293,334,117486,1,2,0:2:0:0:
384,340,117595,6,0,L|441:331,2,42.25,2|2|2,0:3|0:2|0:2,0:0:0:0:
290,357,117812,1,2,0:2:0:0:
383,362,117920,1,2,0:2:0:0:
430,298,118028,1,2,0:2:0:0:
379,366,118137,1,2,0:2:0:0:
122,362,118245,6,0,L|92:316,2,42.25,6|0|0,3:1|3:0|3:0,0:0:0:0:
167,369,118407,1,0,3:0:0:0:
326,261,118462,2,0,L|356:215,2,42.25,2|0|0,3:1|3:0|3:0,0:0:0:0:
281,268,118624,1,0,3:0:0:0:
117,222,118678,2,0,L|54:211,1,42.25,2|0,3:1|3:0,0:0:0:0:
234,155,118787,2,0,L|296:149,1,42.25,2|0,3:1|3:0,0:0:0:0:
105,57,118895,6,0,L|75:103,2,42.25,6|0|0,3:1|3:0|3:0,0:0:0:0:
150,50,119057,1,0,3:0:0:0:
309,158,119112,2,0,L|339:204,2,42.25,2|0|0,3:1|3:0|3:0,0:0:0:0:
264,151,119274,1,0,3:0:0:0:
100,197,119328,2,0,L|37:208,1,42.25,2|0,3:1|3:0,0:0:0:0:
217,264,119437,2,0,L|279:270,1,42.25,2|0,3:1|3:0,0:0:0:0:
88,334,119545,6,0,L|18:345,1,42.25,6|2,3:1|3:2,0:0:0:0:
201,371,119653,2,0,L|268:369,1,42.25,2|2,3:2|3:2,0:0:0:0:
399,328,119761,2,0,L|329:327,1,42.25,2|2,3:2|3:2,0:0:0:0:
197,220,119870,6,0,L|131:231,1,42.25,2|2,3:2|3:2,0:0:0:0:
300,257,119978,2,0,L|362:255,1,42.25,2|2,3:2|3:2,0:0:0:0:
488,214,120086,2,0,L|422:213,1,42.25,2|2,3:2|3:2,0:0:0:0:
255,152,120194,5,6,3:1:0:0:
485,90,120303,1,2,3:1:0:0:
