osu file format v14

[General]
AudioFilename: audio.mp3
AudioLeadIn: 0
PreviewTime: 94809
Countdown: 0
SampleSet: Soft
StackLeniency: 0.7
Mode: 2
LetterboxInBreaks: 0
WidescreenStoryboard: 1

[Editor]
Bookmarks: 61061
DistanceSpacing: 1.4
BeatDivisor: 4
GridSize: 32
TimelineZoom: 2.699999

[Metadata]
Title:XHRONOXAPSULE
TitleUnicode:XHRONOXAPSULΞ
Artist:Silentroom
ArtistUnicode:Silentroom
Creator:Jemzuu
Version:EXHAUST
Source:SOUND VOLTEX EXCEED GEAR
Tags:ajamez rocma x_angelkawaii_x bigh bighzonda verti nakano ichika -[ Asuna ]- dika312 -joakh joakh sinnoh xinnoh lacrima myle electronic instrumental the 10th kac sdvx speedcore video game chronocapsule chrono capsule クロノカプセル cataclysm cronicle chronicle
BeatmapID:3527049
BeatmapSetID:1715139

[Difficulty]
HPDrainRate:5
CircleSize:3.8
OverallDifficulty:9.2
ApproachRate:9.2
SliderMultiplier:1.42
SliderTickRate:1

[Events]
//Background and Video events
0,0,"95577715_p0.jpg",0,0
//Break Periods
2,92452,94282
//Storyboard Layer 0 (Background)
//Storyboard Layer 1 (Fail)
//Storyboard Layer 2 (Pass)
//Storyboard Layer 3 (Foreground)
//Storyboard Layer 4 (Overlay)
//Storyboard Sound Samples

[TimingPoints]
1278,216.606498194946,3,2,2,80,1,0
1332,-100,3,2,1,60,0,0
3877,-100,3,2,2,80,0,0
3931,-100,3,2,1,60,0,0
5826,-100,3,2,2,80,0,0
5880,-100,3,2,1,60,0,0
6476,-100,3,2,1,70,0,0
10375,-100,3,2,1,80,0,0
11296,-100,3,2,2,70,0,0
11675,-100,3,2,3,80,0,0
11837,-100,3,2,1,55,0,0
13678,-100,3,2,2,55,0,0
13949,-100,3,2,1,55,0,0
14003,-100,3,2,2,65,0,0
14274,-100,3,2,1,75,0,0
14382,-100,3,2,1,60,0,0
16223,-100,3,2,4,70,0,0
16657,-100,3,2,2,60,0,0
16819,-100,3,2,1,75,0,0
16927,-100,3,2,1,60,0,0
19310,-100,3,2,2,60,0,0
19472,-100,3,2,1,60,0,0
23805,-100,3,2,2,60,0,0
24021,-100,3,2,1,60,0,0
26620,-100,3,2,4,60,0,0
27054,-100,3,2,2,60,0,0
27270,-100,3,2,1,60,0,0
29653,-100,3,2,5,60,0,0
29870,-100,3,2,3,60,0,0
30303,-100,3,2,1,60,0,0
30519,-100,3,2,2,60,0,0
30736,-100,3,2,1,60,0,0
30953,-100,3,2,2,60,0,0
31169,-100,3,2,1,60,0,0
31819,-100,3,2,2,60,0,0
32036,-100,3,2,1,60,0,0
32252,-100,3,2,2,60,0,0
32469,-100,3,2,1,60,0,0
32902,-100,3,2,2,60,0,0
33119,-100,3,2,1,60,0,0
33552,-100,3,2,98,60,0,0
33660,-100,3,2,1,60,0,0
33768,-100,3,2,1,60,0,0
33823,-100,3,2,1,60,0,0
34202,-100,3,2,98,60,0,0
34418,-100,3,2,1,60,0,0
40050,-100,3,2,2,60,0,0
40267,-100,3,2,1,60,0,0
40916,-100,3,2,2,60,0,0
41025,-100,3,2,1,60,0,0
41133,-100,3,2,3,60,0,0
41241,-100,3,2,1,60,0,0
41566,-100,3,2,4,60,0,0
41891,-100,3,2,1,60,0,0
42216,-100,3,2,2,60,0,0
42324,-100,3,2,1,60,0,0
43515,-100,3,2,2,60,0,0
43624,-100,3,2,1,60,0,0
43732,-100,3,2,3,60,0,0
43840,-100,3,2,1,60,0,0
44165,-100,3,2,4,60,0,0
44490,-100,3,2,1,60,0,0
44815,-100,3,2,2,60,0,0
44923,-100,3,2,1,60,0,0
45465,-100,3,2,1,70,0,0
46115,-100,3,2,2,70,0,0
46765,-100,3,2,1,70,0,0
47415,-100,3,2,2,70,0,0
48065,-100,3,2,1,70,0,0
49364,-100,3,2,1,80,0,0
50014,-100,3,2,1,80,0,0
50231,-100,3,2,1,60,0,0
50285,-100,3,2,1,60,0,0
50447,-100,3,2,1,60,0,0
50555,-100,3,2,1,60,0,0
50664,-100,3,2,1,90,0,1
50772,-100,3,2,1,80,0,1
51097,-100,3,2,95,80,0,1
51205,-100,3,2,1,80,0,1
52396,-100,3,2,95,80,0,1
52505,-100,3,2,1,80,0,1
53696,-100,3,2,95,80,0,1
53913,-100,3,2,5,80,0,1
54563,-100,3,2,1,80,0,1
54996,-100,3,2,95,80,0,1
55104,-100,3,2,1,80,0,1
58462,-100,3,2,1,80,0,0
59761,-100,3,2,4,80,0,0
59870,-100,3,2,1,80,0,0
60844,-100,3,2,5,80,0,0
61061,-100,3,2,4,80,0,1
61169,-100,3,2,1,80,0,1
63010,-100,3,2,1,80,0,0
63660,-100,3,2,1,80,0,1
63985,-100,3,2,6,80,0,1
64093,-100,3,2,1,80,0,1
65285,-100,3,2,6,80,0,1
65393,-100,3,2,1,80,0,1
65610,-100,3,2,6,80,0,1
65826,-100,3,2,6,80,0,0
66043,-100,3,2,5,80,0,0
66259,-100,3,2,1,80,0,1
66909,-100,3,2,6,80,0,1
67342,-100,3,2,5,80,0,1
67397,-100,3,2,1,80,0,1
68209,-100,3,2,1,80,0,0
68642,-100,3,2,5,80,0,0
68859,-100,3,2,6,80,0,0
68913,-100,3,2,1,80,0,0
69075,-100,3,2,4,60,0,0
69089,-100,3,2,1,5,0,0
70158,-100,3,2,4,60,0,0
70172,-100,3,2,1,5,0,0
70375,-100,3,2,4,60,0,0
70389,-100,3,2,1,5,0,0
71025,-100,3,2,4,60,0,0
71458,-100,3,2,6,60,0,0
71675,-100,3,2,4,60,0,0
71688,-100,3,2,1,5,0,0
72758,-100,3,2,4,60,0,0
72771,-100,3,2,1,5,0,0
72975,-100,3,2,4,60,0,0
72988,-100,3,2,1,5,0,0
73407,-100,3,2,1,60,0,0
74057,-100,3,2,6,60,0,0
74274,-100,3,2,1,60,0,0
74707,-100,3,2,2,60,0,0
74924,-100,3,2,1,60,0,0
75357,-100,3,2,4,60,0,0
75574,-100,3,2,1,60,0,0
76007,-100,3,2,2,60,0,0
76223,-100,3,2,1,60,0,0
76657,-100,3,2,4,60,0,0
76873,-100,3,2,1,60,0,0
77306,-100,3,2,2,60,0,0
77523,-100,3,2,1,60,0,0
77956,-100,3,2,4,60,0,0
78173,-100,3,2,1,60,0,0
78606,-100,3,2,2,60,0,0
78714,-100,3,2,1,60,0,0
79256,-100,3,2,7,70,0,0
79364,-100,3,2,1,70,0,0
79472,-100,3,2,1,55,0,0
79906,-100,3,2,1,58,0,0
80339,-100,3,2,1,62,0,0
80772,-100,3,2,1,65,0,0
81205,-100,3,2,1,68,0,0
81639,-100,3,2,1,71,0,0
82072,-100,3,2,1,74,0,0
82505,-100,3,2,1,76,0,0
82938,-100,3,2,1,78,0,0
83371,-100,3,2,1,80,0,0
83805,-100,3,2,1,82,0,0
84238,-100,3,2,1,84,0,0
84671,-100,3,2,1,45,0,0
84888,-100,3,2,1,47,0,0
85104,-100,3,2,1,50,0,0
85321,-100,3,2,1,52,0,0
85537,-100,3,2,1,54,0,0
85754,-100,3,2,1,57,0,0
85971,-100,3,2,1,60,0,0
86187,-100,3,2,1,62,0,0
86404,-100,3,2,1,64,0,0
86620,-100,3,2,1,66,0,0
86837,-100,3,2,1,68,0,0
87054,-100,3,2,1,70,0,0
87270,-100,3,2,1,72,0,0
87487,-100,3,2,1,74,0,0
87703,-100,3,2,1,76,0,0
87920,-100,3,2,1,78,0,0
88137,-100,3,2,1,80,0,0
88353,-100,3,2,1,82,0,0
88570,-100,3,2,1,84,0,0
88787,-100,3,2,1,86,0,0
89003,-100,3,2,1,88,0,0
89220,-100,3,2,1,90,0,0
89436,-100,3,2,1,93,0,0
89653,-100,3,2,6,80,0,0
90736,-100,3,2,1,80,0,0
92252,-100,3,2,8,80,0,0
94852,-100,3,2,3,75,0,0
95068,-100,3,2,3,75,0,0
95285,-100,3,2,3,50,0,0
96151,-100,3,2,3,75,0,0
97234,-100,3,2,3,55,0,0
97667,-100,3,2,1,80,0,1
97776,-100,3,2,1,80,0,1
97830,-100,3,2,1,80,0,1
97992,-100,3,2,1,80,0,1
98046,-100,3,2,1,80,0,1
98209,-100,3,2,1,80,0,1
98263,-100,3,2,1,80,0,1
98426,-100,3,2,1,80,0,1
98480,-100,3,2,1,80,0,1
99075,-100,3,2,1,70,0,1
99400,-100,3,2,1,80,0,1
99725,-100,3,2,1,70,0,1
100050,-100,3,2,1,80,0,1
100483,-100,3,2,1,75,0,1
100700,-100,3,2,1,80,0,1
100916,-100,3,2,1,75,0,1
101133,-100,3,2,1,80,0,1
101350,-100,3,2,1,75,0,1
101567,-100,3,2,1,80,0,1
101783,-100,3,2,1,75,0,1
102000,-100,3,2,1,80,0,1
102216,-100,3,2,1,75,0,1
102433,-100,3,2,1,80,0,1
102649,-100,3,2,1,75,0,1
102866,-100,3,2,1,80,0,1
103083,-100,3,2,1,75,0,1
103300,-100,3,2,1,80,0,1
103516,-100,3,2,1,75,0,1
103733,-100,3,2,1,80,0,1
103949,-100,3,2,1,80,0,0
104707,-100,3,2,3,80,0,0
105249,-100,3,2,1,80,0,1
105465,-100,3,2,1,85,0,1
105682,-100,3,2,1,80,0,1
105898,-100,3,2,5,80,0,1
105953,-100,3,2,1,80,0,1
106115,-100,3,2,1,85,0,1
106332,-100,3,2,1,80,0,1
106548,-100,3,2,1,85,0,1
106765,-100,3,2,1,80,0,1
106981,-100,3,2,1,85,0,1
107198,-100,3,2,5,80,0,1
107252,-100,3,2,1,80,0,1
107415,-100,3,2,1,85,0,1
107632,-100,3,2,1,80,0,1
107848,-100,3,2,1,85,0,1
108065,-100,3,2,1,80,0,1
108281,-100,3,2,1,85,0,1
108498,-100,3,2,5,80,0,1
108552,-100,3,2,1,80,0,1
108714,-100,3,2,1,85,0,1
108931,-100,3,2,1,80,0,1
109148,-100,3,2,1,85,0,1
109365,-100,3,2,1,80,0,1
109581,-100,3,2,1,85,0,1
109797,-100,3,2,5,80,0,1
109852,-100,3,2,1,80,0,1
110122,-100,3,2,3,50,0,1
110231,-100,3,2,1,80,0,0
110447,-100,3,2,4,80,0,1
110664,-100,3,2,4,75,0,1
110880,-100,3,2,4,80,0,1
111097,-100,3,2,4,75,0,1
111313,-100,3,2,4,80,0,1
111530,-100,3,2,4,75,0,1
111746,-100,3,2,4,80,0,1
111963,-100,3,2,4,75,0,1
112179,-100,3,2,4,80,0,1
112397,-100,3,2,4,75,0,1
112613,-100,3,2,4,80,0,1
112830,-100,3,2,4,75,0,1
113046,-100,3,2,4,80,0,1
113263,-100,3,2,4,75,0,1
113479,-100,3,2,4,80,0,1
113696,-100,3,2,4,75,0,1
113912,-100,3,2,4,80,0,1
114129,-100,3,2,4,75,0,1
114345,-100,3,2,4,80,0,1
114563,-100,3,2,4,75,0,1
114779,-100,3,2,4,80,0,1
114996,-100,3,2,1,80,0,1
115321,-100,3,2,2,80,0,1
115537,-100,3,2,1,80,0,1
115646,-100,3,2,1,80,0,0
115754,-100,3,2,1,60,0,0
116296,-100,3,2,1,65,0,0
116512,-100,3,2,1,60,0,0
116729,-100,3,2,1,65,0,0
116945,-100,3,2,1,60,0,0
117162,-100,3,2,1,65,0,0
117378,-100,3,2,1,60,0,0
117595,-100,3,2,1,65,0,0
117811,-100,3,2,1,60,0,0
118028,-100,3,2,1,65,0,0
118245,-100,3,2,1,80,0,1
118462,-100,3,2,1,90,0,1
118678,-100,3,2,1,80,0,1
118895,-100,3,2,1,90,0,1
119111,-100,3,2,1,80,0,1
119328,-100,3,2,1,90,0,1
119545,-100,3,2,1,80,0,1
119762,-100,3,2,1,90,0,1
119978,-100,3,2,1,80,0,1
120195,-100,3,2,1,90,0,1
120303,-100,3,2,1,80,0,0

[Colours]
Combo1 : 128,255,255
Combo2 : 100,177,255
Combo3 : 140,140,255
Combo4 : 255,166,210

[HitObjects]
303,313,1278,6,0,L|306:135,1,142,4|2,3:1|0:0,0:0:0:0:
145,108,1711,2,0,L|240:96,1,71,2|0,0:0|0:0,0:0:0:0:
301,92,1927,6,0,L|312:246,1,142,2|2,0:3|0:0,0:0:0:0:
149,306,2361,2,0,L|64:299,1,71,2|0,0:0|0:0,0:0:0:0:
169,286,2577,6,0,L|204:210,2,71,2|0|2,0:3|0:0|0:0,0:0:0:0:
74,259,2902,2,0,L|28:177,2,71,0|2|0,0:0|0:0|0:0,0:0:0:0:
169,286,3227,6,0,L|217:282,2,35.5,2|0|0,0:3|0:0|0:0,0:0:0:0:
79,293,3444,1,2,0:0:0:0:
42,218,3552,1,0,0:0:0:0:
79,293,3660,1,2,0:0:0:0:
168,302,3768,1,0,0:0:0:0:
370,346,3877,6,0,L|375:193,1,142,4|2,3:1|0:0,0:0:0:0:
206,183,4310,1,2,0:0:0:0:
381,184,4527,2,0,L|504:97,2,142,2|2|2,0:3|0:0|0:0,0:0:0:0:
181,202,5176,6,0,L|145:149,2,35.5,2|0|0,0:3|0:0|0:0,0:0:0:0:
272,230,5393,1,2,0:0:0:0:
310,156,5501,1,0,0:0:0:0:
272,230,5610,1,2,0:0:0:0:
181,204,5718,1,0,0:0:0:0:
276,251,5826,6,0,L|354:266,1,71,10|2,3:2|0:0,0:0:0:0:
252,315,6043,2,0,L|174:333,1,71,2|2,3:0|0:0,0:0:0:0:
281,359,6259,2,0,L|373:355,1,71,2|2,3:0|0:0,0:0:0:0:
135,258,6476,6,0,L|46:269,1,71,6|0,1:0|0:0,0:0:0:0:
267,291,6693,2,0,P|281:236|197:193,1,142,2|2,1:0|0:0,0:0:0:0:
146,185,7018,1,2,0:0:0:0:
349,113,7126,6,0,L|438:124,1,71,2|0,1:0|0:0,0:0:0:0:
214,141,7342,2,0,L|213:52,1,71,2|0,1:0|0:0,0:0:0:0:
312,66,7559,2,0,L|314:-4,1,71,2|2,1:0|0:0,0:0:0:0:
118,60,7776,6,0,L|25:77,1,71,6|0,1:0|0:0,0:0:0:0:
243,133,7992,2,0,P|268:192|192:233,1,142,2|0,1:0|0:0,0:0:0:0:
143,249,8317,1,0,0:0:0:0:
344,306,8426,6,0,L|394:306,2,35.5,2|2|2,1:1|0:2|0:2,0:0:0:0:
246,252,8642,2,0,L|330:231,1,71,2|2,1:2|0:2,0:0:0:0:
420,223,8859,2,0,L|443:177,2,35.5,2|2|2,1:2|0:2|0:2,0:0:0:0:
212,122,9075,6,0,L|130:124,2,71,6|0|0,1:1|0:0|0:0,0:0:0:0:
316,125,9400,2,0,L|364:61,2,71,2|2|2,1:1|0:2|0:2,0:0:0:0:
210,187,9725,6,0,L|206:277,1,71,2|2,1:1|0:2,0:0:0:0:
290,284,9942,1,2,0:2:0:0:
411,326,10050,2,0,L|428:292,2,35.5,2|2|2,1:1|0:2|0:2,0:0:0:0:
374,346,10213,2,0,L|327:348,1,35.5,2|2,0:2|0:2,0:0:0:0:
131,356,10375,6,0,L|110:275,1,71,0|0,3:0|3:0,0:0:0:0:
223,271,10592,2,0,L|226:172,1,71,0|0,3:0|3:0,0:0:0:0:
123,158,10808,2,0,L|46:157,1,71,2|0,3:1|3:0,0:0:0:0:
257,103,11025,2,0,L|332:92,1,71,0|0,3:1|3:0,0:0:0:0:
99,18,11241,6,0,L|82:81,4,35.5,10|2|2|2|2,3:1|0:3|0:3|0:3|0:3,0:0:0:0:
170,89,11566,1,2,0:3:0:0:
421,208,11675,5,4,3:1:0:0:
454,325,11891,1,2,0:0:0:0:
326,297,12108,1,0,0:0:0:0:
251,162,12324,1,2,0:0:0:0:
326,297,12541,1,0,0:0:0:0:
472,341,12758,1,2,0:0:0:0:
284,374,12974,6,0,L|256:159,1,213,2|2,0:0|0:0,0:0:0:0:
47,83,13624,2,0,L|238:192,1,213,2|2,0:3|0:3,0:0:0:0:
327,66,14057,2,0,L|350:16,2,35.5,2|2|2,0:3|0:3|0:3,0:0:0:0:
93,151,14274,6,0,P|79:189|155:235,1,142,4|0,3:1|0:0,0:0:0:0:
255,249,14599,1,2,3:1:0:0:
291,180,14707,1,0,0:0:0:0:
255,249,14815,1,0,0:0:0:0:
152,238,14924,6,0,L|145:402,1,142,2|0,3:1|0:0,0:0:0:0:
245,369,15249,2,0,L|251:277,1,71,2|0,3:1|0:1,0:0:0:0:
150,287,15465,1,0,0:0:0:0:
250,283,15574,6,0,L|267:185,1,71,2|0,3:1|0:0,0:0:0:0:
357,184,15790,1,0,0:0:0:0:
254,133,15898,2,0,L|177:130,2,71,2|0|0,3:1|0:0|0:0,0:0:0:0:
477,39,16223,6,0,L|383:30,1,71,6|0,3:1|0:0,0:0:0:0:
201,52,16440,2,0,P|181:99|255:136,1,142,6|8,3:1|0:2,0:0:0:0:
324,151,16765,1,8,0:2:0:0:
106,219,16873,6,0,L|20:214,1,71,6|0,3:1|0:0,0:0:0:0:
245,343,17090,2,0,L|250:262,1,71,2|0,3:1|0:0,0:0:0:0:
151,276,17306,2,0,L|141:192,1,71,2|0,3:1|0:0,0:0:0:0:
248,184,17523,6,0,L|256:105,1,71,2|0,3:1|0:0,0:0:0:0:
364,74,17740,2,0,L|272:62,1,71,2|0,3:1|0:0,0:0:0:0:
192,26,17956,2,0,L|284:7,1,71,2|0,3:1|0:0,0:0:0:0:
463,81,18173,6,0,P|472:128|396:191,1,142,2|0,3:1|3:0,0:0:0:0:
320,188,18498,2,0,L|231:175,2,71,2|0|0,0:1|3:0|0:0,0:0:0:0:
210,260,18823,6,0,L|52:293,1,142,2|0,3:1|3:0,0:0:0:0:
165,332,19148,2,0,L|168:246,1,71,2|0,0:1|3:0,0:0:0:0:
173,213,19364,1,2,0:3:0:0:
269,358,19472,6,0,L|423:336,1,142,2|0,3:1|3:0,0:0:0:0:
329,302,19797,1,0,0:0:0:0:
199,298,19906,2,0,L|190:194,1,71,2|0,3:1|0:0,0:0:0:0:
392,217,20122,6,0,P|414:163|337:113,1,142,2|0,3:1|3:1,0:0:0:0:
261,125,20447,1,2,0:1:0:0:
221,34,20555,1,0,3:0:0:0:
261,125,20664,1,0,0:0:0:0:
360,78,20772,6,0,L|450:61,2,71,2|0|0,3:1|0:0|3:0,0:0:0:0:
255,146,21097,2,0,L|328:174,1,71,2|0,0:1|3:0,0:0:0:0:
409,174,21314,1,0,0:0:0:0:
210,268,21422,6,0,L|121:282,1,71,2|0,3:1|0:0,0:0:0:0:
248,345,21639,2,0,L|250:256,1,71,2|0,3:1|0:0,0:0:0:0:
362,243,21855,2,0,L|281:242,1,71,2|2,3:2|3:2,0:0:0:0:
70,237,22072,6,0,P|62:176|137:135,1,142,6|2,3:1|3:1,0:0:0:0:
208,127,22397,1,0,0:0:0:0:
114,102,22505,2,0,L|10:96,1,71,2|2,3:1|0:1,0:0:0:0:
261,40,22722,2,0,L|272:197,1,142,2|0,3:1|3:0,0:0:0:0:
168,215,23046,1,2,0:1:0:0:
133,291,23155,1,0,3:0:0:0:
168,215,23263,1,0,0:0:0:0:
387,281,23371,6,0,L|232:314,1,142,6|2,3:1|0:2,0:0:0:0:
453,349,23696,2,0,L|454:263,1,71,2|2,3:1|0:3,0:0:0:0:
381,248,23913,1,2,0:3:0:0:
160,161,24021,6,0,L|327:132,1,142,6|2,3:1|0:0,0:0:0:0:
210,116,24346,1,2,3:1:0:0:
299,136,24454,2,0,L|326:85,2,35.5,2|0|2,0:0|0:0|0:0,0:0:0:0:
72,255,24671,6,0,L|62:158,1,71,6|0,3:1|0:0,0:0:0:0:
174,178,24888,2,0,L|177:102,1,71,2|0,3:1|0:0,0:0:0:0:
70,99,25104,2,0,L|59:28,1,71,2|0,3:1|0:0,0:0:0:0:
161,25,25321,5,2,3:1:0:0:
199,110,25429,1,0,0:0:0:0:
161,25,25537,1,2,3:1:0:0:
56,46,25646,2,0,L|135:95,1,71,2|0,0:1|3:0,0:0:0:0:
196,73,25862,1,0,0:0:0:0:
424,129,25971,6,0,P|434:170|358:223,1,142,6|2,3:1|3:1,0:0:0:0:
281,217,26296,2,0,L|251:170,2,35.5,2|2|2,0:2|0:2|3:1,0:0:0:0:
362,227,26512,1,0,0:0:0:0:
148,295,26620,6,0,L|57:308,1,71,6|0,3:1|0:0,0:0:0:0:
293,354,26837,2,0,L|397:362,1,71,6|0,3:1|0:0,0:0:0:0:
259,325,27054,2,0,L|250:238,1,71,8|8,0:2|0:2,0:0:0:0:
470,255,27270,6,0,P|478:206|399:162,1,142,6|2,3:1|3:1,0:0:0:0:
334,155,27595,1,0,0:0:0:0:
412,133,27703,2,0,L|492:126,1,71,2|0,3:1|0:0,0:0:0:0:
265,240,27920,6,0,L|255:152,1,71,2|0,3:1|0:0,0:0:0:0:
343,146,28137,1,2,3:1:0:0:
251,126,28245,2,0,L|223:84,2,35.5,2|2|2,0:2|0:2|3:1,0:0:0:0:
326,143,28462,1,2,0:2:0:0:
110,235,28570,5,6,3:1:0:0:
28,175,28678,1,2,0:2:0:0:
62,167,28732,1,2,0:2:0:0:
97,160,28786,1,2,3:1:0:0:
183,155,28895,1,2,0:2:0:0:
91,134,29003,2,0,L|81:50,1,71,2|2,3:1|0:2,0:0:0:0:
302,48,29220,6,0,L|403:49,1,71,6|0,3:2|3:0,0:0:0:0:
139,20,29436,2,0,L|129:180,1,142,8|4,3:1|0:2,0:0:0:0:
461,262,29870,5,4,3:3:0:0:
466,348,30303,1,2,0:0:0:0:
305,349,30519,1,2,0:0:0:0:
232,224,30736,1,2,0:0:0:0:
305,349,30953,1,2,0:0:0:0:
466,348,31169,6,0,P|477:291|303:166,1,284,2|2,0:3|0:0,0:0:0:0:
165,264,31819,1,2,0:0:0:0:
301,230,32036,1,2,0:0:0:0:
374,116,32252,1,2,0:0:0:0:
284,232,32469,6,0,L|266:-64,1,284,2|2,0:3|0:0,0:0:0:0:
98,58,33119,2,0,P|91:111|350:336,2,426,2|2|2,0:3|0:3|0:3,0:0:0:0:
124,122,34526,5,2,0:0:0:0:
182,162,34634,1,2,0:0:0:0:
217,168,34688,1,0,0:0:0:0:
252,164,34742,1,2,0:1:0:0:
160,252,34852,1,2,0:1:0:0:
125,258,34906,1,2,0:0:0:0:
90,254,34960,1,2,0:1:0:0:
300,342,35068,6,0,L|460:313,1,142,6|2,3:1|3:1,0:0:0:0:
367,288,35393,1,0,0:0:0:0:
270,280,35501,2,0,L|259:188,1,71,2|0,3:1|0:0,0:0:0:0:
360,188,35718,6,0,L|265:169,1,71,2|0,3:1|0:0,0:0:0:0:
200,154,35935,2,0,L|192:63,1,71,2|0,3:1|0:0,0:0:0:0:
292,59,36151,2,0,L|385:52,1,71,2|0,3:1|0:0,0:0:0:0:
263,38,36368,6,0,L|188:30,2,71,2|0|0,3:1|0:0|3:0,0:0:0:0:
470,84,36693,2,0,P|484:141|404:171,1,142,2|0,0:1|0:0,0:0:0:0:
215,312,37018,2,0,L|202:214,1,71,2|0,3:1|0:0,0:0:0:0:
303,235,37234,2,0,L|312:162,1,71,2|0,3:1|0:0,0:0:0:0:
213,129,37451,1,2,3:1:0:0:
177,131,37505,1,0,3:0:0:0:
142,134,37559,1,0,3:0:0:0:
345,346,37667,6,0,P|354:289|277:257,1,142,2|2,3:1|3:1,0:0:0:0:
210,260,37992,1,0,0:0:0:0:
297,241,38101,2,0,L|301:159,1,71,2|0,3:1|0:0,0:0:0:0:
100,231,38317,6,0,L|18:215,1,71,2|0,3:1|0:0,0:0:0:0:
129,184,38534,2,0,L|135:278,1,71,2|0,3:1|0:0,0:0:0:0:
35,291,38750,2,0,L|30:375,1,71,2|0,3:1|0:0,0:0:0:0:
245,363,38967,5,2,3:1:0:0:
279,296,39075,1,0,0:0:0:0:
245,230,39183,1,2,3:1:0:0:
188,193,39291,1,0,0:0:0:0:
114,199,39400,1,2,3:1:0:0:
194,174,39509,1,0,0:0:0:0:
290,169,39617,6,0,L|290:91,1,71,2|0,3:1|0:0,0:0:0:0:
195,93,39833,2,0,L|185:9,1,71,2|0,3:1|0:0,0:0:0:0:
289,17,40050,2,0,L|369:13,1,71,2|2,0:3|0:3,0:0:0:0:
148,173,40267,6,0,L|65:185,1,71,6|0,3:1|0:0,0:0:0:0:
298,280,40483,2,0,P|313:218|231:188,1,142,2|8,3:1|0:1,0:0:0:0:
177,185,40808,1,8,0:1:0:0:
390,291,40916,2,0,L|508:186,2,142,8|2|8,0:1|0:3|0:1,0:0:0:0:
163,346,41566,6,0,P|156:289|248:237,1,142,6|6,3:1|3:1,0:0:0:0:
304,233,41891,1,2,0:2:0:0:
340,162,42000,1,8,0:1:0:0:
304,233,42108,1,8,0:1:0:0:
213,236,42216,5,8,0:1:0:0:
177,162,42324,1,2,0:0:0:0:
213,236,42433,1,2,0:3:0:0:
387,271,42649,1,8,0:1:0:0:
56,310,42866,6,0,L|46:148,1,142,6|2,3:1|3:1,0:0:0:0:
197,109,43299,1,8,0:1:0:0:
376,83,43516,2,0,L|234:28,1,142,8|2,0:1|0:3,0:0:0:0:
89,42,43949,2,0,L|81:126,1,71,8|8,0:1|0:1,0:0:0:0:
285,181,44166,6,0,L|435:200,1,142,6|6,3:1|3:1,0:0:0:0:
340,231,44490,1,8,0:1:0:0:
302,169,44599,1,8,0:1:0:0:
340,231,44707,1,8,0:1:0:0:
439,273,44815,6,0,P|452:210|372:175,1,142,8|8,0:1|0:3,0:0:0:0:
208,130,45249,1,8,3:1:0:0:
172,130,45303,1,8,3:1:0:0:
137,130,45357,1,8,3:1:0:0:
356,298,45465,6,0,P|366:238|290:209,1,142,6|0,3:1|3:0,0:0:0:0:
222,195,45790,2,0,L|303:190,2,71,2|2|2,0:1|3:2|0:2,0:0:0:0:
16,39,46115,5,8,0:1:0:0:
88,51,46223,1,8,0:1:0:0:
122,112,46331,1,8,0:1:0:0:
87,173,46439,1,8,0:1:0:0:
20,179,46548,1,8,0:1:0:0:
93,201,46657,1,8,0:1:0:0:
322,298,46765,6,0,P|337:243|269:198,1,142,6|0,3:1|3:1,0:0:0:0:
202,200,47090,2,0,L|179:160,2,35.5,2|2|2,0:1|0:2|3:2,0:0:0:0:
274,200,47306,1,2,0:2:0:0:
491,39,47415,5,8,0:1:0:0:
416,51,47523,1,8,0:1:0:0:
383,112,47631,1,8,0:1:0:0:
417,173,47739,1,8,0:1:0:0:
490,186,47848,1,8,0:1:0:0:
417,173,47957,1,8,0:1:0:0:
212,317,48065,6,0,L|308:328,1,71,6|0,3:1|3:0,0:0:0:0:
375,282,48281,2,0,L|278:271,1,71,2|0,3:1|3:0,0:0:0:0:
210,242,48498,2,0,L|200:163,1,71,2|2,3:1|3:2,0:0:0:0:
397,158,48714,6,0,L|488:143,1,71,6|2,3:1|3:2,0:0:0:0:
363,185,48931,2,0,L|353:87,1,71,2|0,3:1|3:0,0:0:0:0:
469,112,49148,2,0,L|477:28,1,71,2|0,3:1|3:0,0:0:0:0:
260,31,49364,5,6,3:1:0:0:
226,36,49418,1,0,3:0:0:0:
211,67,49472,1,0,3:0:0:0:
227,97,49526,1,0,3:0:0:0:
260,102,49581,2,0,L|327:101,2,35.5,2|0|0,3:1|3:0|3:0,0:0:0:0:
51,208,49797,2,0,L|-16:207,2,35.5,2|0|0,3:1|3:0|3:0,0:0:0:0:
273,278,50014,5,4,3:3:0:0:
286,344,50231,2,2,L|126:360,1,142,2|2,0:1|0:1,0:1:0:0:
472,344,50664,6,0,P|482:300|409:250,1,142,6|0,3:1|3:0,0:0:0:0:
206,199,50989,2,0,L|368:162,1,142,2|0,0:1|0:0,0:0:0:0:
261,156,51314,5,6,3:2:0:0:
344,167,51422,1,2,0:1:0:0:
376,155,51476,1,2,0:2:0:0:
389,123,51530,1,2,3:2:0:0:
374,92,51584,1,2,0:2:0:0:
341,83,51638,1,2,0:1:0:0:
252,46,51747,2,0,L|354:35,1,71,2|2,3:1|0:1,0:0:0:0:
112,24,51963,6,0,L|99:177,1,142,6|0,3:1|3:0,0:0:0:0:
195,208,52288,2,0,L|45:252,1,142,2|0,0:1|0:0,0:0:0:0:
272,332,52613,5,6,3:2:0:0:
303,318,52667,1,2,0:2:0:0:
315,285,52721,1,2,0:2:0:0:
300,254,52775,1,2,0:2:0:0:
261,242,52830,2,0,L|212:248,2,35.5,2|2|2,3:1|0:2|0:1,0:0:0:0:
352,197,53046,2,0,L|396:196,2,35.5,2|2|2,3:1|0:2|0:1,0:0:0:0:
130,198,53263,6,0,P|117:155|206:86,1,142,6|0,3:1|3:0,0:0:0:0:
270,88,53588,2,0,L|123:72,1,142,2|0,3:1|0:0,0:0:0:0:
339,222,53913,6,0,L|359:179,2,35.5,6|2|2,3:1|0:2|0:2,0:0:0:0:
246,232,54129,2,0,L|219:180,2,35.5,2|2|2,3:1|0:2|0:2,0:0:0:0:
342,270,54346,1,2,3:1:0:0:
377,267,54400,1,2,0:2:0:0:
412,264,54454,1,2,0:2:0:0:
203,356,54563,6,0,L|43:334,1,142,6|0,3:1|3:0,0:0:0:0:
152,295,54888,2,0,L|300:278,1,142,2|0,3:1|0:0,0:0:0:0:
85,198,55213,6,0,L|1:184,1,71,2|0,3:1|0:0,0:0:0:0:
112,182,55429,2,0,L|115:89,1,71,2|2,3:1|3:1,0:0:0:0:
17,184,55646,2,0,L|94:200,1,71,2|0,3:1|0:0,0:0:0:0:
305,108,55862,6,0,L|230:95,1,71,6|0,3:1|0:0,0:0:0:0:
152,53,56079,2,0,L|231:39,1,71,2|0,3:1|0:0,0:0:0:0:
434,72,56296,2,0,P|451:118|382:180,1,142,2|2,3:1|3:1,0:0:0:0:
319,191,56620,1,2,0:2:0:0:
400,214,56729,2,0,L|491:218,1,71,2|2,3:1|0:2,0:0:0:0:
269,304,56945,2,0,L|185:309,1,71,2|0,3:1|3:0,0:0:0:0:
417,357,57162,6,0,P|431:309|354:272,1,142,6|0,3:1|3:0,0:0:0:0:
149,163,57487,2,0,L|308:136,1,142,6|0,3:1|3:0,0:0:0:0:
72,276,57812,6,0,P|33:253|87:184,1,142,6|0,3:1|3:0,0:0:0:0:
143,180,58137,2,0,L|166:140,2,35.5,2|2|2,3:1|0:0|0:0,0:0:0:0:
69,181,58353,1,2,3:1:0:0:
289,245,58462,6,0,L|362:241,1,71,6|0,3:1|0:0,0:0:0:0:
257,317,58678,2,0,L|256:230,1,71,2|2,3:1|0:0,0:0:0:0:
356,262,58895,2,0,L|366:174,1,71,2|0,3:1|0:0,0:0:0:0:
261,158,59111,6,0,L|165:147,1,71,2|0,3:1|0:0,0:0:0:0:
83,88,59328,2,0,L|165:69,1,71,2|0,3:1|0:0,0:0:0:0:
260,44,59545,2,0,L|265:124,1,71,2|0,3:1|0:0,0:0:0:0:
45,263,59761,6,0,P|39:220|124:169,1,142,6|2,3:1|3:1,0:0:0:0:
192,175,60086,1,2,0:1:0:0:
110,166,60194,2,0,L|81:120,2,35.5,0|0|0,3:0|3:0|3:0,0:0:0:0:
346,297,60411,6,0,L|265:311,1,71,2|0,3:1|3:0,0:0:0:0:
185,342,60628,2,0,L|173:189,1,142,2|6,3:1|0:2,0:0:0:0:
477,38,61061,5,14,3:2:0:0:
409,46,61169,1,0,3:2:0:0:
379,107,61277,1,10,3:2:0:0:
413,165,61385,1,0,3:2:0:0:
475,169,61494,1,10,3:2:0:0:
403,180,61602,1,0,3:2:0:0:
197,288,61711,6,0,L|186:184,1,71,10|0,3:2|3:2,0:0:0:0:
288,209,61927,2,0,L|290:128,1,71,10|0,3:2|3:2,0:0:0:0:
191,125,62144,2,0,L|182:31,1,71,10|0,3:2|3:2,0:0:0:0:
402,29,62361,6,0,L|329:50,1,71,10|0,3:2|3:2,0:0:0:0:
242,90,62577,2,0,L|324:103,1,71,10|0,3:2|3:2,0:0:0:0:
402,121,62794,2,0,L|406:215,1,71,10|0,3:2|3:2,0:0:0:0:
197,271,63010,6,0,L|147:273,2,35.5,10|2|2,3:2|3:2|3:2,0:0:0:0:
303,273,63227,1,10,3:2:0:0:
305,237,63281,1,2,3:2:0:0:
308,202,63335,1,2,3:2:0:0:
417,203,63444,1,10,3:2:0:0:
419,167,63498,1,2,3:2:0:0:
422,132,63552,1,2,3:2:0:0:
205,102,63660,6,0,L|114:102,2,71,14|0|10,3:2|3:2|3:2,0:0:0:0:
307,43,63985,2,0,L|223:27,1,71,4|10,3:2|3:2,0:0:0:0:
148,27,64202,1,0,3:2:0:0:
231,66,64310,5,10,3:2:0:0:
323,93,64418,2,0,L|355:148,2,35.5,2|2|10,3:2|3:2|3:2,0:0:0:0:
228,108,64635,2,0,L|208:149,2,35.5,2|2|10,3:2|3:2|3:2,0:0:0:0:
302,100,64852,1,2,3:2:0:0:
93,256,64960,6,0,L|7:251,2,71,14|0|10,3:2|3:2|3:2,0:0:0:0:
196,282,65285,2,0,L|118:308,1,71,4|10,3:2|3:2,0:0:0:0:
50,320,65501,1,0,3:2:0:0:
277,343,65610,6,0,L|343:341,2,35.5,14|0|0,3:2|3:2|3:2,0:0:0:0:
185,356,65826,2,0,L|176:207,1,142,14|6,3:2|0:2,0:0:0:0:
474,229,66259,5,4,3:1:0:0:
490,195,66313,1,0,3:0:0:0:
470,157,66367,1,0,3:0:0:0:
434,142,66421,1,0,3:0:0:0:
400,135,66475,1,0,3:0:0:0:
365,135,66530,1,0,3:0:0:0:
336,115,66584,1,0,3:0:0:0:
320,82,66638,1,0,3:0:0:0:
335,49,66692,1,0,3:0:0:0:
408,36,66801,1,0,3:0:0:0:
198,45,66909,6,0,L|185:140,1,71,12|0,3:2|3:2,0:0:0:0:
286,135,67126,2,0,L|300:218,1,71,12|0,3:2|3:2,0:0:0:0:
199,243,67342,2,0,L|279:254,1,71,12|0,3:2|3:2,0:0:0:0:
48,320,67559,5,4,3:1:0:0:
29,285,67613,1,0,3:0:0:0:
45,252,67667,1,0,3:0:0:0:
81,231,67721,1,0,3:0:0:0:
118,227,67775,1,0,3:0:0:0:
154,227,67830,1,0,3:0:0:0:
184,207,67884,1,0,3:0:0:0:
202,174,67938,1,0,3:0:0:0:
183,140,67992,1,0,3:0:0:0:
111,130,68101,1,0,3:0:0:0:
340,81,68209,5,4,3:0:0:0:
393,117,68317,1,2,0:0:0:0:
472,141,68426,2,0,L|482:290,1,142,2|6,0:0|0:2,0:0:0:0:
105,344,68859,5,6,3:1:0:0:
105,344,69075,1,2,0:2:0:0:
425,334,70158,5,2,0:0:0:0:
425,334,70375,1,2,0:0:0:0:
156,306,71025,1,2,0:0:0:0:
35,292,71241,1,2,0:0:0:0:
386,281,71458,5,4,3:1:0:0:
386,281,71675,1,2,0:0:0:0:
46,213,72758,5,2,0:0:0:0:
46,213,72974,1,2,0:0:0:0:
252,207,73407,1,2,0:0:0:0:
252,207,73624,1,2,0:0:0:0:
484,73,74057,6,0,L|320:59,1,142,14|2,3:1|0:0,0:0:0:0:
305,146,74382,1,2,0:0:0:0:
342,60,74490,1,2,0:0:0:0:
489,124,74707,6,0,L|495:275,1,142,4|2,0:0|0:0,0:0:0:0:
339,317,75140,1,2,0:0:0:0:
157,350,75357,6,0,L|142:196,1,142,4|0,3:0|0:0,0:0:0:0:
201,172,75682,1,2,0:0:0:0:
274,162,75790,1,2,0:0:0:0:
109,147,76007,5,4,0:0:0:0:
40,47,76223,1,2,0:0:0:0:
109,147,76440,1,2,0:0:0:0:
477,270,76657,6,0,L|328:249,1,142,4|2,3:0|0:0,0:0:0:0:
299,198,76981,1,2,0:0:0:0:
336,250,77090,1,2,0:0:0:0:
487,230,77306,6,0,L|488:84,1,142,4|2,0:0|0:0,0:0:0:0:
337,67,77740,1,2,0:0:0:0:
147,186,77956,6,0,L|299:214,1,142,12|2,3:0|0:0,0:0:0:0:
326,267,78281,1,2,0:0:0:0:
286,211,78389,1,2,0:0:0:0:
113,315,78606,5,6,0:0:0:0:
179,298,78714,1,2,0:0:0:0:
207,236,78822,1,2,0:0:0:0:
175,175,78930,1,2,0:0:0:0:
108,163,79039,1,2,0:0:0:0:
180,150,79148,1,2,0:0:0:0:
405,181,79256,6,0,P|465:171|466:89,1,142,12|2,3:0|3:2,0:0:0:0:
415,75,79581,1,0,0:0:0:0:
346,64,79689,1,2,3:2:0:0:
171,89,79906,6,0,P|162:142|230:202,1,142,2|2,3:2|3:2,0:0:0:0:
277,219,80231,1,0,0:2:0:0:
348,224,80339,1,2,3:2:0:0:
185,330,80555,6,0,L|25:313,1,142,2|2,3:2|3:2,0:0:0:0:
10,258,80880,1,0,0:2:0:0:
43,314,80989,1,2,3:2:0:0:
224,319,81205,6,0,L|273:313,2,35.5,2|0|2,3:2|0:2|0:2,0:0:0:0:
146,300,81422,1,2,3:2:0:0:
109,220,81530,1,0,0:2:0:0:
146,300,81639,1,2,3:2:0:0:
221,319,81747,1,0,0:2:0:0:
433,349,81855,6,0,L|437:195,1,142,2|2,3:2|3:2,0:0:0:0:
271,184,82288,2,0,L|198:165,1,71,2|0,3:2|0:2,0:0:0:0:
278,155,82505,6,0,L|430:98,2,142,2|2|2,3:2|3:2|3:2,0:0:0:0:
78,173,83155,6,0,L|50:124,2,35.5,2|2|2,3:2|0:2|0:2,0:0:0:0:
165,197,83371,1,2,3:2:0:0:
202,128,83480,1,0,0:2:0:0:
165,197,83588,1,2,3:2:0:0:
81,215,83696,1,0,0:2:0:0:
174,235,83805,6,0,L|260:232,1,71,2|2,3:2|0:2,0:0:0:0:
152,297,84021,2,0,L|72:300,1,71,2|2,3:2|0:2,0:0:0:0:
173,340,84238,2,0,L|273:335,1,71,2|2,3:2|3:2,0:0:0:0:
475,251,84454,6,0,L|325:233,1,142,6|2,1:1|1:2,0:0:0:0:
336,135,84888,2,0,L|438:125,1,71,10|10,0:1|0:1,0:0:0:0:
191,199,85104,6,0,L|179:46,1,142,2|2,1:1|1:1,0:0:0:0:
351,26,85537,2,0,L|255:20,1,71,10|10,0:1|0:1,0:0:0:0:
65,82,85754,6,0,L|58:233,1,142,6|2,1:1|1:1,0:0:0:0:
208,286,86187,2,0,L|128:297,1,71,10|10,0:1|0:1,0:0:0:0:
245,353,86404,6,0,L|266:315,2,35.5,2|0|0,1:1|0:1|0:1,0:0:0:0:
169,345,86620,1,2,1:1:0:0:
132,267,86729,1,0,0:1:0:0:
169,345,86837,1,10,1:1:0:0:
243,356,86945,1,8,0:1:0:0:
469,228,87054,6,0,L|383:215,1,71,6|2,1:1|1:1,0:0:0:0:
227,240,87379,2,0,L|219:79,1,142,2|10,1:1|3:1,0:0:0:0:
319,77,87703,6,0,L|234:70,1,71,6|0,1:1|0:1,0:0:0:0:
154,41,87920,2,0,L|246:20,1,71,2|2,1:1|3:1,0:0:0:0:
323,37,88137,2,0,L|331:115,1,71,10|8,1:1|0:1,0:0:0:0:
111,184,88353,6,0,L|23:195,1,71,6|10,1:1|3:1,0:0:0:0:
234,191,88678,2,0,L|246:352,1,142,2|8,1:1|0:1,0:0:0:0:
148,359,89003,6,0,L|206:304,1,71,6|8,1:1|0:1,0:0:0:0:
302,277,89220,2,0,L|386:280,1,71,10|2,1:1|3:1,0:0:0:0:
164,237,89436,2,0,L|133:192,2,35.5,10|0|8,1:1|0:0|0:1,0:0:0:0:
403,289,89653,5,6,3:1:0:0:
256,192,89870,12,2,92252,2:2:0:0:
255,194,94852,5,2,1:2:0:0:
255,194,95068,1,2,1:2:0:0:
405,134,95285,2,0,L|318:110,1,71,2|0,0:2|0:0,0:0:0:0:
254,105,95501,1,2,0:2:0:0:
254,105,95718,1,2,0:0:0:0:
103,134,95935,2,0,L|190:110,1,71,2|2,0:2|0:2,0:0:0:0:
254,105,96151,5,2,1:2:0:0:
254,105,96368,1,2,1:2:0:0:
254,105,96584,2,0,L|174:90,1,71,2|2,0:2|0:2,0:0:0:0:
89,106,96801,2,0,L|85:197,1,71,2|2,0:2|0:2,0:0:0:0:
183,211,97018,1,2,1:0:0:0:
218,214,97072,1,2,1:0:0:0:
253,217,97126,1,2,1:0:0:0:
41,306,97234,6,0,L|19:271,2,35.5,10|10|10,1:2|1:2|1:2,0:0:0:0:
84,316,97397,1,10,1:2:0:0:
487,139,97667,6,0,L|387:134,1,71,6|2,3:1|0:1,0:0:0:0:
324,138,97884,2,0,L|317:58,1,71,2|2,3:1|0:1,0:0:0:0:
417,44,98101,2,0,L|332:41,1,71,2|2,3:1|0:1,0:0:0:0:
144,164,98317,2,0,L|48:179,1,71,2|2,3:1|0:1,0:0:0:0:
283,273,98534,2,0,L|374:272,1,71,2|2,3:1|3:1,0:0:0:0:
130,359,98750,6,0,P|119:316|195:269,1,142,6|0,3:1|3:0,0:0:0:0:
401,258,99075,1,6,3:1:0:0:
434,252,99129,1,2,0:2:0:0:
449,221,99183,1,2,0:2:0:0:
433,191,99237,1,2,0:2:0:0:
399,187,99291,1,2,3:2:0:0:
199,160,99400,6,0,L|198:57,1,71,6|2,3:1|0:2,0:0:0:0:
270,71,99617,1,2,3:2:0:0:
64,42,99725,2,0,L|61:202,1,142,6|2,3:1|3:2,0:0:0:0:
279,279,100050,6,0,L|371:284,1,71,6|0,3:1|0:0,0:0:0:0:
246,355,100267,2,0,L|239:270,1,71,2|0,3:1|0:0,0:0:0:0:
350,242,100483,2,0,L|279:232,1,71,2|2,3:1|3:1,0:0:0:0:
70,235,100700,6,0,L|63:140,1,71,2|2,3:1|0:2,0:0:0:0:
165,138,100916,2,0,L|76:126,1,71,2|2,3:1|0:2,0:0:0:0:
198,100,101133,2,0,L|280:93,1,71,2|2,3:1|3:1,0:0:0:0:
46,337,101350,6,0,P|33:282|104:240,1,142,6|0,3:1|3:2,0:0:0:0:
303,269,101675,2,0,L|326:227,2,35.5,2|0|0,3:1|0:0|0:0,0:0:0:0:
232,275,101891,1,0,3:2:0:0:
436,344,102000,5,2,3:1:0:0:
474,262,102108,1,0,0:0:0:0:
436,344,102216,1,2,3:1:0:0:
352,362,102324,1,0,0:0:0:0:
445,363,102433,2,0,L|446:282,1,71,2|0,3:1|0:0,0:0:0:0:
227,304,102649,6,0,L|221:214,1,71,2|0,3:1|0:0,0:0:0:0:
316,215,102866,1,0,3:0:0:0:
219,185,102974,2,0,L|69:163,1,142,2|0,3:1|3:0,0:0:0:0:
289,93,103299,6,0,L|365:82,1,71,2|0,3:1|0:0,0:0:0:0:
262,56,103516,2,0,L|177:57,1,71,2|2,3:1|0:2,0:0:0:0:
300,153,103732,2,0,L|308:76,1,71,2|2,3:1|0:2,0:0:0:0:
88,193,103949,6,0,L|4:183,2,71,6|2|2,3:1|3:2|3:2,0:0:0:0:
300,242,104274,1,2,3:1:0:0:
283,273,104328,1,2,3:2:0:0:
256,295,104382,1,2,3:2:0:0:
223,307,104436,1,2,3:2:0:0:
187,307,104490,1,2,3:2:0:0:
404,358,104599,5,2,3:1:0:0:
483,356,104707,2,0,P|486:312|310:158,1,284,8|0,3:1|0:0,0:0:0:0:
87,32,105249,5,4,3:2:0:0:
154,34,105357,1,0,3:0:0:0:
188,93,105465,1,0,3:2:0:0:
156,153,105573,1,0,3:0:0:0:
74,171,105682,2,0,L|21:173,2,35.5,0|0|0,3:2|3:0|3:0,0:0:0:0:
294,191,105898,5,4,3:2:0:0:
227,193,106006,1,0,3:0:0:0:
193,252,106114,1,0,3:0:0:0:
225,312,106222,1,0,3:0:0:0:
307,330,106331,2,0,L|360:332,2,35.5,0|0|0,3:0|3:0|3:0,0:0:0:0:
86,357,106548,6,0,L|78:271,1,71,4|0,3:2|3:0,0:0:0:0:
184,257,106765,2,0,L|112:243,1,71,0|0,3:0|3:0,0:0:0:0:
22,188,106981,2,0,L|96:177,1,71,0|0,3:0|3:0,0:0:0:0:
312,245,107198,5,4,3:2:0:0:
350,177,107306,1,0,3:0:0:0:
312,245,107415,1,2,3:2:0:0:
231,259,107523,1,2,0:2:0:0:
313,299,107631,1,2,0:2:0:0:
397,305,107740,1,2,0:2:0:0:
185,361,107848,6,0,L|101:351,1,71,4|0,3:2|3:0,0:0:0:0:
202,326,108065,2,0,L|277:312,1,71,0|0,3:0|3:0,0:0:0:0:
170,254,108281,2,0,L|121:248,2,35.5,0|0|0,3:0|3:0|3:0,0:0:0:0:
387,253,108498,6,0,L|391:180,1,71,4|0,3:2|3:0,0:0:0:0:
295,180,108714,2,0,L|287:79,1,71,0|0,3:0|3:0,0:0:0:0:
394,87,108931,2,0,L|487:87,1,71,0|0,3:0|3:0,0:0:0:0:
250,177,109148,6,0,L|170:172,1,71,4|0,3:2|3:0,0:0:0:0:
282,138,109364,2,0,L|197:134,1,71,0|0,3:0|3:0,0:0:0:0:
313,101,109581,2,0,L|387:99,1,71,0|0,3:0|3:0,0:0:0:0:
129,91,109797,5,4,3:2:0:0:
48,80,109906,1,2,3:2:0:0:
115,92,110014,1,2,0:0:0:0:
145,154,110122,1,8,0:0:0:0:
113,214,110230,1,2,0:0:0:0:
45,224,110339,1,2,0:0:0:0:
288,311,110447,6,0,L|312:263,2,35.5,12|0|0,3:2|3:0|3:0,0:0:0:0:
207,317,110664,2,0,L|185:273,2,35.5,8|0|0,3:2|3:0|3:0,0:0:0:0:
295,347,110880,2,0,L|352:349,2,35.5,8|0|0,3:2|3:0|3:0,0:0:0:0:
81,358,111097,5,12,3:2:0:0:
47,353,111151,1,0,3:0:0:0:
30,323,111205,1,0,3:0:0:0:
45,292,111259,1,0,3:0:0:0:
78,285,111313,1,8,3:2:0:0:
166,274,111422,1,0,3:2:0:0:
260,230,111530,2,0,L|158:220,1,71,8|0,3:2|3:2,0:0:0:0:
427,191,111747,6,0,L|479:191,2,35.5,12|0|0,3:2|3:2|3:2,0:0:0:0:
326,177,111963,1,8,3:2:0:0:
321,141,112017,1,0,3:2:0:0:
317,106,112071,1,0,3:2:0:0:
211,123,112180,1,8,3:2:0:0:
206,87,112234,1,0,3:2:0:0:
202,52,112288,1,0,3:2:0:0:
430,22,112397,5,12,3:2:0:0:
467,100,112505,1,0,3:2:0:0:
430,22,112613,1,8,3:2:0:0:
339,26,112722,1,0,3:2:0:0:
441,55,112830,2,0,L|444:144,1,71,8|0,3:2|3:2,0:0:0:0:
209,215,113046,6,0,L|294:230,1,71,12|0,3:2|3:2,0:0:0:0:
370,270,113263,2,0,L|296:290,1,71,8|0,3:2|3:2,0:0:0:0:
206,325,113480,2,0,L|288:335,1,71,8|0,3:2|3:2,0:0:0:0:
61,368,113696,6,0,L|54:286,1,71,12|0,3:2|3:2,0:0:0:0:
161,286,113913,2,0,L|164:197,1,71,8|0,3:2|3:2,0:0:0:0:
57,188,114129,2,0,L|31:146,2,35.5,8|0|0,3:2|3:2|3:2,0:0:0:0:
277,193,114346,5,12,1:2:0:0:
309,183,114400,1,0,1:2:0:0:
323,151,114454,1,0,1:2:0:0:
309,120,114508,1,0,1:2:0:0:
275,112,114563,2,0,L|210:113,2,35.5,8|0|0,1:2|1:2|1:2,0:0:0:0:
492,48,114779,2,0,L|441:31,1,35.5,8|0,1:2|1:2,0:0:0:0:
420,35,114888,1,0,1:2:0:0:
199,69,114996,5,2,3:1:0:0:
159,146,115104,1,8,0:1:0:0:
199,69,115213,1,8,0:1:0:0:
293,50,115321,2,0,L|338:50,1,35.5,8|8,0:1|0:1,0:0:0:0:
367,54,115429,1,8,0:1:0:0:
40,241,115646,5,6,3:1:0:0:
256,192,115862,12,2,117595,0:3:0:0:
161,209,118245,6,0,L|112:215,2,35.5,6|0|0,3:1|3:0|3:0,0:0:0:0:
264,211,118462,1,2,3:1:0:0:
269,175,118516,1,0,3:0:0:0:
274,140,118570,1,0,3:0:0:0:
385,108,118678,2,0,L|434:104,2,35.5,2|0|2,3:1|3:0|3:1,0:0:0:0:
152,286,118895,6,0,L|103:292,2,35.5,6|0|0,3:1|3:0|3:0,0:0:0:0:
255,288,119112,1,2,3:1:0:0:
260,252,119166,1,0,3:0:0:0:
265,217,119220,1,0,3:0:0:0:
376,185,119328,2,0,L|425:181,2,35.5,2|0|2,3:1|3:0|3:1,0:0:0:0:
139,207,119545,5,6,3:1:0:0:
105,202,119599,1,2,3:2:0:0:
88,173,119653,1,2,3:2:0:0:
102,142,119707,1,2,3:2:0:0:
135,135,119761,1,2,3:2:0:0:
207,128,119870,1,2,3:2:0:0:
407,65,119978,2,0,L|318:54,1,71,2|2,3:2|3:2,0:0:0:0:
115,34,120194,6,0,L|199:20,1,71,6|2,3:1|3:1,0:0:0:0:
