osu file format v14

[General]
AudioFilename: audio.mp3
AudioLeadIn: 0
PreviewTime: 94809
Countdown: 0
SampleSet: Soft
StackLeniency: 0.7
Mode: 2
LetterboxInBreaks: 0
WidescreenStoryboard: 1

[Editor]
Bookmarks: 61061
DistanceSpacing: 1.4
BeatDivisor: 4
GridSize: 32
TimelineZoom: 2.699999

[Metadata]
Title:XHRONOXAPSULE
TitleUnicode:XHRONOXAPSULΞ
Artist:Silentroom
ArtistUnicode:Silentroom
Creator:Jemzuu
Version:ADVANXED
Source:SOUND VOLTEX EXCEED GEAR
Tags:ajamez rocma x_angelkawaii_x bigh bighzonda verti nakano ichika -[ Asuna ]- dika312 -joakh joakh sinnoh xinnoh lacrima myle electronic instrumental the 10th kac sdvx speedcore video game chronocapsule chrono capsule クロノカプセル cataclysm cronicle chronicle
BeatmapID:3520002
BeatmapSetID:1715139

[Difficulty]
HPDrainRate:4
CircleSize:3.5
OverallDifficulty:8.3
ApproachRate:8.3
SliderMultiplier:1.22
SliderTickRate:1

[Events]
//Background and Video events
0,0,"95577715_p0.jpg",0,0
//Break Periods
2,92452,94132
//Storyboard Layer 0 (Background)
//Storyboard Layer 1 (Fail)
//Storyboard Layer 2 (Pass)
//Storyboard Layer 3 (Foreground)
//Storyboard Layer 4 (Overlay)
//Storyboard Sound Samples

[TimingPoints]
1278,216.606498194946,3,2,2,80,1,0
1332,-100,3,2,1,60,0,0
3877,-100,3,2,2,80,0,0
3931,-100,3,2,1,60,0,0
5826,-100,3,2,2,80,0,0
5880,-100,3,2,1,60,0,0
6476,-100,3,2,1,70,0,0
10375,-100,3,2,1,80,0,0
11296,-100,3,2,2,70,0,0
11675,-100,3,2,3,80,0,0
11837,-100,3,2,1,55,0,0
13678,-100,3,2,2,55,0,0
13949,-100,3,2,1,55,0,0
14003,-100,3,2,2,65,0,0
14274,-100,3,2,1,75,0,0
14382,-100,3,2,1,60,0,0
16223,-100,3,2,4,70,0,0
16657,-100,3,2,2,60,0,0
16819,-100,3,2,1,75,0,0
16927,-100,3,2,1,60,0,0
19310,-100,3,2,2,60,0,0
19472,-100,3,2,1,60,0,0
23805,-100,3,2,2,60,0,0
24021,-100,3,2,1,60,0,0
26620,-100,3,2,4,60,0,0
27054,-100,3,2,2,60,0,0
27270,-100,3,2,1,60,0,0
29653,-100,3,2,5,60,0,0
29870,-100,3,2,3,60,0,0
30303,-100,3,2,1,60,0,0
30519,-100,3,2,2,60,0,0
30736,-100,3,2,1,60,0,0
30953,-100,3,2,2,60,0,0
31169,-100,3,2,1,60,0,0
31819,-100,3,2,2,60,0,0
32036,-100,3,2,1,60,0,0
32252,-100,3,2,2,60,0,0
32469,-100,3,2,1,60,0,0
32902,-100,3,2,2,60,0,0
33119,-100,3,2,1,60,0,0
33552,-100,3,2,98,60,0,0
33660,-100,3,2,1,60,0,0
33768,-100,3,2,1,60,0,0
33823,-100,3,2,1,60,0,0
34202,-100,3,2,2,60,0,0
34418,-100,3,2,1,60,0,0
40050,-100,3,2,2,60,0,0
40267,-100,3,2,1,60,0,0
40916,-100,3,2,2,60,0,0
41025,-100,3,2,1,60,0,0
41133,-100,3,2,3,60,0,0
41241,-100,3,2,1,60,0,0
41566,-100,3,2,4,60,0,0
41891,-100,3,2,1,60,0,0
42216,-100,3,2,2,60,0,0
42324,-100,3,2,1,60,0,0
43515,-100,3,2,2,60,0,0
43624,-100,3,2,1,60,0,0
43732,-100,3,2,3,60,0,0
43840,-100,3,2,1,60,0,0
44165,-100,3,2,4,60,0,0
44490,-100,3,2,1,60,0,0
44815,-100,3,2,2,60,0,0
44923,-100,3,2,1,60,0,0
45465,-100,3,2,1,70,0,0
46115,-100,3,2,2,70,0,0
46765,-100,3,2,1,70,0,0
47415,-100,3,2,2,70,0,0
48065,-100,3,2,1,70,0,0
49364,-100,3,2,1,80,0,0
50014,-100,3,2,1,80,0,0
50285,-100,3,2,1,60,0,0
50555,-100,3,2,1,60,0,0
50664,-100,3,2,1,90,0,1
50772,-100,3,2,1,80,0,1
51097,-100,3,2,95,80,0,1
51205,-100,3,2,1,80,0,1
52396,-100,3,2,95,80,0,1
52505,-100,3,2,1,80,0,1
53696,-100,3,2,95,80,0,1
53913,-100,3,2,5,80,0,1
54563,-100,3,2,1,80,0,1
54996,-100,3,2,95,80,0,1
55104,-100,3,2,1,80,0,1
58462,-100,3,2,1,80,0,0
59761,-100,3,2,4,80,0,0
59870,-100,3,2,1,80,0,0
60844,-100,3,2,5,80,0,0
61061,-100,3,2,4,80,0,1
61169,-100,3,2,1,80,0,1
63010,-100,3,2,1,80,0,0
63660,-100,3,2,1,80,0,1
63985,-100,3,2,6,80,0,1
64093,-100,3,2,1,80,0,1
65285,-100,3,2,6,80,0,1
65393,-100,3,2,1,80,0,1
65610,-100,3,2,6,80,0,1
65826,-100,3,2,6,80,0,0
66043,-100,3,2,5,80,0,0
66259,-100,3,2,1,80,0,1
66909,-100,3,2,6,80,0,1
67342,-100,3,2,5,80,0,1
67397,-100,3,2,1,80,0,1
68209,-100,3,2,1,80,0,0
68642,-100,3,2,5,80,0,0
68859,-100,3,2,6,80,0,0
68913,-100,3,2,1,80,0,0
69075,-100,3,2,4,60,0,0
69089,-100,3,2,1,5,0,0
70158,-100,3,2,4,60,0,0
70172,-100,3,2,1,5,0,0
70375,-100,3,2,4,60,0,0
70389,-100,3,2,1,5,0,0
71025,-100,3,2,4,60,0,0
71458,-100,3,2,6,60,0,0
71675,-100,3,2,4,60,0,0
71688,-100,3,2,1,5,0,0
72758,-100,3,2,4,60,0,0
72771,-100,3,2,1,5,0,0
72975,-100,3,2,4,60,0,0
72988,-100,3,2,1,5,0,0
73407,-100,3,2,1,60,0,0
74057,-100,3,2,6,60,0,0
74274,-100,3,2,1,60,0,0
74707,-100,3,2,2,60,0,0
74924,-100,3,2,1,60,0,0
75357,-100,3,2,4,60,0,0
75574,-100,3,2,1,60,0,0
76007,-100,3,2,2,60,0,0
76223,-100,3,2,1,60,0,0
76657,-100,3,2,4,60,0,0
76873,-100,3,2,1,60,0,0
77306,-100,3,2,2,60,0,0
77523,-100,3,2,1,60,0,0
77956,-100,3,2,4,60,0,0
78173,-100,3,2,1,60,0,0
78606,-100,3,2,2,60,0,0
78714,-100,3,2,1,60,0,0
79256,-100,3,2,7,70,0,0
79364,-100,3,2,1,70,0,0
79472,-100,3,2,1,55,0,0
79906,-100,3,2,1,58,0,0
80339,-100,3,2,1,62,0,0
80772,-100,3,2,1,65,0,0
81205,-100,3,2,1,68,0,0
81639,-100,3,2,1,71,0,0
82072,-100,3,2,1,74,0,0
82505,-100,3,2,1,76,0,0
82938,-100,3,2,1,78,0,0
83371,-100,3,2,1,80,0,0
83805,-100,3,2,1,82,0,0
84238,-100,3,2,1,84,0,0
84671,-100,3,2,1,45,0,0
84888,-100,3,2,1,47,0,0
85104,-100,3,2,1,50,0,0
85321,-100,3,2,1,52,0,0
85537,-100,3,2,1,54,0,0
85754,-100,3,2,1,57,0,0
85971,-100,3,2,1,60,0,0
86187,-100,3,2,1,62,0,0
86404,-100,3,2,1,64,0,0
86620,-100,3,2,1,66,0,0
86837,-100,3,2,1,68,0,0
87054,-100,3,2,1,70,0,0
87270,-100,3,2,1,72,0,0
87487,-100,3,2,1,74,0,0
87703,-100,3,2,1,76,0,0
87920,-100,3,2,1,78,0,0
88137,-100,3,2,1,80,0,0
88353,-100,3,2,1,82,0,0
88570,-100,3,2,1,84,0,0
88787,-100,3,2,1,86,0,0
89003,-100,3,2,1,88,0,0
89220,-100,3,2,1,90,0,0
89436,-100,3,2,1,93,0,0
89653,-100,3,2,6,80,0,0
90736,-100,3,2,1,80,0,0
92252,-100,3,2,8,80,0,0
94852,-100,3,2,3,75,0,0
95068,-100,3,2,3,75,0,0
95285,-100,3,2,3,50,0,0
96151,-100,3,2,3,75,0,0
97234,-100,3,2,3,55,0,0
97667,-100,3,2,1,80,0,1
97776,-100,3,2,99,80,0,1
97830,-100,3,2,1,80,0,1
97992,-100,3,2,99,80,0,1
98046,-100,3,2,1,80,0,1
98209,-100,3,2,99,80,0,1
98263,-100,3,2,1,80,0,1
98426,-100,3,2,99,80,0,1
98480,-100,3,2,1,80,0,1
99075,-100,3,2,1,70,0,1
99400,-100,3,2,1,80,0,1
99725,-100,3,2,1,70,0,1
100050,-100,3,2,1,80,0,1
100483,-100,3,2,1,75,0,1
100700,-100,3,2,1,80,0,1
100916,-100,3,2,1,75,0,1
101133,-100,3,2,1,80,0,1
101350,-100,3,2,1,75,0,1
101567,-100,3,2,1,80,0,1
101783,-100,3,2,1,75,0,1
102000,-100,3,2,1,80,0,1
102216,-100,3,2,1,75,0,1
102433,-100,3,2,1,80,0,1
102649,-100,3,2,1,75,0,1
102866,-100,3,2,1,80,0,1
103083,-100,3,2,1,75,0,1
103300,-100,3,2,1,80,0,1
103516,-100,3,2,1,75,0,1
103733,-100,3,2,1,80,0,1
103949,-100,3,2,1,80,0,0
104707,-100,3,2,3,80,0,0
105249,-100,3,2,1,80,0,1
105465,-100,3,2,1,85,0,1
105682,-100,3,2,1,80,0,1
105898,-100,3,2,5,80,0,1
105953,-100,3,2,1,80,0,1
106115,-100,3,2,1,85,0,1
106332,-100,3,2,1,80,0,1
106548,-100,3,2,1,85,0,1
106765,-100,3,2,1,80,0,1
106981,-100,3,2,1,85,0,1
107198,-100,3,2,5,80,0,1
107252,-100,3,2,1,80,0,1
107415,-100,3,2,1,85,0,1
107632,-100,3,2,1,80,0,1
107848,-100,3,2,1,85,0,1
108065,-100,3,2,1,80,0,1
108281,-100,3,2,1,85,0,1
108498,-100,3,2,5,80,0,1
108552,-100,3,2,1,80,0,1
108714,-100,3,2,1,85,0,1
108931,-100,3,2,1,80,0,1
109148,-100,3,2,1,85,0,1
109365,-100,3,2,1,80,0,1
109581,-100,3,2,1,85,0,1
109797,-100,3,2,5,80,0,1
109852,-100,3,2,1,80,0,1
110122,-100,3,2,3,50,0,1
110231,-100,3,2,1,80,0,0
110447,-100,3,2,4,80,0,1
110664,-100,3,2,4,75,0,1
110880,-100,3,2,4,80,0,1
111097,-100,3,2,4,75,0,1
111313,-100,3,2,4,80,0,1
111530,-100,3,2,4,75,0,1
111746,-100,3,2,4,80,0,1
111963,-100,3,2,4,75,0,1
112179,-100,3,2,4,80,0,1
112397,-100,3,2,4,75,0,1
112613,-100,3,2,4,80,0,1
112830,-100,3,2,4,75,0,1
113046,-100,3,2,4,80,0,1
113263,-100,3,2,4,75,0,1
113479,-100,3,2,4,80,0,1
113696,-100,3,2,4,75,0,1
113912,-100,3,2,4,80,0,1
114129,-100,3,2,4,75,0,1
114345,-100,3,2,4,80,0,1
114563,-100,3,2,4,75,0,1
114779,-100,3,2,4,80,0,1
114996,-100,3,2,1,80,0,1
115321,-100,3,2,2,80,0,1
115537,-100,3,2,1,80,0,1
115646,-100,3,2,1,80,0,0
115754,-100,3,2,1,60,0,0
116296,-100,3,2,1,65,0,0
116512,-100,3,2,1,60,0,0
116729,-100,3,2,1,65,0,0
116945,-100,3,2,1,60,0,0
117162,-100,3,2,1,65,0,0
117378,-100,3,2,1,60,0,0
117595,-100,3,2,1,65,0,0
117811,-100,3,2,1,60,0,0
118028,-100,3,2,1,65,0,0
118245,-100,3,2,1,80,0,1
118462,-100,3,2,1,90,0,1
118678,-100,3,2,1,80,0,1
118895,-100,3,2,1,90,0,1
119111,-100,3,2,1,80,0,1
119328,-100,3,2,1,90,0,1
119545,-100,3,2,1,80,0,1
119762,-100,3,2,1,90,0,1
119978,-100,3,2,1,80,0,1
120195,-100,3,2,1,90,0,1
120303,-100,3,2,1,80,0,0

[Colours]
Combo1 : 128,255,255
Combo2 : 100,177,255
Combo3 : 140,140,255
Combo4 : 255,166,210

[HitObjects]
283,148,1278,6,0,L|410:184,2,122,4|2|2,3:1|0:0|0:0,0:0:0:0:
157,169,1927,2,0,L|76:279,2,122,2|2|2,0:3|0:0|0:0,0:0:0:0:
288,228,2577,1,2,0:3:0:0:
350,127,2794,1,2,0:0:0:0:
288,228,3010,1,2,0:0:0:0:
85,308,3227,6,0,L|54:252,2,61,2|0|2,0:3|0:0|0:0,0:0:0:0:
148,331,3552,1,0,0:0:0:0:
212,335,3660,1,2,0:0:0:0:
419,339,3877,6,0,L|486:209,2,122,4|2|2,3:1|0:0|0:0,0:0:0:0:
288,347,4527,2,0,L|158:321,2,122,2|2|2,0:3|0:0|0:0,0:0:0:0:
82,361,5176,5,2,0:3:0:0:
57,306,5284,1,0,0:0:0:0:
74,248,5392,1,2,0:0:0:0:
123,215,5500,1,0,0:0:0:0:
185,212,5609,1,2,0:0:0:0:
359,193,5826,2,0,L|503:173,2,122,10|2|2,3:2|3:0|3:0,0:0:0:0:
71,90,6476,5,6,1:0:0:0:
181,103,6693,2,0,L|197:227,1,122,2|2,1:0|0:0,0:0:0:0:
338,247,7126,1,2,1:0:0:0:
203,257,7342,2,0,L|55:269,1,122,2|2,1:0|1:0,0:0:0:0:
277,352,7776,1,6,1:0:0:0:
384,358,7992,2,0,L|394:213,1,122,2|0,1:0|0:0,0:0:0:0:
106,213,8426,5,2,1:1:0:0:
47,206,8534,1,2,0:2:0:0:
19,154,8642,1,2,1:2:0:0:
45,101,8750,1,2,0:2:0:0:
102,92,8859,1,2,1:2:0:0:
379,97,9075,6,0,L|298:91,1,61,6|0,1:1|0:0,0:0:0:0:
195,212,9400,2,0,L|190:355,1,122,2|2,1:1|0:2,0:0:0:0:
250,346,9725,2,0,L|319:345,1,61,2|2,1:1|0:2,0:0:0:0:
113,291,10050,2,0,L|70:230,2,61,2|2|2,1:1|0:2|0:2,0:0:0:0:
228,303,10375,5,0,3:0:0:0:
285,289,10483,1,0,3:0:0:0:
309,235,10591,1,0,3:0:0:0:
280,183,10699,1,0,3:0:0:0:
222,174,10808,1,2,3:1:0:0:
83,158,11025,1,0,3:1:0:0:
225,121,11241,6,0,L|372:110,1,122,10|2,3:1|0:3,0:0:0:0:
49,51,11675,5,4,3:1:0:0:
31,191,11891,1,2,0:0:0:0:
75,308,12108,1,0,0:0:0:0:
182,352,12324,1,2,0:0:0:0:
304,346,12541,1,0,0:0:0:0:
175,288,12758,1,2,0:0:0:0:
302,260,12974,6,0,L|473:180,2,183,2|2|2,0:0|0:0|0:3,0:0:0:0:
127,282,13949,1,2,0:3:0:0:
422,363,14274,6,0,L|426:228,1,122,4|0,3:1|0:0,0:0:0:0:
361,212,14599,2,0,L|239:193,1,122,2|0,3:1|0:0,0:0:0:0:
354,119,14924,2,0,L|500:96,1,122,2|0,3:1|0:0,0:0:0:0:
359,50,15249,2,0,L|285:43,2,61,2|0|0,3:1|0:1|0:0,0:0:0:0:
424,71,15574,6,0,L|463:9,2,61,2|0|0,3:1|0:0|0:0,0:0:0:0:
361,84,15898,2,0,L|230:103,1,122,2|0,3:1|0:0,0:0:0:0:
359,187,16223,6,0,L|491:196,2,122,6|6|8,3:1|3:1|0:2,0:0:0:0:
73,350,16873,6,0,L|59:222,1,122,6|2,3:1|3:1,0:0:0:0:
167,205,17306,1,2,3:1:0:0:
328,217,17523,2,0,L|339:72,1,122,2|2,3:1|3:1,0:0:0:0:
217,74,17956,1,2,3:1:0:0:
418,80,18173,6,0,L|445:223,1,122,2|0,3:1|3:0,0:0:0:0:
379,235,18498,2,0,L|298:252,1,61,2|0,0:1|3:0,0:0:0:0:
119,351,18823,2,0,L|257:352,1,122,2|0,3:1|3:0,0:0:0:0:
275,318,19148,1,2,0:1:0:0:
240,351,19256,1,0,3:0:0:0:
39,289,19472,6,0,L|31:154,1,122,2|0,3:1|3:0,0:0:0:0:
67,118,19797,1,0,0:0:0:0:
122,93,19905,1,2,3:1:0:0:
181,93,20013,1,0,0:0:0:0:
101,52,20122,6,0,L|99:182,1,122,2|0,3:1|3:1,0:0:0:0:
167,210,20447,2,0,L|305:223,1,122,2|0,0:1|0:0,0:0:0:0:
365,215,20772,6,0,L|401:148,2,61,2|0|0,3:1|0:0|3:0,0:0:0:0:
286,258,21097,2,0,L|152:271,1,122,2|0,0:1|0:0,0:0:0:0:
77,278,21422,6,0,P|58:227|101:172,1,122,2|2,3:1|3:1,0:0:0:0:
203,145,21855,1,2,3:2:0:0:
485,65,22072,6,0,L|346:46,1,122,6|2,3:1|3:1,0:0:0:0:
252,118,22505,2,0,L|219:185,1,61,2|2,3:1|0:1,0:0:0:0:
281,237,22722,2,0,L|415:253,1,122,2|0,3:1|3:0,0:0:0:0:
337,306,23046,2,0,L|206:328,1,122,2|0,0:1|0:0,0:0:0:0:
108,338,23371,6,0,P|94:298|151:229,1,122,6|2,3:1|0:2,0:0:0:0:
190,213,23696,1,2,3:1:0:0:
254,211,23805,1,2,0:3:0:0:
56,185,24021,6,0,L|44:41,1,122,6|2,3:1|0:0,0:0:0:0:
103,37,24346,1,2,3:1:0:0:
164,30,24454,1,2,0:0:0:0:
445,214,24671,6,0,P|454:158|386:108,1,122,6|2,3:1|3:1,0:0:0:0:
361,100,24996,1,0,0:0:0:0:
308,94,25104,1,2,3:1:0:0:
122,278,25321,2,0,L|261:296,1,122,2|2,3:1|3:1,0:0:0:0:
298,324,25646,1,2,0:1:0:0:
242,293,25754,1,0,3:0:0:0:
39,331,25971,6,0,L|29:200,1,122,6|2,3:1|3:1,0:0:0:0:
139,177,26404,1,2,3:1:0:0:
294,171,26620,1,6,3:1:0:0:
139,177,26837,2,0,L|127:39,1,122,6|8,3:1|0:2,0:0:0:0:
414,32,27270,6,0,L|432:165,1,122,6|2,3:1|3:1,0:0:0:0:
311,209,27703,2,0,L|268:272,1,61,2|0,3:1|0:0,0:0:0:0:
325,300,27920,2,0,L|457:308,1,122,2|2,3:1|3:1,0:0:0:0:
478,262,28245,1,2,0:2:0:0:
446,307,28353,1,2,3:1:0:0:
248,357,28570,5,6,3:1:0:0:
190,344,28678,1,2,0:2:0:0:
164,291,28786,1,2,3:1:0:0:
189,238,28894,1,2,0:2:0:0:
247,226,29003,1,2,3:1:0:0:
405,216,29220,5,6,3:2:0:0:
247,226,29436,2,0,L|110:206,1,122,8|4,3:1|0:2,0:0:0:0:
430,115,29870,5,4,3:3:0:0:
443,240,30303,1,2,0:0:0:0:
322,268,30519,1,2,0:0:0:0:
258,171,30736,1,2,0:0:0:0:
322,268,30953,1,2,0:0:0:0:
461,295,31169,6,0,P|474:229|345:129,1,244,2|2,0:3|0:0,0:0:0:0:
197,149,31819,2,0,L|184:292,1,122,2|2,0:0|0:0,0:0:0:0:
300,313,32252,1,2,0:0:0:0:
123,358,32469,6,0,P|70:353|83:197,1,244,2|2,0:3|0:0,0:0:0:0:
232,218,33119,2,0,P|252:157|89:206,2,366,2|2|2,0:3|0:3|0:3,0:0:0:0:
172,224,34526,5,2,0:0:0:0:
121,194,34634,1,2,0:0:0:0:
101,136,34742,1,2,0:1:0:0:
121,194,34851,1,2,0:1:0:0:
408,305,35068,6,0,L|411:160,1,122,6|2,3:1|3:1,0:0:0:0:
301,162,35501,1,2,3:1:0:0:
112,81,35718,2,0,L|231:31,1,122,2|2,3:1|3:1,0:0:0:0:
348,48,36151,1,2,3:1:0:0:
157,212,36368,6,0,L|23:249,1,122,2|0,3:1|3:0,0:0:0:0:
39,244,36693,1,2,0:1:0:0:
97,324,36801,1,0,3:0:0:0:
295,356,37018,2,0,L|427:317,2,122,2|2|2,3:1|3:1|3:1,0:0:0:0:
225,357,37559,1,0,3:0:0:0:
155,356,37667,6,0,L|139:209,1,122,2|2,3:1|3:1,0:0:0:0:
252,202,38101,1,2,3:1:0:0:
432,230,38317,2,0,L|441:99,1,122,2|2,3:1|3:1,0:0:0:0:
322,86,38750,1,2,3:1:0:0:
137,28,38967,5,2,3:1:0:0:
246,62,39184,1,2,3:1:0:0:
308,182,39400,1,2,3:1:0:0:
246,62,39617,1,2,3:1:0:0:
137,28,39833,2,0,L|128:171,1,122,2|2,3:1|0:3,0:0:0:0:
423,291,40267,6,0,L|288:322,1,122,6|2,3:1|3:1,0:0:0:0:
193,342,40700,1,8,0:1:0:0:
361,357,40916,1,8,0:1:0:0:
422,266,41133,1,2,0:3:0:0:
361,357,41350,1,8,0:1:0:0:
188,328,41566,6,0,L|180:191,1,122,6|6,3:1|3:1,0:0:0:0:
316,176,42000,2,0,L|244:171,1,61,8|8,0:1|0:1,0:0:0:0:
189,146,42216,5,8,0:1:0:0:
162,92,42324,1,2,0:0:0:0:
189,146,42432,1,2,0:3:0:0:
245,126,42540,1,0,0:0:0:0:
297,153,42649,1,8,0:1:0:0:
83,326,42866,6,0,L|73:185,1,122,6|2,3:1|3:1,0:0:0:0:
183,164,43299,1,8,0:1:0:0:
357,329,43516,2,0,L|217:353,1,122,8|2,0:1|0:3,0:0:0:0:
128,357,43949,2,0,L|94:288,1,61,8|8,0:1|0:1,0:0:0:0:
206,261,44166,6,0,L|332:233,1,122,6|6,3:1|3:1,0:0:0:0:
381,218,44490,1,8,0:1:0:0:
405,164,44598,1,8,0:1:0:0:
377,112,44706,1,8,0:1:0:0:
320,100,44815,1,8,0:1:0:0:
161,88,45032,2,0,L|152:225,1,122,8|8,0:3|3:1,0:0:0:0:
441,302,45465,6,0,P|457:246|403:198,1,122,6|0,3:1|3:0,0:0:0:0:
357,180,45790,2,0,L|272:173,1,61,2|2,0:1|3:2,0:0:0:0:
470,127,46115,6,0,L|497:68,2,61,8|8|8,0:1|0:1|0:1,0:0:0:0:
417,154,46440,1,8,0:1:0:0:
358,162,46548,1,8,0:1:0:0:
76,281,46765,6,0,L|226:289,1,122,6|0,3:1|3:1,0:0:0:0:
266,255,47090,2,0,L|201:255,1,61,2|2,0:1|3:2,0:0:0:0:
37,121,47415,6,0,L|10:62,2,61,8|8|8,0:1|0:1|0:1,0:0:0:0:
90,148,47740,1,8,0:1:0:0:
149,156,47848,1,8,0:1:0:0:
432,64,48065,6,0,L|283:73,1,122,6|2,3:1|3:1,0:0:0:0:
173,304,48498,2,0,L|306:320,1,122,2|6,3:1|3:1,0:0:0:0:
424,338,48931,2,0,L|459:266,2,61,2|0|2,3:1|3:0|3:1,0:0:0:0:
142,354,49364,5,6,3:1:0:0:
84,340,49472,1,0,3:0:0:0:
58,287,49580,1,2,3:1:0:0:
83,234,49688,1,0,3:0:0:0:
140,219,49797,1,2,3:1:0:0:
443,213,50014,5,4,3:3:0:0:
443,213,50231,2,2,L|444:75,1,122,2|2,0:1|0:1,0:1:0:0:
151,39,50664,6,0,L|-6:61,1,122,6|0,3:1|3:0,0:0:0:0:
106,102,50989,2,0,L|237:117,1,122,2|0,0:1|0:0,0:0:0:0:
147,175,51314,2,0,L|110:118,2,61,6|2|2,3:2|0:1|3:2,0:0:0:0:
222,207,51639,2,0,L|155:222,1,61,2|2,0:1|3:1,0:0:0:0:
443,308,51963,6,0,L|451:163,1,122,6|0,3:1|3:0,0:0:0:0:
368,162,52288,2,0,L|227:148,1,122,2|0,0:1|0:0,0:0:0:0:
331,140,52613,2,0,L|364:82,2,61,6|2|2,3:2|0:2|3:1,0:0:0:0:
259,202,52938,2,0,L|323:201,1,61,2|2,0:1|3:1,0:0:0:0:
37,344,53263,6,0,L|27:186,1,122,6|0,3:1|3:0,0:0:0:0:
107,206,53588,2,0,L|246:188,1,122,2|0,3:1|0:0,0:0:0:0:
152,148,53913,2,0,L|79:138,1,61,6|2,3:1|0:2,0:0:0:0:
153,118,54129,2,0,L|236:105,1,61,2|2,3:1|0:2,0:0:0:0:
143,82,54346,1,2,3:1:0:0:
426,40,54563,6,0,L|440:173,1,122,6|0,3:1|3:0,0:0:0:0:
365,188,54888,2,0,L|218:212,1,122,2|0,3:1|0:0,0:0:0:0:
332,251,55213,2,0,L|476:268,2,122,2|2|2,3:1|3:1|3:1,0:0:0:0:
51,352,55862,6,0,L|43:202,1,122,6|2,3:1|3:1,0:0:0:0:
171,188,56296,2,0,L|30:179,1,122,2|2,3:1|3:1,0:0:0:0:
238,99,56729,2,0,L|380:94,1,122,2|2,3:1|3:1,0:0:0:0:
76,44,57162,6,0,L|66:175,1,122,6|0,3:1|3:0,0:0:0:0:
147,188,57487,2,0,L|301:198,1,122,6|0,3:1|3:0,0:0:0:0:
173,267,57812,2,0,L|23:287,1,122,6|0,3:1|3:0,0:0:0:0:
19,234,58137,1,2,3:1:0:0:
52,283,58245,1,2,0:0:0:0:
337,359,58462,6,0,L|352:210,1,122,6|2,3:1|3:1,0:0:0:0:
163,247,58895,2,0,L|151:109,1,122,2|2,3:1|3:1,0:0:0:0:
301,78,59328,2,0,L|139:48,1,122,2|2,3:1|3:1,0:0:0:0:
464,60,59761,6,0,L|483:195,1,122,6|2,3:1|3:1,0:0:0:0:
412,208,60086,2,0,L|352:220,2,61,2|0|0,0:1|3:0|3:0,0:0:0:0:
486,260,60411,2,0,L|425:277,1,61,2|0,3:1|3:0,0:0:0:0:
360,284,60628,2,0,L|335:149,1,122,2|6,3:1|0:2,0:0:0:0:
44,41,61061,6,0,L|190:69,1,122,14|10,3:2|3:2,0:0:0:0:
330,127,61494,2,0,L|371:53,2,61,10|0|10,3:2|3:2|3:2,0:0:0:0:
156,183,61927,2,0,L|27:199,1,122,10|10,3:2|3:2,0:0:0:0:
224,326,62361,5,10,3:2:0:0:
234,265,62469,1,0,3:2:0:0:
245,205,62577,1,10,3:2:0:0:
386,184,62794,1,10,3:2:0:0:
188,173,63010,5,10,3:2:0:0:
130,159,63118,1,2,3:2:0:0:
103,107,63226,1,10,3:2:0:0:
126,52,63334,1,2,3:2:0:0:
182,35,63443,1,10,3:2:0:0:
465,55,63660,6,0,L|475:180,1,122,14|10,3:2|3:2,0:0:0:0:
392,212,63985,2,0,L|228:233,1,122,4|0,3:2|3:2,0:0:0:0:
370,280,64310,1,10,3:2:0:0:
427,270,64418,1,2,3:2:0:0:
453,217,64526,1,10,3:2:0:0:
425,166,64634,1,2,3:2:0:0:
367,159,64743,1,10,3:2:0:0:
85,312,64960,6,0,L|81:153,1,122,14|10,3:2|3:2,0:0:0:0:
153,168,65285,2,0,L|226:159,2,61,4|10|0,3:2|3:2|3:2,0:0:0:0:
58,173,65610,2,0,L|45:13,1,122,14|14,3:2|3:2,0:0:0:0:
150,24,66043,1,6,0:2:0:0:
434,72,66259,6,0,L|467:13,2,61,4|0|0,3:1|3:0|3:0,0:0:0:0:
379,91,66584,1,0,3:0:0:0:
318,98,66693,1,0,3:0:0:0:
382,126,66801,1,0,3:0:0:0:
479,244,66909,6,0,L|485:115,1,122,12|12,3:2|3:2,0:0:0:0:
377,116,67342,1,12,3:2:0:0:
84,305,67559,6,0,L|51:364,2,61,4|0|0,3:1|3:0|3:0,0:0:0:0:
139,286,67884,1,0,3:0:0:0:
200,279,67993,1,0,3:0:0:0:
136,264,68101,1,0,3:0:0:0:
39,133,68209,6,0,L|33:262,1,122,4|2,3:0|0:0,0:0:0:0:
153,258,68642,1,6,0:2:0:0:
451,342,68859,5,6,3:1:0:0:
363,279,69075,1,2,0:2:0:0:
96,293,70158,2,0,L|90:162,1,122,2|2,0:0|0:0,0:0:0:0:
336,99,71025,2,0,L|497:70,1,122,2|2,0:0|0:0,0:0:0:0:
175,33,71458,6,0,L|166:162,1,122,4|2,3:1|0:0,0:0:0:0:
416,222,72758,2,0,L|423:365,1,122,2|2,0:0|0:0,0:0:0:0:
104,339,74057,5,14,3:1:0:0:
213,348,74274,1,2,0:0:0:0:
220,287,74382,1,2,0:0:0:0:
227,226,74490,1,2,0:0:0:0:
342,208,74707,2,0,L|218:133,2,122,4|2|2,0:0|0:0|0:0,0:0:0:0:
143,291,75357,5,4,3:0:0:0:
34,244,75574,1,0,0:0:0:0:
50,185,75682,1,2,0:0:0:0:
66,126,75790,1,2,0:0:0:0:
182,106,76007,2,0,L|300:170,2,122,4|2|2,0:0|0:0|0:0,0:0:0:0:
385,84,76657,5,4,3:0:0:0:
479,180,76873,1,2,0:0:0:0:
436,222,76981,1,2,0:0:0:0:
377,234,77089,1,2,0:0:0:0:
250,311,77306,2,0,L|155:197,2,122,4|2|2,0:0|0:0|0:0,0:0:0:0:
452,358,77956,6,0,L|463:200,1,122,12|2,3:0|0:0,0:0:0:0:
364,206,78389,1,2,0:0:0:0:
243,215,78606,1,6,0:0:0:0:
272,161,78714,1,2,0:0:0:0:
318,122,78822,1,2,0:0:0:0:
376,103,78930,1,2,0:0:0:0:
436,106,79039,1,2,0:0:0:0:
154,48,79256,6,0,L|12:82,2,122,12|2|2,3:0|3:2|3:2,0:0:0:0:
277,89,79906,2,0,L|280:231,1,122,2|2,3:2|3:2,0:0:0:0:
158,259,80339,1,2,3:2:0:0:
352,306,80555,6,0,L|481:342,2,122,2|2|2,3:2|3:2|3:2,0:0:0:0:
215,358,81205,1,2,3:2:0:0:
211,297,81313,1,2,0:2:0:0:
207,236,81421,1,2,3:2:0:0:
262,200,81530,1,0,0:2:0:0:
323,193,81638,1,2,3:2:0:0:
122,213,81855,6,0,L|115:70,1,122,2|2,3:2|3:2,0:0:0:0:
217,58,82288,1,2,3:2:0:0:
394,152,82505,2,0,L|239:214,1,122,2|2,3:2|3:2,0:0:0:0:
147,228,82938,1,2,3:2:0:0:
347,297,83155,6,0,L|388:228,2,61,2|2|2,3:2|0:2|3:2,0:0:0:0:
230,329,83588,1,2,3:2:0:0:
405,366,83805,1,2,3:2:0:0:
460,347,83913,1,2,0:2:0:0:
482,292,84021,1,2,3:2:0:0:
455,240,84129,1,2,0:2:0:0:
397,227,84238,1,2,3:2:0:0:
114,289,84454,6,0,L|106:133,1,122,6|2,1:1|1:2,0:0:0:0:
231,117,84888,2,0,L|149:89,1,61,10|10,0:1|0:1,0:0:0:0:
97,91,85104,6,0,L|82:237,1,122,2|2,1:1|1:1,0:0:0:0:
204,269,85537,2,0,L|276:283,1,61,10|10,0:1|0:1,0:0:0:0:
174,326,85754,6,0,L|28:344,1,122,6|2,1:1|1:1,0:0:0:0:
185,366,86187,2,0,L|245:362,1,61,10|10,0:1|0:1,0:0:0:0:
149,348,86404,5,2,1:1:0:0:
90,338,86512,1,0,0:1:0:0:
63,286,86620,1,2,1:1:0:0:
87,232,86728,1,0,0:1:0:0:
144,219,86837,1,10,1:1:0:0:
430,255,87054,6,0,L|435:109,1,122,6|0,1:1|0:1,0:0:0:0:
375,102,87379,2,0,L|303:93,1,61,2|8,1:1|0:1,0:0:0:0:
117,169,87703,2,0,L|277:221,1,122,6|2,1:1|1:1,0:0:0:0:
343,241,88137,1,10,1:1:0:0:
63,328,88353,6,0,L|46:233,1,61,6|10,1:1|3:1,0:0:0:0:
160,227,88678,2,0,L|226:219,1,61,2|10,1:1|3:1,0:0:0:0:
405,139,89003,2,0,L|254:102,1,122,6|10,1:1|1:1,0:0:0:0:
177,109,89436,1,10,1:1:0:0:
465,57,89653,5,6,3:1:0:0:
256,192,89870,12,2,92252,2:2:0:0:
255,242,94852,6,0,L|252:82,1,122,2|2,1:2|1:2,0:0:0:0:
372,119,95285,2,0,L|410:53,2,61,2|0|2,0:2|0:0|0:2,0:0:0:0:
257,154,95718,1,2,0:0:0:0:
136,182,95935,1,2,0:2:0:0:
269,275,96151,6,0,L|272:146,1,122,2|2,1:2|1:2,0:0:0:0:
135,144,96584,2,0,L|103:80,2,61,2|2|2,0:2|0:2|0:2,0:0:0:0:
287,184,97018,1,2,1:0:0:0:
347,189,97126,1,2,1:0:0:0:
408,194,97234,1,10,1:2:0:0:
469,203,97342,1,10,1:2:0:0:
75,324,97667,6,0,L|72:180,1,122,6|2,3:1|3:1,0:0:0:0:
186,176,98101,1,2,3:1:0:0:
392,104,98317,2,0,L|406:237,1,122,2|2,3:1|3:1,0:0:0:0:
115,334,98750,6,0,L|107:192,1,122,6|0,3:1|3:0,0:0:0:0:
190,188,99075,2,0,L|336:165,1,122,6|2,3:1|3:2,0:0:0:0:
233,153,99400,2,0,L|198:88,2,61,6|2|2,3:1|0:2|3:2,0:0:0:0:
314,173,99725,2,0,L|407:173,1,61,6|2,3:1|0:2,0:0:0:0:
93,320,100050,6,0,L|72:177,1,122,6|2,3:1|3:1,0:0:0:0:
206,173,100483,2,0,L|126:160,1,61,2|2,3:1|3:1,0:0:0:0:
64,136,100700,2,0,P|44:72|120:23,1,122,2|2,3:1|3:1,0:0:0:0:
193,55,101133,2,0,L|280:58,1,61,2|2,3:1|3:1,0:0:0:0:
365,93,101350,6,0,P|363:158|301:189,1,122,6|0,3:1|3:2,0:0:0:0:
257,200,101675,2,0,L|180:210,1,61,2|0,3:1|0:0,0:0:0:0:
479,286,102000,6,0,L|486:137,1,122,2|2,3:1|3:1,0:0:0:0:
379,136,102433,1,2,3:1:0:0:
99,78,102649,6,0,L|236:159,1,122,2|0,3:1|3:0,0:0:0:0:
288,153,102974,2,0,L|297:299,1,122,2|0,3:1|3:0,0:0:0:0:
214,294,103299,2,0,L|163:226,2,61,2|0|2,3:1|0:0|3:1,0:0:0:0:
283,309,103624,2,0,L|358:313,1,61,2|2,0:2|3:1,0:0:0:0:
59,367,103949,6,0,L|44:240,1,122,6|2,3:1|3:2,0:0:0:0:
119,223,104274,2,0,L|214:219,2,61,2|2|2,3:1|3:2|3:2,0:0:0:0:
44,245,104599,1,2,3:1:0:0:
137,190,104707,6,0,L|353:166,1,183,8|2,3:1|0:2,0:0:0:0:
39,57,105249,6,0,L|30:184,1,122,4|0,3:2|3:2,0:0:0:0:
179,268,105682,2,0,L|249:286,1,61,0|0,3:2|3:0,0:0:0:0:
163,291,105898,6,0,L|124:214,2,61,4|0|0,3:2|3:0|3:0,0:0:0:0:
238,304,106223,2,0,L|307:313,2,61,0|0|0,3:0|3:0|3:0,0:0:0:0:
155,314,106548,6,0,L|227:287,1,61,4|0,3:2|3:0,0:0:0:0:
274,282,106765,1,0,3:0:0:0:
119,215,106981,1,0,3:0:0:0:
294,156,107198,5,4,3:2:0:0:
352,151,107306,1,0,3:0:0:0:
413,154,107414,1,2,3:2:0:0:
419,226,107522,1,2,0:2:0:0:
424,283,107631,1,2,0:2:0:0:
132,80,107848,6,0,L|1:117,1,122,4|0,3:2|3:0,0:0:0:0:
60,160,108173,1,0,3:0:0:0:
121,173,108281,1,0,3:0:0:0:
309,171,108498,6,0,L|325:304,1,122,4|0,3:2|3:0,0:0:0:0:
270,329,108823,1,0,3:0:0:0:
206,343,108931,1,0,3:0:0:0:
398,366,109148,5,4,3:2:0:0:
455,351,109256,1,0,3:0:0:0:
478,297,109364,1,0,3:0:0:0:
449,246,109472,1,0,3:0:0:0:
391,238,109581,1,0,3:0:0:0:
109,297,109797,5,4,3:2:0:0:
47,308,109906,2,0,P|39:246|140:161,1,183,2|2,3:2|0:0,0:0:0:0:
401,221,110447,6,0,L|432:159,2,61,12|0|8,3:2|3:0|3:2,0:0:0:0:
326,240,110772,2,0,L|253:239,2,61,0|8|0,3:0|3:2|3:0,0:0:0:0:
431,271,111097,5,12,3:2:0:0:
448,213,111205,1,0,3:0:0:0:
427,158,111313,1,8,3:2:0:0:
375,128,111421,1,0,3:2:0:0:
316,137,111530,1,8,3:2:0:0:
21,104,111747,6,0,L|70:51,1,61,12|0,3:2|3:2,0:0:0:0:
118,51,111963,1,8,3:2:0:0:
180,59,112072,2,0,L|247:58,2,61,0|8|0,3:2|3:2|3:2,0:0:0:0:
70,82,112397,5,12,3:2:0:0:
47,137,112505,1,0,3:2:0:0:
63,195,112613,1,8,3:2:0:0:
111,230,112721,1,0,3:2:0:0:
171,228,112830,1,8,3:2:0:0:
477,164,113046,6,0,L|484:313,1,122,12|8,3:2|3:2,0:0:0:0:
349,347,113480,2,0,L|278:353,1,61,8|0,3:2|3:2,0:0:0:0:
364,312,113696,2,0,L|498:295,2,122,12|8|8,3:2|3:2|3:2,0:0:0:0:
76,341,114346,5,12,1:2:0:0:
106,288,114454,1,0,1:2:0:0:
151,248,114562,1,8,1:2:0:0:
208,225,114670,1,0,1:2:0:0:
268,222,114779,1,8,1:2:0:0:
208,186,114888,1,0,1:2:0:0:
95,182,114996,5,2,3:1:0:0:
34,169,115104,1,8,0:1:0:0:
9,109,115212,1,8,0:1:0:0:
32,54,115320,1,8,0:1:0:0:
96,37,115429,1,8,0:1:0:0:
458,126,115646,5,6,3:1:0:0:
256,192,115862,12,2,117595,0:3:0:0:
222,99,118245,6,0,L|303:96,1,61,6|0,3:1|3:0,0:0:0:0:
198,65,118462,2,0,L|167:127,2,61,2|0|2,3:1|3:0|3:1,0:0:0:0:
256,53,118787,1,2,3:1:0:0:
365,88,118895,6,0,L|290:109,1,61,6|0,3:1|3:0,0:0:0:0:
205,138,119111,2,0,L|176:203,2,61,2|0|2,3:1|3:0|3:1,0:0:0:0:
271,129,119436,1,2,3:1:0:0:
398,150,119545,5,6,3:1:0:0:
455,165,119653,1,2,3:2:0:0:
480,218,119761,1,2,3:2:0:0:
457,272,119869,1,2,3:2:0:0:
400,289,119978,1,2,3:2:0:0:
100,350,120194,6,0,L|39:344,1,61,6|2,3:1|3:1,0:0:0:0:
