osu file format v14

[General]
AudioFilename: audio.mp3
AudioLeadIn: 0
PreviewTime: 50014
Countdown: 0
SampleSet: Normal
StackLeniency: 0.7
Mode: 1
LetterboxInBreaks: 0
WidescreenStoryboard: 1

[Editor]
Bookmarks: 29870,50664
DistanceSpacing: 1.4
BeatDivisor: 2
GridSize: 32
TimelineZoom: 1.100001

[Metadata]
Title:XHRONOXAPSULE
TitleUnicode:XHRONOXAPSULΞ
Artist:Silentroom
ArtistUnicode:Silentroom
Creator:Faputa
Version:BASIC
Source:SOUND VOLTEX EXCEED GEAR
Tags:hivie ikin5050 electronic instrumental the 10th kac sdvx Original Song Contest オリジナル楽曲コンテスト speedcore video rhythm game videograme chronocapsule chronocapsulξ CHRONOCAPSULΞ xhronoxapsulξ chrono capsule capsulξ xapsulξ CAPSULΞ XAPSULΞ クロノカプセル
BeatmapID:3913817
BeatmapSetID:1898803

[Difficulty]
HPDrainRate:8
CircleSize:2
OverallDifficulty:3
ApproachRate:10
SliderMultiplier:1.4
SliderTickRate:1

[Events]
//Background and Video events
0,0,"103391166_p0.jpg",0,0
//Break Periods
//Storyboard Layer 0 (Background)
//Storyboard Layer 1 (Fail)
//Storyboard Layer 2 (Pass)
//Storyboard Layer 3 (Foreground)
//Storyboard Layer 4 (Overlay)
//Storyboard Sound Samples

[TimingPoints]
-1321,216.606498194946,3,1,0,100,1,0
520,-200,3,1,0,100,0,0
50664,-200,3,1,0,100,0,1
68859,-200,3,1,0,100,0,0
97668,-200,3,1,0,100,0,1
115646,-200,3,1,0,100,0,0
118245,-200,3,1,0,100,0,1
120303,-200,3,1,0,100,0,0

[HitObjects]
256,192,1278,5,8,0:0:0:0:
256,192,2577,1,0,0:0:0:0:
256,192,3877,1,8,0:0:0:0:
256,192,5176,1,0,0:0:0:0:
256,192,5826,1,8,0:0:0:0:
256,192,6476,1,4,0:0:0:0:
256,192,7126,1,12,0:0:0:0:
256,192,7776,1,4,0:0:0:0:
256,192,8426,1,12,0:0:0:0:
256,192,9075,1,8,0:0:0:0:
256,192,9401,1,8,0:0:0:0:
256,192,9725,1,0,0:0:0:0:
256,192,10050,1,0,0:0:0:0:
256,192,10375,1,8,0:0:0:0:
256,192,11025,1,8,0:0:0:0:
256,192,11675,1,4,0:0:0:0:
256,192,13624,1,8,0:0:0:0:
256,192,14274,1,12,0:0:0:0:
256,192,15574,1,0,0:0:0:0:
256,192,15899,1,0,0:0:0:0:
256,192,16223,1,12,0:0:0:0:
256,192,16873,1,12,0:0:0:0:
256,192,17523,1,0,0:0:0:0:
256,192,18173,1,8,0:0:0:0:
256,192,18823,1,0,0:0:0:0:
256,192,19148,1,0,0:0:0:0:
256,192,19472,1,8,0:0:0:0:
256,192,20122,1,0,0:0:0:0:
256,192,21422,1,8,0:0:0:0:
256,192,22072,1,12,0:0:0:0:
256,192,22722,1,0,0:0:0:0:
256,192,23046,1,0,0:0:0:0:
256,192,23371,1,8,0:0:0:0:
256,192,24021,1,0,0:0:0:0:
256,192,24671,1,8,0:0:0:0:
256,192,25321,1,0,0:0:0:0:
256,192,25646,1,8,0:0:0:0:
256,192,25971,1,0,0:0:0:0:
256,192,27270,1,4,0:0:0:0:
256,192,27920,1,0,0:0:0:0:
256,192,28570,1,12,0:0:0:0:
256,192,29870,1,0,0:0:0:0:
256,192,32469,1,0,0:0:0:0:
256,192,33769,1,8,0:0:0:0:
256,192,35068,1,12,0:0:0:0:
256,192,35718,1,0,0:0:0:0:
256,192,36368,1,8,0:0:0:0:
256,192,36693,1,8,0:0:0:0:
256,192,37018,1,0,0:0:0:0:
256,192,37667,1,8,0:0:0:0:
256,192,38317,1,0,0:0:0:0:
256,192,38967,1,8,0:0:0:0:
256,192,40267,1,4,0:0:0:0:
256,192,41566,1,12,0:0:0:0:
256,192,42866,1,4,0:0:0:0:
256,192,44166,1,12,0:0:0:0:
256,192,45465,1,8,0:0:0:0:
256,192,45790,1,8,0:0:0:0:
256,192,46115,1,0,0:0:0:0:
256,192,46765,1,8,0:0:0:0:
256,192,47090,1,8,0:0:0:0:
256,192,47415,1,0,0:0:0:0:
256,192,48065,1,8,0:0:0:0:
256,192,49364,1,0,0:0:0:0:
256,192,50014,1,8,0:0:0:0:
256,192,50664,1,4,0:0:0:0:
256,192,50989,1,8,0:0:0:0:
256,192,51963,1,8,0:0:0:0:
256,192,52288,1,0,0:0:0:0:
256,192,53263,1,8,0:0:0:0:
256,192,53588,1,0,0:0:0:0:
256,192,53913,1,8,0:0:0:0:
256,192,54563,1,0,0:0:0:0:
256,192,54888,1,8,0:0:0:0:
256,192,55213,1,0,0:0:0:0:
256,192,55862,1,8,0:0:0:0:
256,192,57162,1,8,0:0:0:0:
256,192,57487,1,8,0:0:0:0:
256,192,57812,1,0,0:0:0:0:
256,192,58137,1,0,0:0:0:0:
256,192,58462,1,8,0:0:0:0:
256,192,59112,1,0,0:0:0:0:
256,192,59761,1,8,0:0:0:0:
256,192,61061,1,8,0:0:0:0:
256,192,61711,1,8,0:0:0:0:
256,192,62361,1,0,0:0:0:0:
256,192,63011,1,0,0:0:0:0:
256,192,63660,1,8,0:0:0:0:
256,192,64960,1,8,0:0:0:0:
256,192,65610,1,0,0:0:0:0:
256,192,66259,1,8,0:0:0:0:
256,192,66910,1,0,0:0:0:0:
256,192,67559,1,8,0:0:0:0:
256,192,68209,1,8,0:0:0:0:
256,192,68859,1,4,0:0:0:0:
256,192,71458,1,4,0:0:0:0:
256,192,74057,1,4,0:0:0:0:
256,192,75357,1,8,0:0:0:0:
256,192,76657,1,0,0:0:0:0:
256,192,77956,1,8,0:0:0:0:
256,192,79256,1,12,0:0:0:0:
256,192,80555,1,0,0:0:0:0:
256,192,81206,1,0,0:0:0:0:
256,192,81855,1,8,0:0:0:0:
256,192,83155,1,8,0:0:0:0:
256,192,83805,1,0,0:0:0:0:
256,192,84454,1,8,0:0:0:0:
256,192,85104,1,8,0:0:0:0:
256,192,85754,1,0,0:0:0:0:
256,192,87054,1,8,0:0:0:0:
256,192,87704,1,8,0:0:0:0:
256,192,88353,1,0,0:0:0:0:
256,192,89003,1,0,0:0:0:0:
256,192,89653,1,12,0:0:0:0:
256,192,92252,5,8,0:0:0:0:
256,192,94852,1,0,0:0:0:0:
256,192,96151,1,0,0:0:0:0:
256,192,97667,1,12,0:0:0:0:
256,192,98750,1,8,0:0:0:0:
256,192,99075,1,8,0:0:0:0:
256,192,99400,1,0,0:0:0:0:
256,192,99725,1,0,0:0:0:0:
256,192,100050,1,8,0:0:0:0:
256,192,100700,1,0,0:0:0:0:
256,192,101350,1,8,0:0:0:0:
256,192,102649,1,8,0:0:0:0:
256,192,103299,1,0,0:0:0:0:
256,192,103949,1,8,0:0:0:0:
256,192,104274,1,0,0:0:0:0:
256,192,104599,1,8,0:0:0:0:
256,192,105249,1,0,0:0:0:0:
256,192,105898,1,0,0:0:0:0:
256,192,106548,1,8,0:0:0:0:
256,192,107848,1,8,0:0:0:0:
256,192,108498,1,0,0:0:0:0:
256,192,109148,1,8,0:0:0:0:
256,192,110447,1,8,0:0:0:0:
256,192,111097,1,8,0:0:0:0:
256,192,111747,1,0,0:0:0:0:
256,192,112397,1,0,0:0:0:0:
256,192,113047,1,8,0:0:0:0:
256,192,113697,1,8,0:0:0:0:
256,192,114346,1,0,0:0:0:0:
256,192,115646,1,4,0:0:0:0:
256,192,118245,1,8,0:0:0:0:
256,192,118462,1,8,0:0:0:0:
256,192,118679,1,0,0:0:0:0:
256,192,118895,1,0,0:0:0:0:
256,192,119545,1,8,0:0:0:0:
256,192,119978,1,0,0:0:0:0:
256,192,120195,1,8,0:0:0:0:
