osu file format v14

[General]
AudioFilename: audio.mp3
AudioLeadIn: 0
PreviewTime: 50014
Countdown: 0
SampleSet: Normal
StackLeniency: 0.7
Mode: 1
LetterboxInBreaks: 0
WidescreenStoryboard: 1

[Editor]
Bookmarks: 29870,50664
DistanceSpacing: 1.4
BeatDivisor: 2
GridSize: 32
TimelineZoom: 1.2

[Metadata]
Title:XHRONOXAPSULE
TitleUnicode:XHRONOXAPSULΞ
Artist:Silentroom
ArtistUnicode:Silentroom
Creator:Faputa
Version:ADVANCED
Source:SOUND VOLTEX EXCEED GEAR
Tags:hivie ikin5050 electronic instrumental the 10th kac sdvx Original Song Contest オリジナル楽曲コンテスト speedcore video rhythm game videograme chronocapsule chronocapsulξ CHRONOCAPSULΞ xhronoxapsulξ chrono capsule capsulξ xapsulξ CAPSULΞ XAPSULΞ クロノカプセル
BeatmapID:3913799
BeatmapSetID:1898803

[Difficulty]
HPDrainRate:6
CircleSize:2
OverallDifficulty:4.4
ApproachRate:10
SliderMultiplier:1.4
SliderTickRate:1

[Events]
//Background and Video events
0,0,"103391166_p0.jpg",0,0
//Break Periods
//Storyboard Layer 0 (Background)
//Storyboard Layer 1 (Fail)
//Storyboard Layer 2 (Pass)
//Storyboard Layer 3 (Foreground)
//Storyboard Layer 4 (Overlay)
//Storyboard Sound Samples

[TimingPoints]
-1321,216.606498194946,3,1,0,100,1,0
520,-166.666666666667,3,1,0,100,0,0
50664,-166.666666666667,3,1,0,100,0,1
68859,-166.666666666667,3,1,0,100,0,0
97668,-166.666666666667,3,1,0,100,0,1
115646,-166.666666666667,3,1,0,100,0,0
118245,-166.666666666667,3,1,0,100,0,1
120303,-166.666666666667,3,1,0,100,0,0

[HitObjects]
256,192,1278,5,8,0:0:0:0:
256,192,1927,1,0,0:0:0:0:
256,192,2577,1,8,0:0:0:0:
256,192,3227,1,0,0:0:0:0:
256,192,3660,1,0,0:0:0:0:
256,192,3877,1,8,0:0:0:0:
256,192,4527,1,0,0:0:0:0:
256,192,5176,1,8,0:0:0:0:
256,192,5393,1,0,0:0:0:0:
256,192,5610,1,0,0:0:0:0:
256,192,5826,1,8,0:0:0:0:
256,192,6043,1,8,0:0:0:0:
256,192,6476,1,4,0:0:0:0:
256,192,6693,1,4,0:0:0:0:
256,192,7126,1,12,0:0:0:0:
256,192,7342,1,12,0:0:0:0:
256,192,7559,1,0,0:0:0:0:
256,192,7776,1,12,0:0:0:0:
256,192,7992,1,4,0:0:0:0:
256,192,8426,1,4,0:0:0:0:
256,192,8642,1,12,0:0:0:0:
256,192,8859,1,0,0:0:0:0:
256,192,9075,1,8,0:0:0:0:
256,192,9400,1,8,0:0:0:0:
256,192,9725,1,0,0:0:0:0:
256,192,10050,1,0,0:0:0:0:
256,192,10375,1,8,0:0:0:0:
256,192,10592,1,8,0:0:0:0:
256,192,10808,1,0,0:0:0:0:
256,192,11025,1,8,0:0:0:0:
256,192,11241,1,8,0:0:0:0:
256,192,11350,1,8,0:0:0:0:
256,192,11458,1,8,0:0:0:0:
256,192,11675,1,4,0:0:0:0:
256,192,12324,1,8,0:0:0:0:
256,192,12758,1,8,0:0:0:0:
256,192,12974,1,0,0:0:0:0:
256,192,13299,1,0,0:0:0:0:
256,192,13624,1,8,0:0:0:0:
256,192,13949,1,0,0:0:0:0:
256,192,14274,1,12,0:0:0:0:
256,192,14599,1,8,0:0:0:0:
256,192,14924,1,0,0:0:0:0:
256,192,15249,1,8,0:0:0:0:
256,192,15574,1,0,0:0:0:0:
256,192,15899,1,0,0:0:0:0:
256,192,16223,1,12,0:0:0:0:
256,192,16440,1,12,0:0:0:0:
256,192,16873,1,12,0:0:0:0:
256,192,17523,1,0,0:0:0:0:
256,192,17740,1,8,0:0:0:0:
256,192,17956,1,8,0:0:0:0:
256,192,18173,1,0,0:0:0:0:
256,192,18498,1,0,0:0:0:0:
256,192,18823,1,8,0:0:0:0:
256,192,19148,1,8,0:0:0:0:
256,192,19472,1,0,0:0:0:0:
256,192,19906,1,8,0:0:0:0:
256,192,20122,1,0,0:0:0:0:
256,192,20772,1,8,0:0:0:0:
256,192,21206,1,0,0:0:0:0:
256,192,21422,1,8,0:0:0:0:
256,192,21639,1,8,0:0:0:0:
256,192,21855,1,0,0:0:0:0:
256,192,22072,1,12,0:0:0:0:
256,192,22505,1,0,0:0:0:0:
256,192,22613,1,0,0:0:0:0:
256,192,22722,1,0,0:0:0:0:
256,192,23046,1,0,0:0:0:0:
256,192,23371,1,8,0:0:0:0:
256,192,23588,1,0,0:0:0:0:
256,192,23805,1,0,0:0:0:0:
256,192,24021,1,8,0:0:0:0:
256,192,24455,1,8,0:0:0:0:
256,192,24563,1,8,0:0:0:0:
256,192,24671,1,8,0:0:0:0:
256,192,24996,1,0,0:0:0:0:
256,192,25321,1,0,0:0:0:0:
256,192,25646,1,8,0:0:0:0:
256,192,25971,1,0,0:0:0:0:
256,192,26620,1,8,0:0:0:0:
256,192,26837,1,0,0:0:0:0:
256,192,27054,1,8,0:0:0:0:
256,192,27270,1,4,0:0:0:0:
256,192,27704,1,8,0:0:0:0:
256,192,27920,1,8,0:0:0:0:
256,192,28137,1,0,0:0:0:0:
256,192,28353,1,0,0:0:0:0:
256,192,28570,1,12,0:0:0:0:
256,192,29003,1,8,0:0:0:0:
256,192,29220,1,0,0:0:0:0:
256,192,29870,1,0,0:0:0:0:
256,192,30303,1,0,0:0:0:0:
256,192,30519,1,8,0:0:0:0:
256,192,30953,1,8,0:0:0:0:
256,192,31169,1,0,0:0:0:0:
256,192,31602,1,0,0:0:0:0:
256,192,31819,1,8,0:0:0:0:
256,192,32253,1,8,0:0:0:0:
256,192,32469,1,0,0:0:0:0:
256,192,32902,1,8,0:0:0:0:
256,192,33119,1,8,0:0:0:0:
256,192,34418,1,0,0:0:0:0:
256,192,35068,1,12,0:0:0:0:
256,192,35502,1,0,0:0:0:0:
256,192,35718,1,8,0:0:0:0:
256,192,35935,1,8,0:0:0:0:
256,192,36151,1,0,0:0:0:0:
256,192,36368,1,8,0:0:0:0:
256,192,36693,1,8,0:0:0:0:
256,192,37018,1,0,0:0:0:0:
256,192,37234,1,0,0:0:0:0:
256,192,37451,1,8,0:0:0:0:
256,192,37667,1,0,0:0:0:0:
256,192,38101,1,8,0:0:0:0:
256,192,38317,1,8,0:0:0:0:
256,192,38967,1,0,0:0:0:0:
256,192,39401,1,0,0:0:0:0:
256,192,39617,1,8,0:0:0:0:
256,192,39834,1,8,0:0:0:0:
256,192,40267,1,4,0:0:0:0:
256,192,40483,1,4,0:0:0:0:
256,192,40916,1,0,0:0:0:0:
256,192,41350,1,0,0:0:0:0:
256,192,41566,1,12,0:0:0:0:
256,192,41891,1,8,0:0:0:0:
256,192,42650,1,8,0:0:0:0:
256,192,42866,1,4,0:0:0:0:
256,192,43083,1,4,0:0:0:0:
256,192,43516,1,0,0:0:0:0:
256,192,43949,1,0,0:0:0:0:
256,192,44166,1,12,0:0:0:0:
256,192,44490,1,8,0:0:0:0:
256,192,45249,1,0,0:0:0:0:
256,192,45465,1,12,0:0:0:0:
256,192,45790,1,8,0:0:0:0:
256,192,46115,1,0,0:0:0:0:
256,192,46549,1,0,0:0:0:0:
256,192,46765,1,12,0:0:0:0:
256,192,47090,1,8,0:0:0:0:
256,192,47415,1,0,0:0:0:0:
256,192,47848,1,0,0:0:0:0:
256,192,48065,1,8,0:0:0:0:
256,192,48281,1,8,0:0:0:0:
256,192,48498,1,0,0:0:0:0:
256,192,48715,1,8,0:0:0:0:
256,192,48931,1,0,0:0:0:0:
256,192,49148,1,8,0:0:0:0:
256,192,49256,1,8,0:0:0:0:
256,192,49364,1,8,0:0:0:0:
256,192,49581,1,0,0:0:0:0:
256,192,49797,1,8,0:0:0:0:
256,192,50014,1,0,0:0:0:0:
256,192,50664,1,4,0:0:0:0:
256,192,50989,1,8,0:0:0:0:
256,192,51314,1,0,0:0:0:0:
256,192,51530,1,0,0:0:0:0:
256,192,51747,1,8,0:0:0:0:
256,192,51963,1,8,0:0:0:0:
256,192,52288,1,0,0:0:0:0:
256,192,52613,1,8,0:0:0:0:
256,192,52830,1,8,0:0:0:0:
256,192,53046,1,0,0:0:0:0:
256,192,53263,1,8,0:0:0:0:
256,192,53588,1,0,0:0:0:0:
256,192,53913,1,8,0:0:0:0:
256,192,54021,1,8,0:0:0:0:
256,192,54129,1,8,0:0:0:0:
256,192,54346,1,8,0:0:0:0:
256,192,54563,1,0,0:0:0:0:
256,192,54888,1,8,0:0:0:0:
256,192,55213,1,0,0:0:0:0:
256,192,55429,1,8,0:0:0:0:
256,192,55646,1,0,0:0:0:0:
256,192,55862,1,8,0:0:0:0:
256,192,56079,1,8,0:0:0:0:
256,192,56296,1,0,0:0:0:0:
256,192,56946,1,0,0:0:0:0:
256,192,57162,1,8,0:0:0:0:
256,192,57487,1,8,0:0:0:0:
256,192,57812,1,0,0:0:0:0:
256,192,58137,1,0,0:0:0:0:
256,192,58462,1,8,0:0:0:0:
256,192,58679,1,0,0:0:0:0:
256,192,58787,1,0,0:0:0:0:
256,192,58895,1,0,0:0:0:0:
256,192,59112,1,8,0:0:0:0:
256,192,59328,1,0,0:0:0:0:
256,192,59545,1,8,0:0:0:0:
256,192,59761,1,8,0:0:0:0:
256,192,60086,1,0,0:0:0:0:
256,192,60411,1,8,0:0:0:0:
256,192,61061,1,8,0:0:0:0:
256,192,61278,1,8,0:0:0:0:
256,192,61494,1,8,0:0:0:0:
256,192,61711,1,8,0:0:0:0:
256,192,61927,1,8,0:0:0:0:
256,192,62144,1,8,0:0:0:0:
256,192,62361,1,0,0:0:0:0:
256,192,62577,1,0,0:0:0:0:
256,192,62794,1,0,0:0:0:0:
256,192,63010,1,0,0:0:0:0:
256,192,63227,1,8,0:0:0:0:
256,192,63335,1,8,0:0:0:0:
256,192,63444,1,8,0:0:0:0:
256,192,63660,1,0,0:0:0:0:
256,192,63985,1,8,0:0:0:0:
256,192,64310,1,0,0:0:0:0:
256,192,64527,1,0,0:0:0:0:
256,192,64743,1,0,0:0:0:0:
256,192,64960,1,8,0:0:0:0:
256,192,65285,1,0,0:0:0:0:
256,192,65610,1,8,0:0:0:0:
256,192,66259,1,8,0:0:0:0:
256,192,66476,1,8,0:0:0:0:
256,192,66693,1,8,0:0:0:0:
256,192,66910,1,0,0:0:0:0:
256,192,67126,1,0,0:0:0:0:
256,192,67342,1,0,0:0:0:0:
256,192,67559,1,8,0:0:0:0:
256,192,67668,1,8,0:0:0:0:
256,192,67776,1,8,0:0:0:0:
256,192,67992,1,0,0:0:0:0:
256,192,68209,1,8,0:0:0:0:
256,192,68642,1,8,0:0:0:0:
256,192,68859,1,4,0:0:0:0:
256,192,71025,1,8,0:0:0:0:
256,192,71241,1,8,0:0:0:0:
256,192,71458,1,4,0:0:0:0:
256,192,74057,1,4,0:0:0:0:
256,192,74707,1,0,0:0:0:0:
256,192,74924,1,0,0:0:0:0:
256,192,75357,1,8,0:0:0:0:
256,192,76007,1,8,0:0:0:0:
256,192,76223,1,8,0:0:0:0:
256,192,76657,1,0,0:0:0:0:
256,192,77306,1,8,0:0:0:0:
256,192,77523,1,0,0:0:0:0:
256,192,77956,1,8,0:0:0:0:
256,192,78606,1,0,0:0:0:0:
256,192,78823,1,0,0:0:0:0:
256,192,79256,1,12,0:0:0:0:
256,192,79906,1,8,0:0:0:0:
256,192,80339,1,0,0:0:0:0:
256,192,80555,1,8,0:0:0:0:
256,192,80989,1,0,0:0:0:0:
256,192,81205,1,8,0:0:0:0:
256,192,81422,1,0,0:0:0:0:
256,192,81639,1,0,0:0:0:0:
256,192,81855,1,8,0:0:0:0:
256,192,82505,1,0,0:0:0:0:
256,192,82938,1,8,0:0:0:0:
256,192,83155,1,0,0:0:0:0:
256,192,83372,1,0,0:0:0:0:
256,192,83588,1,8,0:0:0:0:
256,192,83805,1,8,0:0:0:0:
256,192,84454,1,8,0:0:0:0:
256,192,84888,1,0,0:0:0:0:
256,192,85104,1,8,0:0:0:0:
256,192,85537,1,0,0:0:0:0:
256,192,85754,1,8,0:0:0:0:
256,192,85971,1,8,0:0:0:0:
256,192,86187,1,0,0:0:0:0:
256,192,86296,1,0,0:0:0:0:
256,192,86404,1,0,0:0:0:0:
256,192,86620,1,8,0:0:0:0:
256,192,87054,1,8,0:0:0:0:
256,192,87379,1,0,0:0:0:0:
256,192,87703,1,8,0:0:0:0:
256,192,87920,1,8,0:0:0:0:
256,192,88353,1,0,0:0:0:0:
256,192,88678,1,8,0:0:0:0:
256,192,89003,1,0,0:0:0:0:
256,192,89220,1,0,0:0:0:0:
256,192,89436,1,0,0:0:0:0:
256,192,89653,1,12,0:0:0:0:
256,192,90953,12,0,92036,0:0:0:0:
256,192,92252,5,8,0:0:0:0:
256,192,92902,1,0,0:0:0:0:
256,192,93552,1,8,0:0:0:0:
256,192,94202,1,8,0:0:0:0:
256,192,94852,1,0,0:0:0:0:
256,192,95068,1,0,0:0:0:0:
256,192,96151,1,0,0:0:0:0:
256,192,96368,1,0,0:0:0:0:
256,192,97234,1,0,0:0:0:0:
256,192,97342,1,0,0:0:0:0:
256,192,97451,1,0,0:0:0:0:
256,192,97667,1,12,0:0:0:0:
256,192,97884,1,0,0:0:0:0:
256,192,98101,1,8,0:0:0:0:
256,192,98317,1,0,0:0:0:0:
256,192,98534,1,0,0:0:0:0:
256,192,98750,1,8,0:0:0:0:
256,192,99075,1,8,0:0:0:0:
256,192,99400,1,0,0:0:0:0:
256,192,99725,1,0,0:0:0:0:
256,192,100050,1,8,0:0:0:0:
256,192,100267,1,0,0:0:0:0:
256,192,100484,1,0,0:0:0:0:
256,192,100700,1,8,0:0:0:0:
256,192,101133,1,0,0:0:0:0:
256,192,101350,1,8,0:0:0:0:
256,192,101675,1,8,0:0:0:0:
256,192,102000,1,0,0:0:0:0:
256,192,102649,1,8,0:0:0:0:
256,192,102975,1,8,0:0:0:0:
256,192,103299,1,0,0:0:0:0:
256,192,103516,1,0,0:0:0:0:
256,192,103732,1,8,0:0:0:0:
256,192,103949,1,8,0:0:0:0:
256,192,104274,1,0,0:0:0:0:
256,192,104599,1,8,0:0:0:0:
256,192,105249,1,0,0:0:0:0:
256,192,105466,1,0,0:0:0:0:
256,192,105682,1,0,0:0:0:0:
256,192,105898,1,0,0:0:0:0:
256,192,106115,1,0,0:0:0:0:
256,192,106332,1,0,0:0:0:0:
256,192,106548,1,8,0:0:0:0:
256,192,106765,1,0,0:0:0:0:
256,192,106873,1,0,0:0:0:0:
256,192,106981,1,0,0:0:0:0:
256,192,107198,1,8,0:0:0:0:
256,192,107848,1,8,0:0:0:0:
256,192,108065,1,8,0:0:0:0:
256,192,108281,1,8,0:0:0:0:
256,192,108498,1,8,0:0:0:0:
256,192,108714,1,8,0:0:0:0:
256,192,108931,1,8,0:0:0:0:
256,192,109148,1,0,0:0:0:0:
256,192,109364,1,8,0:0:0:0:
256,192,109472,1,8,0:0:0:0:
256,192,109581,1,8,0:0:0:0:
256,192,109797,1,0,0:0:0:0:
256,192,110447,1,8,0:0:0:0:
256,192,110555,1,8,0:0:0:0:
256,192,110664,1,8,0:0:0:0:
256,192,110881,1,0,0:0:0:0:
256,192,111097,1,8,0:0:0:0:
256,192,111314,1,8,0:0:0:0:
256,192,111530,1,0,0:0:0:0:
256,192,111747,1,8,0:0:0:0:
256,192,111855,1,8,0:0:0:0:
256,192,111964,1,8,0:0:0:0:
256,192,112180,1,0,0:0:0:0:
256,192,112397,1,8,0:0:0:0:
256,192,112613,1,0,0:0:0:0:
256,192,112830,1,0,0:0:0:0:
256,192,113047,1,8,0:0:0:0:
256,192,113263,1,0,0:0:0:0:
256,192,113371,1,0,0:0:0:0:
256,192,113480,1,0,0:0:0:0:
256,192,113696,1,8,0:0:0:0:
256,192,113913,1,0,0:0:0:0:
256,192,114021,1,0,0:0:0:0:
256,192,114129,1,0,0:0:0:0:
256,192,114346,1,8,0:0:0:0:
256,192,114563,1,8,0:0:0:0:
256,192,114779,1,0,0:0:0:0:
256,192,114996,1,8,0:0:0:0:
256,192,115646,1,4,0:0:0:0:
256,192,118245,1,8,0:0:0:0:
256,192,118353,1,8,0:0:0:0:
256,192,118462,1,8,0:0:0:0:
256,192,118678,1,8,0:0:0:0:
256,192,118895,1,0,0:0:0:0:
256,192,119003,1,0,0:0:0:0:
256,192,119111,1,0,0:0:0:0:
256,192,119328,1,0,0:0:0:0:
256,192,119545,1,8,0:0:0:0:
256,192,119761,1,8,0:0:0:0:
256,192,119870,1,8,0:0:0:0:
256,192,119978,1,8,0:0:0:0:
256,192,120194,1,0,0:0:0:0:
256,192,120303,1,0,0:0:0:0:
