osu file format v14

[General]
AudioFilename: audio.mp3
AudioLeadIn: 0
PreviewTime: 111655
Countdown: 0
SampleSet: Normal
StackLeniency: 0.7
Mode: 1
LetterboxInBreaks: 0
WidescreenStoryboard: 1

[Editor]
Bookmarks: 1353,23422,45491,89628,111697,155835,177904,199973
DistanceSpacing: 1
BeatDivisor: 8
GridSize: 32
TimelineZoom: 2.100001

[Metadata]
Title:Shuu no Hazama
TitleUnicode:驟雨の狭間
Artist:Silentroom
ArtistUnicode:Silentroom
Creator:Ulqui
Version:Muzukashii
Source:FRENZ2019
Tags:featured artist fa electronic instrumental neurofunk dnb drum n' bass drum and bass rainshower
BeatmapID:4183323
BeatmapSetID:2010473

[Difficulty]
HPDrainRate:6
CircleSize:5
OverallDifficulty:5
ApproachRate:5
SliderMultiplier:1.4
SliderTickRate:1

[Events]
//Background and Video events
0,0,"bg.png",0,0
//Break Periods
2,156036,165671
//Storyboard Layer 0 (Background)
//Storyboard Layer 1 (Fail)
//Storyboard Layer 2 (Pass)
//Storyboard Layer 3 (Foreground)
//Storyboard Layer 4 (Overlay)
//Storyboard Sound Samples

[TimingPoints]
1354,344.827586206896,4,1,0,70,1,0
1354,-125,4,1,0,70,0,0
1525,-124.514760314165,4,1,0,70,0,0
1611,-124.273550479795,4,1,0,70,0,0
1697,-124.033273381295,4,1,0,70,0,0
2732,-121.212786993299,4,1,0,70,0,0
2904,-120.756451506993,4,1,0,70,0,0
3077,-120.300915830789,4,1,0,70,0,0
4111,-117.648313217043,4,1,0,70,0,0
4284,-117.2158837402,4,1,0,70,0,0
4370,-117.002099548279,4,1,0,70,0,0
4456,-116.789093757277,4,1,0,70,0,0
5490,-114.287489901187,4,1,0,70,0,0
5663,-113.87937084589,4,1,0,70,0,0
5835,-113.476490188819,4,1,0,70,0,0
6870,-111.111111111111,4,1,0,70,0,0
7042,-110.727546412444,4,1,0,70,0,0
7128,-110.536755424656,4,1,0,70,0,0
7215,-110.344413776551,4,1,0,70,0,0
8249,-108.108637717511,4,1,0,70,0,0
8421,-107.745488633701,4,1,0,70,0,0
8594,-107.382680966191,4,1,0,70,0,0
9628,-105.264162103375,4,1,0,70,0,0
9801,-104.917845732542,4,1,0,70,0,0
9887,-104.746535029429,4,1,0,70,0,0
9973,-104.575782849344,4,1,0,70,0,0
11008,-102.563625885371,4,1,0,70,0,0
11180,-102.236717751052,4,1,0,70,0,0
11352,-101.911886949293,4,1,0,70,0,0
12387,-100,4,1,0,70,0,0
12559,-99.6892053051932,4,1,0,70,0,0
12646,-99.5327355716322,4,1,0,70,0,0
12732,-99.3785463388273,4,1,0,70,0,0
13766,-97.561406921431,4,1,0,70,0,0
13939,-97.2638482423046,4,1,0,70,0,0
14111,-96.9698034942173,4,1,0,70,0,0
15146,-95.2372732137617,4,1,0,70,0,0
15318,-94.9553363969639,4,1,0,70,0,0
15404,-94.8149930396824,4,1,0,70,0,0
15490,-94.6750639232578,4,1,0,70,0,0
16525,-93.0228636946112,4,1,0,70,0,0
16697,-92.7538668459987,4,1,0,70,0,0
16870,-92.4848708363368,4,1,0,70,0,0
17904,-90.9090909090909,4,1,0,70,0,0
18077,-90.6506736772921,4,1,0,70,0,0
18163,-90.5227578512125,4,1,0,70,0,0
18249,-90.3952025167125,4,1,0,70,0,0
19284,-88.8878147808014,4,1,0,70,0,0
19456,-88.64216970067,4,1,0,70,0,0
19628,-88.3978785790966,4,1,0,70,0,0
20663,-86.9558364593513,4,1,0,70,0,0
20835,-86.7207394133736,4,1,0,70,0,0
20921,-86.6036669596886,4,1,0,70,0,0
21008,-86.4855543885501,4,1,0,70,0,0
22042,-85.106054762823,4,1,0,70,0,0
22387,-84.6555163418751,4,1,0,70,0,0
23421,-100,4,1,0,70,0,0
23766,-90.9090909090909,4,1,0,70,0,0
23767,-90.9090909090909,4,1,0,70,0,1
24802,-90.9090909090909,4,1,0,70,0,0
25147,-90.9090909090909,4,1,0,70,0,1
26181,-90.9090909090909,4,1,0,70,0,0
26526,-90.9090909090909,4,1,0,70,0,1
27560,-90.9090909090909,4,1,0,70,0,0
27905,-90.9090909090909,4,1,0,70,0,1
28940,-90.9090909090909,4,1,0,70,0,0
29285,-90.9090909090909,4,1,0,70,0,1
30319,-90.9090909090909,4,1,0,70,0,0
30664,-90.9090909090909,4,1,0,70,0,1
31698,-90.9090909090909,4,1,0,70,0,0
32043,-90.9090909090909,4,1,0,70,0,1
33078,-90.9090909090909,4,1,0,70,0,0
33422,-90.9090909090909,4,1,0,70,0,1
34457,-111.111111111111,4,1,0,70,0,0
34801,-109.588315523246,4,1,0,70,0,0
34973,-108.844611034392,4,1,0,70,0,0
35059,-108.476531267613,4,1,0,70,0,0
35146,-108.106695927058,4,1,0,70,0,0
35490,-106.668728894388,4,1,0,70,0,0
35663,-105.95992574099,4,1,0,70,0,0
35835,-105.264496762951,4,1,0,70,0,0
36180,-103.896756051019,4,1,0,70,0,0
36353,-103.224197068912,4,1,0,70,0,0
36439,-102.893091144182,4,1,0,70,0,0
36525,-102.564102564103,4,1,0,70,0,0
36870,-101.265203240095,4,1,0,70,0,0
37215,-99.9987917014052,4,1,0,70,0,0
37559,-98.7672001241154,4,1,0,70,0,0
37732,-98.1592181421387,4,1,0,70,0,0
37818,-97.8597611446139,4,1,0,70,0,0
37904,-97.5621257132079,4,1,0,70,0,0
38249,-96.3861034438582,4,1,0,70,0,0
38421,-95.8103242686301,4,1,0,70,0,0
38594,-95.2380952380952,4,1,0,70,0,0
38939,-94.1171118920087,4,1,0,70,0,0
39111,-93.5680448620109,4,1,0,70,0,0
39197,-93.2959067491855,4,1,0,70,0,0
39284,-93.0222102328927,4,1,0,70,0,0
39628,-91.9555555555556,4,1,0,70,0,0
39973,-90.9100895260065,4,1,0,70,0,0
40146,-90.3947397164515,4,1,0,70,0,0
40318,-89.888128597806,4,1,0,70,0,0
40490,-89.3871643661029,4,1,0,70,0,0
40663,-88.8888888888889,4,1,0,70,0,0
41008,-87.9116209900149,4,1,0,70,0,0
41352,-86.9583490942714,4,1,0,70,0,0
41525,-86.4867124389963,4,1,0,70,0,0
41697,-86.0228465704159,4,1,0,70,0,0
41870,-85.5612761822054,4,1,0,70,0,0
42042,-85.1072581806215,4,1,0,70,0,0
42387,-84.2109547503485,4,1,0,70,0,0
42732,-83.3333333333333,4,1,0,70,0,0
44112,-100,4,1,0,20,0,0
45491,-111.111111111111,4,1,0,70,0,0
62042,-111.111111111111,4,1,0,70,0,0
62387,-110.235860903715,4,1,0,70,0,0
62646,-109.587797348829,4,1,0,70,0,0
63077,-108.526086272394,4,1,0,70,0,0
63249,-108.108108108108,4,1,0,70,0,0
63421,-107.693337199706,4,1,0,70,0,0
63508,-107.484749988869,4,1,0,70,0,0
63594,-107.279352946405,4,1,0,70,0,0
63766,-106.870904905259,4,1,0,70,0,0
64025,-106.261692527787,4,1,0,70,0,0
64456,-105.263157894737,4,1,0,70,0,0
64628,-104.869890090795,4,1,0,70,0,0
64801,-104.477288957175,4,1,0,70,0,0
65146,-103.703067273821,4,1,0,70,0,0
65404,-103.131541846456,4,1,0,70,0,0
65835,-102.19070801143,4,1,0,70,0,0
66008,-101.817875068539,4,1,0,70,0,0
66180,-101.449884429502,4,1,0,70,0,0
66266,-101.266884805772,4,1,0,70,0,0
66353,-101.082427820698,4,1,0,70,0,0
66525,-100.719724627099,4,1,0,70,0,0
66784,-100.178445449641,4,1,0,70,0,0
66870,-100,4,1,0,70,0,0
67474,-111.111111111111,4,1,0,70,0,0
67647,-90.9090909090909,4,1,0,70,0,0
67905,-90.9090909090909,4,1,0,80,0,1
89543,-111.111111111111,4,1,0,80,0,1
89629,-111.111111111111,4,1,0,70,0,0
93766,-111.111111111111,4,1,0,70,0,0
94111,-114.285714285714,4,1,0,70,0,0
94370,-116.790792146242,4,1,0,70,0,0
94542,-118.515973892133,4,1,0,70,0,0
94715,-120.303373725046,4,1,0,70,0,0
94801,-121.212121212121,4,1,0,70,0,0
95146,-111.111111111111,4,1,0,70,0,0
99284,-111.111111111111,4,1,0,70,0,0
99628,-108.114464915719,4,1,0,70,0,0
99887,-105.962809282311,4,1,0,70,0,0
100059,-104.580615804641,4,1,0,70,0,0
100232,-103.226289392919,4,1,0,70,0,0
100318,-102.566009669022,4,1,0,70,0,0
100663,-100,4,1,0,70,0,0
100921,-99.3803736971036,4,1,0,70,0,0
101008,-99.1731575793889,4,1,0,70,0,0
101180,-98.7660214335155,4,1,0,70,0,0
101353,-98.3598763964821,4,1,0,70,0,0
101697,-97.5621257132079,4,1,0,70,0,0
101870,-97.1658017704933,4,1,0,70,0,0
102042,-96.7749479641713,4,1,0,70,0,0
102301,-96.1922915988656,4,1,0,70,0,0
102387,-96.0003711952487,4,1,0,70,0,0
102559,-95.6188187448008,4,1,0,70,0,0
102732,-95.2380952380952,4,1,0,70,0,0
103077,-94.4878293830205,4,1,0,70,0,0
103421,-93.7514160134125,4,1,0,70,0,0
103680,-93.2044957992657,4,1,0,70,0,0
103766,-93.0243014185194,4,1,0,70,0,0
103939,-92.6639197420279,4,1,0,70,0,0
104111,-92.308378691889,4,1,0,70,0,0
104456,-91.6033914063711,4,1,0,70,0,0
104628,-91.2559267835484,4,1,0,70,0,0
104801,-90.9090909090909,4,1,0,70,0,0
105059,-90.3967144355121,4,1,0,70,0,0
105146,-90.225236029043,4,1,0,70,0,0
105318,-89.888128597806,4,1,0,70,0,0
105490,-89.5535308503041,4,1,0,70,0,0
105835,-88.8898436157415,4,1,0,70,0,0
106180,-88.2359212742819,4,1,0,70,0,0
106353,-87.9116209900149,4,1,0,70,0,0
106525,-87.5915498920452,4,1,0,70,0,0
106697,-87.2738009870502,4,1,0,70,0,0
106870,-86.9565217391304,4,1,0,70,0,0
107215,-86.330635066344,4,1,0,70,0,0
107559,-85.7154693843732,4,1,0,70,0,0
107732,-85.4093995748106,4,1,0,70,0,0
107904,-85.1072581806215,4,1,0,70,0,0
108077,-84.8055088740419,4,1,0,70,0,0
108249,-84.5076175305314,4,1,0,70,0,0
108594,-83.9163675447669,4,1,0,70,0,0
108939,-83.3333333333333,4,1,0,70,0,0
110319,-100,4,3,0,40,0,0
111698,-90.9090909090909,4,1,0,80,0,9
133078,-90.9090909090909,4,1,0,80,0,8
133767,-90.9090909090909,4,1,0,80,0,9
155836,-90.9090909090909,4,1,0,80,0,8
155922,-111.111111111111,4,1,0,40,0,8
177818,-100,4,1,0,40,0,8
177905,-100,4,1,0,70,0,8
177991,-90.9090909090909,4,1,0,70,0,8
178250,-90.9090909090909,4,1,0,70,0,1
179285,-90.9090909090909,4,1,0,70,0,0
179629,-90.9090909090909,4,1,0,70,0,1
180664,-90.9090909090909,4,1,0,70,0,0
181009,-90.9090909090909,4,1,0,70,0,1
182043,-90.9090909090909,4,1,0,70,0,0
182388,-90.9090909090909,4,1,0,70,0,1
183422,-90.9090909090909,4,1,0,70,0,0
183767,-90.9090909090909,4,1,0,70,0,1
184802,-90.9090909090909,4,1,0,70,0,0
185147,-90.9090909090909,4,1,0,70,0,1
186181,-90.9090909090909,4,1,0,70,0,0
186526,-90.9090909090909,4,1,0,70,0,1
187560,-90.9090909090909,4,1,0,70,0,0
187905,-90.9090909090909,4,1,0,70,0,1
188940,-111.111111111111,4,1,0,70,0,8
189283,-109.588315523246,4,1,0,70,0,8
189455,-108.844611034392,4,1,0,70,0,8
189542,-108.472265911712,4,1,0,70,0,8
189628,-108.106695927058,4,1,0,70,0,8
189973,-106.664604518682,4,1,0,70,0,8
190145,-105.95992574099,4,1,0,70,0,8
190318,-105.26048026048,4,1,0,70,0,8
190662,-103.896756051019,4,1,0,70,0,8
190835,-103.224197068912,4,1,0,70,0,8
190921,-102.893091144182,4,1,0,70,0,8
191007,-102.564102564103,4,1,0,70,0,8
191352,-101.265203240095,4,1,0,70,0,8
191697,-99.9987917014052,4,1,0,70,0,8
192042,-98.763664136713,4,1,0,70,0,8
192214,-98.1592181421387,4,1,0,70,0,8
192300,-97.8597611446139,4,1,0,70,0,8
192386,-97.5621257132079,4,1,0,70,0,8
192731,-96.3861034438582,4,1,0,70,0,8
192904,-95.8069968280429,4,1,0,70,0,8
193076,-95.2380952380952,4,1,0,70,0,8
193421,-94.1171118920087,4,1,0,70,0,8
193593,-93.5680448620109,4,1,0,70,0,8
193680,-93.2927516627212,4,1,0,70,0,8
193766,-93.0222102328927,4,1,0,70,0,8
194111,-91.9524904725398,4,1,0,70,0,8
194455,-90.9100895260065,4,1,0,70,0,8
194628,-90.3947397164515,4,1,0,70,0,8
194800,-89.888128597806,4,1,0,70,0,8
194973,-89.3842681096027,4,1,0,70,0,8
195145,-88.8888888888889,4,1,0,70,0,8
195490,-87.9116209900149,4,1,0,70,0,8
195835,-86.9556080903599,4,1,0,70,0,8
196007,-86.4867124389963,4,1,0,70,0,8
196180,-86.0201642240931,4,1,0,70,0,8
196352,-85.5612761822054,4,1,0,70,0,8
196524,-85.1072581806215,4,1,0,70,0,8
196869,-84.2109547503485,4,1,0,70,0,8
197214,-83.3333333333333,4,1,0,70,0,8
198595,-83.3333333333333,4,1,0,20,0,0
199974,-111.111111111111,4,1,0,70,0,8
209628,-111.111111111111,4,1,0,70,0,8
209973,-114.288082214487,4,1,0,70,0,8
210231,-116.785230352304,4,1,0,70,0,8
210404,-118.521701761925,4,1,0,70,0,8
210576,-120.300095960918,4,1,0,70,0,8
210662,-121.209457677771,4,1,0,70,0,8
211007,-111.111111111111,4,1,0,70,0,8
219283,-111.111111111111,4,1,0,70,0,8
219628,-109.588496981252,4,1,0,70,0,8
219886,-108.47684202249,4,1,0,70,0,8
220059,-107.743976256492,4,1,0,70,0,8
220318,-106.665120235058,4,1,0,70,0,8
220576,-105.611698055428,4,1,0,70,0,8
220662,-105.265165967188,4,1,0,70,0,8
221007,-103.897571078893,4,1,0,70,0,8
221266,-102.894010591482,4,1,0,70,0,8
221438,-102.238197583932,4,1,0,70,0,8
221611,-101.586950918664,4,1,0,70,0,8
221697,-101.266287392182,4,1,0,70,0,8
222042,-100,4,1,0,70,0,8

[HitObjects]
64,64,1354,5,0,0:0:0:0:
448,64,1526,1,8,0:0:0:0:
448,64,1612,1,8,0:0:0:0:
448,64,1698,1,8,0:0:0:0:
64,64,2733,1,0,0:0:0:0:
448,64,2905,1,8,0:0:0:0:
64,64,3078,1,0,0:0:0:0:
64,64,4112,1,0,0:0:0:0:
448,64,4285,1,8,0:0:0:0:
448,64,4371,1,8,0:0:0:0:
448,64,4457,1,8,0:0:0:0:
64,64,5491,1,0,0:0:0:0:
448,64,5664,1,8,0:0:0:0:
448,64,5836,1,8,0:0:0:0:
64,64,6871,1,0,0:0:0:0:
448,64,7043,1,8,0:0:0:0:
448,64,7129,1,8,0:0:0:0:
448,64,7216,1,8,0:0:0:0:
64,64,8250,1,0,0:0:0:0:
448,64,8422,1,8,0:0:0:0:
64,64,8595,1,0,0:0:0:0:
64,64,9629,1,0,0:0:0:0:
448,64,9802,1,8,0:0:0:0:
448,64,9888,1,8,0:0:0:0:
448,64,9974,1,8,0:0:0:0:
64,64,11009,1,0,0:0:0:0:
448,64,11181,1,8,0:0:0:0:
448,64,11353,1,8,0:0:0:0:
64,64,12388,1,0,0:0:0:0:
448,64,12560,1,8,0:0:0:0:
448,64,12647,1,8,0:0:0:0:
448,64,12733,1,8,0:0:0:0:
64,64,13767,1,0,0:0:0:0:
448,64,13940,1,8,0:0:0:0:
64,64,14112,1,0,0:0:0:0:
64,64,15147,1,0,0:0:0:0:
448,64,15319,1,8,0:0:0:0:
448,64,15405,1,8,0:0:0:0:
448,64,15491,1,8,0:0:0:0:
64,64,16526,1,0,0:0:0:0:
448,64,16698,1,8,0:0:0:0:
64,64,16871,1,0,0:0:0:0:
64,64,17905,1,0,0:0:0:0:
448,64,18078,1,8,0:0:0:0:
448,64,18164,1,8,0:0:0:0:
448,64,18250,1,8,0:0:0:0:
64,64,19285,1,0,0:0:0:0:
448,64,19457,1,8,0:0:0:0:
448,64,19629,1,8,0:0:0:0:
64,64,20664,1,0,0:0:0:0:
448,64,20836,1,8,0:0:0:0:
448,64,20922,1,8,0:0:0:0:
448,64,21009,1,8,0:0:0:0:
64,64,22043,1,0,0:0:0:0:
64,64,22388,1,0,0:0:0:0:
64,64,23422,1,0,0:0:0:0:
448,320,23767,1,12,0:0:0:0:
64,64,23940,1,0,0:0:0:0:
448,64,24457,1,8,0:0:0:0:
64,64,24802,1,0,0:0:0:0:
448,320,25147,1,12,0:0:0:0:
448,64,25405,1,8,0:0:0:0:
64,64,25664,1,0,0:0:0:0:
448,64,25836,1,8,0:0:0:0:
64,64,26181,1,0,0:0:0:0:
448,320,26526,1,12,0:0:0:0:
64,64,26785,1,0,0:0:0:0:
64,64,27043,1,0,0:0:0:0:
448,64,27216,1,8,0:0:0:0:
64,64,27560,1,0,0:0:0:0:
448,320,27905,1,12,0:0:0:0:
448,64,28164,1,8,0:0:0:0:
64,64,28422,1,0,0:0:0:0:
448,64,28595,1,8,0:0:0:0:
64,64,28940,1,0,0:0:0:0:
448,320,29285,1,12,0:0:0:0:
64,64,29802,1,0,0:0:0:0:
448,64,29974,1,8,0:0:0:0:
64,64,30319,1,0,0:0:0:0:
448,320,30664,1,12,0:0:0:0:
448,64,30922,1,8,0:0:0:0:
64,64,31181,1,0,0:0:0:0:
448,64,31353,1,8,0:0:0:0:
64,64,31698,1,0,0:0:0:0:
448,320,32043,1,12,0:0:0:0:
64,64,32302,1,0,0:0:0:0:
64,64,32560,1,0,0:0:0:0:
448,64,32733,1,8,0:0:0:0:
64,64,33078,1,0,0:0:0:0:
448,320,33422,1,12,0:0:0:0:
64,64,33940,1,0,0:0:0:0:
448,64,34112,1,8,0:0:0:0:
64,64,34457,1,0,0:0:0:0:
448,64,34802,1,8,0:0:0:0:
64,64,34974,1,0,0:0:0:0:
64,64,35060,1,0,0:0:0:0:
64,64,35147,1,0,0:0:0:0:
448,64,35491,1,8,0:0:0:0:
64,64,35664,1,0,0:0:0:0:
64,64,35836,1,0,0:0:0:0:
448,64,36181,1,8,0:0:0:0:
64,64,36353,1,0,0:0:0:0:
64,64,36440,1,0,0:0:0:0:
64,64,36526,1,0,0:0:0:0:
448,64,36871,1,8,0:0:0:0:
64,64,37216,1,0,0:0:0:0:
448,64,37560,1,8,0:0:0:0:
64,64,37733,1,0,0:0:0:0:
64,64,37819,1,0,0:0:0:0:
64,64,37905,1,0,0:0:0:0:
448,64,38250,1,8,0:0:0:0:
64,64,38422,1,0,0:0:0:0:
64,64,38595,1,0,0:0:0:0:
448,64,38940,1,8,0:0:0:0:
64,64,39112,1,0,0:0:0:0:
64,64,39198,1,0,0:0:0:0:
64,64,39285,1,0,0:0:0:0:
448,64,39629,1,8,0:0:0:0:
64,64,39974,1,0,0:0:0:0:
64,64,40147,1,0,0:0:0:0:
448,64,40319,1,8,0:0:0:0:
64,64,40491,1,0,0:0:0:0:
64,64,40664,1,0,0:0:0:0:
448,64,41009,1,8,0:0:0:0:
64,64,41353,1,0,0:0:0:0:
64,64,41526,1,0,0:0:0:0:
448,64,41698,1,8,0:0:0:0:
64,64,41871,1,0,0:0:0:0:
64,64,42043,1,0,0:0:0:0:
448,64,42388,1,8,0:0:0:0:
0,384,42733,6,0,L|512:384,1,671.848788558484
64,64,45491,1,0,0:0:0:0:
448,64,45836,1,8,0:0:0:0:
64,64,46095,1,0,0:0:0:0:
448,64,46526,1,8,0:0:0:0:
64,64,46785,1,0,0:0:0:0:
64,64,46871,1,0,0:0:0:0:
64,64,47043,1,0,0:0:0:0:
448,64,47216,1,8,0:0:0:0:
64,64,47474,1,0,0:0:0:0:
448,64,47905,1,8,0:0:0:0:
448,64,48078,1,8,0:0:0:0:
64,64,48250,1,0,0:0:0:0:
448,64,48595,1,8,0:0:0:0:
64,64,48853,1,0,0:0:0:0:
448,64,49285,1,8,0:0:0:0:
64,64,49457,1,0,0:0:0:0:
64,64,49716,1,0,0:0:0:0:
64,64,49802,1,0,0:0:0:0:
448,64,49974,1,8,0:0:0:0:
64,64,50233,1,0,0:0:0:0:
448,64,50664,1,8,0:0:0:0:
448,64,50836,1,8,0:0:0:0:
64,64,51009,1,0,0:0:0:0:
448,64,51353,1,8,0:0:0:0:
64,64,51612,1,0,0:0:0:0:
448,64,52043,1,8,0:0:0:0:
64,64,52216,1,0,0:0:0:0:
64,64,52474,1,0,0:0:0:0:
64,64,52560,1,0,0:0:0:0:
448,64,52733,1,8,0:0:0:0:
64,64,52991,1,0,0:0:0:0:
448,64,53422,1,8,0:0:0:0:
448,64,53595,1,8,0:0:0:0:
64,64,53767,1,0,0:0:0:0:
448,64,54112,1,8,0:0:0:0:
64,64,54371,1,0,0:0:0:0:
448,64,54802,1,8,0:0:0:0:
64,64,54974,1,0,0:0:0:0:
448,64,55491,1,8,0:0:0:0:
448,64,55750,1,8,0:0:0:0:
448,64,56181,1,8,0:0:0:0:
448,64,56353,1,8,0:0:0:0:
64,64,56526,1,0,0:0:0:0:
448,64,56871,1,8,0:0:0:0:
64,64,57129,1,0,0:0:0:0:
448,64,57560,1,8,0:0:0:0:
64,64,57819,1,0,0:0:0:0:
64,64,57905,1,0,0:0:0:0:
64,64,58078,1,0,0:0:0:0:
448,64,58250,1,8,0:0:0:0:
64,64,58509,1,0,0:0:0:0:
448,64,58940,1,8,0:0:0:0:
448,64,59112,1,8,0:0:0:0:
64,64,59285,1,0,0:0:0:0:
448,64,59629,1,8,0:0:0:0:
64,64,59888,1,0,0:0:0:0:
448,64,60319,1,8,0:0:0:0:
64,64,60491,1,0,0:0:0:0:
64,64,60750,1,0,0:0:0:0:
64,64,60836,1,0,0:0:0:0:
448,64,61009,1,8,0:0:0:0:
64,64,61267,1,0,0:0:0:0:
448,64,61698,1,8,0:0:0:0:
448,64,61871,1,8,0:0:0:0:
64,64,62043,1,0,0:0:0:0:
448,64,62388,1,8,0:0:0:0:
64,64,62647,1,0,0:0:0:0:
448,64,63078,1,8,0:0:0:0:
64,64,63250,1,0,0:0:0:0:
64,64,63509,1,0,0:0:0:0:
64,64,63595,1,0,0:0:0:0:
448,64,63767,1,8,0:0:0:0:
64,64,64026,1,0,0:0:0:0:
448,64,64457,1,8,0:0:0:0:
448,64,64629,1,8,0:0:0:0:
64,64,64802,1,0,0:0:0:0:
448,64,65147,1,8,0:0:0:0:
64,64,65405,1,0,0:0:0:0:
448,64,65836,1,8,0:0:0:0:
64,64,66009,1,0,0:0:0:0:
448,64,66526,1,8,0:0:0:0:
448,64,66785,1,0,0:0:0:0:
64,64,66871,1,8,0:0:0:0:
64,64,67560,1,0,0:0:0:0:
448,320,67905,1,12,0:0:0:0:
64,64,68164,1,0,0:0:0:0:
448,64,68595,1,8,0:0:0:0:
64,64,68853,1,0,0:0:0:0:
64,64,69026,1,0,0:0:0:0:
448,64,69198,1,8,0:0:0:0:
448,64,69285,1,8,0:0:0:0:
64,64,69543,1,0,0:0:0:0:
448,64,69974,1,8,0:0:0:0:
448,64,70147,1,8,0:0:0:0:
64,64,70319,1,0,0:0:0:0:
448,64,70664,1,8,0:0:0:0:
64,64,70922,1,0,0:0:0:0:
448,64,71353,1,8,0:0:0:0:
64,64,71526,1,0,0:0:0:0:
448,64,71785,1,8,0:0:0:0:
448,64,71957,1,8,0:0:0:0:
448,64,72043,1,8,0:0:0:0:
448,64,72129,1,8,0:0:0:0:
64,64,72302,1,0,0:0:0:0:
448,64,72733,1,8,0:0:0:0:
448,64,72905,1,8,0:0:0:0:
64,64,73078,1,0,0:0:0:0:
448,64,73422,1,8,0:0:0:0:
64,64,73681,1,0,0:0:0:0:
448,64,74112,1,8,0:0:0:0:
64,64,74285,1,0,0:0:0:0:
64,64,74543,1,0,0:0:0:0:
448,64,74716,1,8,0:0:0:0:
448,64,74802,1,8,0:0:0:0:
64,64,75060,1,0,0:0:0:0:
448,64,75491,1,8,0:0:0:0:
448,64,75664,1,8,0:0:0:0:
64,64,75836,1,0,0:0:0:0:
448,64,76181,1,8,0:0:0:0:
64,64,76440,1,0,0:0:0:0:
448,64,76871,1,8,0:0:0:0:
64,64,77043,1,0,0:0:0:0:
448,64,77302,1,8,0:0:0:0:
448,64,77474,1,8,0:0:0:0:
448,64,77560,1,8,0:0:0:0:
448,64,77647,1,8,0:0:0:0:
64,64,77819,1,0,0:0:0:0:
448,64,78250,1,8,0:0:0:0:
64,64,78595,1,0,0:0:0:0:
448,64,78940,1,8,0:0:0:0:
64,64,79198,1,0,0:0:0:0:
448,64,79629,1,8,0:0:0:0:
64,64,79888,1,0,0:0:0:0:
64,64,80060,1,0,0:0:0:0:
448,64,80233,1,8,0:0:0:0:
448,64,80319,1,8,0:0:0:0:
64,64,80578,1,0,0:0:0:0:
448,64,81009,1,8,0:0:0:0:
448,64,81181,1,8,0:0:0:0:
64,64,81353,1,0,0:0:0:0:
448,64,81698,1,8,0:0:0:0:
64,64,81957,1,0,0:0:0:0:
448,64,82388,1,8,0:0:0:0:
64,64,82560,1,0,0:0:0:0:
448,64,82819,1,8,0:0:0:0:
448,64,82991,1,8,0:0:0:0:
448,64,83078,1,8,0:0:0:0:
448,64,83164,1,8,0:0:0:0:
64,64,83336,1,0,0:0:0:0:
448,64,83767,1,8,0:0:0:0:
448,64,83940,1,8,0:0:0:0:
64,64,84112,1,0,0:0:0:0:
448,64,84457,1,8,0:0:0:0:
64,64,84716,1,0,0:0:0:0:
448,64,85147,1,8,0:0:0:0:
64,64,85319,1,0,0:0:0:0:
64,64,85578,1,0,0:0:0:0:
448,64,85750,1,8,0:0:0:0:
448,64,85836,1,8,0:0:0:0:
64,64,86095,1,0,0:0:0:0:
448,64,86526,1,8,0:0:0:0:
448,64,86698,1,8,0:0:0:0:
64,64,86871,1,0,0:0:0:0:
448,64,87216,1,8,0:0:0:0:
64,64,87474,1,0,0:0:0:0:
448,64,87905,1,8,0:0:0:0:
64,64,88078,1,0,0:0:0:0:
448,64,88336,1,8,0:0:0:0:
448,64,88509,1,8,0:0:0:0:
448,64,88595,1,8,0:0:0:0:
448,64,88681,1,8,0:0:0:0:
64,64,88853,1,0,0:0:0:0:
64,64,89629,1,0,0:0:0:0:
448,64,89974,1,8,0:0:0:0:
448,64,90233,1,8,0:0:0:0:
448,64,90405,1,8,0:0:0:0:
448,64,90578,1,8,0:0:0:0:
448,64,90664,1,8,0:0:0:0:
64,64,90836,1,0,0:0:0:0:
448,64,91009,1,8,0:0:0:0:
448,64,91181,1,8,0:0:0:0:
448,64,91353,1,8,0:0:0:0:
64,64,91526,1,0,0:0:0:0:
448,64,92043,1,8,0:0:0:0:
64,64,92388,1,0,0:0:0:0:
448,64,92733,1,8,0:0:0:0:
64,64,92991,1,0,0:0:0:0:
64,64,93164,1,0,0:0:0:0:
448,64,93422,1,8,0:0:0:0:
64,64,93681,1,0,0:0:0:0:
64,64,93767,1,0,0:0:0:0:
448,64,94112,1,8,0:0:0:0:
64,64,94371,1,0,0:0:0:0:
64,64,94543,1,0,0:0:0:0:
448,64,94716,1,8,0:0:0:0:
448,64,94802,1,8,0:0:0:0:
64,64,95147,1,0,0:0:0:0:
448,64,95491,1,8,0:0:0:0:
448,64,95750,1,8,0:0:0:0:
448,64,95922,1,8,0:0:0:0:
448,64,96095,1,8,0:0:0:0:
448,64,96181,1,8,0:0:0:0:
64,64,96353,1,0,0:0:0:0:
64,64,96526,1,0,0:0:0:0:
448,64,96698,1,8,0:0:0:0:
448,64,96871,1,8,0:0:0:0:
64,64,97043,1,0,0:0:0:0:
448,64,97560,1,8,0:0:0:0:
64,64,97905,1,0,0:0:0:0:
448,64,98250,1,8,0:0:0:0:
64,64,98509,1,0,0:0:0:0:
64,64,98681,1,0,0:0:0:0:
448,64,98940,1,8,0:0:0:0:
64,64,99198,1,0,0:0:0:0:
64,64,99285,1,0,0:0:0:0:
448,64,99629,1,8,0:0:0:0:
64,64,99888,1,0,0:0:0:0:
64,64,100060,1,0,0:0:0:0:
448,64,100233,1,8,0:0:0:0:
448,64,100319,1,8,0:0:0:0:
64,64,100664,1,0,0:0:0:0:
448,64,100922,1,8,0:0:0:0:
448,64,101009,1,8,0:0:0:0:
64,64,101181,1,0,0:0:0:0:
64,64,101353,1,0,0:0:0:0:
448,64,101698,1,8,0:0:0:0:
64,64,101871,1,0,0:0:0:0:
64,64,102043,1,0,0:0:0:0:
448,64,102302,1,8,0:0:0:0:
448,64,102388,1,8,0:0:0:0:
64,64,102560,1,0,0:0:0:0:
64,64,102733,1,0,0:0:0:0:
448,64,103078,1,8,0:0:0:0:
448,64,103681,1,8,0:0:0:0:
448,64,103767,1,8,0:0:0:0:
64,64,103940,1,0,0:0:0:0:
64,64,104112,1,0,0:0:0:0:
448,64,104457,1,8,0:0:0:0:
64,64,104629,1,0,0:0:0:0:
64,64,104802,1,0,0:0:0:0:
448,64,105060,1,8,0:0:0:0:
448,64,105147,1,8,0:0:0:0:
64,64,105319,1,0,0:0:0:0:
64,64,105491,1,0,0:0:0:0:
448,64,105836,1,8,0:0:0:0:
64,64,106181,1,0,0:0:0:0:
64,64,106353,1,0,0:0:0:0:
448,64,106526,1,8,0:0:0:0:
64,64,106698,1,0,0:0:0:0:
64,64,106871,1,0,0:0:0:0:
448,64,107216,1,8,0:0:0:0:
64,64,107560,1,0,0:0:0:0:
64,64,107733,1,0,0:0:0:0:
448,64,107905,1,8,0:0:0:0:
64,64,108078,1,8,0:0:0:0:
64,64,108250,1,0,0:0:0:0:
448,64,108595,1,8,0:0:0:0:
0,384,108940,6,0,L|512:384,1,671.848788558484
64,320,111698,1,4,0:0:0:0:
448,64,112043,1,8,0:0:0:0:
64,64,112216,1,0,0:0:0:0:
64,64,112302,1,0,0:0:0:0:
64,64,112388,1,0,0:0:0:0:
64,64,112560,1,0,0:0:0:0:
448,64,112733,1,8,0:0:0:0:
64,64,112991,1,0,0:0:0:0:
64,64,113164,1,0,0:0:0:0:
448,64,113422,1,8,0:0:0:0:
448,64,113595,1,8,0:0:0:0:
128,164,113681,1,8,0:0:0:0:
448,64,113767,1,8,0:0:0:0:
448,64,114285,1,8,0:0:0:0:
64,64,114457,1,0,0:0:0:0:
448,64,114802,1,8,0:0:0:0:
448,64,114888,1,8,0:0:0:0:
64,64,115147,1,0,0:0:0:0:
448,64,115319,1,8,0:0:0:0:
448,64,115405,1,8,0:0:0:0:
448,64,115664,1,0,0:0:0:0:
64,64,116009,1,0,0:0:0:0:
448,64,116181,1,8,0:0:0:0:
448,64,116267,1,8,0:0:0:0:
64,64,116526,1,0,0:0:0:0:
448,64,116698,1,8,0:0:0:0:
448,64,116785,1,8,0:0:0:0:
64,64,117043,1,0,0:0:0:0:
64,64,117129,1,0,0:0:0:0:
64,64,117216,1,0,0:0:0:0:
448,64,117560,1,8,0:0:0:0:
64,64,117733,1,0,0:0:0:0:
64,64,117819,1,0,0:0:0:0:
64,64,118078,1,0,0:0:0:0:
448,64,118250,1,8,0:0:0:0:
64,64,118422,1,0,0:0:0:0:
64,64,118509,1,0,0:0:0:0:
64,64,118767,1,0,0:0:0:0:
448,64,118940,1,8,0:0:0:0:
448,64,119112,1,0,0:0:0:0:
64,64,119285,1,0,0:0:0:0:
448,64,119629,1,8,0:0:0:0:
64,64,119974,1,0,0:0:0:0:
448,64,120319,1,8,0:0:0:0:
448,64,120405,1,8,0:0:0:0:
64,64,120664,1,0,0:0:0:0:
448,64,120836,1,8,0:0:0:0:
448,64,120922,1,8,0:0:0:0:
64,64,121181,1,0,0:0:0:0:
448,64,121353,1,8,0:0:0:0:
448,64,121698,1,8,0:0:0:0:
448,64,121785,1,8,0:0:0:0:
448,64,121871,1,8,0:0:0:0:
64,64,122043,1,0,0:0:0:0:
448,64,122216,1,0,0:0:0:0:
448,64,122388,1,8,0:0:0:0:
371,65,122560,1,8,0:0:0:0:
64,64,122733,1,0,0:0:0:0:
448,64,123078,1,8,0:0:0:0:
64,64,123250,1,0,0:0:0:0:
64,64,123336,1,0,0:0:0:0:
64,64,123509,1,0,0:0:0:0:
64,64,123595,1,0,0:0:0:0:
448,64,123767,1,8,0:0:0:0:
64,64,124026,1,0,0:0:0:0:
64,64,124198,1,0,0:0:0:0:
448,64,124457,1,8,0:0:0:0:
448,64,124543,1,8,0:0:0:0:
64,64,124802,1,0,0:0:0:0:
448,64,124974,1,8,0:0:0:0:
448,64,125060,1,8,0:0:0:0:
448,64,125319,1,8,0:0:0:0:
64,64,125491,1,0,0:0:0:0:
448,64,125836,1,8,0:0:0:0:
64,64,126009,1,0,0:0:0:0:
64,64,126095,1,0,0:0:0:0:
64,64,126181,1,0,0:0:0:0:
64,64,126267,1,0,0:0:0:0:
448,64,126526,1,8,0:0:0:0:
64,64,126785,1,0,0:0:0:0:
64,64,126957,1,0,0:0:0:0:
448,64,127216,1,8,0:0:0:0:
448,64,127302,1,8,0:0:0:0:
448,64,127388,1,8,0:0:0:0:
64,64,127560,1,0,0:0:0:0:
258,8,128078,1,8,0:0:0:0:
64,64,128250,1,0,0:0:0:0:
64,64,128422,1,0,0:0:0:0:
448,64,128595,1,8,0:0:0:0:
448,64,128767,1,8,0:0:0:0:
64,64,128940,1,0,0:0:0:0:
448,64,129112,1,8,0:0:0:0:
448,64,129285,1,8,0:0:0:0:
448,64,129974,1,8,0:0:0:0:
64,64,130147,1,0,0:0:0:0:
64,64,130233,1,0,0:0:0:0:
64,64,130319,1,0,0:0:0:0:
64,64,130491,1,0,0:0:0:0:
448,64,130664,1,8,0:0:0:0:
448,64,130836,1,8,0:0:0:0:
64,64,131009,1,0,0:0:0:0:
448,64,131353,1,8,0:0:0:0:
448,64,131440,1,8,0:0:0:0:
448,64,131526,1,8,0:0:0:0:
64,64,131698,1,0,0:0:0:0:
448,64,131871,1,8,0:0:0:0:
448,64,132043,1,8,0:0:0:0:
64,64,132388,1,0,0:0:0:0:
448,64,132560,1,8,0:0:0:0:
448,64,132733,1,8,0:0:0:0:
448,64,133078,1,4,0:0:0:0:
64,320,133767,1,4,0:0:0:0:
448,64,134112,1,8,0:0:0:0:
64,64,134285,1,0,0:0:0:0:
64,64,134371,1,0,0:0:0:0:
64,64,134457,1,0,0:0:0:0:
64,64,134629,1,0,0:0:0:0:
448,64,134802,1,8,0:0:0:0:
64,64,135060,1,0,0:0:0:0:
64,64,135233,1,0,0:0:0:0:
448,64,135491,1,8,0:0:0:0:
448,64,135664,1,8,0:0:0:0:
128,164,135750,1,8,0:0:0:0:
448,64,135836,1,8,0:0:0:0:
448,64,136353,1,8,0:0:0:0:
64,64,136526,1,0,0:0:0:0:
448,64,136871,1,8,0:0:0:0:
448,64,136957,1,8,0:0:0:0:
64,64,137216,1,0,0:0:0:0:
448,64,137388,1,8,0:0:0:0:
448,64,137474,1,8,0:0:0:0:
64,64,137733,1,0,0:0:0:0:
64,64,138078,1,0,0:0:0:0:
448,64,138250,1,8,0:0:0:0:
448,64,138336,1,8,0:0:0:0:
64,64,138595,1,0,0:0:0:0:
448,64,138767,1,8,0:0:0:0:
448,64,138853,1,8,0:0:0:0:
64,64,139112,1,0,0:0:0:0:
64,64,139198,1,0,0:0:0:0:
64,64,139285,1,0,0:0:0:0:
448,64,139629,1,8,0:0:0:0:
64,64,139802,1,0,0:0:0:0:
64,64,139888,1,0,0:0:0:0:
64,64,140147,1,0,0:0:0:0:
448,64,140319,1,8,0:0:0:0:
64,64,140491,1,0,0:0:0:0:
64,64,140578,1,0,0:0:0:0:
330,235,140836,1,0,0:0:0:0:
448,64,141009,1,8,0:0:0:0:
448,64,141181,1,0,0:0:0:0:
64,64,141353,1,0,0:0:0:0:
448,64,141698,1,8,0:0:0:0:
64,64,142043,1,0,0:0:0:0:
448,64,142388,1,8,0:0:0:0:
448,64,142474,1,8,0:0:0:0:
64,64,142733,1,0,0:0:0:0:
448,64,142905,1,8,0:0:0:0:
448,64,142991,1,8,0:0:0:0:
64,64,143250,1,0,0:0:0:0:
135,75,143422,1,0,0:0:0:0:
448,64,143767,1,8,0:0:0:0:
448,64,143940,1,8,0:0:0:0:
64,64,144112,1,0,0:0:0:0:
448,64,144285,1,0,0:0:0:0:
448,64,144457,1,8,0:0:0:0:
397,63,144543,1,8,0:0:0:0:
367,68,144629,1,8,0:0:0:0:
64,64,144802,1,0,0:0:0:0:
448,64,145147,1,8,0:0:0:0:
64,64,145319,1,0,0:0:0:0:
64,64,145405,1,0,0:0:0:0:
64,64,145578,1,0,0:0:0:0:
64,64,145664,1,0,0:0:0:0:
448,64,145836,1,8,0:0:0:0:
64,64,146095,1,0,0:0:0:0:
64,64,146267,1,0,0:0:0:0:
448,64,146526,1,8,0:0:0:0:
448,64,146612,1,8,0:0:0:0:
64,64,146871,1,0,0:0:0:0:
448,64,147043,1,8,0:0:0:0:
448,64,147129,1,8,0:0:0:0:
448,64,147388,1,8,0:0:0:0:
64,64,147560,1,0,0:0:0:0:
448,64,147905,1,8,0:0:0:0:
64,64,148078,1,0,0:0:0:0:
64,64,148164,1,0,0:0:0:0:
64,64,148250,1,0,0:0:0:0:
64,64,148336,1,0,0:0:0:0:
448,64,148595,1,8,0:0:0:0:
64,64,148853,1,0,0:0:0:0:
64,64,149026,1,0,0:0:0:0:
448,64,149285,1,8,0:0:0:0:
448,64,149371,1,8,0:0:0:0:
448,64,149457,1,8,0:0:0:0:
64,64,149629,1,0,0:0:0:0:
448,64,150147,1,8,0:0:0:0:
64,64,150319,1,0,0:0:0:0:
64,64,150491,1,0,0:0:0:0:
448,64,150664,1,8,0:0:0:0:
448,64,150836,1,8,0:0:0:0:
64,64,151009,1,0,0:0:0:0:
448,64,151181,1,8,0:0:0:0:
448,64,151353,1,8,0:0:0:0:
335,78,151612,1,0,0:0:0:0:
217,95,151785,1,0,0:0:0:0:
448,64,152043,1,8,0:0:0:0:
64,64,152216,1,0,0:0:0:0:
64,64,152302,1,0,0:0:0:0:
64,64,152388,1,0,0:0:0:0:
64,64,152560,1,0,0:0:0:0:
448,64,152733,1,8,0:0:0:0:
448,64,152905,1,8,0:0:0:0:
64,64,153078,1,0,0:0:0:0:
448,64,153422,1,8,0:0:0:0:
448,64,153509,1,8,0:0:0:0:
448,64,153595,1,8,0:0:0:0:
64,64,153767,1,0,0:0:0:0:
448,64,153940,1,8,0:0:0:0:
448,64,154112,1,8,0:0:0:0:
64,64,154457,1,0,0:0:0:0:
448,64,154629,1,8,0:0:0:0:
448,64,154802,1,8,0:0:0:0:
448,64,155147,1,8,0:0:0:0:
346,168,155491,1,8,0:0:0:0:
64,320,155836,1,4,0:0:0:0:
256,192,166871,12,0,177560,0:0:0:0:
64,64,177905,5,0,0:0:0:0:
448,320,178250,1,12,0:0:0:0:
64,64,178509,1,0,0:0:0:0:
64,64,178767,1,0,0:0:0:0:
448,64,178940,1,8,0:0:0:0:
64,64,179285,1,0,0:0:0:0:
448,320,179629,1,12,0:0:0:0:
448,64,179888,1,8,0:0:0:0:
64,64,180147,1,0,0:0:0:0:
448,64,180319,1,8,0:0:0:0:
64,64,180664,1,0,0:0:0:0:
448,320,181009,1,12,0:0:0:0:
64,64,181267,1,0,0:0:0:0:
64,64,181526,1,0,0:0:0:0:
448,64,181698,1,8,0:0:0:0:
64,64,182043,1,0,0:0:0:0:
448,320,182388,1,12,0:0:0:0:
448,64,182647,1,8,0:0:0:0:
64,64,182905,1,0,0:0:0:0:
448,64,183078,1,8,0:0:0:0:
64,64,183422,1,0,0:0:0:0:
448,320,183767,1,12,0:0:0:0:
64,64,184285,1,0,0:0:0:0:
448,64,184457,1,8,0:0:0:0:
64,64,184802,1,0,0:0:0:0:
448,320,185147,1,12,0:0:0:0:
448,64,185405,1,8,0:0:0:0:
64,64,185664,1,0,0:0:0:0:
448,64,185836,1,8,0:0:0:0:
64,64,186181,1,0,0:0:0:0:
448,320,186526,1,12,0:0:0:0:
64,64,186785,1,0,0:0:0:0:
64,64,187043,1,0,0:0:0:0:
448,64,187216,1,8,0:0:0:0:
64,64,187560,1,0,0:0:0:0:
448,320,187905,1,12,0:0:0:0:
64,64,188422,1,0,0:0:0:0:
448,64,188595,1,8,0:0:0:0:
64,64,188940,1,0,0:0:0:0:
448,64,189285,1,8,0:0:0:0:
64,64,189457,1,0,0:0:0:0:
64,64,189543,1,0,0:0:0:0:
64,64,189629,1,0,0:0:0:0:
448,64,189974,1,8,0:0:0:0:
64,64,190147,1,0,0:0:0:0:
64,64,190319,1,0,0:0:0:0:
448,64,190664,1,8,0:0:0:0:
64,64,190836,1,0,0:0:0:0:
64,64,190922,1,0,0:0:0:0:
64,64,191009,1,0,0:0:0:0:
448,64,191353,1,8,0:0:0:0:
64,64,191698,1,0,0:0:0:0:
448,64,192043,1,8,0:0:0:0:
64,64,192216,1,0,0:0:0:0:
64,64,192302,1,0,0:0:0:0:
64,64,192388,1,0,0:0:0:0:
448,64,192733,1,8,0:0:0:0:
64,64,192905,1,0,0:0:0:0:
64,64,193078,1,0,0:0:0:0:
448,64,193422,1,8,0:0:0:0:
64,64,193595,1,0,0:0:0:0:
64,64,193681,1,0,0:0:0:0:
64,64,193767,1,0,0:0:0:0:
448,64,194112,1,8,0:0:0:0:
64,64,194457,1,0,0:0:0:0:
64,64,194629,1,0,0:0:0:0:
448,64,194802,1,8,0:0:0:0:
64,64,194974,1,0,0:0:0:0:
64,64,195147,1,0,0:0:0:0:
448,64,195491,1,8,0:0:0:0:
64,64,195836,1,0,0:0:0:0:
64,64,196009,1,8,0:0:0:0:
448,64,196181,1,8,0:0:0:0:
64,64,196353,1,0,0:0:0:0:
64,64,196526,1,0,0:0:0:0:
448,64,196871,1,8,0:0:0:0:
0,384,197216,6,0,L|512:384,1,671.848788558484
64,64,199974,1,0,0:0:0:0:
448,64,200319,1,8,0:0:0:0:
448,64,200578,1,8,0:0:0:0:
448,64,200750,1,8,0:0:0:0:
448,64,200922,1,8,0:0:0:0:
448,64,201009,1,8,0:0:0:0:
448,64,201181,1,8,0:0:0:0:
64,64,201353,1,0,0:0:0:0:
448,64,201526,1,8,0:0:0:0:
448,64,201698,1,8,0:0:0:0:
64,64,201871,1,0,0:0:0:0:
448,64,202388,1,8,0:0:0:0:
64,64,202733,1,0,0:0:0:0:
448,64,203078,1,8,0:0:0:0:
64,64,203336,1,0,0:0:0:0:
64,64,203509,1,0,0:0:0:0:
448,64,203767,1,8,0:0:0:0:
64,64,204026,1,0,0:0:0:0:
64,64,204112,1,0,0:0:0:0:
448,64,204457,1,8,0:0:0:0:
64,64,204716,1,0,0:0:0:0:
64,64,204888,1,0,0:0:0:0:
448,64,205060,1,8,0:0:0:0:
448,64,205147,1,8,0:0:0:0:
64,64,205491,1,0,0:0:0:0:
448,64,205836,1,8,0:0:0:0:
448,64,206095,1,8,0:0:0:0:
448,64,206267,1,8,0:0:0:0:
448,64,206440,1,8,0:0:0:0:
448,64,206526,1,8,0:0:0:0:
64,64,206698,1,0,0:0:0:0:
64,64,206871,1,0,0:0:0:0:
448,64,207043,1,8,0:0:0:0:
448,64,207216,1,8,0:0:0:0:
64,64,207388,1,0,0:0:0:0:
448,64,207905,1,8,0:0:0:0:
64,64,208250,1,0,0:0:0:0:
448,64,208595,1,8,0:0:0:0:
64,64,208853,1,0,0:0:0:0:
64,64,209026,1,0,0:0:0:0:
448,64,209285,1,8,0:0:0:0:
64,64,209543,1,0,0:0:0:0:
64,64,209629,1,0,0:0:0:0:
448,64,209974,1,8,0:0:0:0:
64,64,210233,1,0,0:0:0:0:
64,64,210405,1,0,0:0:0:0:
448,64,210578,1,8,0:0:0:0:
448,64,210664,1,8,0:0:0:0:
64,64,211009,1,0,0:0:0:0:
448,64,211353,1,8,0:0:0:0:
448,64,211612,1,8,0:0:0:0:
448,64,211785,1,8,0:0:0:0:
448,64,211957,1,8,0:0:0:0:
448,64,212043,1,8,0:0:0:0:
64,64,212216,1,8,0:0:0:0:
64,64,212388,1,0,0:0:0:0:
448,64,212560,1,8,0:0:0:0:
448,64,212733,1,8,0:0:0:0:
64,64,212905,1,0,0:0:0:0:
448,64,213422,1,8,0:0:0:0:
64,64,213767,1,0,0:0:0:0:
448,64,214112,1,8,0:0:0:0:
448,64,214285,1,8,0:0:0:0:
448,64,214371,1,8,0:0:0:0:
448,64,214543,1,8,0:0:0:0:
448,64,214802,1,8,0:0:0:0:
64,64,215060,1,0,0:0:0:0:
64,64,215147,1,0,0:0:0:0:
448,64,215491,1,8,0:0:0:0:
64,64,215750,1,0,0:0:0:0:
64,64,215922,1,0,0:0:0:0:
448,64,216095,1,8,0:0:0:0:
448,64,216181,1,8,0:0:0:0:
64,64,216526,1,0,0:0:0:0:
448,64,216871,1,8,0:0:0:0:
448,64,217129,1,8,0:0:0:0:
448,64,217302,1,8,0:0:0:0:
448,64,217474,1,8,0:0:0:0:
448,64,217560,1,8,0:0:0:0:
448,64,217733,1,0,0:0:0:0:
64,64,217905,1,0,0:0:0:0:
448,64,218078,1,8,0:0:0:0:
448,64,218250,1,8,0:0:0:0:
64,64,218422,1,0,0:0:0:0:
448,64,218940,1,8,0:0:0:0:
64,64,219285,1,0,0:0:0:0:
448,64,219629,1,8,0:0:0:0:
64,64,219888,1,0,0:0:0:0:
64,64,220060,1,0,0:0:0:0:
448,64,220319,1,8,0:0:0:0:
64,64,220578,1,0,0:0:0:0:
64,64,220664,1,0,0:0:0:0:
448,64,221009,1,8,0:0:0:0:
64,64,221267,1,0,0:0:0:0:
64,64,221440,1,0,0:0:0:0:
448,64,221612,1,8,0:0:0:0:
448,64,221698,1,8,0:0:0:0:
