osu file format v14

[General]
AudioFilename: audio.mp3
AudioLeadIn: 0
PreviewTime: 111655
Countdown: 0
SampleSet: Normal
StackLeniency: 0.7
Mode: 1
LetterboxInBreaks: 0
WidescreenStoryboard: 1

[Editor]
Bookmarks: 1353,23422,45491,89628,111697,155835,177904,199973
DistanceSpacing: 1
BeatDivisor: 4
GridSize: 32
TimelineZoom: 4.299998

[Metadata]
Title:Shuu no Hazama
TitleUnicode:驟雨の狭間
Artist:Silentroom
ArtistUnicode:Silentroom
Creator:Ulqui
Version:Inner Oni
Source:FRENZ2019
Tags:featured artist fa electronic instrumental neurofunk dnb drum n' bass drum and bass rainshower
BeatmapID:4183321
BeatmapSetID:2010473

[Difficulty]
HPDrainRate:5
CircleSize:5
OverallDifficulty:6
ApproachRate:5
SliderMultiplier:1.4
SliderTickRate:1

[Events]
//Background and Video events
0,0,"bg.png",0,0
//Break Periods
2,156036,165671
//Storyboard Layer 0 (Background)
//Storyboard Layer 1 (Fail)
//Storyboard Layer 2 (Pass)
//Storyboard Layer 3 (Foreground)
//Storyboard Layer 4 (Overlay)
//Storyboard Sound Samples

[TimingPoints]
1354,344.827586206896,4,1,0,70,1,0
1354,-142.857142857143,4,1,0,70,0,0
1439,-142.852554613169,4,1,0,70,0,0
1525,-142.838792337009,4,1,0,70,0,0
1611,-142.815863392818,4,1,0,70,0,0
1697,-142.783780043759,4,1,0,70,0,0
2732,-141.690758079998,4,1,0,70,0,0
2904,-141.386076976994,4,1,0,70,0,0
2990,-141.221089234051,4,1,0,70,0,0
3077,-141.045717793553,4,1,0,70,0,0
4111,-138.345504419254,4,1,0,70,0,0
4197,-138.073104147716,4,1,0,70,0,0
4284,-137.790640863626,4,1,0,70,0,0
4370,-137.504739465368,4,1,0,70,0,0
4456,-137.212324636951,4,1,0,70,0,0
5490,-133.237167665672,4,1,0,70,0,0
5663,-132.499344706964,4,1,0,70,0,0
5749,-132.125905165601,4,1,0,70,0,0
5835,-131.748238527667,4,1,0,70,0,0
6870,-126.92482035141,4,1,0,70,0,0
7042,-126.08348722943,4,1,0,70,0,0
7128,-125.659613383072,4,1,0,70,0,0
7215,-125.228817005841,4,1,0,70,0,0
8249,-120.001912453092,4,1,0,70,0,0
8421,-119.121781435794,4,1,0,70,0,0
8508,-118.676302330719,4,1,0,70,0,0
8594,-118.235889233923,4,1,0,70,0,0
9628,-112.971980284916,4,1,0,70,0,0
9715,-112.534470304234,4,1,0,70,0,0
9801,-112.103196420171,4,1,0,70,0,0
9887,-111.673197371112,4,1,0,70,0,0
9973,-111.244545478618,4,1,0,70,0,0
11008,-106.215364634968,4,1,0,70,0,0
11180,-105.406859785656,4,1,0,70,0,0
11266,-105.005904061614,4,1,0,70,0,0
11352,-104.607205241562,4,1,0,70,0,0
12387,-100,4,1,0,70,0,0
12473,-99.6340652906283,4,1,0,70,0,0
12559,-99.2708532314558,4,1,0,70,0,0
12646,-98.9062121893905,4,1,0,70,0,0
12732,-98.5485473922534,4,1,0,70,0,0
13766,-94.471827519641,4,1,0,70,0,0
13939,-93.8311026707754,4,1,0,70,0,0
14025,-93.5170890484906,4,1,0,70,0,0
14111,-93.2060728306998,4,1,0,70,0,0
15146,-89.7001966380729,4,1,0,70,0,0
15232,-89.4286991762518,4,1,0,70,0,0
15318,-89.1602487349383,4,1,0,70,0,0
15404,-88.894845149264,4,1,0,70,0,0
15490,-88.6324878594598,4,1,0,70,0,0
16525,-85.7133099995698,4,1,0,70,0,0
16697,-85.2706104333566,4,1,0,70,0,0
16784,-85.051260322589,4,1,0,70,0,0
16870,-84.8374447628984,4,1,0,70,0,0
17904,-82.4992634182236,4,1,0,70,0,0
17990,-82.323960010653,4,1,0,70,0,0
18077,-82.1495845629874,4,1,0,70,0,0
18163,-81.9801394022846,4,1,0,70,0,0
18249,-81.8135970086669,4,1,0,70,0,0
19284,-80.034659637164,4,1,0,70,0,0
19370,-79.9053826014266,4,1,0,70,0,0
19456,-79.7789215360638,4,1,0,70,0,0
19542,-79.6552705671546,4,1,0,70,0,0
19628,-79.5344238884411,4,1,0,70,0,0
20663,-78.2979877293582,4,1,0,70,0,0
20835,-78.1311479082819,4,1,0,70,0,0
20921,-78.0518217818528,4,1,0,70,0,0
21008,-77.9743444378796,4,1,0,70,0,0
22042,-77.26556146279,4,1,0,70,0,0
22387,-77.1155279752663,4,1,0,70,0,0
23422,-100,4,1,0,70,0,0
23766,-90.9090909090909,4,1,0,70,0,0
23767,-90.9090909090909,4,1,0,70,0,1
24802,-90.9090909090909,4,1,0,70,0,0
25147,-90.9090909090909,4,1,0,70,0,1
26181,-90.9090909090909,4,1,0,70,0,0
26526,-90.9090909090909,4,1,0,70,0,1
27560,-90.9090909090909,4,1,0,70,0,0
27905,-90.9090909090909,4,1,0,70,0,1
28940,-90.9090909090909,4,1,0,70,0,0
29285,-90.9090909090909,4,1,0,70,0,1
30319,-90.9090909090909,4,1,0,70,0,0
30664,-90.9090909090909,4,1,0,70,0,1
31698,-90.9090909090909,4,1,0,70,0,0
32043,-90.9090909090909,4,1,0,70,0,1
33078,-90.9090909090909,4,1,0,70,0,0
33422,-90.9090909090909,4,1,0,70,0,1
34457,-111.111111111111,4,1,0,70,0,0
34715,-109.58686440678,4,1,0,70,0,0
34801,-109.089950437625,4,1,0,70,0,0
34973,-108.109520326053,4,1,0,70,0,0
35059,-107.625884311278,4,1,0,70,0,0
35146,-107.14100771581,4,1,0,70,0,0
35404,-105.728448055598,4,1,0,70,0,0
35490,-105.265835665225,4,1,0,70,0,0
35663,-104.347387532782,4,1,0,70,0,0
35835,-103.45,4,1,0,70,0,0
36094,-102.127449528605,4,1,0,70,0,0
36180,-101.695748341116,4,1,0,70,0,0
36353,-100.838288332196,4,1,0,70,0,0
36439,-100.417394680645,4,1,0,70,0,0
36525,-100,4,1,0,70,0,0
36784,-98.763664136713,4,1,0,70,0,0
36870,-98.3598763964821,4,1,0,70,0,0
37042,-97.5621257132079,4,1,0,70,0,0
37215,-96.7726847521048,4,1,0,70,0,0
37473,-95.6188187448008,4,1,0,70,0,0
37559,-95.240287239919,4,1,0,70,0,0
37732,-94.4878293830205,4,1,0,70,0,0
37818,-94.1181822317245,4,1,0,70,0,0
37904,-93.7514160134125,4,1,0,70,0,0
38163,-92.6639197420279,4,1,0,70,0,0
38249,-92.308378691889,4,1,0,70,0,0
38421,-91.6054192862835,4,1,0,70,0,0
38594,-90.9090909090909,4,1,0,70,0,0
38853,-89.8861760361456,4,1,0,70,0,0
38939,-89.5515927977839,4,1,0,70,0,0
39111,-88.8898436157415,4,1,0,70,0,0
39197,-88.5626230630939,4,1,0,70,0,0
39284,-88.2340398311229,4,1,0,70,0,0
39542,-87.2738009870502,4,1,0,70,0,0
39628,-86.9583490942714,4,1,0,70,0,0
39801,-86.330635066344,4,1,0,70,0,0
39973,-85.7154693843732,4,1,0,70,0,0
40146,-85.1055077948254,4,1,0,70,0,0
40318,-84.5076175305314,4,1,0,70,0,0
40490,-83.9180693571284,4,1,0,70,0,0
40577,-83.6229892490502,4,1,0,70,0,0
40663,-83.3333333333333,4,1,0,70,0,0
40835,-82.76,4,1,0,70,0,0
41008,-82.1912366424343,4,1,0,70,0,0
41180,-81.633458275794,4,1,0,70,0,0
41352,-81.0831994356703,4,1,0,70,0,0
41525,-80.5371739976645,4,1,0,70,0,0
41697,-80.0015466707911,4,1,0,70,0,0
41870,-79.4699443057423,4,1,0,70,0,0
41956,-79.2082998353815,4,1,0,70,0,0
42042,-78.9483725722135,4,1,0,70,0,0
42215,-78.4306292645944,4,1,0,70,0,0
42387,-77.9225670382645,4,1,0,70,0,0
42559,-77.4210447537794,4,1,0,70,0,0
42732,-76.9230769230769,4,1,0,70,0,0
44112,-76.9230769230769,4,1,0,20,0,0
45491,-111.111111111111,4,1,0,70,0,0
62042,-111.111111111111,4,1,0,70,0,0
62301,-109.802137821242,4,1,0,70,0,0
62387,-109.374292057451,4,1,0,70,0,0
62559,-108.52852582835,4,1,0,70,0,0
62646,-108.105687416032,4,1,0,70,0,0
62990,-106.465555261533,4,1,0,70,0,0
63077,-106.058609024208,4,1,0,70,0,0
63249,-105.263157894737,4,1,0,70,0,0
63335,-104.869890090795,4,1,0,70,0,0
63421,-104.479549880978,4,1,0,70,0,0
63508,-104.087616419455,4,1,0,70,0,0
63594,-103.321349084061,4,1,0,70,0,0
63766,-102.942430703625,4,1,0,70,0,0
63939,-102.188545062016,4,1,0,70,0,0
64025,-101.817875068539,4,1,0,70,0,0
64370,-100.357528893323,4,1,0,70,0,0
64456,-100,4,1,0,70,0,0
64628,-99.2925304376439,4,1,0,70,0,0
64801,-98.5909740657545,4,1,0,70,0,0
65059,-97.5629470961484,4,1,0,70,0,0
65146,-97.221103503826,4,1,0,70,0,0
65318,-96.5522758179346,4,1,0,70,0,0
65404,-96.2213010204081,4,1,0,70,0,0
65749,-94.9160539456611,4,1,0,70,0,0
65835,-94.5961832360202,4,1,0,70,0,0
66008,-93.9592090923244,4,1,0,70,0,0
66094,-93.6457444332376,4,1,0,70,0,0
66180,-93.3343643674606,4,1,0,70,0,0
66266,-93.0250481695568,4,1,0,70,0,0
66353,-92.4089882479041,4,1,0,70,0,0
66525,-92.105765195162,4,1,0,70,0,0
66697,-91.5052499905235,4,1,0,70,0,0
66784,-100.178445449641,4,1,0,70,0,0
66870,-90.9090909090909,4,1,0,70,0,0
66956,-93.0201161063858,4,1,0,70,0,0
67042,-95.2315134761576,4,1,0,70,0,0
67128,-97.550615885601,4,1,0,70,0,0
67215,-100.014515894905,4,1,0,70,0,0
67301,-102.575554563049,4,1,0,70,0,0
67387,-105.271199388846,4,1,0,70,0,0
67474,-108.112348972227,4,1,0,70,0,0
67559,-111.111111111111,4,1,0,70,0,0
67647,-90.9090909090909,4,1,0,70,0,0
67905,-90.9090909090909,4,1,0,80,0,1
89543,-111.111111111111,4,1,0,80,0,1
89629,-111.111111111111,4,1,0,70,0,0
93724,-111.111111111111,4,1,0,70,0,0
94069,-114.285714285714,4,1,0,70,0,0
94328,-116.790792146242,4,1,0,70,0,0
94500,-118.515973892133,4,1,0,70,0,0
94673,-120.303373725046,4,1,0,70,0,0
94759,-121.212121212121,4,1,0,70,0,0
95103,-111.111111111111,4,1,0,70,0,0
99284,-111.111111111111,4,1,0,70,0,0
99628,-108.114464915719,4,1,0,70,0,0
99887,-105.962809282311,4,1,0,70,0,0
100059,-104.580615804641,4,1,0,70,0,0
100232,-103.226289392919,4,1,0,70,0,0
100318,-102.566009669022,4,1,0,70,0,0
100663,-100,4,1,0,70,0,0
100921,-99.3803736971036,4,1,0,70,0,0
101008,-99.1731575793889,4,1,0,70,0,0
101180,-98.7660214335155,4,1,0,70,0,0
101353,-98.3598763964821,4,1,0,70,0,0
101697,-97.5621257132079,4,1,0,70,0,0
101870,-97.1658017704933,4,1,0,70,0,0
102042,-96.7749479641713,4,1,0,70,0,0
102301,-96.1922915988656,4,1,0,70,0,0
102387,-96.0003711952487,4,1,0,70,0,0
102559,-95.6188187448008,4,1,0,70,0,0
102732,-95.2380952380952,4,1,0,70,0,0
103077,-94.4878293830205,4,1,0,70,0,0
103421,-93.7514160134125,4,1,0,70,0,0
103680,-93.2044957992657,4,1,0,70,0,0
103766,-93.0243014185194,4,1,0,70,0,0
103939,-92.6639197420279,4,1,0,70,0,0
104111,-92.308378691889,4,1,0,70,0,0
104456,-91.6033914063711,4,1,0,70,0,0
104628,-91.2559267835484,4,1,0,70,0,0
104801,-90.9090909090909,4,1,0,70,0,0
105059,-90.3967144355121,4,1,0,70,0,0
105146,-90.225236029043,4,1,0,70,0,0
105318,-89.888128597806,4,1,0,70,0,0
105490,-89.5535308503041,4,1,0,70,0,0
105835,-88.8898436157415,4,1,0,70,0,0
106180,-88.2359212742819,4,1,0,70,0,0
106353,-87.9116209900149,4,1,0,70,0,0
106525,-87.5915498920452,4,1,0,70,0,0
106697,-87.2738009870502,4,1,0,70,0,0
106870,-86.9565217391304,4,1,0,70,0,0
107215,-86.330635066344,4,1,0,70,0,0
107559,-85.7154693843732,4,1,0,70,0,0
107732,-85.4093995748106,4,1,0,70,0,0
107904,-85.1072581806215,4,1,0,70,0,0
108077,-84.8055088740419,4,1,0,70,0,0
108249,-84.5076175305314,4,1,0,70,0,0
108594,-83.9163675447669,4,1,0,70,0,0
108939,-83.3333333333333,4,1,0,70,0,0
109025,-84.2085979482169,4,1,0,70,0,0
109111,-85.1024438410269,4,1,0,70,0,0
109197,-86.0154690618762,4,1,0,70,0,0
109284,-86.9592634632362,4,1,0,70,0,0
109370,-87.9127884737983,4,1,0,70,0,0
109456,-88.8874564909114,4,1,0,70,0,0
109542,-89.8839786207796,4,1,0,70,0,0
109628,-90.9030982201714,4,1,0,70,0,0
109715,-91.9578554281142,4,1,0,70,0,0
109801,-93.0248246087426,4,1,0,70,0,0
109887,-94.1168441168441,4,1,0,70,0,0
109973,-95.2348066298343,4,1,0,70,0,0
110059,-96.3796477495108,4,1,0,70,0,0
110146,-97.5661525399745,4,1,0,70,0,0
110232,-98.7680848016043,4,1,0,70,0,0
110319,-100,4,3,0,40,0,0
111698,-90.9090909090909,4,1,0,80,0,9
133078,-90.9090909090909,4,1,0,80,0,8
133767,-90.9090909090909,4,1,0,80,0,9
155836,-90.9090909090909,4,1,0,80,0,8
155922,-111.111111111111,4,1,0,40,0,8
177818,-100,4,1,0,40,0,8
177991,-90.9090909090909,4,1,0,70,0,8
178250,-90.9090909090909,4,1,0,70,0,1
179285,-90.9090909090909,4,1,0,70,0,0
179629,-90.9090909090909,4,1,0,70,0,1
180664,-90.9090909090909,4,1,0,70,0,0
181009,-90.9090909090909,4,1,0,70,0,1
182043,-90.9090909090909,4,1,0,70,0,0
182388,-90.9090909090909,4,1,0,70,0,1
183422,-90.9090909090909,4,1,0,70,0,0
183767,-90.9090909090909,4,1,0,70,0,1
184802,-90.9090909090909,4,1,0,70,0,0
185147,-90.9090909090909,4,1,0,70,0,1
186181,-90.9090909090909,4,1,0,70,0,0
186526,-90.9090909090909,4,1,0,70,0,1
187560,-90.9090909090909,4,1,0,70,0,0
187905,-90.9090909090909,4,1,0,70,0,1
188940,-111.111111111111,4,1,0,70,0,8
189197,-109.58686440678,4,1,0,70,0,8
189283,-109.089950437625,4,1,0,70,0,8
189455,-108.109520326053,4,1,0,70,0,8
189542,-107.620286085826,4,1,0,70,0,8
189628,-107.14100771581,4,1,0,70,0,8
189886,-105.728448055598,4,1,0,70,0,8
189973,-105.26048026048,4,1,0,70,0,8
190145,-104.347387532782,4,1,0,70,0,8
190318,-103.444827758612,4,1,0,70,0,8
190576,-102.127449528605,4,1,0,70,0,8
190662,-101.695748341116,4,1,0,70,0,8
190835,-100.838288332196,4,1,0,70,0,8
190921,-100.417394680645,4,1,0,70,0,8
191007,-100,4,1,0,70,0,8
191266,-98.763664136713,4,1,0,70,0,8
191352,-98.3598763964821,4,1,0,70,0,8
191524,-97.5621257132079,4,1,0,70,0,8
191697,-96.7726847521048,4,1,0,70,0,8
191955,-95.6188187448008,4,1,0,70,0,8
192042,-95.2359033371692,4,1,0,70,0,8
192214,-94.4878293830205,4,1,0,70,0,8
192300,-94.1181822317245,4,1,0,70,0,8
192386,-93.7514160134125,4,1,0,70,0,8
192645,-92.6639197420279,4,1,0,70,0,8
192731,-92.308378691889,4,1,0,70,0,8
192904,-91.6013636162394,4,1,0,70,0,8
193076,-90.9090909090909,4,1,0,70,0,8
193335,-89.8861760361456,4,1,0,70,0,8
193421,-89.5515927977839,4,1,0,70,0,8
193593,-88.8898436157415,4,1,0,70,0,8
193680,-88.5588323417369,4,1,0,70,0,8
193766,-88.2340398311229,4,1,0,70,0,8
194024,-87.2738009870502,4,1,0,70,0,8
194111,-86.9546944607884,4,1,0,70,0,8
194283,-86.330635066344,4,1,0,70,0,8
194455,-85.7154693843732,4,1,0,70,0,8
194628,-85.1055077948254,4,1,0,70,0,8
194800,-84.5076175305314,4,1,0,70,0,8
194973,-83.9146658014276,4,1,0,70,0,8
195059,-83.6229892490502,4,1,0,70,0,8
195145,-83.3333333333333,4,1,0,70,0,8
195318,-82.7566897324107,4,1,0,70,0,8
195490,-82.1912366424343,4,1,0,70,0,8
195662,-81.633458275794,4,1,0,70,0,8
195835,-81.0800219452935,4,1,0,70,0,8
196007,-80.5371739976645,4,1,0,70,0,8
196180,-79.9984533890113,4,1,0,70,0,8
196352,-79.4699443057423,4,1,0,70,0,8
196438,-79.2082998353815,4,1,0,70,0,8
196524,-78.9483725722135,4,1,0,70,0,8
196697,-78.4306292645944,4,1,0,70,0,8
196869,-77.9225670382645,4,1,0,70,0,8
197042,-77.4181478016838,4,1,0,70,0,8
197214,-76.9230769230769,4,1,0,70,0,8
198595,-76.9230769230769,4,1,0,20,0,8
199974,-111.111111111111,4,1,0,70,0,8
209628,-111.111111111111,4,1,0,70,0,8
209800,-112.672603970913,4,1,0,70,0,8
209973,-114.288082214487,4,1,0,70,0,8
210231,-116.785230352304,4,1,0,70,0,8
210404,-118.521701761925,4,1,0,70,0,8
210576,-120.300095960918,4,1,0,70,0,8
210662,-121.209457677771,4,1,0,70,0,8
211007,-111.111111111111,4,1,0,70,0,8
219283,-111.111111111111,4,1,0,70,0,8
219628,-109.588496981252,4,1,0,70,0,8
219800,-108.844879280417,4,1,0,70,0,8
219886,-108.47684202249,4,1,0,70,0,8
220059,-107.743976256492,4,1,0,70,0,8
220231,-107.025097947942,4,1,0,70,0,8
220318,-106.665120235058,4,1,0,70,0,8
220490,-105.960519241109,4,1,0,70,0,8
220576,-105.611698055428,4,1,0,70,0,8
220662,-105.265165967188,4,1,0,70,0,8
221007,-103.897571078893,4,1,0,70,0,8
221266,-102.894010591482,4,1,0,70,0,8
221438,-102.238197583932,4,1,0,70,0,8
221611,-101.586950918664,4,1,0,70,0,8
221697,-101.266287392182,4,1,0,70,0,8
222042,-100,4,1,0,70,0,8

[HitObjects]
64,64,1354,5,0,0:0:0:0:
448,64,1440,1,8,0:0:0:0:
448,64,1526,1,8,0:0:0:0:
448,64,1612,1,8,0:0:0:0:
64,64,1698,1,0,0:0:0:0:
64,64,2733,1,0,0:0:0:0:
448,64,2905,1,8,0:0:0:0:
448,64,2991,1,8,0:0:0:0:
64,64,3078,1,0,0:0:0:0:
64,64,4112,1,0,0:0:0:0:
448,64,4198,1,8,0:0:0:0:
448,64,4285,1,8,0:0:0:0:
448,64,4371,1,8,0:0:0:0:
64,64,4457,1,0,0:0:0:0:
64,64,5491,1,0,0:0:0:0:
448,64,5664,1,8,0:0:0:0:
448,64,5750,1,8,0:0:0:0:
64,64,5836,1,0,0:0:0:0:
64,64,6871,1,0,0:0:0:0:
448,64,7043,1,8,0:0:0:0:
448,64,7129,1,8,0:0:0:0:
64,64,7216,1,0,0:0:0:0:
64,64,8250,1,0,0:0:0:0:
448,64,8422,1,8,0:0:0:0:
448,64,8509,1,8,0:0:0:0:
64,64,8595,1,0,0:0:0:0:
64,64,9629,1,0,0:0:0:0:
448,64,9716,1,8,0:0:0:0:
448,64,9802,1,8,0:0:0:0:
448,64,9888,1,8,0:0:0:0:
64,64,9974,1,0,0:0:0:0:
64,64,11009,1,0,0:0:0:0:
448,64,11181,1,8,0:0:0:0:
448,64,11267,1,8,0:0:0:0:
64,64,11353,1,0,0:0:0:0:
64,64,12388,1,0,0:0:0:0:
448,64,12474,1,8,0:0:0:0:
64,64,12560,1,0,0:0:0:0:
448,64,12647,1,8,0:0:0:0:
64,64,12733,1,0,0:0:0:0:
64,64,13767,1,0,0:0:0:0:
448,64,13940,1,8,0:0:0:0:
64,64,14026,1,0,0:0:0:0:
64,64,14112,1,0,0:0:0:0:
64,64,15147,1,0,0:0:0:0:
448,64,15233,1,8,0:0:0:0:
64,64,15319,1,0,0:0:0:0:
448,64,15405,1,8,0:0:0:0:
64,64,15491,1,0,0:0:0:0:
64,64,16526,1,0,0:0:0:0:
448,64,16698,1,8,0:0:0:0:
64,64,16785,1,0,0:0:0:0:
64,64,16871,1,0,0:0:0:0:
64,64,17905,1,0,0:0:0:0:
64,64,17991,1,0,0:0:0:0:
64,64,18078,1,0,0:0:0:0:
448,64,18164,1,8,0:0:0:0:
448,64,18250,1,8,0:0:0:0:
448,64,19285,1,8,0:0:0:0:
448,64,19371,1,8,0:0:0:0:
64,64,19457,1,0,0:0:0:0:
64,64,19543,1,0,0:0:0:0:
64,64,19629,1,0,0:0:0:0:
64,64,20664,1,0,0:0:0:0:
448,64,20836,1,8,0:0:0:0:
64,64,20922,1,0,0:0:0:0:
64,64,21009,1,0,0:0:0:0:
64,64,22043,1,0,0:0:0:0:
64,64,22388,1,0,0:0:0:0:
64,64,23422,1,0,0:0:0:0:
448,320,23767,1,12,0:0:0:0:
448,64,24026,1,8,0:0:0:0:
64,64,24285,1,0,0:0:0:0:
448,64,24457,1,8,0:0:0:0:
448,64,24543,1,8,0:0:0:0:
64,64,24802,1,0,0:0:0:0:
448,64,24974,1,0,0:0:0:0:
448,320,25147,1,12,0:0:0:0:
448,64,25405,1,8,0:0:0:0:
64,64,25491,1,0,0:0:0:0:
448,64,25578,1,8,0:0:0:0:
64,64,25664,1,0,0:0:0:0:
448,64,25836,1,8,0:0:0:0:
448,64,25922,1,8,0:0:0:0:
64,64,26181,1,0,0:0:0:0:
448,320,26526,1,12,0:0:0:0:
448,64,26785,1,8,0:0:0:0:
64,64,27043,1,0,0:0:0:0:
448,64,27216,1,8,0:0:0:0:
64,64,27560,1,0,0:0:0:0:
64,64,27733,1,0,0:0:0:0:
448,320,27905,1,12,0:0:0:0:
448,64,28164,1,8,0:0:0:0:
448,64,28250,1,8,0:0:0:0:
64,64,28336,1,0,0:0:0:0:
64,64,28422,1,0,0:0:0:0:
448,64,28595,1,8,0:0:0:0:
448,64,28681,1,8,0:0:0:0:
64,64,28940,1,0,0:0:0:0:
448,320,29285,1,12,0:0:0:0:
448,64,29543,1,8,0:0:0:0:
64,64,29802,1,0,0:0:0:0:
448,64,29974,1,8,0:0:0:0:
448,64,30060,1,8,0:0:0:0:
64,64,30319,1,0,0:0:0:0:
448,64,30491,1,0,0:0:0:0:
448,320,30664,1,12,0:0:0:0:
64,64,30922,1,0,0:0:0:0:
64,64,31009,1,0,0:0:0:0:
448,64,31095,1,8,0:0:0:0:
448,64,31181,1,8,0:0:0:0:
448,64,31353,1,8,0:0:0:0:
448,64,31440,1,8,0:0:0:0:
64,64,31698,1,0,0:0:0:0:
448,320,32043,1,12,0:0:0:0:
448,64,32302,1,8,0:0:0:0:
64,64,32560,1,0,0:0:0:0:
448,64,32733,1,8,0:0:0:0:
64,64,33078,1,0,0:0:0:0:
64,64,33250,1,0,0:0:0:0:
448,320,33422,1,12,0:0:0:0:
64,64,33681,1,0,0:0:0:0:
448,64,33767,1,8,0:0:0:0:
64,64,33853,1,0,0:0:0:0:
448,64,33940,1,8,0:0:0:0:
448,64,34112,1,8,0:0:0:0:
448,64,34198,1,8,0:0:0:0:
64,64,34457,1,0,0:0:0:0:
64,64,34716,1,0,0:0:0:0:
448,64,34802,1,8,0:0:0:0:
64,64,34974,1,0,0:0:0:0:
448,64,35060,1,8,0:0:0:0:
64,64,35147,1,0,0:0:0:0:
64,64,35405,1,0,0:0:0:0:
448,64,35491,1,8,0:0:0:0:
64,64,35664,1,0,0:0:0:0:
64,64,35836,1,0,0:0:0:0:
64,64,36095,1,0,0:0:0:0:
448,64,36181,1,8,0:0:0:0:
64,64,36353,1,0,0:0:0:0:
64,64,36440,1,0,0:0:0:0:
64,64,36526,1,0,0:0:0:0:
64,64,36785,1,0,0:0:0:0:
448,64,36871,1,8,0:0:0:0:
448,64,37043,1,8,0:0:0:0:
64,64,37216,1,0,0:0:0:0:
64,64,37474,1,0,0:0:0:0:
448,64,37560,1,8,0:0:0:0:
64,64,37733,1,0,0:0:0:0:
448,64,37819,1,8,0:0:0:0:
64,64,37905,1,0,0:0:0:0:
64,64,38164,1,0,0:0:0:0:
448,64,38250,1,8,0:0:0:0:
64,64,38422,1,0,0:0:0:0:
64,64,38595,1,0,0:0:0:0:
64,64,38853,1,0,0:0:0:0:
448,64,38940,1,8,0:0:0:0:
64,64,39112,1,0,0:0:0:0:
64,64,39198,1,0,0:0:0:0:
64,64,39285,1,0,0:0:0:0:
64,64,39543,1,0,0:0:0:0:
448,64,39629,1,8,0:0:0:0:
64,64,39802,1,0,0:0:0:0:
64,64,39974,1,0,0:0:0:0:
64,64,40147,1,0,0:0:0:0:
448,64,40319,1,8,0:0:0:0:
64,64,40491,1,0,0:0:0:0:
448,64,40578,1,8,0:0:0:0:
64,64,40664,1,0,0:0:0:0:
64,64,40836,1,0,0:0:0:0:
448,64,41009,1,8,0:0:0:0:
448,64,41181,1,8,0:0:0:0:
64,64,41353,1,0,0:0:0:0:
64,64,41526,1,0,0:0:0:0:
448,64,41698,1,8,0:0:0:0:
64,64,41871,1,0,0:0:0:0:
448,64,41957,1,8,0:0:0:0:
64,64,42043,1,0,0:0:0:0:
64,64,42216,1,0,0:0:0:0:
448,64,42388,1,8,0:0:0:0:
448,64,42560,1,8,0:0:0:0:
64,64,42733,1,0,0:0:0:0:
64,64,42819,1,0,0:0:0:0:
64,64,42905,1,0,0:0:0:0:
64,64,42991,1,0,0:0:0:0:
448,64,43078,1,8,0:0:0:0:
448,64,43164,1,8,0:0:0:0:
448,64,43250,1,8,0:0:0:0:
448,64,43336,1,8,0:0:0:0:
64,64,43422,1,0,0:0:0:0:
64,64,43509,1,0,0:0:0:0:
64,64,43595,1,0,0:0:0:0:
64,64,43681,1,0,0:0:0:0:
448,64,43767,1,8,0:0:0:0:
448,64,43853,1,8,0:0:0:0:
448,64,43940,1,8,0:0:0:0:
448,64,44026,1,8,0:0:0:0:
64,64,45491,1,0,0:0:0:0:
64,64,45750,1,0,0:0:0:0:
448,64,45836,1,8,0:0:0:0:
448,64,46009,1,8,0:0:0:0:
64,64,46095,1,0,0:0:0:0:
64,64,46440,1,0,0:0:0:0:
448,64,46526,1,8,0:0:0:0:
448,64,46698,1,8,0:0:0:0:
64,64,46785,1,0,0:0:0:0:
64,64,46957,1,0,0:0:0:0:
64,64,47129,1,0,0:0:0:0:
448,64,47216,1,8,0:0:0:0:
448,64,47388,1,8,0:0:0:0:
64,64,47474,1,0,0:0:0:0:
64,64,47819,1,0,0:0:0:0:
448,64,47905,1,8,0:0:0:0:
448,64,48078,1,8,0:0:0:0:
448,64,48164,1,8,0:0:0:0:
64,64,48250,1,0,0:0:0:0:
64,64,48509,1,0,0:0:0:0:
448,64,48595,1,8,0:0:0:0:
448,64,48767,1,8,0:0:0:0:
64,64,48853,1,0,0:0:0:0:
64,64,49198,1,0,0:0:0:0:
448,64,49285,1,8,0:0:0:0:
448,64,49457,1,8,0:0:0:0:
64,64,49543,1,0,0:0:0:0:
448,64,49716,1,8,0:0:0:0:
224,160,49802,1,0,0:0:0:0:
64,64,49888,1,0,0:0:0:0:
448,64,49974,1,8,0:0:0:0:
448,64,50147,1,8,0:0:0:0:
64,64,50233,1,0,0:0:0:0:
64,64,50578,1,0,0:0:0:0:
448,64,50664,1,8,0:0:0:0:
448,64,50836,1,8,0:0:0:0:
64,64,51009,1,0,0:0:0:0:
64,64,51267,1,0,0:0:0:0:
448,64,51353,1,8,0:0:0:0:
448,64,51526,1,8,0:0:0:0:
64,64,51612,1,0,0:0:0:0:
64,64,51957,1,0,0:0:0:0:
448,64,52043,1,8,0:0:0:0:
448,64,52216,1,8,0:0:0:0:
64,64,52302,1,0,0:0:0:0:
64,64,52474,1,0,0:0:0:0:
224,160,52560,1,0,0:0:0:0:
64,64,52647,1,0,0:0:0:0:
448,64,52733,1,8,0:0:0:0:
448,64,52905,1,8,0:0:0:0:
64,64,52991,1,0,0:0:0:0:
64,64,53336,1,0,0:0:0:0:
448,64,53422,1,8,0:0:0:0:
448,64,53595,1,8,0:0:0:0:
448,64,53681,1,8,0:0:0:0:
64,64,53767,1,0,0:0:0:0:
64,64,54026,1,0,0:0:0:0:
448,64,54112,1,8,0:0:0:0:
448,64,54285,1,8,0:0:0:0:
64,64,54371,1,0,0:0:0:0:
64,64,54716,1,0,0:0:0:0:
448,64,54802,1,8,0:0:0:0:
448,64,54974,1,8,0:0:0:0:
64,64,55060,1,0,0:0:0:0:
448,64,55233,1,8,0:0:0:0:
64,64,55405,1,0,0:0:0:0:
448,64,55491,1,8,0:0:0:0:
64,64,55664,1,8,0:0:0:0:
448,64,55750,1,8,0:0:0:0:
64,64,56095,1,0,0:0:0:0:
448,64,56181,1,8,0:0:0:0:
448,64,56353,1,8,0:0:0:0:
64,64,56526,1,0,0:0:0:0:
64,64,56785,1,0,0:0:0:0:
448,64,56871,1,8,0:0:0:0:
448,64,57043,1,8,0:0:0:0:
64,64,57129,1,0,0:0:0:0:
64,64,57474,1,0,0:0:0:0:
448,64,57560,1,8,0:0:0:0:
448,64,57733,1,8,0:0:0:0:
64,64,57819,1,0,0:0:0:0:
64,64,57991,1,0,0:0:0:0:
64,64,58164,1,0,0:0:0:0:
448,64,58250,1,8,0:0:0:0:
448,64,58422,1,8,0:0:0:0:
64,64,58509,1,0,0:0:0:0:
64,64,58853,1,0,0:0:0:0:
448,64,58940,1,8,0:0:0:0:
448,64,59112,1,8,0:0:0:0:
448,64,59198,1,8,0:0:0:0:
64,64,59285,1,0,0:0:0:0:
64,64,59543,1,0,0:0:0:0:
448,64,59629,1,8,0:0:0:0:
448,64,59802,1,8,0:0:0:0:
64,64,59888,1,0,0:0:0:0:
64,64,60233,1,0,0:0:0:0:
448,64,60319,1,8,0:0:0:0:
448,64,60491,1,8,0:0:0:0:
64,64,60578,1,0,0:0:0:0:
448,64,60750,1,8,0:0:0:0:
224,160,60836,1,0,0:0:0:0:
64,64,60922,1,0,0:0:0:0:
448,64,61009,1,8,0:0:0:0:
448,64,61181,1,8,0:0:0:0:
64,64,61267,1,0,0:0:0:0:
64,64,61612,1,0,0:0:0:0:
448,64,61698,1,8,0:0:0:0:
448,64,61871,1,8,0:0:0:0:
64,64,62043,1,0,0:0:0:0:
64,64,62302,1,0,0:0:0:0:
448,64,62388,1,8,0:0:0:0:
448,64,62560,1,8,0:0:0:0:
64,64,62647,1,0,0:0:0:0:
64,64,62991,1,0,0:0:0:0:
448,64,63078,1,8,0:0:0:0:
448,64,63250,1,8,0:0:0:0:
64,64,63336,1,0,0:0:0:0:
64,64,63509,1,0,0:0:0:0:
256,160,63595,1,0,0:0:0:0:
64,64,63681,1,0,0:0:0:0:
448,64,63767,1,8,0:0:0:0:
448,64,63940,1,8,0:0:0:0:
64,64,64026,1,0,0:0:0:0:
64,64,64371,1,0,0:0:0:0:
448,64,64457,1,8,0:0:0:0:
448,64,64629,1,8,0:0:0:0:
256,160,64716,1,0,0:0:0:0:
64,64,64802,1,0,0:0:0:0:
64,64,65060,1,0,0:0:0:0:
448,64,65147,1,8,0:0:0:0:
448,64,65319,1,8,0:0:0:0:
64,64,65405,1,0,0:0:0:0:
64,64,65750,1,0,0:0:0:0:
448,64,65836,1,8,0:0:0:0:
448,64,66009,1,8,0:0:0:0:
64,64,66095,1,0,0:0:0:0:
448,64,66267,1,8,0:0:0:0:
64,64,66440,1,0,0:0:0:0:
448,64,66526,1,8,0:0:0:0:
64,64,66698,1,0,0:0:0:0:
448,64,66871,1,8,0:0:0:0:
64,64,66957,1,0,0:0:0:0:
448,64,67043,1,8,0:0:0:0:
448,64,67129,1,8,0:0:0:0:
64,64,67216,1,0,0:0:0:0:
448,64,67302,1,8,0:0:0:0:
448,64,67388,1,8,0:0:0:0:
64,64,67474,1,0,0:0:0:0:
64,64,67560,1,0,0:0:0:0:
64,64,67819,1,0,0:0:0:0:
448,64,67905,1,8,0:0:0:0:
64,64,68078,1,0,0:0:0:0:
64,64,68164,1,0,0:0:0:0:
448,64,68336,1,8,0:0:0:0:
64,64,68509,1,0,0:0:0:0:
448,64,68595,1,8,0:0:0:0:
448,64,68767,1,8,0:0:0:0:
64,64,68853,1,0,0:0:0:0:
64,64,69026,1,0,0:0:0:0:
288,160,69112,1,0,0:0:0:0:
448,64,69198,1,0,0:0:0:0:
448,64,69285,1,8,0:0:0:0:
448,64,69457,1,8,0:0:0:0:
64,64,69543,1,0,0:0:0:0:
192,160,69716,1,8,0:0:0:0:
64,64,69888,1,0,0:0:0:0:
448,64,69974,1,8,0:0:0:0:
448,64,70147,1,8,0:0:0:0:
448,64,70233,1,8,0:0:0:0:
64,64,70319,1,0,0:0:0:0:
64,64,70578,1,0,0:0:0:0:
448,64,70664,1,8,0:0:0:0:
448,64,70836,1,8,0:0:0:0:
64,64,70922,1,0,0:0:0:0:
448,64,71095,1,8,0:0:0:0:
64,64,71267,1,0,0:0:0:0:
448,64,71353,1,8,0:0:0:0:
448,64,71526,1,8,0:0:0:0:
64,64,71612,1,0,0:0:0:0:
448,64,71785,1,8,0:0:0:0:
64,64,71871,1,0,0:0:0:0:
64,64,71957,1,0,0:0:0:0:
448,64,72043,1,8,0:0:0:0:
448,64,72216,1,8,0:0:0:0:
64,64,72302,1,0,0:0:0:0:
192,128,72474,1,8,0:0:0:0:
64,64,72647,1,0,0:0:0:0:
448,64,72733,1,8,0:0:0:0:
448,64,72905,1,8,0:0:0:0:
64,64,73078,1,0,0:0:0:0:
64,64,73336,1,0,0:0:0:0:
448,64,73422,1,8,0:0:0:0:
64,64,73595,1,0,0:0:0:0:
64,64,73681,1,0,0:0:0:0:
448,64,73853,1,8,0:0:0:0:
64,64,74026,1,0,0:0:0:0:
448,64,74112,1,8,0:0:0:0:
448,64,74285,1,8,0:0:0:0:
64,64,74371,1,0,0:0:0:0:
64,64,74543,1,0,0:0:0:0:
192,96,74629,1,0,0:0:0:0:
448,64,74716,1,0,0:0:0:0:
448,64,74802,1,8,0:0:0:0:
448,64,74974,1,8,0:0:0:0:
64,64,75060,1,0,0:0:0:0:
192,96,75233,1,8,0:0:0:0:
64,64,75405,1,0,0:0:0:0:
448,64,75491,1,8,0:0:0:0:
448,64,75664,1,8,0:0:0:0:
448,64,75750,1,8,0:0:0:0:
64,64,75836,1,0,0:0:0:0:
64,64,76095,1,0,0:0:0:0:
448,64,76181,1,8,0:0:0:0:
448,64,76353,1,8,0:0:0:0:
64,64,76440,1,0,0:0:0:0:
448,64,76612,1,8,0:0:0:0:
64,64,76785,1,0,0:0:0:0:
448,64,76871,1,8,0:0:0:0:
448,64,77043,1,8,0:0:0:0:
64,64,77129,1,0,0:0:0:0:
448,64,77302,1,8,0:0:0:0:
64,64,77388,1,0,0:0:0:0:
64,64,77474,1,0,0:0:0:0:
448,64,77560,1,8,0:0:0:0:
64,64,77733,1,0,0:0:0:0:
448,64,77819,1,8,0:0:0:0:
160,64,77991,1,0,0:0:0:0:
64,64,78164,1,8,0:0:0:0:
448,64,78250,1,8,0:0:0:0:
448,64,78422,1,8,0:0:0:0:
64,64,78595,1,0,0:0:0:0:
64,64,78853,1,0,0:0:0:0:
448,64,78940,1,8,0:0:0:0:
448,64,79112,1,8,0:0:0:0:
64,64,79198,1,0,0:0:0:0:
192,96,79371,1,8,0:0:0:0:
64,64,79543,1,0,0:0:0:0:
448,64,79629,1,8,0:0:0:0:
448,64,79802,1,8,0:0:0:0:
64,64,79888,1,0,0:0:0:0:
64,64,80060,1,0,0:0:0:0:
192,64,80147,1,0,0:0:0:0:
448,64,80233,1,0,0:0:0:0:
448,64,80319,1,8,0:0:0:0:
448,64,80491,1,8,0:0:0:0:
64,64,80578,1,0,0:0:0:0:
448,64,80750,1,8,0:0:0:0:
64,64,80922,1,0,0:0:0:0:
448,64,81009,1,8,0:0:0:0:
448,64,81181,1,8,0:0:0:0:
448,64,81267,1,8,0:0:0:0:
64,64,81353,1,0,0:0:0:0:
64,64,81612,1,0,0:0:0:0:
448,64,81698,1,8,0:0:0:0:
448,64,81871,1,8,0:0:0:0:
64,64,81957,1,0,0:0:0:0:
448,64,82129,1,8,0:0:0:0:
64,64,82302,1,0,0:0:0:0:
448,64,82388,1,8,0:0:0:0:
448,64,82560,1,8,0:0:0:0:
64,64,82647,1,0,0:0:0:0:
448,64,82819,1,8,0:0:0:0:
448,64,82905,1,8,0:0:0:0:
64,64,82991,1,0,0:0:0:0:
448,64,83078,1,8,0:0:0:0:
448,64,83250,1,8,0:0:0:0:
64,64,83336,1,0,0:0:0:0:
192,96,83509,1,8,0:0:0:0:
64,64,83681,1,0,0:0:0:0:
448,64,83767,1,8,0:0:0:0:
448,64,83940,1,8,0:0:0:0:
64,64,84112,1,0,0:0:0:0:
64,64,84371,1,0,0:0:0:0:
448,64,84457,1,8,0:0:0:0:
448,64,84629,1,8,0:0:0:0:
64,64,84716,1,0,0:0:0:0:
448,64,84888,1,8,0:0:0:0:
64,64,85060,1,0,0:0:0:0:
448,64,85147,1,8,0:0:0:0:
448,64,85319,1,8,0:0:0:0:
64,64,85405,1,0,0:0:0:0:
64,64,85578,1,0,0:0:0:0:
192,96,85664,1,0,0:0:0:0:
64,64,85750,1,0,0:0:0:0:
448,64,85836,1,8,0:0:0:0:
448,64,86009,1,8,0:0:0:0:
64,64,86095,1,0,0:0:0:0:
192,96,86267,1,8,0:0:0:0:
64,64,86440,1,0,0:0:0:0:
448,64,86526,1,8,0:0:0:0:
448,64,86698,1,8,0:0:0:0:
192,96,86785,1,0,0:0:0:0:
64,64,86871,1,0,0:0:0:0:
64,64,87043,1,0,0:0:0:0:
64,64,87129,1,0,0:0:0:0:
448,64,87216,1,8,0:0:0:0:
448,64,87388,1,8,0:0:0:0:
64,64,87474,1,0,0:0:0:0:
448,64,87647,1,8,0:0:0:0:
64,64,87819,1,0,0:0:0:0:
448,64,87905,1,8,0:0:0:0:
448,64,88078,1,8,0:0:0:0:
64,64,88164,1,0,0:0:0:0:
448,64,88336,1,8,0:0:0:0:
448,64,88422,1,8,0:0:0:0:
64,64,88509,1,0,0:0:0:0:
448,64,88595,1,8,0:0:0:0:
64,64,88767,1,0,0:0:0:0:
448,64,88853,1,8,0:0:0:0:
64,64,89026,1,0,0:0:0:0:
64,64,89198,1,0,0:0:0:0:
448,64,89285,1,8,0:0:0:0:
64,64,89629,1,0,0:0:0:0:
448,64,89974,1,8,0:0:0:0:
64,64,90147,1,0,0:0:0:0:
448,64,90233,1,8,0:0:0:0:
64,64,90319,1,0,0:0:0:0:
64,64,90405,1,0,0:0:0:0:
448,64,90578,1,8,0:0:0:0:
448,64,90664,1,8,0:0:0:0:
448,64,90836,1,8,0:0:0:0:
448,64,91009,1,8,0:0:0:0:
64,64,91095,1,0,0:0:0:0:
448,64,91181,1,8,0:0:0:0:
64,64,91267,1,0,0:0:0:0:
448,64,91353,1,8,0:0:0:0:
64,64,91526,1,0,0:0:0:0:
448,64,91612,1,8,0:0:0:0:
64,64,91698,1,0,0:0:0:0:
64,64,91785,1,0,0:0:0:0:
448,64,91957,1,8,0:0:0:0:
448,64,92043,1,8,0:0:0:0:
448,64,92216,1,8,0:0:0:0:
64,64,92388,1,0,0:0:0:0:
448,64,92733,1,8,0:0:0:0:
448,64,92991,1,8,0:0:0:0:
64,64,93078,1,0,0:0:0:0:
448,64,93164,1,8,0:0:0:0:
64,64,93336,1,0,0:0:0:0:
448,64,93422,1,8,0:0:0:0:
64,64,93595,1,0,0:0:0:0:
448,64,93681,1,8,0:0:0:0:
64,64,93767,1,0,0:0:0:0:
448,64,94112,1,8,0:0:0:0:
64,64,94371,1,0,0:0:0:0:
64,64,94543,1,0,0:0:0:0:
64,64,94716,1,0,0:0:0:0:
448,64,94802,1,8,0:0:0:0:
64,64,95147,1,0,0:0:0:0:
448,64,95491,1,8,0:0:0:0:
64,64,95664,1,0,0:0:0:0:
448,64,95750,1,8,0:0:0:0:
64,64,95836,1,0,0:0:0:0:
64,64,95922,1,0,0:0:0:0:
64,64,96095,1,0,0:0:0:0:
448,64,96181,1,8,0:0:0:0:
448,64,96353,1,8,0:0:0:0:
448,64,96526,1,8,0:0:0:0:
64,64,96612,1,0,0:0:0:0:
448,64,96698,1,8,0:0:0:0:
64,64,96785,1,0,0:0:0:0:
448,64,96871,1,8,0:0:0:0:
64,64,97043,1,0,0:0:0:0:
448,64,97129,1,8,0:0:0:0:
64,64,97216,1,0,0:0:0:0:
64,64,97302,1,0,0:0:0:0:
64,64,97474,1,0,0:0:0:0:
448,64,97560,1,8,0:0:0:0:
448,64,97733,1,8,0:0:0:0:
64,64,97905,1,0,0:0:0:0:
448,64,98078,1,8,0:0:0:0:
448,64,98250,1,8,0:0:0:0:
448,64,98422,1,8,0:0:0:0:
64,64,98509,1,0,0:0:0:0:
448,64,98681,1,8,0:0:0:0:
64,64,98853,1,0,0:0:0:0:
448,64,98940,1,8,0:0:0:0:
64,64,99112,1,0,0:0:0:0:
448,64,99198,1,8,0:0:0:0:
64,64,99285,1,0,0:0:0:0:
448,64,99629,1,8,0:0:0:0:
64,64,99888,1,0,0:0:0:0:
64,64,100060,1,0,0:0:0:0:
64,64,100233,1,0,0:0:0:0:
448,64,100319,1,8,0:0:0:0:
64,64,100664,1,0,0:0:0:0:
448,64,100922,1,0,0:0:0:0:
448,64,101009,1,8,0:0:0:0:
448,64,101181,1,0,0:0:0:0:
448,64,101267,1,8,0:0:0:0:
448,64,101353,1,0,0:0:0:0:
64,64,101612,1,0,0:0:0:0:
448,64,101698,1,8,0:0:0:0:
448,64,101871,1,8,0:0:0:0:
64,64,101957,1,0,0:0:0:0:
448,64,102043,1,8,0:0:0:0:
448,64,102302,1,0,0:0:0:0:
448,64,102388,1,8,0:0:0:0:
448,64,102560,1,0,0:0:0:0:
448,64,102647,1,8,0:0:0:0:
448,64,102733,1,0,0:0:0:0:
64,64,102991,1,0,0:0:0:0:
448,64,103078,1,8,0:0:0:0:
448,64,103250,1,8,0:0:0:0:
64,64,103336,1,0,0:0:0:0:
448,64,103422,1,8,0:0:0:0:
448,64,103681,1,0,0:0:0:0:
448,64,103767,1,8,0:0:0:0:
448,64,103940,1,0,0:0:0:0:
448,64,104026,1,8,0:0:0:0:
448,64,104112,1,0,0:0:0:0:
64,64,104371,1,0,0:0:0:0:
448,64,104457,1,8,0:0:0:0:
448,64,104629,1,8,0:0:0:0:
64,64,104716,1,0,0:0:0:0:
448,64,104802,1,8,0:0:0:0:
448,64,105060,1,0,0:0:0:0:
448,64,105147,1,8,0:0:0:0:
448,64,105319,1,0,0:0:0:0:
448,64,105405,1,8,0:0:0:0:
448,64,105491,1,0,0:0:0:0:
64,64,105750,1,0,0:0:0:0:
448,64,105836,1,8,0:0:0:0:
448,64,106009,1,8,0:0:0:0:
64,64,106095,1,0,0:0:0:0:
448,64,106181,1,8,0:0:0:0:
64,64,106353,1,0,0:0:0:0:
448,64,106526,1,8,0:0:0:0:
64,64,106698,1,0,0:0:0:0:
64,64,106871,1,0,0:0:0:0:
64,64,107043,1,0,0:0:0:0:
64,64,107129,1,0,0:0:0:0:
448,64,107216,1,8,0:0:0:0:
64,64,107388,1,0,0:0:0:0:
64,64,107560,1,0,0:0:0:0:
64,64,107733,1,0,0:0:0:0:
448,64,107905,1,8,0:0:0:0:
64,64,108078,1,0,0:0:0:0:
64,64,108250,1,0,0:0:0:0:
64,64,108422,1,0,0:0:0:0:
448,64,108595,1,8,0:0:0:0:
64,64,108767,1,0,0:0:0:0:
64,64,108940,1,0,0:0:0:0:
64,64,109026,1,0,0:0:0:0:
64,64,109112,1,0,0:0:0:0:
64,64,109198,1,0,0:0:0:0:
448,64,109285,1,8,0:0:0:0:
448,64,109371,1,8,0:0:0:0:
448,64,109457,1,8,0:0:0:0:
448,64,109543,1,8,0:0:0:0:
64,64,109629,1,0,0:0:0:0:
64,64,109716,1,0,0:0:0:0:
64,64,109802,1,0,0:0:0:0:
64,64,109888,1,0,0:0:0:0:
448,64,109974,1,8,0:0:0:0:
448,64,110060,1,8,0:0:0:0:
448,64,110147,1,8,0:0:0:0:
448,64,110233,1,8,0:0:0:0:
64,64,110319,1,0,0:0:0:0:
64,64,110405,1,0,0:0:0:0:
64,64,110578,1,0,0:0:0:0:
448,64,110664,1,8,0:0:0:0:
448,64,110750,1,8,0:0:0:0:
448,64,110922,1,8,0:0:0:0:
64,64,111009,1,0,0:0:0:0:
64,64,111095,1,0,0:0:0:0:
64,64,111181,1,0,0:0:0:0:
448,64,111353,1,8,0:0:0:0:
448,64,111440,1,8,0:0:0:0:
64,64,111698,1,0,0:0:0:0:
196,77,111785,1,0,0:0:0:0:
448,64,111871,1,8,0:0:0:0:
64,64,111957,1,0,0:0:0:0:
448,64,112043,1,8,0:0:0:0:
448,64,112129,1,8,0:0:0:0:
64,64,112216,1,0,0:0:0:0:
151,158,112302,1,8,0:0:0:0:
448,64,112388,1,8,0:0:0:0:
64,64,112560,1,0,0:0:0:0:
448,64,112733,1,8,0:0:0:0:
64,64,112905,1,0,0:0:0:0:
448,64,112991,1,8,0:0:0:0:
448,64,113078,1,0,0:0:0:0:
64,64,113164,1,0,0:0:0:0:
208,64,113336,1,0,0:0:0:0:
448,64,113422,1,8,0:0:0:0:
448,64,113595,1,0,0:0:0:0:
64,64,113767,1,8,0:0:0:0:
448,64,113853,1,8,0:0:0:0:
64,64,113940,1,0,0:0:0:0:
64,64,114026,1,0,0:0:0:0:
448,64,114112,1,8,0:0:0:0:
64,64,114198,1,0,0:0:0:0:
448,64,114285,1,8,0:0:0:0:
448,64,114371,1,8,0:0:0:0:
64,64,114457,1,0,0:0:0:0:
64,64,114629,1,0,0:0:0:0:
64,64,114716,1,0,0:0:0:0:
448,64,114802,1,8,0:0:0:0:
448,64,114888,1,8,0:0:0:0:
448,64,115060,1,8,0:0:0:0:
64,64,115147,1,0,0:0:0:0:
64,64,115233,1,0,0:0:0:0:
448,64,115319,1,8,0:0:0:0:
448,64,115405,1,8,0:0:0:0:
64,64,115578,1,0,0:0:0:0:
448,64,115664,1,8,0:0:0:0:
64,64,115750,1,0,0:0:0:0:
64,64,115836,1,0,0:0:0:0:
64,64,116009,1,8,0:0:0:0:
64,64,116095,1,8,0:0:0:0:
448,64,116181,1,0,0:0:0:0:
448,64,116267,1,0,0:0:0:0:
64,64,116440,1,0,0:0:0:0:
448,64,116526,1,8,0:0:0:0:
64,64,116612,1,8,0:0:0:0:
448,64,116698,1,0,0:0:0:0:
448,64,116785,1,0,0:0:0:0:
187,99,116871,1,8,0:0:0:0:
64,64,116957,1,0,0:0:0:0:
448,64,117043,1,8,0:0:0:0:
448,64,117129,1,8,0:0:0:0:
64,64,117216,1,0,0:0:0:0:
448,64,117388,1,8,0:0:0:0:
64,64,117474,1,0,0:0:0:0:
448,64,117560,1,8,0:0:0:0:
64,64,117733,1,0,0:0:0:0:
64,64,117819,1,0,0:0:0:0:
448,64,117905,1,8,0:0:0:0:
448,64,117991,1,8,0:0:0:0:
64,64,118078,1,0,0:0:0:0:
448,64,118250,1,8,0:0:0:0:
64,64,118422,1,0,0:0:0:0:
448,64,118509,1,8,0:0:0:0:
448,64,118595,1,8,0:0:0:0:
64,64,118681,1,0,0:0:0:0:
64,64,118767,1,0,0:0:0:0:
448,64,118940,1,8,0:0:0:0:
448,64,119112,1,8,0:0:0:0:
64,64,119198,1,0,0:0:0:0:
448,64,119285,1,8,0:0:0:0:
448,64,119371,1,8,0:0:0:0:
64,64,119457,1,0,0:0:0:0:
64,64,119543,1,0,0:0:0:0:
448,64,119629,1,8,0:0:0:0:
448,64,119716,1,8,0:0:0:0:
64,64,119802,1,0,0:0:0:0:
448,64,119888,1,8,0:0:0:0:
64,64,119974,1,0,0:0:0:0:
64,64,120147,1,0,0:0:0:0:
64,64,120233,1,0,0:0:0:0:
448,64,120319,1,8,0:0:0:0:
448,64,120405,1,8,0:0:0:0:
448,64,120578,1,8,0:0:0:0:
64,64,120664,1,0,0:0:0:0:
64,64,120750,1,0,0:0:0:0:
448,64,120836,1,8,0:0:0:0:
448,64,120922,1,8,0:0:0:0:
64,64,121095,1,0,0:0:0:0:
448,64,121181,1,8,0:0:0:0:
64,64,121267,1,0,0:0:0:0:
64,64,121353,1,0,0:0:0:0:
448,64,121440,1,8,0:0:0:0:
448,64,121612,1,8,0:0:0:0:
448,64,121698,1,8,0:0:0:0:
64,64,121785,1,0,0:0:0:0:
448,64,121871,1,8,0:0:0:0:
64,64,122043,1,0,0:0:0:0:
64,64,122216,1,0,0:0:0:0:
64,64,122302,1,0,0:0:0:0:
448,64,122388,1,8,0:0:0:0:
64,64,122474,1,0,0:0:0:0:
448,64,122560,1,8,0:0:0:0:
448,64,122647,1,8,0:0:0:0:
64,64,122733,1,0,0:0:0:0:
448,64,122905,1,8,0:0:0:0:
448,64,122991,1,0,0:0:0:0:
64,64,123078,1,8,0:0:0:0:
192,67,123164,1,8,0:0:0:0:
64,64,123250,1,0,0:0:0:0:
64,64,123336,1,0,0:0:0:0:
448,64,123422,1,8,0:0:0:0:
203,51,123509,1,8,0:0:0:0:
64,64,123595,1,0,0:0:0:0:
448,64,123767,1,8,0:0:0:0:
64,64,123940,1,0,0:0:0:0:
448,64,124026,1,8,0:0:0:0:
64,64,124112,1,0,0:0:0:0:
64,64,124198,1,0,0:0:0:0:
448,64,124285,1,8,0:0:0:0:
64,64,124371,1,0,0:0:0:0:
448,64,124457,1,8,0:0:0:0:
448,64,124543,1,8,0:0:0:0:
448,64,124716,1,8,0:0:0:0:
64,64,124802,1,0,0:0:0:0:
448,64,124888,1,8,0:0:0:0:
64,64,124974,1,0,0:0:0:0:
64,64,125060,1,0,0:0:0:0:
448,64,125147,1,8,0:0:0:0:
64,64,125233,1,0,0:0:0:0:
448,64,125319,1,8,0:0:0:0:
448,64,125405,1,8,0:0:0:0:
64,64,125491,1,0,0:0:0:0:
448,64,125664,1,8,0:0:0:0:
64,64,125750,1,0,0:0:0:0:
448,64,125836,1,8,0:0:0:0:
64,64,126009,1,0,0:0:0:0:
64,64,126095,1,0,0:0:0:0:
448,64,126181,1,8,0:0:0:0:
64,64,126267,1,0,0:0:0:0:
64,64,126440,1,0,0:0:0:0:
448,64,126526,1,8,0:0:0:0:
64,64,126698,1,0,0:0:0:0:
448,64,126785,1,8,0:0:0:0:
64,64,126871,1,0,0:0:0:0:
64,64,126957,1,0,0:0:0:0:
448,64,127129,1,8,0:0:0:0:
448,64,127216,1,8,0:0:0:0:
64,64,127302,1,0,0:0:0:0:
448,64,127388,1,8,0:0:0:0:
64,64,127560,1,0,0:0:0:0:
448,64,127733,1,8,0:0:0:0:
64,64,127819,1,0,0:0:0:0:
64,64,127905,1,8,0:0:0:0:
448,64,127991,1,8,0:0:0:0:
448,64,128078,1,0,0:0:0:0:
448,64,128164,1,8,0:0:0:0:
64,64,128250,1,0,0:0:0:0:
448,64,128422,1,8,0:0:0:0:
64,64,128509,1,0,0:0:0:0:
448,64,128595,1,8,0:0:0:0:
64,64,128767,1,0,0:0:0:0:
64,64,128853,1,0,0:0:0:0:
448,64,128940,1,8,0:0:0:0:
448,64,129026,1,8,0:0:0:0:
64,64,129112,1,0,0:0:0:0:
448,64,129285,1,8,0:0:0:0:
64,64,129457,1,0,0:0:0:0:
448,64,129543,1,8,0:0:0:0:
448,64,129629,1,8,0:0:0:0:
64,64,129716,1,0,0:0:0:0:
64,64,129802,1,0,0:0:0:0:
448,64,129974,1,8,0:0:0:0:
448,64,130147,1,0,0:0:0:0:
448,64,130233,1,8,0:0:0:0:
64,64,130319,1,8,0:0:0:0:
448,64,130405,1,0,0:0:0:0:
64,64,130491,1,8,0:0:0:0:
448,64,130664,1,8,0:0:0:0:
64,64,130750,1,0,0:0:0:0:
448,64,130836,1,8,0:0:0:0:
448,64,130922,1,8,0:0:0:0:
64,64,131009,1,0,0:0:0:0:
448,64,131181,1,8,0:0:0:0:
64,64,131267,1,0,0:0:0:0:
448,64,131353,1,8,0:0:0:0:
448,64,131440,1,8,0:0:0:0:
64,64,131526,1,0,0:0:0:0:
448,64,131612,1,8,0:0:0:0:
64,64,131698,1,0,0:0:0:0:
64,64,131785,1,0,0:0:0:0:
448,64,131871,1,8,0:0:0:0:
448,64,132043,1,8,0:0:0:0:
448,64,132216,1,8,0:0:0:0:
64,64,132302,1,0,0:0:0:0:
64,64,132388,1,0,0:0:0:0:
448,64,132474,1,8,0:0:0:0:
64,64,132647,1,0,0:0:0:0:
448,64,132733,1,8,0:0:0:0:
448,64,132819,1,8,0:0:0:0:
64,64,132905,1,0,0:0:0:0:
448,64,133078,1,4,0:0:0:0:
448,64,133250,1,8,0:0:0:0:
64,64,133336,1,0,0:0:0:0:
448,64,133422,1,8,0:0:0:0:
64,64,133509,1,0,0:0:0:0:
64,64,133595,1,0,0:0:0:0:
448,64,133681,1,8,0:0:0:0:
64,64,133767,1,0,0:0:0:0:
196,77,133853,1,0,0:0:0:0:
448,64,133940,1,8,0:0:0:0:
64,64,134026,1,0,0:0:0:0:
448,64,134112,1,8,0:0:0:0:
448,64,134198,1,8,0:0:0:0:
64,64,134285,1,0,0:0:0:0:
151,158,134371,1,8,0:0:0:0:
448,64,134457,1,8,0:0:0:0:
64,64,134629,1,0,0:0:0:0:
448,64,134802,1,8,0:0:0:0:
64,64,134974,1,0,0:0:0:0:
448,64,135060,1,8,0:0:0:0:
448,64,135147,1,0,0:0:0:0:
64,64,135233,1,0,0:0:0:0:
208,64,135405,1,0,0:0:0:0:
448,64,135491,1,8,0:0:0:0:
448,64,135664,1,0,0:0:0:0:
64,64,135836,1,8,0:0:0:0:
448,64,135922,1,8,0:0:0:0:
64,64,136009,1,0,0:0:0:0:
64,64,136095,1,0,0:0:0:0:
448,64,136181,1,8,0:0:0:0:
64,64,136267,1,0,0:0:0:0:
448,64,136353,1,8,0:0:0:0:
448,64,136440,1,8,0:0:0:0:
64,64,136526,1,0,0:0:0:0:
64,64,136698,1,0,0:0:0:0:
64,64,136785,1,0,0:0:0:0:
448,64,136871,1,8,0:0:0:0:
448,64,136957,1,8,0:0:0:0:
448,64,137129,1,8,0:0:0:0:
64,64,137216,1,0,0:0:0:0:
64,64,137302,1,0,0:0:0:0:
448,64,137388,1,8,0:0:0:0:
448,64,137474,1,8,0:0:0:0:
64,64,137647,1,0,0:0:0:0:
448,64,137733,1,8,0:0:0:0:
64,64,137819,1,0,0:0:0:0:
64,64,137905,1,0,0:0:0:0:
64,64,138078,1,8,0:0:0:0:
64,64,138164,1,8,0:0:0:0:
448,64,138250,1,0,0:0:0:0:
448,64,138336,1,0,0:0:0:0:
64,64,138509,1,0,0:0:0:0:
448,64,138595,1,8,0:0:0:0:
64,64,138681,1,8,0:0:0:0:
448,64,138767,1,0,0:0:0:0:
448,64,138853,1,0,0:0:0:0:
187,99,138940,1,8,0:0:0:0:
64,64,139026,1,0,0:0:0:0:
448,64,139112,1,8,0:0:0:0:
448,64,139198,1,8,0:0:0:0:
64,64,139285,1,0,0:0:0:0:
448,64,139457,1,8,0:0:0:0:
64,64,139543,1,0,0:0:0:0:
448,64,139629,1,8,0:0:0:0:
64,64,139802,1,0,0:0:0:0:
64,64,139888,1,0,0:0:0:0:
448,64,139974,1,8,0:0:0:0:
448,64,140060,1,8,0:0:0:0:
64,64,140147,1,0,0:0:0:0:
448,64,140319,1,8,0:0:0:0:
64,64,140491,1,0,0:0:0:0:
448,64,140578,1,8,0:0:0:0:
448,64,140664,1,8,0:0:0:0:
64,64,140750,1,0,0:0:0:0:
64,64,140836,1,0,0:0:0:0:
448,64,141009,1,8,0:0:0:0:
448,64,141181,1,8,0:0:0:0:
64,64,141267,1,0,0:0:0:0:
448,64,141353,1,8,0:0:0:0:
448,64,141440,1,8,0:0:0:0:
64,64,141526,1,0,0:0:0:0:
64,64,141612,1,0,0:0:0:0:
448,64,141698,1,8,0:0:0:0:
448,64,141785,1,8,0:0:0:0:
64,64,141871,1,0,0:0:0:0:
448,64,141957,1,8,0:0:0:0:
64,64,142043,1,0,0:0:0:0:
64,64,142216,1,0,0:0:0:0:
64,64,142302,1,0,0:0:0:0:
448,64,142388,1,8,0:0:0:0:
448,64,142474,1,8,0:0:0:0:
448,64,142647,1,8,0:0:0:0:
64,64,142733,1,0,0:0:0:0:
64,64,142819,1,0,0:0:0:0:
448,64,142905,1,8,0:0:0:0:
448,64,142991,1,8,0:0:0:0:
64,64,143164,1,0,0:0:0:0:
448,64,143250,1,8,0:0:0:0:
64,64,143336,1,0,0:0:0:0:
64,64,143422,1,0,0:0:0:0:
448,64,143509,1,8,0:0:0:0:
448,64,143681,1,8,0:0:0:0:
448,64,143767,1,8,0:0:0:0:
64,64,143853,1,0,0:0:0:0:
448,64,143940,1,8,0:0:0:0:
64,64,144112,1,0,0:0:0:0:
64,64,144285,1,0,0:0:0:0:
64,64,144371,1,0,0:0:0:0:
448,64,144457,1,8,0:0:0:0:
64,64,144543,1,0,0:0:0:0:
448,64,144629,1,8,0:0:0:0:
448,64,144716,1,8,0:0:0:0:
64,64,144802,1,0,0:0:0:0:
448,64,144974,1,8,0:0:0:0:
448,64,145060,1,0,0:0:0:0:
64,64,145147,1,8,0:0:0:0:
192,67,145233,1,8,0:0:0:0:
64,64,145319,1,0,0:0:0:0:
64,64,145405,1,0,0:0:0:0:
448,64,145491,1,8,0:0:0:0:
203,51,145578,1,8,0:0:0:0:
64,64,145664,1,0,0:0:0:0:
448,64,145836,1,8,0:0:0:0:
64,64,146009,1,0,0:0:0:0:
448,64,146095,1,8,0:0:0:0:
64,64,146181,1,0,0:0:0:0:
64,64,146267,1,0,0:0:0:0:
448,64,146353,1,8,0:0:0:0:
64,64,146440,1,0,0:0:0:0:
448,64,146526,1,8,0:0:0:0:
448,64,146612,1,8,0:0:0:0:
448,64,146785,1,8,0:0:0:0:
64,64,146871,1,0,0:0:0:0:
448,64,146957,1,8,0:0:0:0:
64,64,147043,1,0,0:0:0:0:
64,64,147129,1,0,0:0:0:0:
448,64,147216,1,8,0:0:0:0:
64,64,147302,1,0,0:0:0:0:
448,64,147388,1,8,0:0:0:0:
448,64,147474,1,8,0:0:0:0:
64,64,147560,1,0,0:0:0:0:
448,64,147733,1,8,0:0:0:0:
64,64,147819,1,0,0:0:0:0:
448,64,147905,1,8,0:0:0:0:
64,64,148078,1,0,0:0:0:0:
64,64,148164,1,0,0:0:0:0:
448,64,148250,1,8,0:0:0:0:
64,64,148336,1,0,0:0:0:0:
64,64,148509,1,0,0:0:0:0:
448,64,148595,1,8,0:0:0:0:
64,64,148767,1,0,0:0:0:0:
448,64,148853,1,8,0:0:0:0:
64,64,148940,1,0,0:0:0:0:
64,64,149026,1,0,0:0:0:0:
448,64,149198,1,8,0:0:0:0:
448,64,149285,1,8,0:0:0:0:
64,64,149371,1,0,0:0:0:0:
448,64,149457,1,8,0:0:0:0:
64,64,149629,1,0,0:0:0:0:
448,64,149802,1,8,0:0:0:0:
64,64,149888,1,0,0:0:0:0:
64,64,149974,1,8,0:0:0:0:
448,64,150060,1,8,0:0:0:0:
448,64,150147,1,0,0:0:0:0:
448,64,150233,1,8,0:0:0:0:
64,64,150319,1,0,0:0:0:0:
448,64,150491,1,8,0:0:0:0:
64,64,150578,1,0,0:0:0:0:
448,64,150664,1,8,0:0:0:0:
64,64,150836,1,0,0:0:0:0:
64,64,150922,1,0,0:0:0:0:
448,64,151009,1,8,0:0:0:0:
448,64,151095,1,8,0:0:0:0:
64,64,151181,1,0,0:0:0:0:
448,64,151353,1,8,0:0:0:0:
64,64,151526,1,0,0:0:0:0:
448,64,151612,1,8,0:0:0:0:
448,64,151698,1,8,0:0:0:0:
64,64,151785,1,0,0:0:0:0:
64,64,151871,1,0,0:0:0:0:
448,64,152043,1,8,0:0:0:0:
448,64,152216,1,0,0:0:0:0:
448,64,152302,1,8,0:0:0:0:
64,64,152388,1,8,0:0:0:0:
448,64,152474,1,0,0:0:0:0:
64,64,152560,1,8,0:0:0:0:
64,64,152647,1,0,0:0:0:0:
448,64,152733,1,8,0:0:0:0:
64,64,152819,1,0,0:0:0:0:
448,64,152905,1,8,0:0:0:0:
448,64,152991,1,8,0:0:0:0:
64,64,153078,1,0,0:0:0:0:
448,64,153250,1,8,0:0:0:0:
64,64,153336,1,0,0:0:0:0:
448,64,153422,1,8,0:0:0:0:
448,64,153509,1,8,0:0:0:0:
64,64,153595,1,0,0:0:0:0:
448,64,153681,1,8,0:0:0:0:
64,64,153767,1,0,0:0:0:0:
64,64,153853,1,0,0:0:0:0:
448,64,153940,1,8,0:0:0:0:
448,64,154112,1,8,0:0:0:0:
448,64,154285,1,8,0:0:0:0:
64,64,154371,1,0,0:0:0:0:
64,64,154457,1,0,0:0:0:0:
448,64,154543,1,8,0:0:0:0:
64,64,154716,1,0,0:0:0:0:
448,64,154802,1,8,0:0:0:0:
448,64,154888,1,8,0:0:0:0:
64,64,154974,1,0,0:0:0:0:
149,68,155060,1,8,0:0:0:0:
448,64,155147,1,0,0:0:0:0:
173,65,155233,1,8,0:0:0:0:
448,64,155319,1,0,0:0:0:0:
64,64,155405,1,0,0:0:0:0:
448,64,155491,1,8,0:0:0:0:
64,64,155664,1,8,0:0:0:0:
448,64,155750,1,8,0:0:0:0:
211,155,155836,1,4,0:0:0:0:
256,192,166871,12,0,177560,0:0:0:0:
64,64,177905,5,0,0:0:0:0:
448,320,178250,1,12,0:0:0:0:
448,64,178509,1,8,0:0:0:0:
64,64,178767,1,0,0:0:0:0:
448,64,178940,1,8,0:0:0:0:
448,64,179026,1,8,0:0:0:0:
64,64,179285,1,0,0:0:0:0:
448,320,179629,1,12,0:0:0:0:
448,64,179888,1,8,0:0:0:0:
64,64,179974,1,0,0:0:0:0:
448,64,180060,1,8,0:0:0:0:
64,64,180147,1,0,0:0:0:0:
448,64,180319,1,8,0:0:0:0:
448,64,180405,1,8,0:0:0:0:
64,64,180664,1,0,0:0:0:0:
448,320,181009,1,12,0:0:0:0:
448,64,181267,1,8,0:0:0:0:
64,64,181526,1,0,0:0:0:0:
448,64,181698,1,8,0:0:0:0:
448,64,181785,1,8,0:0:0:0:
64,64,182043,1,0,0:0:0:0:
64,64,182216,1,0,0:0:0:0:
448,320,182388,1,12,0:0:0:0:
448,64,182647,1,8,0:0:0:0:
448,64,182733,1,8,0:0:0:0:
64,64,182819,1,0,0:0:0:0:
64,64,182905,1,0,0:0:0:0:
448,64,183078,1,8,0:0:0:0:
448,64,183164,1,8,0:0:0:0:
64,64,183422,1,0,0:0:0:0:
448,320,183767,1,12,0:0:0:0:
448,64,184026,1,8,0:0:0:0:
64,64,184285,1,0,0:0:0:0:
448,64,184457,1,8,0:0:0:0:
448,64,184543,1,8,0:0:0:0:
64,64,184802,1,0,0:0:0:0:
448,320,185147,1,12,0:0:0:0:
64,64,185405,1,0,0:0:0:0:
64,64,185491,1,0,0:0:0:0:
448,64,185578,1,8,0:0:0:0:
448,64,185664,1,8,0:0:0:0:
448,64,185836,1,8,0:0:0:0:
448,64,185922,1,8,0:0:0:0:
64,64,186181,1,0,0:0:0:0:
448,320,186526,1,12,0:0:0:0:
448,64,186785,1,8,0:0:0:0:
64,64,187043,1,0,0:0:0:0:
448,64,187216,1,8,0:0:0:0:
448,64,187302,1,8,0:0:0:0:
64,64,187560,1,0,0:0:0:0:
448,320,187905,1,12,0:0:0:0:
64,64,188164,1,0,0:0:0:0:
448,64,188250,1,8,0:0:0:0:
64,64,188336,1,0,0:0:0:0:
448,64,188422,1,8,0:0:0:0:
448,64,188595,1,8,0:0:0:0:
448,64,188681,1,8,0:0:0:0:
64,64,188940,1,0,0:0:0:0:
64,64,189198,1,0,0:0:0:0:
448,64,189285,1,8,0:0:0:0:
64,64,189457,1,0,0:0:0:0:
448,64,189543,1,8,0:0:0:0:
64,64,189629,1,0,0:0:0:0:
64,64,189888,1,0,0:0:0:0:
448,64,189974,1,8,0:0:0:0:
64,64,190147,1,0,0:0:0:0:
64,64,190319,1,0,0:0:0:0:
64,64,190578,1,0,0:0:0:0:
448,64,190664,1,8,0:0:0:0:
64,64,190836,1,0,0:0:0:0:
64,64,190922,1,0,0:0:0:0:
64,64,191009,1,0,0:0:0:0:
64,64,191267,1,0,0:0:0:0:
448,64,191353,1,8,0:0:0:0:
448,64,191526,1,8,0:0:0:0:
64,64,191698,1,0,0:0:0:0:
64,64,191957,1,0,0:0:0:0:
448,64,192043,1,8,0:0:0:0:
64,64,192216,1,0,0:0:0:0:
448,64,192302,1,8,0:0:0:0:
64,64,192388,1,0,0:0:0:0:
64,64,192647,1,0,0:0:0:0:
448,64,192733,1,8,0:0:0:0:
64,64,192905,1,0,0:0:0:0:
64,64,193078,1,0,0:0:0:0:
64,64,193336,1,0,0:0:0:0:
448,64,193422,1,8,0:0:0:0:
64,64,193595,1,0,0:0:0:0:
64,64,193681,1,0,0:0:0:0:
64,64,193767,1,0,0:0:0:0:
64,64,194026,1,0,0:0:0:0:
448,64,194112,1,8,0:0:0:0:
448,64,194285,1,8,0:0:0:0:
64,64,194457,1,0,0:0:0:0:
64,64,194629,1,0,0:0:0:0:
448,64,194802,1,8,0:0:0:0:
448,64,194974,1,8,0:0:0:0:
448,64,195060,1,8,0:0:0:0:
64,64,195147,1,0,0:0:0:0:
64,64,195319,1,0,0:0:0:0:
448,64,195491,1,8,0:0:0:0:
448,64,195664,1,8,0:0:0:0:
64,64,195836,1,0,0:0:0:0:
64,64,196009,1,0,0:0:0:0:
448,64,196181,1,8,0:0:0:0:
448,64,196353,1,8,0:0:0:0:
448,64,196440,1,8,0:0:0:0:
64,64,196526,1,0,0:0:0:0:
64,64,196698,1,0,0:0:0:0:
448,64,196871,1,8,0:0:0:0:
448,64,197043,1,8,0:0:0:0:
64,64,197216,1,0,0:0:0:0:
64,64,197302,1,0,0:0:0:0:
64,64,197388,1,0,0:0:0:0:
64,64,197474,1,0,0:0:0:0:
448,64,197560,1,8,0:0:0:0:
448,64,197647,1,8,0:0:0:0:
448,64,197733,1,8,0:0:0:0:
448,64,197819,1,8,0:0:0:0:
64,64,197905,1,0,0:0:0:0:
64,64,197991,1,0,0:0:0:0:
64,64,198078,1,0,0:0:0:0:
64,64,198164,1,0,0:0:0:0:
448,64,198250,1,8,0:0:0:0:
448,64,198336,1,8,0:0:0:0:
448,64,198422,1,8,0:0:0:0:
448,64,198509,1,8,0:0:0:0:
64,64,199974,1,0,0:0:0:0:
448,64,200319,1,8,0:0:0:0:
64,64,200491,1,0,0:0:0:0:
448,64,200578,1,8,0:0:0:0:
64,64,200664,1,0,0:0:0:0:
64,64,200750,1,0,0:0:0:0:
448,64,200922,1,8,0:0:0:0:
448,64,201009,1,8,0:0:0:0:
448,64,201181,1,8,0:0:0:0:
448,64,201353,1,8,0:0:0:0:
64,64,201440,1,0,0:0:0:0:
448,64,201526,1,8,0:0:0:0:
64,64,201612,1,0,0:0:0:0:
448,64,201698,1,8,0:0:0:0:
64,64,201871,1,0,0:0:0:0:
448,64,201957,1,8,0:0:0:0:
64,64,202043,1,0,0:0:0:0:
64,64,202129,1,0,0:0:0:0:
448,64,202302,1,8,0:0:0:0:
448,64,202388,1,8,0:0:0:0:
448,64,202560,1,8,0:0:0:0:
64,64,202733,1,0,0:0:0:0:
448,64,203078,1,8,0:0:0:0:
64,64,203250,1,0,0:0:0:0:
448,64,203336,1,8,0:0:0:0:
64,64,203422,1,0,0:0:0:0:
64,64,203509,1,0,0:0:0:0:
64,64,203681,1,0,0:0:0:0:
448,64,203767,1,8,0:0:0:0:
64,64,203940,1,0,0:0:0:0:
448,64,204026,1,8,0:0:0:0:
64,64,204112,1,0,0:0:0:0:
448,64,204457,1,8,0:0:0:0:
64,64,204629,1,0,0:0:0:0:
64,64,204716,1,0,0:0:0:0:
64,64,204888,1,0,0:0:0:0:
64,64,205060,1,0,0:0:0:0:
448,64,205147,1,8,0:0:0:0:
64,64,205491,1,0,0:0:0:0:
448,64,205836,1,8,0:0:0:0:
64,64,206009,1,0,0:0:0:0:
448,64,206095,1,8,0:0:0:0:
64,64,206181,1,0,0:0:0:0:
64,64,206267,1,0,0:0:0:0:
64,64,206440,1,0,0:0:0:0:
448,64,206526,1,8,0:0:0:0:
64,64,206698,1,0,0:0:0:0:
448,64,206871,1,8,0:0:0:0:
64,64,206957,1,0,0:0:0:0:
448,64,207043,1,8,0:0:0:0:
64,64,207129,1,0,0:0:0:0:
448,64,207216,1,8,0:0:0:0:
64,64,207388,1,0,0:0:0:0:
448,64,207474,1,8,0:0:0:0:
64,64,207560,1,0,0:0:0:0:
64,64,207647,1,0,0:0:0:0:
64,64,207819,1,0,0:0:0:0:
448,64,207905,1,8,0:0:0:0:
448,64,208078,1,8,0:0:0:0:
64,64,208250,1,0,0:0:0:0:
448,64,208595,1,8,0:0:0:0:
448,64,208767,1,8,0:0:0:0:
64,64,208853,1,0,0:0:0:0:
64,64,208940,1,0,0:0:0:0:
448,64,209026,1,8,0:0:0:0:
64,64,209198,1,0,0:0:0:0:
448,64,209285,1,8,0:0:0:0:
64,64,209457,1,0,0:0:0:0:
448,64,209543,1,8,0:0:0:0:
64,64,209629,1,0,0:0:0:0:
64,64,209802,1,0,0:0:0:0:
448,64,209974,1,8,0:0:0:0:
64,64,210233,1,0,0:0:0:0:
64,64,210405,1,0,0:0:0:0:
64,64,210578,1,0,0:0:0:0:
448,64,210664,1,8,0:0:0:0:
64,64,211009,1,0,0:0:0:0:
448,64,211353,1,8,0:0:0:0:
64,64,211526,1,0,0:0:0:0:
448,64,211612,1,8,0:0:0:0:
64,64,211698,1,0,0:0:0:0:
64,64,211785,1,0,0:0:0:0:
448,64,211957,1,8,0:0:0:0:
448,64,212043,1,8,0:0:0:0:
448,64,212216,1,8,0:0:0:0:
448,64,212388,1,8,0:0:0:0:
64,64,212474,1,0,0:0:0:0:
448,64,212560,1,8,0:0:0:0:
64,64,212647,1,0,0:0:0:0:
448,64,212733,1,8,0:0:0:0:
64,64,212905,1,0,0:0:0:0:
448,64,212991,1,8,0:0:0:0:
64,64,213078,1,0,0:0:0:0:
64,64,213164,1,0,0:0:0:0:
448,64,213336,1,8,0:0:0:0:
448,64,213422,1,8,0:0:0:0:
448,64,213595,1,8,0:0:0:0:
64,64,213767,1,0,0:0:0:0:
448,64,214112,1,8,0:0:0:0:
448,64,214285,1,8,0:0:0:0:
448,64,214371,1,8,0:0:0:0:
64,64,214457,1,0,0:0:0:0:
448,64,214543,1,8,0:0:0:0:
64,64,214716,1,0,0:0:0:0:
448,64,214802,1,8,0:0:0:0:
64,64,214974,1,0,0:0:0:0:
448,64,215060,1,8,0:0:0:0:
64,64,215147,1,0,0:0:0:0:
448,64,215491,1,8,0:0:0:0:
64,64,215664,1,0,0:0:0:0:
64,64,215750,1,0,0:0:0:0:
64,64,215922,1,0,0:0:0:0:
64,64,216095,1,0,0:0:0:0:
448,64,216181,1,8,0:0:0:0:
64,64,216526,1,0,0:0:0:0:
448,64,216871,1,8,0:0:0:0:
64,64,217043,1,0,0:0:0:0:
448,64,217129,1,8,0:0:0:0:
64,64,217216,1,0,0:0:0:0:
64,64,217302,1,0,0:0:0:0:
64,64,217474,1,0,0:0:0:0:
448,64,217560,1,8,0:0:0:0:
448,64,217733,1,8,0:0:0:0:
448,64,217905,1,8,0:0:0:0:
64,64,217991,1,0,0:0:0:0:
448,64,218078,1,8,0:0:0:0:
64,64,218164,1,0,0:0:0:0:
448,64,218250,1,8,0:0:0:0:
64,64,218422,1,0,0:0:0:0:
448,64,218509,1,8,0:0:0:0:
64,64,218595,1,0,0:0:0:0:
64,64,218681,1,0,0:0:0:0:
64,64,218853,1,0,0:0:0:0:
448,64,218940,1,8,0:0:0:0:
448,64,219112,1,8,0:0:0:0:
64,64,219285,1,0,0:0:0:0:
448,64,219629,1,8,0:0:0:0:
448,64,219802,1,8,0:0:0:0:
64,64,219888,1,0,0:0:0:0:
448,64,220060,1,8,0:0:0:0:
64,64,220233,1,0,0:0:0:0:
448,64,220319,1,8,0:0:0:0:
64,64,220491,1,0,0:0:0:0:
448,64,220578,1,8,0:0:0:0:
64,64,220664,1,0,0:0:0:0:
448,64,221009,1,8,0:0:0:0:
64,64,221267,1,0,0:0:0:0:
64,64,221440,1,0,0:0:0:0:
64,64,221612,1,0,0:0:0:0:
448,64,221698,1,8,0:0:0:0:
