osu file format v14

[General]
AudioFilename: audio.mp3
AudioLeadIn: 0
PreviewTime: 111655
Countdown: 0
SampleSet: Normal
StackLeniency: 0.7
Mode: 1
LetterboxInBreaks: 0
WidescreenStoryboard: 1

[Editor]
Bookmarks: 1353,23422,45491,89628,111697,155835,177904,199973
DistanceSpacing: 1
BeatDivisor: 4
GridSize: 32
TimelineZoom: 1.800001

[Metadata]
Title:Shuu no Hazama
TitleUnicode:驟雨の狭間
Artist:Silentroom
ArtistUnicode:Silentroom
Creator:Ulqui
Version:Futsuu
Source:FRENZ2019
Tags:featured artist fa electronic instrumental neurofunk dnb drum n' bass drum and bass rainshower
BeatmapID:4183320
BeatmapSetID:2010473

[Difficulty]
HPDrainRate:7
CircleSize:5
OverallDifficulty:4
ApproachRate:5
SliderMultiplier:1.3
SliderTickRate:1

[Events]
//Background and Video events
0,0,"bg.png",0,0
//Break Periods
2,156036,165671
//Storyboard Layer 0 (Background)
//Storyboard Layer 1 (Fail)
//Storyboard Layer 2 (Pass)
//Storyboard Layer 3 (Foreground)
//Storyboard Layer 4 (Overlay)
//Storyboard Sound Samples

[TimingPoints]
1354,344.827586206896,4,1,0,70,1,0
23767,-100,4,1,0,70,0,1
24802,-100,4,1,0,70,0,0
25147,-100,4,1,0,70,0,1
26181,-100,4,1,0,70,0,0
26526,-100,4,1,0,70,0,1
27560,-100,4,1,0,70,0,0
27905,-100,4,1,0,70,0,1
28940,-100,4,1,0,70,0,0
29285,-100,4,1,0,70,0,1
30319,-100,4,1,0,70,0,0
30664,-100,4,1,0,70,0,1
31698,-100,4,1,0,70,0,0
32043,-100,4,1,0,70,0,1
33078,-100,4,1,0,70,0,0
33422,-100,4,1,0,70,0,1
34457,-100,4,1,0,70,0,0
44112,-100,4,1,0,20,0,0
67905,-100,4,1,0,80,0,1
89629,-100,4,1,0,70,0,0
110319,-100,4,3,0,40,0,0
111698,-100,4,1,0,80,0,9
133078,-100,4,1,0,80,0,8
133767,-100,4,1,0,80,0,9
155836,-100,4,1,0,80,0,8
155879,-100,4,1,0,40,0,8
177905,-100,4,1,0,70,0,8
178250,-100,4,1,0,70,0,1
179285,-100,4,1,0,70,0,0
179629,-100,4,1,0,70,0,1
180664,-100,4,1,0,70,0,0
181009,-100,4,1,0,70,0,1
182043,-100,4,1,0,70,0,0
182388,-100,4,1,0,70,0,1
183422,-100,4,1,0,70,0,0
183767,-100,4,1,0,70,0,1
184802,-100,4,1,0,70,0,0
185147,-100,4,1,0,70,0,1
186181,-100,4,1,0,70,0,0
186526,-100,4,1,0,70,0,1
187560,-100,4,1,0,70,0,0
187905,-100,4,1,0,70,0,1
188940,-100,4,1,0,70,0,0
198595,-100,4,1,0,20,0,0
199974,-100,4,1,0,70,0,0

[HitObjects]
64,64,1354,5,0,0:0:0:0:
448,64,1526,1,8,0:0:0:0:
448,64,1698,1,0,0:0:0:0:
64,64,2733,1,8,0:0:0:0:
64,64,3078,1,0,0:0:0:0:
64,64,4112,1,0,0:0:0:0:
448,64,4285,1,8,0:0:0:0:
64,64,4457,1,0,0:0:0:0:
64,64,5491,1,0,0:0:0:0:
64,64,5836,1,8,0:0:0:0:
64,64,6871,1,0,0:0:0:0:
448,64,7043,1,8,0:0:0:0:
64,64,7216,1,0,0:0:0:0:
64,64,8250,1,8,0:0:0:0:
64,64,8595,1,0,0:0:0:0:
64,64,9629,1,0,0:0:0:0:
448,64,9802,1,8,0:0:0:0:
448,64,9974,1,0,0:0:0:0:
64,64,11009,1,0,0:0:0:0:
64,64,11353,1,8,0:0:0:0:
64,64,12388,1,0,0:0:0:0:
64,64,12560,1,0,0:0:0:0:
448,64,12733,1,8,0:0:0:0:
64,64,13767,1,0,0:0:0:0:
64,64,14112,1,8,0:0:0:0:
64,64,15147,1,8,0:0:0:0:
448,64,15319,1,0,0:0:0:0:
448,64,15491,1,0,0:0:0:0:
64,64,16526,1,8,0:0:0:0:
64,64,16871,1,0,0:0:0:0:
64,64,17905,1,8,0:0:0:0:
448,64,18078,1,0,0:0:0:0:
64,64,18250,1,0,0:0:0:0:
64,64,19285,1,0,0:0:0:0:
64,64,19629,1,0,0:0:0:0:
64,64,20664,1,0,0:0:0:0:
448,64,20836,1,8,0:0:0:0:
64,64,21009,1,0,0:0:0:0:
64,64,22043,1,0,0:0:0:0:
64,64,22388,1,0,0:0:0:0:
64,64,23422,1,0,0:0:0:0:
448,320,23767,1,12,0:0:0:0:
448,64,24457,1,8,0:0:0:0:
64,64,24802,1,0,0:0:0:0:
448,320,25147,1,12,0:0:0:0:
64,64,25491,1,0,0:0:0:0:
64,64,25664,1,0,0:0:0:0:
448,64,25836,1,8,0:0:0:0:
64,64,26181,1,0,0:0:0:0:
448,320,26526,1,12,0:0:0:0:
448,64,27216,1,8,0:0:0:0:
64,64,27560,1,0,0:0:0:0:
448,320,27905,1,12,0:0:0:0:
448,64,28250,1,8,0:0:0:0:
64,64,28422,1,0,0:0:0:0:
448,64,28595,1,8,0:0:0:0:
64,64,28940,1,0,0:0:0:0:
448,320,29285,1,12,0:0:0:0:
448,64,29974,1,8,0:0:0:0:
64,64,30319,1,0,0:0:0:0:
448,320,30664,1,12,0:0:0:0:
64,64,31009,1,0,0:0:0:0:
448,64,31181,1,8,0:0:0:0:
448,64,31353,1,8,0:0:0:0:
64,64,31698,1,0,0:0:0:0:
448,320,32043,1,12,0:0:0:0:
448,64,32733,1,8,0:0:0:0:
64,64,33078,1,0,0:0:0:0:
448,320,33422,1,12,0:0:0:0:
448,64,33767,1,8,0:0:0:0:
448,64,33940,1,8,0:0:0:0:
448,64,34112,1,8,0:0:0:0:
64,64,34457,1,0,0:0:0:0:
448,64,34802,1,8,0:0:0:0:
448,64,35491,1,8,0:0:0:0:
64,64,35836,1,0,0:0:0:0:
448,64,36181,1,8,0:0:0:0:
448,64,36871,1,8,0:0:0:0:
64,64,37216,1,0,0:0:0:0:
448,64,37560,1,8,0:0:0:0:
448,64,38250,1,8,0:0:0:0:
64,64,38595,1,0,0:0:0:0:
448,64,38940,1,8,0:0:0:0:
448,64,39629,1,8,0:0:0:0:
256,192,39974,12,0,44112,0:0:0:0:
64,64,45491,5,0,0:0:0:0:
448,64,45836,1,8,0:0:0:0:
448,64,46095,1,0,0:0:0:0:
448,64,46526,1,0,0:0:0:0:
64,64,46785,1,8,0:0:0:0:
448,64,47216,1,8,0:0:0:0:
448,64,47474,1,0,0:0:0:0:
448,64,47905,1,8,0:0:0:0:
174,155,48250,1,0,0:0:0:0:
448,64,48595,1,8,0:0:0:0:
448,64,48853,1,8,0:0:0:0:
448,64,49285,1,0,0:0:0:0:
64,64,49457,1,8,0:0:0:0:
448,64,49974,1,8,0:0:0:0:
448,64,50233,1,8,0:0:0:0:
448,64,50664,1,8,0:0:0:0:
448,64,50836,1,8,0:0:0:0:
64,64,51009,1,0,0:0:0:0:
448,64,51353,1,0,0:0:0:0:
448,64,51612,1,8,0:0:0:0:
448,64,52043,1,8,0:0:0:0:
64,64,52216,1,0,0:0:0:0:
448,64,52733,1,0,0:0:0:0:
448,64,52991,1,8,0:0:0:0:
448,64,53422,1,8,0:0:0:0:
188,111,53767,1,0,0:0:0:0:
448,64,54112,1,8,0:0:0:0:
448,64,54371,1,8,0:0:0:0:
448,64,54802,1,0,0:0:0:0:
64,64,54974,1,8,0:0:0:0:
448,64,55491,1,8,0:0:0:0:
448,64,55750,1,8,0:0:0:0:
448,64,56181,1,0,0:0:0:0:
448,64,56871,1,8,0:0:0:0:
448,64,57129,1,0,0:0:0:0:
448,64,57560,1,0,0:0:0:0:
64,64,57819,1,8,0:0:0:0:
448,64,58250,1,8,0:0:0:0:
448,64,58509,1,0,0:0:0:0:
448,64,58940,1,8,0:0:0:0:
184,115,59112,1,8,0:0:0:0:
205,192,59285,1,0,0:0:0:0:
448,64,59629,1,8,0:0:0:0:
448,64,59888,1,8,0:0:0:0:
448,64,60319,1,0,0:0:0:0:
64,64,60491,1,8,0:0:0:0:
448,64,61009,1,8,0:0:0:0:
448,64,61267,1,8,0:0:0:0:
448,64,61698,1,8,0:0:0:0:
64,64,62043,1,0,0:0:0:0:
448,64,62388,1,8,0:0:0:0:
448,64,62647,1,0,0:0:0:0:
448,64,63078,1,0,0:0:0:0:
64,64,63250,1,8,0:0:0:0:
448,64,63767,1,8,0:0:0:0:
448,64,64026,1,0,0:0:0:0:
448,64,64457,1,8,0:0:0:0:
205,118,64802,1,0,0:0:0:0:
448,64,65147,1,8,0:0:0:0:
448,64,65405,1,8,0:0:0:0:
448,64,65836,1,8,0:0:0:0:
64,64,66009,1,0,0:0:0:0:
448,64,66526,1,8,0:0:0:0:
64,64,66871,1,8,0:0:0:0:
64,64,67560,1,0,0:0:0:0:
448,320,67905,1,12,0:0:0:0:
200,95,68164,1,0,0:0:0:0:
448,64,68595,1,8,0:0:0:0:
64,64,68853,1,0,0:0:0:0:
200,95,69026,1,0,0:0:0:0:
448,64,69285,1,8,0:0:0:0:
448,64,69543,1,0,0:0:0:0:
448,64,69974,1,8,0:0:0:0:
448,64,70664,1,8,0:0:0:0:
64,64,70922,1,0,0:0:0:0:
448,64,71353,1,8,0:0:0:0:
202,126,71526,1,0,0:0:0:0:
215,49,71785,1,0,0:0:0:0:
448,64,72043,1,8,0:0:0:0:
177,85,72302,1,0,0:0:0:0:
448,64,72733,1,8,0:0:0:0:
448,64,73422,1,0,0:0:0:0:
178,100,73681,1,8,0:0:0:0:
448,64,74112,1,8,0:0:0:0:
189,71,74285,1,8,0:0:0:0:
202,99,74543,1,8,0:0:0:0:
448,64,74802,1,0,0:0:0:0:
448,64,75060,1,8,0:0:0:0:
448,64,75491,1,8,0:0:0:0:
448,64,76181,1,8,0:0:0:0:
64,64,76440,1,0,0:0:0:0:
448,64,76871,1,0,0:0:0:0:
64,64,77043,1,0,0:0:0:0:
183,33,77302,1,0,0:0:0:0:
448,64,77560,1,8,0:0:0:0:
448,64,77819,1,0,0:0:0:0:
448,64,78250,1,8,0:0:0:0:
243,100,78422,1,0,0:0:0:0:
64,64,78595,1,0,0:0:0:0:
448,64,78940,1,8,0:0:0:0:
195,105,79198,1,0,0:0:0:0:
448,64,79629,1,8,0:0:0:0:
64,64,79888,1,0,0:0:0:0:
195,93,80060,1,0,0:0:0:0:
448,64,80319,1,8,0:0:0:0:
448,64,80578,1,0,0:0:0:0:
448,64,81009,1,8,0:0:0:0:
448,64,81698,1,8,0:0:0:0:
170,89,81957,1,0,0:0:0:0:
448,64,82388,1,8,0:0:0:0:
202,108,82560,1,0,0:0:0:0:
172,84,82819,1,0,0:0:0:0:
448,64,83078,1,8,0:0:0:0:
195,75,83336,1,0,0:0:0:0:
448,64,83767,1,8,0:0:0:0:
448,64,84457,1,0,0:0:0:0:
64,64,84716,1,8,0:0:0:0:
448,64,85147,1,8,0:0:0:0:
64,64,85319,1,8,0:0:0:0:
179,49,85578,1,0,0:0:0:0:
448,64,85836,1,8,0:0:0:0:
64,64,86095,1,0,0:0:0:0:
448,64,86526,1,8,0:0:0:0:
448,64,87216,1,8,0:0:0:0:
64,64,87474,1,0,0:0:0:0:
448,64,87905,1,8,0:0:0:0:
64,64,88078,1,0,0:0:0:0:
187,99,88336,1,0,0:0:0:0:
448,64,88595,1,8,0:0:0:0:
448,64,88853,1,0,0:0:0:0:
448,64,89285,1,8,0:0:0:0:
64,64,89629,1,0,0:0:0:0:
448,64,89974,1,8,0:0:0:0:
448,64,90319,1,0,0:0:0:0:
448,64,90491,1,8,0:0:0:0:
448,64,90664,1,8,0:0:0:0:
64,64,91009,1,0,0:0:0:0:
448,64,91353,1,8,0:0:0:0:
64,64,91526,1,0,0:0:0:0:
448,64,92043,1,8,0:0:0:0:
64,64,92388,1,0,0:0:0:0:
448,64,92733,1,8,0:0:0:0:
64,64,93078,1,0,0:0:0:0:
64,64,93250,1,0,0:0:0:0:
448,64,93422,1,8,0:0:0:0:
64,64,93767,1,0,0:0:0:0:
448,64,94112,1,8,0:0:0:0:
448,64,94802,1,8,0:0:0:0:
64,64,95147,1,0,0:0:0:0:
448,64,95491,1,8,0:0:0:0:
64,64,95836,1,0,0:0:0:0:
448,64,96009,1,8,0:0:0:0:
448,64,96181,1,8,0:0:0:0:
64,64,96526,1,0,0:0:0:0:
448,64,96871,1,8,0:0:0:0:
64,64,97043,1,0,0:0:0:0:
448,64,97560,1,8,0:0:0:0:
64,64,97905,1,0,0:0:0:0:
448,64,98250,1,8,0:0:0:0:
199,100,98422,1,8,0:0:0:0:
64,64,98595,1,0,0:0:0:0:
448,64,98940,1,8,0:0:0:0:
64,64,99285,1,0,0:0:0:0:
448,64,99629,1,8,0:0:0:0:
448,64,100319,1,8,0:0:0:0:
64,64,100664,1,0,0:0:0:0:
448,64,101009,1,8,0:0:0:0:
64,64,101181,1,0,0:0:0:0:
64,64,101353,1,0,0:0:0:0:
448,64,101698,1,8,0:0:0:0:
64,64,102043,1,0,0:0:0:0:
64,64,102216,1,0,0:0:0:0:
448,64,102388,1,8,0:0:0:0:
64,64,102733,1,0,0:0:0:0:
64,64,103422,1,0,0:0:0:0:
448,64,103767,1,8,0:0:0:0:
64,64,104112,1,0,0:0:0:0:
64,64,104285,1,0,0:0:0:0:
448,64,104457,1,8,0:0:0:0:
64,64,104802,1,0,0:0:0:0:
448,64,105147,1,8,0:0:0:0:
64,64,105319,1,0,0:0:0:0:
64,64,105491,1,0,0:0:0:0:
64,64,106181,1,0,0:0:0:0:
448,64,106526,1,8,0:0:0:0:
64,64,106871,1,0,0:0:0:0:
448,64,107216,1,8,0:0:0:0:
64,64,107560,1,0,0:0:0:0:
448,64,107905,1,8,0:0:0:0:
64,64,108250,1,0,0:0:0:0:
448,64,108595,1,8,0:0:0:0:
256,192,108940,12,0,110319,0:0:0:0:
64,64,111698,5,4,0:0:0:0:
448,64,112043,1,8,0:0:0:0:
64,64,112388,1,0,0:0:0:0:
64,64,112560,1,0,0:0:0:0:
448,64,112733,1,8,0:0:0:0:
180,155,112905,1,0,0:0:0:0:
64,64,113078,1,0,0:0:0:0:
448,64,113422,1,8,0:0:0:0:
448,64,113767,1,8,0:0:0:0:
448,64,114285,1,8,0:0:0:0:
64,64,114457,1,0,0:0:0:0:
448,64,114802,1,8,0:0:0:0:
64,64,115147,1,0,0:0:0:0:
64,64,115319,1,0,0:0:0:0:
448,64,115491,1,8,0:0:0:0:
448,64,116181,1,8,0:0:0:0:
64,64,116526,1,0,0:0:0:0:
448,64,116698,1,8,0:0:0:0:
448,64,116871,1,8,0:0:0:0:
64,64,117216,1,0,0:0:0:0:
448,64,117560,1,8,0:0:0:0:
64,64,117733,1,0,0:0:0:0:
64,64,118078,1,0,0:0:0:0:
448,64,118250,1,8,0:0:0:0:
64,64,118422,1,0,0:0:0:0:
64,64,118767,1,0,0:0:0:0:
448,64,118940,1,8,0:0:0:0:
205,31,119112,1,8,0:0:0:0:
64,64,119285,1,0,0:0:0:0:
448,64,119629,1,8,0:0:0:0:
64,64,119974,1,0,0:0:0:0:
209,110,120147,1,8,0:0:0:0:
448,64,120319,1,8,0:0:0:0:
64,64,120664,1,0,0:0:0:0:
448,64,121009,1,8,0:0:0:0:
448,64,121698,1,8,0:0:0:0:
174,70,121871,1,8,0:0:0:0:
180,77,122043,1,0,0:0:0:0:
448,64,122216,1,8,0:0:0:0:
448,64,122388,1,8,0:0:0:0:
64,64,122733,1,0,0:0:0:0:
448,64,123078,1,8,0:0:0:0:
448,64,123250,1,8,0:0:0:0:
448,64,123422,1,8,0:0:0:0:
198,96,123595,1,0,0:0:0:0:
448,64,123767,1,8,0:0:0:0:
64,64,124112,1,0,0:0:0:0:
448,64,124457,1,8,0:0:0:0:
448,64,125147,1,8,0:0:0:0:
64,64,125491,1,0,0:0:0:0:
448,64,125836,1,8,0:0:0:0:
198,146,126009,1,0,0:0:0:0:
448,64,126181,1,8,0:0:0:0:
448,64,126353,1,8,0:0:0:0:
448,64,126526,1,8,0:0:0:0:
64,64,126871,1,0,0:0:0:0:
448,64,127216,1,8,0:0:0:0:
448,64,127905,1,8,0:0:0:0:
448,64,128078,1,8,0:0:0:0:
64,64,128250,1,0,0:0:0:0:
64,64,128422,1,0,0:0:0:0:
448,64,128595,1,8,0:0:0:0:
448,64,128940,1,8,0:0:0:0:
448,64,129112,1,0,0:0:0:0:
64,64,129285,1,8,0:0:0:0:
448,64,129974,1,8,0:0:0:0:
64,64,130319,1,0,0:0:0:0:
64,64,130491,1,0,0:0:0:0:
448,64,130664,1,8,0:0:0:0:
64,64,131009,1,0,0:0:0:0:
448,64,131353,1,8,0:0:0:0:
64,64,131698,1,0,0:0:0:0:
448,64,131871,1,8,0:0:0:0:
448,64,132043,1,8,0:0:0:0:
64,64,132388,1,0,0:0:0:0:
448,64,132733,1,8,0:0:0:0:
192,129,133078,1,4,0:0:0:0:
64,64,133767,5,4,0:0:0:0:
448,64,134112,1,8,0:0:0:0:
64,64,134457,1,0,0:0:0:0:
64,64,134629,1,0,0:0:0:0:
448,64,134802,1,8,0:0:0:0:
180,155,134974,1,0,0:0:0:0:
64,64,135147,1,0,0:0:0:0:
448,64,135491,1,8,0:0:0:0:
448,64,135836,1,8,0:0:0:0:
448,64,136353,1,8,0:0:0:0:
64,64,136526,1,0,0:0:0:0:
448,64,136871,1,8,0:0:0:0:
64,64,137216,1,0,0:0:0:0:
64,64,137388,1,0,0:0:0:0:
448,64,137560,1,8,0:0:0:0:
448,64,138250,1,8,0:0:0:0:
64,64,138595,1,0,0:0:0:0:
448,64,138767,1,8,0:0:0:0:
448,64,138940,1,8,0:0:0:0:
64,64,139285,1,0,0:0:0:0:
448,64,139629,1,8,0:0:0:0:
64,64,139802,1,0,0:0:0:0:
64,64,140147,1,0,0:0:0:0:
448,64,140319,1,8,0:0:0:0:
64,64,140491,1,0,0:0:0:0:
64,64,140836,1,0,0:0:0:0:
448,64,141009,1,8,0:0:0:0:
205,31,141181,1,8,0:0:0:0:
64,64,141353,1,0,0:0:0:0:
448,64,141698,1,8,0:0:0:0:
64,64,142043,1,0,0:0:0:0:
209,110,142216,1,8,0:0:0:0:
448,64,142388,1,8,0:0:0:0:
64,64,142733,1,0,0:0:0:0:
183,176,143078,1,8,0:0:0:0:
448,64,143767,1,8,0:0:0:0:
174,70,143940,1,8,0:0:0:0:
180,77,144112,1,0,0:0:0:0:
448,64,144285,1,8,0:0:0:0:
448,64,144457,1,8,0:0:0:0:
64,64,144802,1,0,0:0:0:0:
448,64,145147,1,8,0:0:0:0:
448,64,145319,1,8,0:0:0:0:
448,64,145491,1,8,0:0:0:0:
198,96,145664,1,0,0:0:0:0:
448,64,145836,1,8,0:0:0:0:
64,64,146181,1,0,0:0:0:0:
448,64,146526,1,8,0:0:0:0:
448,64,147216,1,8,0:0:0:0:
64,64,147560,1,0,0:0:0:0:
448,64,147905,1,8,0:0:0:0:
198,146,148078,1,0,0:0:0:0:
448,64,148250,1,8,0:0:0:0:
448,64,148422,1,8,0:0:0:0:
448,64,148595,1,8,0:0:0:0:
64,64,148940,1,0,0:0:0:0:
448,64,149285,1,8,0:0:0:0:
448,64,149974,1,8,0:0:0:0:
448,64,150147,1,8,0:0:0:0:
64,64,150319,1,0,0:0:0:0:
64,64,150491,1,0,0:0:0:0:
448,64,150664,1,8,0:0:0:0:
448,64,151009,1,8,0:0:0:0:
448,64,151181,1,0,0:0:0:0:
64,64,151353,1,8,0:0:0:0:
448,64,152043,1,8,0:0:0:0:
64,64,152388,1,0,0:0:0:0:
64,64,152560,1,0,0:0:0:0:
448,64,152733,1,8,0:0:0:0:
64,64,153078,1,0,0:0:0:0:
448,64,153422,1,8,0:0:0:0:
64,64,153767,1,0,0:0:0:0:
448,64,153940,1,8,0:0:0:0:
448,64,154112,1,8,0:0:0:0:
64,64,154457,1,0,0:0:0:0:
448,64,154802,1,8,0:0:0:0:
224,170,155491,1,8,0:0:0:0:
64,320,155836,1,4,0:0:0:0:
256,192,166871,12,0,177216,0:0:0:0:
64,64,177905,5,0,0:0:0:0:
448,320,178250,1,12,0:0:0:0:
64,64,178767,1,0,0:0:0:0:
448,64,178940,1,8,0:0:0:0:
64,64,179285,1,0,0:0:0:0:
448,320,179629,1,12,0:0:0:0:
64,64,179974,1,0,0:0:0:0:
64,64,180147,1,0,0:0:0:0:
448,64,180319,1,8,0:0:0:0:
64,64,180664,1,0,0:0:0:0:
448,320,181009,1,12,0:0:0:0:
64,64,181526,1,0,0:0:0:0:
448,64,181698,1,8,0:0:0:0:
64,64,182043,1,0,0:0:0:0:
448,320,182388,1,12,0:0:0:0:
448,64,182733,1,8,0:0:0:0:
64,64,182905,1,0,0:0:0:0:
448,64,183078,1,8,0:0:0:0:
64,64,183422,1,0,0:0:0:0:
448,320,183767,1,12,0:0:0:0:
64,64,184285,1,0,0:0:0:0:
448,64,184457,1,8,0:0:0:0:
64,64,184802,1,0,0:0:0:0:
448,320,185147,1,12,0:0:0:0:
64,64,185491,1,0,0:0:0:0:
448,64,185664,1,8,0:0:0:0:
448,64,185836,1,8,0:0:0:0:
64,64,186181,1,0,0:0:0:0:
448,320,186526,1,12,0:0:0:0:
64,64,187043,1,0,0:0:0:0:
448,64,187216,1,8,0:0:0:0:
64,64,187560,1,0,0:0:0:0:
448,320,187905,1,12,0:0:0:0:
448,64,188250,1,8,0:0:0:0:
448,64,188422,1,8,0:0:0:0:
448,64,188595,1,8,0:0:0:0:
64,64,188940,1,0,0:0:0:0:
448,64,189285,1,8,0:0:0:0:
448,64,189974,1,8,0:0:0:0:
64,64,190147,1,0,0:0:0:0:
64,64,190319,1,0,0:0:0:0:
448,64,190664,1,8,0:0:0:0:
448,64,191353,1,8,0:0:0:0:
64,64,191698,1,0,0:0:0:0:
448,64,192043,1,8,0:0:0:0:
448,64,192733,1,8,0:0:0:0:
64,64,192905,1,0,0:0:0:0:
64,64,193078,1,0,0:0:0:0:
448,64,193422,1,8,0:0:0:0:
448,64,194112,1,8,0:0:0:0:
256,192,194457,12,0,198595,0:0:0:0:
64,64,199974,5,0,0:0:0:0:
448,64,200319,1,8,0:0:0:0:
448,64,200664,1,0,0:0:0:0:
448,64,200836,1,8,0:0:0:0:
448,64,201009,1,8,0:0:0:0:
64,64,201353,1,0,0:0:0:0:
448,64,201698,1,8,0:0:0:0:
64,64,201871,1,0,0:0:0:0:
448,64,202388,1,8,0:0:0:0:
64,64,202733,1,0,0:0:0:0:
448,64,203078,1,8,0:0:0:0:
64,64,203422,1,0,0:0:0:0:
64,64,203595,1,0,0:0:0:0:
448,64,203767,1,8,0:0:0:0:
64,64,204112,1,0,0:0:0:0:
448,64,204457,1,8,0:0:0:0:
448,64,205147,1,8,0:0:0:0:
64,64,205491,1,0,0:0:0:0:
448,64,205836,1,8,0:0:0:0:
64,64,206181,1,0,0:0:0:0:
448,64,206353,1,8,0:0:0:0:
448,64,206526,1,8,0:0:0:0:
64,64,206871,1,0,0:0:0:0:
448,64,207216,1,8,0:0:0:0:
64,64,207388,1,0,0:0:0:0:
448,64,207905,1,8,0:0:0:0:
64,64,208250,1,0,0:0:0:0:
448,64,208595,1,8,0:0:0:0:
64,64,208940,1,0,0:0:0:0:
64,64,209112,1,0,0:0:0:0:
448,64,209285,1,8,0:0:0:0:
64,64,209629,1,0,0:0:0:0:
448,64,209974,1,8,0:0:0:0:
448,64,210664,1,8,0:0:0:0:
64,64,211009,1,0,0:0:0:0:
448,64,211353,1,8,0:0:0:0:
448,64,211698,1,0,0:0:0:0:
448,64,211871,1,8,0:0:0:0:
448,64,212043,1,8,0:0:0:0:
64,64,212388,1,0,0:0:0:0:
448,64,212733,1,8,0:0:0:0:
64,64,212905,1,0,0:0:0:0:
448,64,213422,1,8,0:0:0:0:
64,64,213767,1,0,0:0:0:0:
448,64,214112,1,8,0:0:0:0:
448,64,214457,1,8,0:0:0:0:
64,64,214629,1,0,0:0:0:0:
448,64,214802,1,8,0:0:0:0:
64,64,215147,1,0,0:0:0:0:
448,64,215491,1,8,0:0:0:0:
448,64,216181,1,8,0:0:0:0:
64,64,216526,1,0,0:0:0:0:
448,64,216871,1,8,0:0:0:0:
64,64,217216,1,0,0:0:0:0:
448,64,217388,1,0,0:0:0:0:
448,64,217560,1,8,0:0:0:0:
64,64,217905,1,0,0:0:0:0:
448,64,218250,1,8,0:0:0:0:
64,64,218422,1,0,0:0:0:0:
448,64,218940,1,8,0:0:0:0:
64,64,219285,1,0,0:0:0:0:
448,64,219629,1,8,0:0:0:0:
198,71,219802,1,0,0:0:0:0:
191,72,219974,1,0,0:0:0:0:
448,64,220319,1,8,0:0:0:0:
64,64,220664,1,0,0:0:0:0:
448,64,221009,1,8,0:0:0:0:
64,64,221353,1,0,0:0:0:0:
64,64,221526,1,0,0:0:0:0:
448,64,221698,1,8,0:0:0:0:
