osu file format v14

[General]
AudioFilename: audio.mp3
AudioLeadIn: 0
PreviewTime: 95259
Countdown: 0
SampleSet: Soft
StackLeniency: 0.7
Mode: 3
LetterboxInBreaks: 0
SpecialStyle: 0
WidescreenStoryboard: 1

[Editor]
DistanceSpacing: 0.8
BeatDivisor: 4
GridSize: 32
TimelineZoom: 1

[Metadata]
Title:Shuu no Hazama (Cut Ver.)
TitleUnicode:驟雨の狭間 (Cut Ver.)
Artist:Silentroom
ArtistUnicode:Silentroom
Creator:Monheim
Version:Normal
Source:
Tags:-mint- guden -noname- april shoegazer neurofunk electronic instrumental tech stream speed featured artist fa rainshower rain shower FRENZ 2019 drum & and bass dnb neurofunk tunecore famoss wiosna
BeatmapID:2842611
BeatmapSetID:1321003

[Difficulty]
HPDrainRate:7
CircleSize:4
OverallDifficulty:7
ApproachRate:5
SliderMultiplier:1.4
SliderTickRate:1

[Events]
//Background and Video events
0,0,"BG.jpg",0,0
//Break Periods
//Storyboard Layer 0 (Background)
//Storyboard Layer 1 (Fail)
//Storyboard Layer 2 (Pass)
//Storyboard Layer 3 (Foreground)
//Storyboard Layer 4 (Overlay)
//Storyboard Sound Samples

[TimingPoints]
1466,344.827586,4,2,1,50,1,0
2845,-100,4,2,1,60,0,0
4224,-100,4,2,1,70,0,0
7328,-100,4,2,1,70,0,1
8362,-100,4,2,1,70,0,0
8707,-100,4,2,1,70,0,1
9741,-100,4,2,1,70,0,0
10086,-100,4,2,1,70,0,1
11121,-100,4,2,1,70,0,0
11465,-100,4,2,1,70,0,1
12500,-100,4,2,1,70,0,0
12845,-100,4,2,1,70,0,1
13879,-100,4,2,1,70,0,0
14224,-100,4,2,1,70,0,1
15259,-100,4,2,1,70,0,0
15603,-100,4,2,1,70,0,1
16638,-100,4,2,1,70,0,0
16983,-100,4,2,1,70,0,1
18017,-100,4,2,1,70,0,0
26293,-100,4,2,1,55,0,0
29052,-100,4,2,1,70,0,0
70431,-100,4,2,1,60,0,0
73190,-100,4,2,1,50,0,0
84224,-100,4,2,1,60,0,0
95259,-100,4,2,1,70,0,1
116638,-100,4,2,1,70,0,0
117328,-100,4,2,1,70,0,1
139397,-100,4,2,1,70,0,0

[HitObjects]
64,192,1466,5,2,0:0:0:0:
64,192,1810,1,2,0:0:0:0:
64,192,2845,1,2,0:0:0:0:
64,192,3190,1,2,0:0:0:0:
64,192,4224,1,2,0:0:0:0:
64,192,4569,1,2,0:0:0:0:
64,192,5603,1,2,0:0:0:0:
64,192,5948,1,2,0:0:0:0:
64,192,7328,1,8,0:0:0:0:
192,192,7328,1,0,0:0:0:0:
64,192,8017,1,8,0:0:0:0:
192,192,8017,1,0,0:0:0:0:
64,192,8707,1,8,0:0:0:0:
320,192,8707,1,0,0:0:0:0:
64,192,9397,1,8,0:0:0:0:
320,192,9397,1,0,0:0:0:0:
192,192,10086,1,8,0:0:0:0:
320,192,10086,1,0,0:0:0:0:
192,192,10776,1,8,0:0:0:0:
320,192,10776,1,0,0:0:0:0:
192,192,11465,1,8,0:0:0:0:
448,192,11465,1,0,0:0:0:0:
192,192,12155,1,8,0:0:0:0:
448,192,12155,1,0,0:0:0:0:
64,192,12845,1,8,0:0:0:0:
320,192,12845,1,0,0:0:0:0:
64,192,13534,1,8,0:0:0:0:
320,192,13534,1,0,0:0:0:0:
192,192,14224,1,8,0:0:0:0:
320,192,14224,1,0,0:0:0:0:
192,192,14914,1,8,0:0:0:0:
320,192,14914,1,0,0:0:0:0:
192,192,15603,1,8,0:0:0:0:
448,192,15603,1,0,0:0:0:0:
192,192,16293,1,8,0:0:0:0:
448,192,16293,1,0,0:0:0:0:
320,192,16983,1,8,0:0:0:0:
448,192,16983,1,0,0:0:0:0:
320,192,17672,1,8,0:0:0:0:
448,192,17672,1,0,0:0:0:0:
64,192,18017,1,2,0:0:0:0:
448,192,18362,1,8,0:0:0:0:
320,192,18534,1,0,0:0:0:70:Snare 10.wav
64,192,18707,1,0,0:0:0:70:Snare 10.wav
192,192,18965,1,0,0:0:0:70:Snare 10.wav
448,192,19224,1,0,0:0:0:70:Snare 10.wav
64,192,19397,1,2,0:0:0:0:
320,192,19655,1,0,0:0:0:70:Snare 10.wav
448,192,19914,1,0,0:0:0:70:Snare 10.wav
64,192,20086,1,0,0:0:0:70:Snare 10.wav
192,192,20345,1,0,0:0:0:70:Snare 10.wav
448,192,20603,1,0,0:0:0:70:Snare 10.wav
64,192,20776,1,2,0:0:0:0:
320,192,21034,1,0,0:0:0:70:Snare 10.wav
448,192,21293,1,0,0:0:0:70:Snare 10.wav
64,192,21465,1,0,0:0:0:70:Snare 10.wav
192,192,21724,1,0,0:0:0:70:Snare 10.wav
448,192,21983,1,0,0:0:0:70:Snare 10.wav
64,192,22155,1,2,0:0:0:0:
320,192,22414,1,0,0:0:0:70:Snare 10.wav
448,192,22672,1,0,0:0:0:70:Snare 10.wav
192,192,22845,1,0,0:0:0:70:Snare 10.wav
320,192,23103,1,0,0:0:0:70:Snare 10.wav
448,192,23362,1,0,0:0:0:70:Snare 10.wav
64,192,23534,1,2,0:0:0:0:
192,192,23707,1,0,0:0:0:70:Snare 10.wav
320,192,23879,1,8,0:0:0:0:
448,192,24052,1,0,0:0:0:70:Snare 10.wav
64,192,24224,1,0,0:0:0:70:Snare 10.wav
320,192,24397,1,0,0:0:0:70:Snare 10.wav
192,192,24569,1,8,0:0:0:0:
448,192,24741,1,0,0:0:0:70:Snare 10.wav
64,192,24914,1,2,0:0:0:0:
320,192,25086,1,0,0:0:0:70:Snare 10.wav
192,192,25259,1,8,0:0:0:0:
64,192,25431,1,0,0:0:0:70:Snare 10.wav
448,192,25603,1,0,0:0:0:70:Snare 10.wav
192,192,25776,1,0,0:0:0:70:Snare 10.wav
320,192,25948,1,8,0:0:0:0:
448,192,26121,1,0,0:0:0:70:Snare 10.wav
64,192,26293,128,2,26638:0:0:0:0:
192,192,26638,128,8,26983:0:0:0:0:
320,192,26983,128,0,27328:0:0:0:70:Snare 10.wav
448,192,27328,128,8,27672:0:0:0:0:
64,192,27672,128,0,28707:0:0:0:0:
448,192,29052,1,2,0:0:0:0:
64,192,29397,1,8,0:0:0:0:
320,192,29397,1,0,0:0:0:0:
448,192,29655,1,2,0:0:0:0:
64,192,30086,1,8,0:0:0:0:
320,192,30086,1,0,0:0:0:0:
448,192,30345,1,2,0:0:0:0:
64,192,30776,1,8,0:0:0:0:
320,192,30776,1,0,0:0:0:0:
448,192,31034,1,2,0:0:0:0:
64,192,31465,1,8,0:0:0:0:
320,192,31465,1,0,0:0:0:0:
192,192,31810,1,2,0:0:0:0:
64,192,32155,1,8,0:0:0:0:
448,192,32155,1,0,0:0:0:0:
320,192,32414,1,2,0:0:0:0:
64,192,32845,1,8,0:0:0:0:
448,192,32845,1,0,0:0:0:0:
320,192,33017,1,2,0:0:0:0:
64,192,33534,1,8,0:0:0:0:
448,192,33534,1,0,0:0:0:0:
320,192,33793,1,2,0:0:0:0:
64,192,34224,1,8,0:0:0:0:
448,192,34224,1,0,0:0:0:0:
320,192,34397,1,2,0:0:0:0:
192,192,34569,1,2,0:0:0:0:
64,192,34914,1,8,0:0:0:0:
320,192,34914,1,0,0:0:0:0:
448,192,35172,1,2,0:0:0:0:
64,192,35603,1,8,0:0:0:0:
320,192,35603,1,0,0:0:0:0:
448,192,35776,1,2,0:0:0:0:
64,192,36293,1,8,0:0:0:0:
320,192,36293,1,0,0:0:0:0:
448,192,36552,1,2,0:0:0:0:
64,192,36983,1,8,0:0:0:0:
320,192,36983,1,0,0:0:0:0:
192,192,37328,1,2,0:0:0:0:
64,192,37672,1,8,0:0:0:0:
448,192,37672,1,0,0:0:0:0:
320,192,37931,1,2,0:0:0:0:
64,192,38362,1,8,0:0:0:0:
448,192,38362,1,0,0:0:0:0:
320,192,38534,1,2,0:0:0:0:
320,192,39052,1,8,0:0:0:0:
448,192,39052,1,0,0:0:0:0:
320,192,39310,1,2,0:0:0:0:
448,192,39310,1,0,0:0:0:0:
64,192,39741,1,8,0:0:0:0:
448,192,39741,1,0,0:0:0:0:
192,192,39914,1,2,0:0:0:0:
320,192,40086,1,2,0:0:0:0:
192,192,40431,1,8,0:0:0:0:
448,192,40431,1,0,0:0:0:0:
64,192,40690,1,2,0:0:0:0:
192,192,41121,1,8,0:0:0:0:
448,192,41121,1,0,0:0:0:0:
64,192,41379,1,2,0:0:0:0:
192,192,41810,1,8,0:0:0:0:
448,192,41810,1,0,0:0:0:0:
64,192,42069,1,2,0:0:0:0:
192,192,42500,1,8,0:0:0:0:
448,192,42500,1,0,0:0:0:0:
320,192,42845,1,2,0:0:0:0:
64,192,43190,1,8,0:0:0:0:
448,192,43190,1,0,0:0:0:0:
192,192,43448,1,2,0:0:0:0:
64,192,43879,1,8,0:0:0:0:
448,192,43879,1,0,0:0:0:0:
192,192,44052,1,2,0:0:0:0:
64,192,44569,1,8,0:0:0:0:
448,192,44569,1,0,0:0:0:0:
192,192,44828,1,2,0:0:0:0:
64,192,45259,1,8,0:0:0:0:
448,192,45259,1,0,0:0:0:0:
192,192,45431,1,2,0:0:0:0:
320,192,45603,1,2,0:0:0:0:
192,192,45948,1,8,0:0:0:0:
448,192,45948,1,0,0:0:0:0:
64,192,46207,1,2,0:0:0:0:
192,192,46638,1,8,0:0:0:0:
448,192,46638,1,0,0:0:0:0:
64,192,46810,1,2,0:0:0:0:
192,192,47328,1,8,0:0:0:0:
448,192,47328,1,0,0:0:0:0:
64,192,47586,1,2,0:0:0:0:
192,192,48017,1,8,0:0:0:0:
448,192,48017,1,0,0:0:0:0:
320,192,48362,1,2,0:0:0:0:
64,192,48707,1,8,0:0:0:0:
448,192,48707,1,0,0:0:0:0:
192,192,48965,1,2,0:0:0:0:
64,192,49397,1,8,0:0:0:0:
448,192,49397,1,0,0:0:0:0:
192,192,49569,1,2,0:0:0:0:
64,192,50086,1,8,0:0:0:0:
448,192,50086,1,0,0:0:0:0:
192,192,50259,1,0,0:0:0:0:
448,192,50431,128,0,50603:0:0:0:0:
320,192,50603,128,0,50776:0:0:0:0:
64,192,50776,128,0,50948:0:0:0:0:
192,192,50948,128,0,51121:0:0:0:0:
320,192,51121,1,2,0:0:0:0:
320,192,51379,1,2,0:0:0:0:
192,192,51465,1,8,0:0:0:0:
448,192,51465,1,0,0:0:0:0:
64,192,51724,1,2,0:0:0:0:
192,192,52155,1,8,0:0:0:0:
448,192,52155,1,0,0:0:0:0:
64,192,52414,1,2,0:0:0:0:
192,192,52845,1,8,0:0:0:0:
448,192,52845,1,0,0:0:0:0:
64,192,53103,1,2,0:0:0:0:
192,192,53534,1,8,0:0:0:0:
448,192,53534,1,0,0:0:0:0:
320,192,53879,1,2,0:0:0:0:
64,192,54224,1,8,0:0:0:0:
448,192,54224,1,0,0:0:0:0:
192,192,54483,1,2,0:0:0:0:
64,192,54914,1,8,0:0:0:0:
448,192,54914,1,0,0:0:0:0:
192,192,55086,1,2,0:0:0:0:
64,192,55603,1,8,0:0:0:0:
448,192,55603,1,0,0:0:0:0:
192,192,55862,1,2,0:0:0:0:
64,192,56293,1,8,0:0:0:0:
448,192,56293,1,0,0:0:0:0:
320,192,56465,1,2,0:0:0:0:
192,192,56638,1,2,0:0:0:0:
64,192,56983,1,8,0:0:0:0:
320,192,56983,1,0,0:0:0:0:
448,192,57241,1,2,0:0:0:0:
64,192,57672,1,8,0:0:0:0:
320,192,57672,1,0,0:0:0:0:
448,192,57845,1,2,0:0:0:0:
64,192,58362,1,8,0:0:0:0:
320,192,58362,1,0,0:0:0:0:
448,192,58621,1,2,0:0:0:0:
64,192,59052,1,8,0:0:0:0:
320,192,59052,1,0,0:0:0:0:
192,192,59397,1,2,0:0:0:0:
64,192,59741,1,8,0:0:0:0:
448,192,59741,1,0,0:0:0:0:
320,192,60000,1,2,0:0:0:0:
64,192,60431,1,8,0:0:0:0:
448,192,60431,1,0,0:0:0:0:
320,192,60603,1,2,0:0:0:0:
64,192,61121,1,8,0:0:0:0:
448,192,61121,1,0,0:0:0:0:
320,192,61379,1,2,0:0:0:0:
64,192,61810,1,8,0:0:0:0:
448,192,61810,1,0,0:0:0:0:
192,192,61983,1,2,0:0:0:0:
320,192,62155,1,2,0:0:0:0:
192,192,62500,1,8,0:0:0:0:
320,192,62500,1,0,0:0:0:0:
64,192,62759,1,2,0:0:0:0:
192,192,63190,1,8,0:0:0:0:
320,192,63190,1,0,0:0:0:0:
64,192,63448,1,2,0:0:0:0:
192,192,63879,1,8,0:0:0:0:
320,192,63879,1,0,0:0:0:0:
64,192,64138,1,2,0:0:0:0:
192,192,64569,1,8,0:0:0:0:
320,192,64569,1,0,0:0:0:0:
64,192,64914,1,2,0:0:0:0:
192,192,65259,1,8,0:0:0:0:
448,192,65259,1,0,0:0:0:0:
320,192,65517,1,2,0:0:0:0:
192,192,65948,1,8,0:0:0:0:
448,192,65948,1,0,0:0:0:0:
320,192,66121,1,2,0:0:0:0:
192,192,66638,1,8,0:0:0:0:
448,192,66638,1,0,0:0:0:0:
320,192,66897,1,2,0:0:0:0:
192,192,67328,1,8,0:0:0:0:
448,192,67328,1,0,0:0:0:0:
320,192,67672,1,2,0:0:0:0:
64,192,68017,1,8,0:0:0:0:
448,192,68017,1,0,0:0:0:0:
192,192,68276,1,2,0:0:0:0:
64,192,68707,1,8,0:0:0:0:
448,192,68707,1,0,0:0:0:0:
192,192,68879,1,2,0:0:0:0:
64,192,69397,1,8,0:0:0:0:
448,192,69397,1,0,0:0:0:0:
192,192,69655,1,2,0:0:0:0:
64,192,70086,1,8,0:0:0:0:
448,192,70086,1,0,0:0:0:0:
320,192,70431,1,2,0:0:0:0:
192,192,70776,1,8,0:0:0:0:
448,192,70776,1,0,0:0:0:0:
320,192,71034,1,2,0:0:0:0:
192,192,71465,1,8,0:0:0:0:
448,192,71465,1,0,0:0:0:0:
320,192,71638,1,2,0:0:0:0:
192,192,72155,1,8,0:0:0:0:
448,192,72155,1,0,0:0:0:0:
320,192,72414,1,2,0:0:0:0:
192,192,72845,1,8,0:0:0:0:
448,192,72845,1,0,0:0:0:0:
64,192,73190,1,2,0:0:0:0:
448,192,73534,1,8,0:0:0:0:
448,192,74224,1,8,0:0:0:0:
320,192,74914,1,8,0:0:0:0:
320,192,75603,1,8,0:0:0:0:
64,192,75948,1,2,0:0:0:0:
320,192,76293,1,10,0:0:0:0:
320,192,76983,1,10,0:0:0:0:
64,192,77328,1,2,0:0:0:0:
320,192,77672,1,10,0:0:0:0:
320,192,78362,1,10,0:0:0:0:
64,192,78707,1,2,0:0:0:0:
448,192,79052,1,8,0:0:0:0:
448,192,79741,1,8,0:0:0:0:
320,192,80431,1,8,0:0:0:0:
320,192,81121,1,8,0:0:0:0:
448,192,81465,1,2,0:0:0:0:
64,192,81810,1,10,0:0:0:0:
64,192,82500,1,10,0:0:0:0:
448,192,82845,1,2,0:0:0:0:
192,192,83190,1,10,0:0:0:0:
192,192,83879,1,10,0:0:0:0:
448,192,84224,1,2,0:0:0:0:
320,192,84483,1,2,0:0:0:0:
192,192,84741,1,2,0:0:0:0:
448,192,84914,1,2,0:0:0:0:
320,192,85172,1,2,0:0:0:0:
64,192,85431,1,2,0:0:0:0:
448,192,85603,1,2,0:0:0:0:
320,192,85862,1,2,0:0:0:0:
192,192,86121,1,2,0:0:0:0:
448,192,86293,1,2,0:0:0:0:
320,192,86552,1,2,0:0:0:0:
64,192,86810,1,2,0:0:0:0:
448,192,86983,1,2,0:0:0:0:
320,192,87241,1,2,0:0:0:0:
192,192,87500,1,2,0:0:0:0:
448,192,87672,1,2,0:0:0:0:
320,192,87931,1,2,0:0:0:0:
64,192,88190,1,2,0:0:0:0:
448,192,88362,1,2,0:0:0:0:
320,192,88621,1,2,0:0:0:0:
192,192,88879,1,2,0:0:0:0:
448,192,89052,1,2,0:0:0:0:
320,192,89310,1,2,0:0:0:0:
64,192,89569,1,2,0:0:0:0:
448,192,89741,1,2,0:0:0:0:
320,192,89914,1,2,0:0:0:0:
192,192,90086,1,8,0:0:0:0:
64,192,90259,1,2,0:0:0:0:
448,192,90431,1,2,0:0:0:0:
192,192,90603,1,2,0:0:0:0:
320,192,90776,1,8,0:0:0:0:
64,192,90948,1,2,0:0:0:0:
448,192,91121,1,2,0:0:0:0:
192,192,91293,1,2,0:0:0:0:
320,192,91465,1,8,0:0:0:0:
448,192,91638,1,2,0:0:0:0:
64,192,91810,1,2,0:0:0:0:
320,192,91983,1,2,0:0:0:0:
192,192,92155,1,8,0:0:0:0:
64,192,92328,1,2,0:0:0:0:
448,192,92500,128,2,92845:0:0:0:0:
192,192,92845,128,10,93190:0:0:0:0:
320,192,93190,128,2,93534:0:0:0:0:
64,192,93534,128,10,93879:0:0:0:0:
64,192,95259,1,2,0:0:0:0:
192,192,95603,1,8,0:0:0:0:
448,192,95948,1,0,0:0:0:0:
320,192,96121,1,2,0:0:0:0:
192,192,96293,1,8,0:0:0:0:
320,192,96638,1,0,0:0:0:0:
64,192,96983,1,8,0:0:0:0:
320,192,97328,1,0,0:0:0:0:
448,192,97672,1,8,0:0:0:0:
64,192,98017,1,2,0:0:0:0:
320,192,98362,1,8,0:0:0:0:
192,192,98707,1,0,0:0:0:0:
448,192,99052,1,8,0:0:0:0:
192,192,99397,1,0,0:0:0:0:
320,192,99741,1,8,0:0:0:0:
64,192,100086,1,0,0:0:0:0:
448,192,100431,1,8,0:0:0:0:
64,192,100776,1,2,0:0:0:0:
192,192,101121,1,8,0:0:0:0:
320,192,101293,1,0,0:0:0:0:
448,192,101465,1,0,0:0:0:0:
192,192,101810,1,8,0:0:0:0:
448,192,101983,1,0,0:0:0:0:
320,192,102155,1,0,0:0:0:0:
64,192,102500,1,8,0:0:0:0:
448,192,102672,1,0,0:0:0:0:
192,192,102845,1,0,0:0:0:0:
448,192,103190,1,8,0:0:0:0:
64,192,103534,1,2,0:0:0:0:
192,192,103707,1,0,0:0:0:0:
320,192,103879,1,8,0:0:0:0:
192,192,104224,1,0,0:0:0:0:
448,192,104569,1,8,0:0:0:0:
192,192,104914,1,0,0:0:0:0:
320,192,105259,1,8,0:0:0:0:
64,192,105603,1,0,0:0:0:0:
448,192,105948,1,8,0:0:0:0:
320,192,106121,1,2,0:0:0:0:
64,192,106293,1,2,0:0:0:0:
448,192,106465,1,0,0:0:0:0:
192,192,106638,1,8,0:0:0:0:
448,192,106983,1,0,0:0:0:0:
192,192,107328,1,8,0:0:0:0:
64,192,107500,1,0,0:0:0:0:
448,192,107672,1,0,0:0:0:0:
320,192,108017,1,8,0:0:0:0:
64,192,108362,1,0,0:0:0:0:
320,192,108707,1,8,0:0:0:0:
448,192,108879,1,0,0:0:0:0:
192,192,109052,1,2,0:0:0:0:
64,192,109224,1,0,0:0:0:0:
320,192,109397,1,8,0:0:0:0:
448,192,109741,1,0,0:0:0:0:
192,192,110086,1,8,0:0:0:0:
64,192,110259,1,0,0:0:0:0:
320,192,110431,1,0,0:0:0:0:
192,192,110776,1,8,0:0:0:0:
64,192,111121,1,0,0:0:0:0:
320,192,111465,1,8,0:0:0:0:
448,192,111638,1,0,0:0:0:0:
192,192,111810,1,2,0:0:0:0:
320,192,112155,1,8,0:0:0:0:
64,192,112500,1,0,0:0:0:0:
192,192,112672,1,2,0:0:0:0:
448,192,112845,1,8,0:0:0:0:
64,192,113190,1,0,0:0:0:0:
192,192,113534,1,8,0:0:0:0:
448,192,113707,1,0,0:0:0:0:
320,192,113879,1,0,0:0:0:0:
64,192,114224,1,8,0:0:0:0:
192,192,114397,1,0,0:0:0:0:
448,192,114569,1,2,0:0:0:0:
320,192,114914,1,8,0:0:0:0:
192,192,115259,1,0,0:0:0:0:
448,192,115603,1,8,0:0:0:0:
320,192,115776,1,0,0:0:0:0:
64,192,115948,1,0,0:0:0:0:
192,192,116293,1,8,0:0:0:0:
320,192,116638,1,2,0:0:0:0:
64,192,116810,1,2,0:0:0:0:
448,192,116983,1,2,0:0:0:0:
192,192,117155,1,2,0:0:0:0:
64,192,117328,1,2,0:0:0:0:
192,192,117672,1,8,0:0:0:0:
448,192,118017,1,0,0:0:0:0:
320,192,118190,1,2,0:0:0:0:
192,192,118362,1,8,0:0:0:0:
64,192,118534,1,0,0:0:0:0:
320,192,118707,1,0,0:0:0:0:
64,192,119052,1,8,0:0:0:0:
320,192,119224,1,0,0:0:0:0:
448,192,119397,1,0,0:0:0:0:
64,192,119741,1,8,0:0:0:0:
320,192,119914,1,0,0:0:0:0:
192,192,120086,1,2,0:0:0:0:
320,192,120431,1,8,0:0:0:0:
192,192,120776,1,0,0:0:0:0:
448,192,121121,1,8,0:0:0:0:
320,192,121293,1,0,0:0:0:0:
192,192,121465,1,0,0:0:0:0:
320,192,121810,1,8,0:0:0:0:
64,192,122155,1,0,0:0:0:0:
448,192,122500,1,8,0:0:0:0:
320,192,122672,1,0,0:0:0:0:
64,192,122845,1,2,0:0:0:0:
192,192,123190,1,8,0:0:0:0:
320,192,123362,1,0,0:0:0:0:
448,192,123534,1,0,0:0:0:0:
320,192,123707,1,2,0:0:0:0:
192,192,123879,1,8,0:0:0:0:
64,192,124052,1,0,0:0:0:0:
320,192,124224,1,0,0:0:0:0:
448,192,124397,1,2,0:0:0:0:
64,192,124569,1,8,0:0:0:0:
448,192,124741,1,0,0:0:0:0:
192,192,124914,1,0,0:0:0:0:
64,192,125086,1,2,0:0:0:0:
448,192,125259,1,8,0:0:0:0:
320,192,125431,1,0,0:0:0:0:
64,192,125603,1,2,0:0:0:0:
320,192,125948,1,8,0:0:0:0:
448,192,126121,1,0,0:0:0:0:
192,192,126293,1,0,0:0:0:0:
448,192,126638,1,8,0:0:0:0:
192,192,126983,1,0,0:0:0:0:
320,192,127328,1,8,0:0:0:0:
64,192,127672,1,0,0:0:0:0:
192,192,127845,1,0,0:0:0:0:
448,192,128017,1,8,0:0:0:0:
320,192,128190,1,2,0:0:0:0:
64,192,128362,1,2,0:0:0:0:
192,192,128707,1,8,0:0:0:0:
448,192,129052,1,0,0:0:0:0:
320,192,129224,1,2,0:0:0:0:
192,192,129397,1,8,0:0:0:0:
64,192,129569,1,0,0:0:0:0:
320,192,129741,1,0,0:0:0:0:
448,192,129914,1,0,0:0:0:0:
64,192,130086,1,8,0:0:0:0:
192,192,130431,1,0,0:0:0:0:
448,192,130776,1,8,0:0:0:0:
320,192,130948,1,0,0:0:0:0:
64,192,131121,1,2,0:0:0:0:
192,192,131465,1,8,0:0:0:0:
448,192,131810,1,0,0:0:0:0:
320,192,131983,1,0,0:0:0:0:
192,192,132155,1,8,0:0:0:0:
64,192,132328,1,0,0:0:0:0:
320,192,132500,1,0,0:0:0:0:
448,192,132672,1,0,0:0:0:0:
64,192,132845,1,8,0:0:0:0:
192,192,133190,1,0,0:0:0:0:
448,192,133534,1,8,0:0:0:0:
320,192,133707,1,0,0:0:0:0:
64,192,133879,1,2,0:0:0:0:
192,192,134052,1,0,0:0:0:0:
320,192,134224,1,8,0:0:0:0:
64,192,134397,1,0,0:0:0:0:
320,192,134569,1,0,0:0:0:0:
448,192,134741,1,2,0:0:0:0:
192,192,134914,1,8,0:0:0:0:
64,192,135259,1,0,0:0:0:0:
448,192,135603,1,8,0:0:0:0:
320,192,135776,1,0,0:0:0:0:
192,192,135948,1,0,0:0:0:0:
448,192,136293,1,8,0:0:0:0:
64,192,136638,1,2,0:0:0:0:
320,192,136810,1,0,0:0:0:0:
192,192,136983,1,8,0:0:0:0:
448,192,137155,1,0,0:0:0:0:
320,192,137328,1,0,0:0:0:0:
64,192,137500,1,0,0:0:0:0:
192,192,137672,1,8,0:0:0:0:
64,192,137845,1,0,0:0:0:0:
320,192,138017,1,0,0:0:0:0:
64,192,138190,1,0,0:0:0:0:
448,192,138362,1,8,0:0:0:0:
192,192,138534,1,0,0:0:0:0:
64,192,138707,128,2,138879:0:0:0:0:
320,192,138879,128,2,139052:0:0:0:0:
192,192,139052,128,0,139224:0:0:0:70:Snare 10.wav
448,192,139224,128,0,139397:0:0:0:70:Snare 10.wav
64,192,139397,1,2,0:0:0:0:
320,192,140172,1,0,0:0:0:0:
