osu file format v14

[General]
AudioFilename: audio.mp3
AudioLeadIn: 0
PreviewTime: 95259
Countdown: 0
SampleSet: Soft
StackLeniency: 0.7
Mode: 3
LetterboxInBreaks: 0
SpecialStyle: 0
WidescreenStoryboard: 1

[Editor]
DistanceSpacing: 0.8
BeatDivisor: 4
GridSize: 32
TimelineZoom: 1.3

[Metadata]
Title:Shuu no Hazama (Cut Ver.)
TitleUnicode:驟雨の狭間 (Cut Ver.)
Artist:Silentroom
ArtistUnicode:Silentroom
Creator:Monheim
Version:Insane
Source:
Tags:-mint- guden -noname- april shoegazer neurofunk electronic instrumental tech stream speed featured artist fa rainshower rain shower FRENZ 2019 drum & and bass dnb neurofunk tunecore famoss wiosna
BeatmapID:2736533
BeatmapSetID:1321003

[Difficulty]
HPDrainRate:8
CircleSize:4
OverallDifficulty:8
ApproachRate:5
SliderMultiplier:1.4
SliderTickRate:1

[Events]
//Background and Video events
0,0,"BG.jpg",0,0
//Break Periods
//Storyboard Layer 0 (Background)
//Storyboard Layer 1 (Fail)
//Storyboard Layer 2 (Pass)
//Storyboard Layer 3 (Foreground)
//Storyboard Layer 4 (Overlay)
//Storyboard Sound Samples

[TimingPoints]
1466,344.827586,4,2,1,50,1,0
2845,-100,4,2,1,60,0,0
4224,-100,4,2,1,70,0,0
7328,-100,4,2,1,70,0,1
8362,-100,4,2,1,70,0,0
8707,-100,4,2,1,70,0,1
9741,-100,4,2,1,70,0,0
10086,-100,4,2,1,70,0,1
11121,-100,4,2,1,70,0,0
11465,-100,4,2,1,70,0,1
12500,-100,4,2,1,70,0,0
12845,-100,4,2,1,70,0,1
13879,-100,4,2,1,70,0,0
14224,-100,4,2,1,70,0,1
15259,-100,4,2,1,70,0,0
15603,-100,4,2,1,70,0,1
16638,-100,4,2,1,70,0,0
16983,-100,4,2,1,70,0,1
18017,-100,4,2,1,70,0,0
26293,-100,4,2,1,55,0,0
29052,-100,4,2,1,70,0,0
70431,-100,4,2,1,60,0,0
73190,-100,4,2,1,50,0,0
84224,-100,4,2,1,60,0,0
95259,-100,4,2,1,70,0,1
116638,-100,4,2,1,70,0,0
117328,-100,4,2,1,70,0,1
139397,-100,4,2,1,70,0,0

[HitObjects]
64,192,1466,5,2,0:0:0:0:
192,192,1466,1,0,0:0:0:0:
320,192,1638,1,0,0:0:0:0:
64,192,1724,1,0,0:0:0:0:
192,192,1810,1,2,0:0:0:0:
448,192,1810,1,0,0:0:0:0:
64,192,2845,1,2,0:0:0:0:
192,192,2845,1,0,0:0:0:0:
320,192,3017,1,0,0:0:0:0:
64,192,3103,1,0,0:0:0:0:
192,192,3190,1,2,0:0:0:0:
448,192,3190,1,0,0:0:0:0:
192,192,4224,1,2,0:0:0:0:
320,192,4224,1,0,0:0:0:0:
320,192,4397,1,0,0:0:0:0:
64,192,4483,1,0,0:0:0:0:
192,192,4569,1,2,0:0:0:0:
448,192,4569,1,0,0:0:0:0:
320,192,5603,1,2,0:0:0:0:
448,192,5603,1,0,0:0:0:0:
320,192,5776,1,0,0:0:0:0:
64,192,5862,1,0,0:0:0:0:
192,192,5948,1,2,0:0:0:0:
448,192,5948,1,0,0:0:0:0:
320,192,6983,1,2,0:0:0:0:
448,192,6983,1,0,0:0:0:0:
64,192,7328,1,8,0:0:0:0:
320,192,7328,1,0,0:0:0:0:
448,192,7392,1,0,0:0:0:0:
192,192,7457,1,0,0:0:0:0:
64,192,7522,1,0,0:0:0:0:
320,192,7586,1,0,0:0:0:0:
448,192,7651,1,0,0:0:0:0:
192,192,7715,1,0,0:0:0:0:
64,192,7780,1,0,0:0:0:0:
320,192,7845,1,0,0:0:0:0:
448,192,7909,1,0,0:0:0:0:
192,192,7974,1,0,0:0:0:0:
64,192,8039,1,8,0:0:0:0:
320,192,8039,1,0,0:0:0:0:
448,192,8103,1,0,0:0:0:0:
192,192,8168,1,0,0:0:0:0:
64,192,8233,1,0,0:0:0:0:
320,192,8297,1,0,0:0:0:0:
64,192,8362,1,2,0:0:0:0:
192,192,8362,1,0,0:0:0:0:
192,192,8707,1,8,0:0:0:0:
320,192,8707,1,0,0:0:0:0:
448,192,8772,1,0,0:0:0:0:
192,192,8836,1,0,0:0:0:0:
64,192,8901,1,0,0:0:0:0:
320,192,8965,1,0,0:0:0:0:
448,192,9030,1,0,0:0:0:0:
192,192,9095,1,0,0:0:0:0:
64,192,9159,1,0,0:0:0:0:
320,192,9224,1,0,0:0:0:0:
448,192,9289,1,0,0:0:0:0:
64,192,9353,1,0,0:0:0:0:
192,192,9418,1,8,0:0:0:0:
320,192,9418,1,0,0:0:0:0:
448,192,9483,1,0,0:0:0:0:
64,192,9547,1,0,0:0:0:0:
192,192,9612,1,0,0:0:0:0:
64,192,9677,1,0,0:0:0:0:
320,192,9741,1,2,0:0:0:0:
448,192,9741,1,0,0:0:0:0:
192,192,10086,1,8,0:0:0:0:
448,192,10086,1,0,0:0:0:0:
64,192,10151,1,0,0:0:0:0:
320,192,10215,1,0,0:0:0:0:
448,192,10280,1,0,0:0:0:0:
320,192,10345,1,0,0:0:0:0:
64,192,10409,1,0,0:0:0:0:
192,192,10474,1,0,0:0:0:0:
448,192,10539,1,0,0:0:0:0:
320,192,10603,1,0,0:0:0:0:
64,192,10668,1,0,0:0:0:0:
320,192,10733,1,0,0:0:0:0:
192,192,10797,1,8,0:0:0:0:
448,192,10797,1,0,0:0:0:0:
64,192,10862,1,0,0:0:0:0:
320,192,10927,1,0,0:0:0:0:
448,192,10991,1,0,0:0:0:0:
320,192,11056,1,0,0:0:0:0:
64,192,11121,1,2,0:0:0:0:
192,192,11121,1,0,0:0:0:0:
64,192,11465,1,8,0:0:0:0:
448,192,11465,1,0,0:0:0:0:
192,192,11530,1,0,0:0:0:0:
320,192,11595,1,0,0:0:0:0:
448,192,11659,1,0,0:0:0:0:
320,192,11724,1,0,0:0:0:0:
64,192,11789,1,0,0:0:0:0:
192,192,11853,1,0,0:0:0:0:
448,192,11918,1,0,0:0:0:0:
192,192,11983,1,0,0:0:0:0:
64,192,12047,1,0,0:0:0:0:
320,192,12112,1,0,0:0:0:0:
64,192,12177,1,8,0:0:0:0:
448,192,12177,1,0,0:0:0:0:
320,192,12241,1,0,0:0:0:0:
192,192,12306,1,0,0:0:0:0:
64,192,12371,1,0,0:0:0:0:
192,192,12435,1,0,0:0:0:0:
320,192,12500,1,2,0:0:0:0:
448,192,12500,1,0,0:0:0:0:
64,192,12845,1,8,0:0:0:0:
320,192,12845,1,0,0:0:0:0:
192,192,12909,1,0,0:0:0:0:
320,192,12974,1,0,0:0:0:0:
448,192,13039,1,0,0:0:0:0:
192,192,13103,1,0,0:0:0:0:
64,192,13168,1,0,0:0:0:0:
192,192,13233,1,0,0:0:0:0:
448,192,13297,1,0,0:0:0:0:
64,192,13362,1,0,0:0:0:0:
320,192,13427,1,0,0:0:0:0:
448,192,13491,1,0,0:0:0:0:
64,192,13556,1,8,0:0:0:0:
320,192,13556,1,0,0:0:0:0:
192,192,13621,1,0,0:0:0:0:
64,192,13685,1,0,0:0:0:0:
448,192,13750,1,0,0:0:0:0:
320,192,13815,1,0,0:0:0:0:
64,192,13879,1,2,0:0:0:0:
192,192,13879,1,0,0:0:0:0:
192,192,14224,1,8,0:0:0:0:
320,192,14224,1,0,0:0:0:0:
64,192,14289,1,0,0:0:0:0:
320,192,14353,1,0,0:0:0:0:
448,192,14418,1,0,0:0:0:0:
192,192,14483,1,0,0:0:0:0:
64,192,14547,1,0,0:0:0:0:
192,192,14612,1,0,0:0:0:0:
448,192,14677,1,0,0:0:0:0:
64,192,14741,1,0,0:0:0:0:
320,192,14806,1,0,0:0:0:0:
448,192,14871,1,0,0:0:0:0:
192,192,14935,1,8,0:0:0:0:
320,192,14935,1,0,0:0:0:0:
64,192,15000,1,0,0:0:0:0:
448,192,15065,1,0,0:0:0:0:
320,192,15129,1,0,0:0:0:0:
448,192,15194,1,0,0:0:0:0:
64,192,15259,1,2,0:0:0:0:
192,192,15259,1,0,0:0:0:0:
192,192,15603,1,8,0:0:0:0:
448,192,15603,1,0,0:0:0:0:
64,192,15668,1,0,0:0:0:0:
448,192,15733,1,0,0:0:0:0:
192,192,15797,1,0,0:0:0:0:
64,192,15862,1,0,0:0:0:0:
192,192,15927,1,0,0:0:0:0:
320,192,15991,1,0,0:0:0:0:
448,192,16056,1,0,0:0:0:0:
192,192,16121,1,0,0:0:0:0:
320,192,16185,1,0,0:0:0:0:
64,192,16250,1,0,0:0:0:0:
192,192,16315,1,8,0:0:0:0:
448,192,16315,1,0,0:0:0:0:
64,192,16379,1,0,0:0:0:0:
320,192,16444,1,0,0:0:0:0:
448,192,16509,1,0,0:0:0:0:
320,192,16573,1,0,0:0:0:0:
64,192,16638,1,2,0:0:0:0:
192,192,16638,1,0,0:0:0:0:
64,192,16983,1,8,0:0:0:0:
448,192,16983,1,0,0:0:0:0:
192,192,17047,1,0,0:0:0:0:
448,192,17112,1,0,0:0:0:0:
320,192,17177,1,0,0:0:0:0:
448,192,17241,1,0,0:0:0:0:
64,192,17306,1,0,0:0:0:0:
192,192,17371,1,0,0:0:0:0:
448,192,17435,1,0,0:0:0:0:
64,192,17500,1,0,0:0:0:0:
320,192,17565,1,0,0:0:0:0:
192,192,17629,1,0,0:0:0:0:
64,192,17694,1,8,0:0:0:0:
448,192,17694,1,0,0:0:0:0:
192,192,17759,1,0,0:0:0:0:
320,192,17823,1,0,0:0:0:0:
448,192,17888,1,0,0:0:0:0:
320,192,17953,1,0,0:0:0:0:
64,192,18017,128,2,18103:0:0:0:0:
192,192,18017,128,0,18190:0:0:0:0:
192,192,18276,1,0,0:0:0:70:Snare 10.wav
64,192,18362,1,8,0:0:0:0:
448,192,18362,1,0,0:0:0:0:
192,192,18534,1,0,0:0:0:70:Snare 10.wav
448,192,18621,1,0,0:0:0:70:Snare 10.wav
192,192,18707,1,0,0:0:0:70:Snare 10.wav
320,192,18707,1,0,0:0:0:0:
192,192,18965,1,0,0:0:0:70:Snare 10.wav
320,192,18965,1,0,0:0:0:0:
64,192,19052,1,8,0:0:0:0:
448,192,19052,1,0,0:0:0:0:
192,192,19224,1,0,0:0:0:70:Snare 10.wav
320,192,19224,1,0,0:0:0:0:
320,192,19397,1,2,0:0:0:0:
448,192,19397,1,0,0:0:0:0:
192,192,19655,1,0,0:0:0:70:Snare 10.wav
320,192,19655,1,0,0:0:0:0:
64,192,19741,1,8,0:0:0:0:
448,192,19741,1,0,0:0:0:0:
320,192,19914,1,0,0:0:0:70:Snare 10.wav
64,192,20000,1,0,0:0:0:70:Snare 10.wav
192,192,20086,1,0,0:0:0:70:Snare 10.wav
320,192,20086,1,0,0:0:0:0:
192,192,20345,1,0,0:0:0:70:Snare 10.wav
320,192,20345,1,0,0:0:0:0:
64,192,20431,1,8,0:0:0:0:
448,192,20431,1,0,0:0:0:0:
192,192,20603,1,0,0:0:0:70:Snare 10.wav
320,192,20603,1,0,0:0:0:0:
64,192,20776,1,2,0:0:0:0:
320,192,20776,1,0,0:0:0:0:
192,192,21034,1,0,0:0:0:70:Snare 10.wav
320,192,21034,1,0,0:0:0:0:
64,192,21121,1,8,0:0:0:0:
448,192,21121,1,0,0:0:0:0:
192,192,21293,1,0,0:0:0:70:Snare 10.wav
448,192,21379,1,0,0:0:0:70:Snare 10.wav
192,192,21465,1,0,0:0:0:70:Snare 10.wav
320,192,21465,1,0,0:0:0:0:
192,192,21724,1,0,0:0:0:70:Snare 10.wav
320,192,21724,1,0,0:0:0:0:
64,192,21810,1,8,0:0:0:0:
448,192,21810,1,0,0:0:0:0:
192,192,21983,1,0,0:0:0:70:Snare 10.wav
320,192,21983,1,0,0:0:0:0:
192,192,22155,1,2,0:0:0:0:
448,192,22155,1,0,0:0:0:0:
192,192,22414,1,0,0:0:0:70:Snare 10.wav
320,192,22414,1,0,0:0:0:0:
64,192,22500,1,8,0:0:0:0:
448,192,22500,1,0,0:0:0:0:
192,192,22672,1,0,0:0:0:70:Snare 10.wav
448,192,22759,1,0,0:0:0:70:Snare 10.wav
192,192,22845,1,0,0:0:0:70:Snare 10.wav
320,192,22845,1,0,0:0:0:0:
192,192,23103,1,0,0:0:0:70:Snare 10.wav
320,192,23103,1,0,0:0:0:0:
64,192,23190,1,8,0:0:0:0:
448,192,23190,1,0,0:0:0:0:
192,192,23362,1,0,0:0:0:70:Snare 10.wav
320,192,23362,1,0,0:0:0:0:
64,192,23534,1,2,0:0:0:0:
192,192,23534,1,0,0:0:0:0:
320,192,23707,1,0,0:0:0:70:Snare 10.wav
448,192,23707,1,0,0:0:0:0:
64,192,23879,1,8,0:0:0:0:
448,192,23879,1,0,0:0:0:0:
192,192,24052,1,0,0:0:0:70:Snare 10.wav
320,192,24052,1,0,0:0:0:0:
64,192,24138,1,0,0:0:0:70:Snare 10.wav
320,192,24224,1,0,0:0:0:70:Snare 10.wav
448,192,24224,1,0,0:0:0:0:
64,192,24397,1,0,0:0:0:70:Snare 10.wav
192,192,24397,1,0,0:0:0:0:
64,192,24569,1,8,0:0:0:0:
448,192,24569,1,0,0:0:0:0:
192,192,24741,1,0,0:0:0:70:Snare 10.wav
320,192,24741,1,0,0:0:0:0:
192,192,24914,1,2,0:0:0:0:
448,192,24914,1,0,0:0:0:0:
64,192,25086,1,0,0:0:0:70:Snare 10.wav
192,192,25086,1,0,0:0:0:0:
64,192,25259,1,8,0:0:0:0:
448,192,25259,1,0,0:0:0:0:
192,192,25431,1,0,0:0:0:70:Snare 10.wav
320,192,25431,1,0,0:0:0:0:
64,192,25603,1,0,0:0:0:70:Snare 10.wav
320,192,25603,1,0,0:0:0:0:
320,192,25776,1,0,0:0:0:70:Snare 10.wav
448,192,25776,1,0,0:0:0:0:
64,192,25948,1,8,0:0:0:0:
448,192,25948,1,0,0:0:0:0:
192,192,26121,1,0,0:0:0:70:Snare 10.wav
320,192,26121,1,0,0:0:0:0:
64,192,26293,1,2,0:0:0:0:
192,192,26293,1,0,0:0:0:0:
448,192,26379,1,0,0:0:0:70:Snare 10.wav
192,192,26465,1,0,0:0:0:70:Snare 10.wav
320,192,26552,1,0,0:0:0:70:Snare 10.wav
64,192,26638,1,8,0:0:0:0:
448,192,26638,1,0,0:0:0:0:
192,192,26724,1,0,0:0:0:70:Snare 10.wav
448,192,26810,1,0,0:0:0:70:Snare 10.wav
64,192,26897,1,0,0:0:0:70:Snare 10.wav
320,192,26983,1,0,0:0:0:70:Snare 10.wav
448,192,27069,1,0,0:0:0:70:Snare 10.wav
192,192,27155,1,0,0:0:0:70:Snare 10.wav
320,192,27241,1,0,0:0:0:70:Snare 10.wav
64,192,27328,1,8,0:0:0:0:
448,192,27328,1,0,0:0:0:0:
192,192,27414,1,0,0:0:0:70:Snare 10.wav
320,192,27500,1,0,0:0:0:70:Snare 10.wav
64,192,27586,1,0,0:0:0:70:Snare 10.wav
448,192,27672,128,0,28707:0:0:0:0:
192,192,28793,1,0,0:0:0:0:
64,192,28879,1,0,0:0:0:0:
320,192,29052,1,2,0:0:0:0:
448,192,29052,1,0,0:0:0:0:
192,192,29109,1,0,0:0:0:0:
64,192,29167,1,0,0:0:0:0:
320,192,29224,1,0,0:0:0:0:
192,192,29310,1,2,0:0:0:0:
64,192,29397,1,8,0:0:0:0:
448,192,29397,1,0,0:0:0:0:
320,192,29461,1,0,0:0:0:0:
192,192,29526,1,0,0:0:0:0:
448,192,29590,1,0,0:0:0:0:
64,192,29655,1,2,0:0:0:0:
192,192,29655,1,0,0:0:0:0:
320,192,29741,1,0,0:0:0:0:
448,192,29799,1,0,0:0:0:0:
192,192,30000,1,2,0:0:0:0:
64,192,30086,1,8,0:0:0:0:
448,192,30086,1,0,0:0:0:0:
320,192,30151,1,0,0:0:0:0:
192,192,30215,1,0,0:0:0:0:
448,192,30280,1,0,0:0:0:0:
64,192,30345,1,2,0:0:0:0:
192,192,30345,1,0,0:0:0:0:
320,192,30431,1,0,0:0:0:0:
448,192,30488,1,0,0:0:0:0:
64,192,30517,1,2,0:0:0:0:
192,192,30517,1,0,0:0:0:0:
448,192,30603,1,2,0:0:0:0:
192,192,30690,1,2,0:0:0:0:
64,192,30776,1,8,0:0:0:0:
448,192,30776,1,0,0:0:0:0:
320,192,30840,1,0,0:0:0:0:
192,192,30905,1,0,0:0:0:0:
448,192,30970,1,0,0:0:0:0:
64,192,31034,1,2,0:0:0:0:
192,192,31034,1,0,0:0:0:0:
320,192,31121,1,0,0:0:0:0:
448,192,31178,1,0,0:0:0:0:
192,192,31379,1,2,0:0:0:0:
64,192,31465,1,8,0:0:0:0:
448,192,31465,1,0,0:0:0:0:
320,192,31530,1,0,0:0:0:0:
192,192,31595,1,0,0:0:0:0:
448,192,31659,1,0,0:0:0:0:
64,192,31724,1,2,0:0:0:0:
192,192,31724,1,0,0:0:0:0:
64,192,31810,1,2,0:0:0:0:
192,192,31810,1,0,0:0:0:0:
320,192,31868,1,0,0:0:0:0:
448,192,31925,1,0,0:0:0:0:
192,192,32069,1,2,0:0:0:0:
64,192,32155,1,8,0:0:0:0:
448,192,32155,1,0,0:0:0:0:
320,192,32220,1,0,0:0:0:0:
192,192,32284,1,0,0:0:0:0:
448,192,32349,1,0,0:0:0:0:
64,192,32414,1,2,0:0:0:0:
192,192,32414,1,0,0:0:0:0:
320,192,32500,1,0,0:0:0:0:
448,192,32557,1,0,0:0:0:0:
192,192,32759,1,2,0:0:0:0:
64,192,32845,1,8,0:0:0:0:
448,192,32845,1,0,0:0:0:0:
320,192,32909,1,0,0:0:0:0:
64,192,33017,1,2,0:0:0:0:
192,192,33017,1,0,0:0:0:0:
320,192,33075,1,0,0:0:0:0:
448,192,33132,1,0,0:0:0:0:
64,192,33276,1,2,0:0:0:0:
192,192,33276,1,0,0:0:0:0:
448,192,33362,1,2,0:0:0:0:
192,192,33448,1,2,0:0:0:0:
64,192,33534,1,8,0:0:0:0:
448,192,33534,1,0,0:0:0:0:
320,192,33599,1,0,0:0:0:0:
192,192,33664,1,0,0:0:0:0:
448,192,33728,1,0,0:0:0:0:
64,192,33793,1,2,0:0:0:0:
192,192,33793,1,0,0:0:0:0:
320,192,33879,1,0,0:0:0:0:
448,192,33937,1,0,0:0:0:0:
64,192,33965,1,0,0:0:0:0:
320,192,34052,1,0,0:0:0:0:
192,192,34138,1,2,0:0:0:0:
64,192,34224,1,8,0:0:0:0:
448,192,34224,1,0,0:0:0:0:
320,192,34289,1,0,0:0:0:0:
64,192,34397,1,2,0:0:0:0:
192,192,34397,1,0,0:0:0:0:
320,192,34569,1,2,0:0:0:0:
448,192,34569,1,0,0:0:0:0:
192,192,34626,1,0,0:0:0:0:
64,192,34684,1,0,0:0:0:0:
320,192,34828,1,2,0:0:0:0:
64,192,34914,1,8,0:0:0:0:
448,192,34914,1,0,0:0:0:0:
192,192,34978,1,0,0:0:0:0:
320,192,35043,1,0,0:0:0:0:
64,192,35108,1,0,0:0:0:0:
320,192,35172,1,2,0:0:0:0:
448,192,35172,1,0,0:0:0:0:
192,192,35259,1,0,0:0:0:0:
64,192,35316,1,0,0:0:0:0:
320,192,35517,1,2,0:0:0:0:
64,192,35603,1,8,0:0:0:0:
448,192,35603,1,0,0:0:0:0:
192,192,35668,1,0,0:0:0:0:
320,192,35776,1,2,0:0:0:0:
448,192,35776,1,0,0:0:0:0:
192,192,35833,1,0,0:0:0:0:
64,192,35891,1,0,0:0:0:0:
320,192,36034,1,2,0:0:0:0:
448,192,36034,1,0,0:0:0:0:
64,192,36121,1,2,0:0:0:0:
320,192,36207,1,2,0:0:0:0:
64,192,36293,1,8,0:0:0:0:
448,192,36293,1,0,0:0:0:0:
192,192,36358,1,0,0:0:0:0:
320,192,36422,1,0,0:0:0:0:
64,192,36487,1,0,0:0:0:0:
320,192,36552,1,2,0:0:0:0:
448,192,36552,1,0,0:0:0:0:
192,192,36638,1,0,0:0:0:0:
64,192,36695,1,0,0:0:0:0:
320,192,36897,1,2,0:0:0:0:
64,192,36983,1,8,0:0:0:0:
448,192,36983,1,0,0:0:0:0:
192,192,37047,1,0,0:0:0:0:
320,192,37112,1,0,0:0:0:0:
64,192,37177,1,0,0:0:0:0:
320,192,37241,1,2,0:0:0:0:
448,192,37241,1,0,0:0:0:0:
320,192,37328,1,2,0:0:0:0:
448,192,37328,1,0,0:0:0:0:
192,192,37385,1,0,0:0:0:0:
64,192,37443,1,0,0:0:0:0:
320,192,37586,1,2,0:0:0:0:
64,192,37672,1,8,0:0:0:0:
448,192,37672,1,0,0:0:0:0:
192,192,37737,1,0,0:0:0:0:
320,192,37802,1,0,0:0:0:0:
64,192,37866,1,0,0:0:0:0:
320,192,37931,1,2,0:0:0:0:
448,192,37931,1,0,0:0:0:0:
192,192,38017,1,0,0:0:0:0:
64,192,38075,1,0,0:0:0:0:
320,192,38276,1,2,0:0:0:0:
64,192,38362,1,8,0:0:0:0:
448,192,38362,1,0,0:0:0:0:
192,192,38427,1,0,0:0:0:0:
320,192,38534,1,2,0:0:0:0:
448,192,38534,1,0,0:0:0:0:
192,192,38578,1,0,0:0:0:0:
64,192,38621,1,0,0:0:0:0:
320,192,38793,1,2,0:0:0:0:
448,192,38793,1,0,0:0:0:0:
64,192,38879,1,2,0:0:0:0:
320,192,38965,1,2,0:0:0:0:
64,192,39052,128,8,39101:0:0:0:0:
448,192,39052,1,0,0:0:0:0:
192,192,39101,128,0,39150:0:0:0:0:
320,192,39150,128,0,39199:0:0:0:0:
64,192,39224,1,0,0:0:0:0:
320,192,39310,128,2,39359:0:0:0:0:
448,192,39310,1,0,0:0:0:0:
192,192,39359,128,0,39408:0:0:0:0:
64,192,39408,128,0,39457:0:0:0:0:
320,192,39655,1,2,0:0:0:0:
64,192,39741,1,8,0:0:0:0:
448,192,39741,1,0,0:0:0:0:
192,192,39828,1,0,0:0:0:0:
320,192,39914,1,2,0:0:0:0:
448,192,39914,1,0,0:0:0:0:
64,192,40000,1,0,0:0:0:0:
320,192,40086,1,2,0:0:0:0:
448,192,40086,1,0,0:0:0:0:
192,192,40144,1,0,0:0:0:0:
64,192,40201,1,0,0:0:0:0:
320,192,40259,1,0,0:0:0:0:
192,192,40345,1,2,0:0:0:0:
64,192,40431,1,8,0:0:0:0:
448,192,40431,1,0,0:0:0:0:
320,192,40496,1,0,0:0:0:0:
192,192,40560,1,0,0:0:0:0:
448,192,40625,1,0,0:0:0:0:
64,192,40690,1,2,0:0:0:0:
192,192,40690,1,0,0:0:0:0:
320,192,40776,1,0,0:0:0:0:
448,192,40833,1,0,0:0:0:0:
192,192,41034,1,2,0:0:0:0:
64,192,41121,1,8,0:0:0:0:
448,192,41121,1,0,0:0:0:0:
320,192,41185,1,0,0:0:0:0:
192,192,41250,1,0,0:0:0:0:
448,192,41315,1,0,0:0:0:0:
64,192,41379,1,2,0:0:0:0:
192,192,41379,1,0,0:0:0:0:
320,192,41465,1,0,0:0:0:0:
448,192,41523,1,0,0:0:0:0:
64,192,41552,1,2,0:0:0:0:
192,192,41552,1,0,0:0:0:0:
448,192,41638,1,2,0:0:0:0:
192,192,41724,1,2,0:0:0:0:
64,192,41810,1,8,0:0:0:0:
448,192,41810,1,0,0:0:0:0:
320,192,41875,1,0,0:0:0:0:
192,192,41940,1,0,0:0:0:0:
448,192,42004,1,0,0:0:0:0:
64,192,42069,1,2,0:0:0:0:
192,192,42069,1,0,0:0:0:0:
320,192,42155,1,0,0:0:0:0:
448,192,42213,1,0,0:0:0:0:
192,192,42414,1,2,0:0:0:0:
64,192,42500,1,8,0:0:0:0:
448,192,42500,1,0,0:0:0:0:
320,192,42565,1,0,0:0:0:0:
192,192,42629,1,0,0:0:0:0:
448,192,42694,1,0,0:0:0:0:
64,192,42759,1,2,0:0:0:0:
192,192,42759,1,0,0:0:0:0:
64,192,42845,1,2,0:0:0:0:
192,192,42845,1,0,0:0:0:0:
320,192,42902,1,0,0:0:0:0:
448,192,42960,1,0,0:0:0:0:
192,192,43103,1,2,0:0:0:0:
64,192,43190,1,8,0:0:0:0:
448,192,43190,1,0,0:0:0:0:
320,192,43254,1,0,0:0:0:0:
192,192,43319,1,0,0:0:0:0:
448,192,43384,1,0,0:0:0:0:
64,192,43448,1,2,0:0:0:0:
192,192,43448,1,0,0:0:0:0:
320,192,43534,1,0,0:0:0:0:
448,192,43592,1,0,0:0:0:0:
192,192,43793,1,2,0:0:0:0:
64,192,43879,1,8,0:0:0:0:
448,192,43879,1,0,0:0:0:0:
320,192,43944,1,0,0:0:0:0:
64,192,44052,1,2,0:0:0:0:
192,192,44052,1,0,0:0:0:0:
320,192,44109,1,0,0:0:0:0:
448,192,44167,1,0,0:0:0:0:
64,192,44310,1,2,0:0:0:0:
192,192,44310,1,0,0:0:0:0:
448,192,44397,1,2,0:0:0:0:
192,192,44483,1,2,0:0:0:0:
64,192,44569,1,8,0:0:0:0:
448,192,44569,1,0,0:0:0:0:
320,192,44634,1,0,0:0:0:0:
192,192,44698,1,0,0:0:0:0:
448,192,44763,1,0,0:0:0:0:
64,192,44828,1,2,0:0:0:0:
192,192,44828,1,0,0:0:0:0:
320,192,44914,1,0,0:0:0:0:
448,192,44971,1,0,0:0:0:0:
64,192,45000,1,0,0:0:0:0:
320,192,45086,1,0,0:0:0:0:
192,192,45172,1,2,0:0:0:0:
64,192,45259,1,8,0:0:0:0:
448,192,45259,1,0,0:0:0:0:
320,192,45323,1,0,0:0:0:0:
64,192,45431,1,2,0:0:0:0:
192,192,45431,1,0,0:0:0:0:
320,192,45603,1,2,0:0:0:0:
448,192,45603,1,0,0:0:0:0:
192,192,45661,1,0,0:0:0:0:
64,192,45718,1,0,0:0:0:0:
320,192,45862,1,2,0:0:0:0:
64,192,45948,1,8,0:0:0:0:
448,192,45948,1,0,0:0:0:0:
192,192,46013,1,0,0:0:0:0:
320,192,46078,1,0,0:0:0:0:
64,192,46142,1,0,0:0:0:0:
320,192,46207,1,2,0:0:0:0:
448,192,46207,1,0,0:0:0:0:
192,192,46293,1,0,0:0:0:0:
64,192,46351,1,0,0:0:0:0:
320,192,46552,1,2,0:0:0:0:
64,192,46638,1,8,0:0:0:0:
448,192,46638,1,0,0:0:0:0:
192,192,46703,1,0,0:0:0:0:
320,192,46810,1,2,0:0:0:0:
448,192,46810,1,0,0:0:0:0:
192,192,46868,1,0,0:0:0:0:
64,192,46925,1,0,0:0:0:0:
320,192,47069,1,2,0:0:0:0:
448,192,47069,1,0,0:0:0:0:
64,192,47155,1,2,0:0:0:0:
320,192,47241,1,2,0:0:0:0:
64,192,47328,1,8,0:0:0:0:
448,192,47328,1,0,0:0:0:0:
192,192,47392,1,0,0:0:0:0:
320,192,47457,1,0,0:0:0:0:
64,192,47522,1,0,0:0:0:0:
320,192,47586,1,2,0:0:0:0:
448,192,47586,1,0,0:0:0:0:
192,192,47672,1,0,0:0:0:0:
64,192,47730,1,0,0:0:0:0:
320,192,47931,1,2,0:0:0:0:
64,192,48017,1,8,0:0:0:0:
448,192,48017,1,0,0:0:0:0:
192,192,48082,1,0,0:0:0:0:
320,192,48147,1,0,0:0:0:0:
64,192,48211,1,0,0:0:0:0:
320,192,48276,1,2,0:0:0:0:
448,192,48276,1,0,0:0:0:0:
320,192,48362,1,2,0:0:0:0:
448,192,48362,1,0,0:0:0:0:
192,192,48420,1,0,0:0:0:0:
64,192,48477,1,0,0:0:0:0:
320,192,48621,1,2,0:0:0:0:
64,192,48707,1,8,0:0:0:0:
448,192,48707,1,0,0:0:0:0:
192,192,48772,1,0,0:0:0:0:
320,192,48836,1,0,0:0:0:0:
64,192,48901,1,0,0:0:0:0:
320,192,48965,1,2,0:0:0:0:
448,192,48965,1,0,0:0:0:0:
192,192,49052,1,0,0:0:0:0:
64,192,49109,1,0,0:0:0:0:
320,192,49310,1,2,0:0:0:0:
64,192,49397,1,8,0:0:0:0:
448,192,49397,1,0,0:0:0:0:
192,192,49461,1,0,0:0:0:0:
320,192,49569,1,2,0:0:0:0:
448,192,49569,1,0,0:0:0:0:
192,192,49612,1,0,0:0:0:0:
64,192,49655,1,0,0:0:0:0:
320,192,49828,1,2,0:0:0:0:
448,192,49828,1,0,0:0:0:0:
64,192,49914,1,2,0:0:0:0:
320,192,50000,1,2,0:0:0:0:
64,192,50086,1,8,0:0:0:0:
448,192,50086,1,0,0:0:0:0:
192,192,50151,1,0,0:0:0:0:
320,192,50215,1,0,0:0:0:0:
64,192,50280,1,0,0:0:0:0:
320,192,50345,1,2,0:0:0:0:
448,192,50345,1,0,0:0:0:0:
192,192,50431,128,0,50517:0:0:0:0:
64,192,50517,128,0,50603:0:0:0:0:
448,192,50603,128,0,50690:0:0:0:0:
320,192,50690,128,0,50776:0:0:0:0:
192,192,50776,128,0,50862:0:0:0:0:
448,192,50862,128,0,50948:0:0:0:0:
192,192,50948,128,0,51034:0:0:0:0:
64,192,51034,128,0,51121:0:0:0:0:
320,192,51121,1,2,0:0:0:0:
448,192,51121,1,0,0:0:0:0:
192,192,51379,1,2,0:0:0:0:
64,192,51465,1,8,0:0:0:0:
320,192,51465,1,0,0:0:0:0:
448,192,51530,1,0,0:0:0:0:
64,192,51595,1,0,0:0:0:0:
192,192,51659,1,0,0:0:0:0:
320,192,51724,1,2,0:0:0:0:
448,192,51724,1,0,0:0:0:0:
192,192,51810,1,0,0:0:0:0:
64,192,51868,1,0,0:0:0:0:
192,192,52069,1,2,0:0:0:0:
64,192,52155,1,8,0:0:0:0:
320,192,52155,1,0,0:0:0:0:
448,192,52220,1,0,0:0:0:0:
64,192,52284,1,0,0:0:0:0:
192,192,52349,1,0,0:0:0:0:
320,192,52414,1,2,0:0:0:0:
448,192,52414,1,0,0:0:0:0:
192,192,52500,1,0,0:0:0:0:
64,192,52557,1,0,0:0:0:0:
320,192,52586,1,2,0:0:0:0:
448,192,52586,1,0,0:0:0:0:
192,192,52672,1,2,0:0:0:0:
448,192,52759,1,2,0:0:0:0:
64,192,52845,1,8,0:0:0:0:
320,192,52845,1,0,0:0:0:0:
448,192,52909,1,0,0:0:0:0:
64,192,52974,1,0,0:0:0:0:
192,192,53039,1,0,0:0:0:0:
320,192,53103,1,2,0:0:0:0:
448,192,53103,1,0,0:0:0:0:
192,192,53190,1,0,0:0:0:0:
64,192,53247,1,0,0:0:0:0:
448,192,53362,1,0,0:0:0:0:
192,192,53448,1,2,0:0:0:0:
64,192,53534,1,8,0:0:0:0:
320,192,53534,1,0,0:0:0:0:
448,192,53599,1,0,0:0:0:0:
64,192,53664,1,0,0:0:0:0:
192,192,53728,1,0,0:0:0:0:
320,192,53793,1,2,0:0:0:0:
448,192,53793,1,0,0:0:0:0:
320,192,53879,1,2,0:0:0:0:
448,192,53879,1,0,0:0:0:0:
192,192,53937,1,0,0:0:0:0:
64,192,53994,1,0,0:0:0:0:
192,192,54138,1,2,0:0:0:0:
64,192,54224,1,8,0:0:0:0:
320,192,54224,1,0,0:0:0:0:
448,192,54289,1,0,0:0:0:0:
64,192,54353,1,0,0:0:0:0:
192,192,54418,1,0,0:0:0:0:
320,192,54483,1,2,0:0:0:0:
448,192,54483,1,0,0:0:0:0:
192,192,54569,1,0,0:0:0:0:
64,192,54626,1,0,0:0:0:0:
448,192,54828,1,2,0:0:0:0:
64,192,54914,1,8,0:0:0:0:
320,192,54914,1,0,0:0:0:0:
192,192,54978,1,0,0:0:0:0:
320,192,55086,1,2,0:0:0:0:
448,192,55086,1,0,0:0:0:0:
192,192,55144,1,0,0:0:0:0:
64,192,55201,1,0,0:0:0:0:
320,192,55345,1,2,0:0:0:0:
448,192,55345,1,0,0:0:0:0:
64,192,55431,1,2,0:0:0:0:
320,192,55517,1,2,0:0:0:0:
192,192,55603,1,8,0:0:0:0:
448,192,55603,1,0,0:0:0:0:
64,192,55668,1,0,0:0:0:0:
448,192,55733,1,0,0:0:0:0:
320,192,55797,1,0,0:0:0:0:
64,192,55862,1,2,0:0:0:0:
192,192,55862,1,0,0:0:0:0:
320,192,55948,1,0,0:0:0:0:
448,192,56006,1,0,0:0:0:0:
64,192,56121,1,0,0:0:0:0:
320,192,56207,1,2,0:0:0:0:
192,192,56293,1,8,0:0:0:0:
448,192,56293,1,0,0:0:0:0:
64,192,56358,1,0,0:0:0:0:
320,192,56465,1,2,0:0:0:0:
448,192,56465,1,0,0:0:0:0:
64,192,56638,1,2,0:0:0:0:
192,192,56638,1,0,0:0:0:0:
320,192,56695,1,0,0:0:0:0:
448,192,56753,1,0,0:0:0:0:
64,192,56897,1,2,0:0:0:0:
192,192,56983,1,8,0:0:0:0:
320,192,56983,1,0,0:0:0:0:
64,192,57047,1,0,0:0:0:0:
448,192,57112,1,0,0:0:0:0:
320,192,57177,1,0,0:0:0:0:
64,192,57241,1,2,0:0:0:0:
192,192,57241,1,0,0:0:0:0:
320,192,57328,1,0,0:0:0:0:
448,192,57385,1,0,0:0:0:0:
64,192,57586,1,2,0:0:0:0:
192,192,57672,1,8,0:0:0:0:
320,192,57672,1,0,0:0:0:0:
448,192,57737,1,0,0:0:0:0:
64,192,57845,1,2,0:0:0:0:
192,192,57845,1,0,0:0:0:0:
320,192,57902,1,0,0:0:0:0:
448,192,57960,1,0,0:0:0:0:
64,192,58103,1,2,0:0:0:0:
192,192,58103,1,0,0:0:0:0:
320,192,58190,1,2,0:0:0:0:
64,192,58276,1,2,0:0:0:0:
192,192,58362,1,8,0:0:0:0:
320,192,58362,1,0,0:0:0:0:
64,192,58427,1,0,0:0:0:0:
448,192,58491,1,0,0:0:0:0:
320,192,58556,1,0,0:0:0:0:
64,192,58621,1,2,0:0:0:0:
192,192,58621,1,0,0:0:0:0:
320,192,58707,1,0,0:0:0:0:
448,192,58764,1,0,0:0:0:0:
192,192,58879,1,0,0:0:0:0:
64,192,58965,1,2,0:0:0:0:
192,192,59052,1,8,0:0:0:0:
320,192,59052,1,0,0:0:0:0:
64,192,59116,1,0,0:0:0:0:
448,192,59181,1,0,0:0:0:0:
320,192,59246,1,0,0:0:0:0:
64,192,59310,1,2,0:0:0:0:
192,192,59310,1,0,0:0:0:0:
64,192,59397,1,2,0:0:0:0:
192,192,59397,1,0,0:0:0:0:
320,192,59454,1,0,0:0:0:0:
448,192,59511,1,0,0:0:0:0:
320,192,59655,1,2,0:0:0:0:
64,192,59741,1,8,0:0:0:0:
448,192,59741,1,0,0:0:0:0:
192,192,59806,1,0,0:0:0:0:
448,192,59871,1,0,0:0:0:0:
320,192,59935,1,0,0:0:0:0:
64,192,60000,1,2,0:0:0:0:
192,192,60000,1,0,0:0:0:0:
320,192,60086,1,0,0:0:0:0:
448,192,60144,1,0,0:0:0:0:
320,192,60345,1,2,0:0:0:0:
64,192,60431,1,8,0:0:0:0:
448,192,60431,1,0,0:0:0:0:
320,192,60496,1,0,0:0:0:0:
64,192,60603,1,2,0:0:0:0:
192,192,60603,1,0,0:0:0:0:
320,192,60661,1,0,0:0:0:0:
448,192,60718,1,0,0:0:0:0:
64,192,60862,1,2,0:0:0:0:
192,192,60862,1,0,0:0:0:0:
448,192,60948,1,2,0:0:0:0:
192,192,61034,1,2,0:0:0:0:
64,192,61121,1,8,0:0:0:0:
320,192,61121,1,0,0:0:0:0:
448,192,61185,1,0,0:0:0:0:
192,192,61250,1,0,0:0:0:0:
320,192,61315,1,0,0:0:0:0:
64,192,61379,1,2,0:0:0:0:
192,192,61379,1,0,0:0:0:0:
320,192,61465,1,0,0:0:0:0:
448,192,61523,1,0,0:0:0:0:
64,192,61638,1,0,0:0:0:0:
192,192,61724,1,2,0:0:0:0:
64,192,61810,1,8,0:0:0:0:
320,192,61810,1,0,0:0:0:0:
448,192,61875,1,0,0:0:0:0:
64,192,61983,1,2,0:0:0:0:
192,192,61983,1,0,0:0:0:0:
320,192,62155,1,2,0:0:0:0:
448,192,62155,1,0,0:0:0:0:
192,192,62213,1,0,0:0:0:0:
64,192,62270,1,0,0:0:0:0:
320,192,62328,1,0,0:0:0:0:
448,192,62414,1,2,0:0:0:0:
192,192,62500,1,8,0:0:0:0:
320,192,62500,1,0,0:0:0:0:
448,192,62565,1,0,0:0:0:0:
64,192,62629,1,0,0:0:0:0:
192,192,62694,1,0,0:0:0:0:
320,192,62759,1,2,0:0:0:0:
448,192,62759,1,0,0:0:0:0:
192,192,62845,1,0,0:0:0:0:
64,192,62902,1,0,0:0:0:0:
448,192,63103,1,2,0:0:0:0:
192,192,63190,1,8,0:0:0:0:
320,192,63190,1,0,0:0:0:0:
448,192,63254,1,0,0:0:0:0:
64,192,63319,1,0,0:0:0:0:
192,192,63384,1,0,0:0:0:0:
320,192,63448,1,2,0:0:0:0:
448,192,63448,1,0,0:0:0:0:
192,192,63534,1,0,0:0:0:0:
64,192,63592,1,0,0:0:0:0:
320,192,63621,1,2,0:0:0:0:
448,192,63621,1,0,0:0:0:0:
192,192,63707,1,2,0:0:0:0:
448,192,63793,1,2,0:0:0:0:
192,192,63879,1,8,0:0:0:0:
320,192,63879,1,0,0:0:0:0:
448,192,63944,1,0,0:0:0:0:
64,192,64009,1,0,0:0:0:0:
192,192,64073,1,0,0:0:0:0:
320,192,64138,1,2,0:0:0:0:
448,192,64138,1,0,0:0:0:0:
192,192,64224,1,0,0:0:0:0:
64,192,64282,1,0,0:0:0:0:
320,192,64397,1,0,0:0:0:0:
448,192,64483,1,2,0:0:0:0:
192,192,64569,1,8,0:0:0:0:
320,192,64569,128,0,64655:0:0:0:0:
448,192,64655,128,0,64698:0:0:0:0:
64,192,64720,1,0,0:0:0:0:
192,192,64784,1,0,0:0:0:0:
320,192,64828,1,2,0:0:0:0:
448,192,64828,1,0,0:0:0:0:
320,192,64914,1,2,0:0:0:0:
448,192,64914,1,0,0:0:0:0:
192,192,64971,1,0,0:0:0:0:
64,192,65029,1,0,0:0:0:0:
320,192,65086,1,0,0:0:0:0:
64,192,65172,1,2,0:0:0:0:
192,192,65259,1,8,0:0:0:0:
448,192,65259,1,0,0:0:0:0:
320,192,65323,1,0,0:0:0:0:
192,192,65388,1,0,0:0:0:0:
64,192,65453,1,0,0:0:0:0:
320,192,65517,1,2,0:0:0:0:
448,192,65517,1,0,0:0:0:0:
64,192,65603,1,0,0:0:0:0:
192,192,65661,1,0,0:0:0:0:
64,192,65862,1,2,0:0:0:0:
192,192,65948,1,8,0:0:0:0:
448,192,65948,1,0,0:0:0:0:
64,192,66013,1,0,0:0:0:0:
320,192,66121,1,2,0:0:0:0:
448,192,66121,1,0,0:0:0:0:
64,192,66178,1,0,0:0:0:0:
192,192,66236,1,0,0:0:0:0:
320,192,66379,1,2,0:0:0:0:
448,192,66379,1,0,0:0:0:0:
64,192,66465,1,2,0:0:0:0:
320,192,66552,1,2,0:0:0:0:
64,192,66638,1,8,0:0:0:0:
448,192,66638,1,0,0:0:0:0:
320,192,66703,1,0,0:0:0:0:
192,192,66767,1,0,0:0:0:0:
64,192,66832,1,0,0:0:0:0:
320,192,66897,1,2,0:0:0:0:
448,192,66897,1,0,0:0:0:0:
64,192,66983,1,0,0:0:0:0:
192,192,67040,1,0,0:0:0:0:
448,192,67155,1,0,0:0:0:0:
320,192,67241,1,2,0:0:0:0:
64,192,67328,1,8,0:0:0:0:
448,192,67328,1,0,0:0:0:0:
192,192,67392,1,0,0:0:0:0:
320,192,67500,1,2,0:0:0:0:
448,192,67500,1,0,0:0:0:0:
64,192,67672,1,2,0:0:0:0:
192,192,67672,1,0,0:0:0:0:
320,192,67730,1,0,0:0:0:0:
448,192,67787,1,0,0:0:0:0:
192,192,67845,1,0,0:0:0:0:
64,192,67931,1,2,0:0:0:0:
192,192,68017,1,8,0:0:0:0:
320,192,68017,1,0,0:0:0:0:
64,192,68082,1,0,0:0:0:0:
448,192,68147,1,0,0:0:0:0:
320,192,68211,1,0,0:0:0:0:
64,192,68276,1,2,0:0:0:0:
192,192,68276,1,0,0:0:0:0:
320,192,68362,1,0,0:0:0:0:
448,192,68420,1,0,0:0:0:0:
64,192,68621,1,2,0:0:0:0:
192,192,68707,1,8,0:0:0:0:
320,192,68707,1,0,0:0:0:0:
448,192,68772,1,0,0:0:0:0:
64,192,68879,1,2,0:0:0:0:
192,192,68879,1,0,0:0:0:0:
320,192,68937,1,0,0:0:0:0:
448,192,68994,1,0,0:0:0:0:
64,192,69138,1,2,0:0:0:0:
192,192,69138,1,0,0:0:0:0:
320,192,69224,1,2,0:0:0:0:
64,192,69310,1,2,0:0:0:0:
192,192,69397,1,8,0:0:0:0:
320,192,69397,1,0,0:0:0:0:
64,192,69461,1,0,0:0:0:0:
448,192,69526,1,0,0:0:0:0:
320,192,69590,1,0,0:0:0:0:
64,192,69655,1,2,0:0:0:0:
192,192,69655,1,0,0:0:0:0:
320,192,69741,1,0,0:0:0:0:
448,192,69799,1,0,0:0:0:0:
192,192,69914,1,0,0:0:0:0:
64,192,70000,1,2,0:0:0:0:
192,192,70086,1,8,0:0:0:0:
320,192,70086,1,0,0:0:0:0:
64,192,70151,1,0,0:0:0:0:
448,192,70215,1,0,0:0:0:0:
320,192,70280,1,0,0:0:0:0:
64,192,70345,1,2,0:0:0:0:
192,192,70345,1,0,0:0:0:0:
320,192,70431,1,2,0:0:0:0:
448,192,70431,1,0,0:0:0:0:
192,192,70488,1,0,0:0:0:0:
64,192,70546,1,0,0:0:0:0:
448,192,70603,1,0,0:0:0:0:
320,192,70690,1,2,0:0:0:0:
192,192,70776,1,8,0:0:0:0:
448,192,70776,1,0,0:0:0:0:
320,192,70840,1,0,0:0:0:0:
64,192,70905,1,0,0:0:0:0:
192,192,70970,1,0,0:0:0:0:
320,192,71034,1,2,0:0:0:0:
448,192,71034,1,0,0:0:0:0:
192,192,71121,1,0,0:0:0:0:
64,192,71178,1,0,0:0:0:0:
320,192,71207,1,0,0:0:0:0:
320,192,71379,1,2,0:0:0:0:
192,192,71465,1,8,0:0:0:0:
448,192,71465,1,0,0:0:0:0:
64,192,71530,1,0,0:0:0:0:
320,192,71638,1,2,0:0:0:0:
448,192,71638,1,0,0:0:0:0:
192,192,71695,1,0,0:0:0:0:
64,192,71753,1,0,0:0:0:0:
320,192,71897,1,2,0:0:0:0:
448,192,71897,1,0,0:0:0:0:
64,192,71983,1,2,0:0:0:0:
448,192,72069,1,2,0:0:0:0:
64,192,72155,1,8,0:0:0:0:
320,192,72155,1,0,0:0:0:0:
448,192,72220,1,0,0:0:0:0:
64,192,72284,1,0,0:0:0:0:
192,192,72349,1,0,0:0:0:0:
320,192,72414,1,2,0:0:0:0:
448,192,72414,1,0,0:0:0:0:
192,192,72500,1,0,0:0:0:0:
64,192,72557,1,0,0:0:0:0:
448,192,72586,1,2,0:0:0:0:
448,192,72759,1,2,0:0:0:0:
64,192,72845,1,8,0:0:0:0:
320,192,72845,1,0,0:0:0:0:
192,192,72931,1,0,0:0:0:0:
64,192,73190,1,2,0:0:0:0:
192,192,73190,1,0,0:0:0:0:
320,192,73247,1,0,0:0:0:0:
448,192,73305,1,0,0:0:0:0:
64,192,73362,1,0,0:0:0:0:
192,192,73534,1,8,0:0:0:0:
448,192,73534,1,0,0:0:0:0:
320,192,73707,1,0,0:0:0:0:
64,192,73793,128,0,73965:0:0:0:0:
320,192,73965,128,0,74138:0:0:0:0:
64,192,74138,128,0,74310:0:0:0:0:
192,192,74224,1,8,0:0:0:0:
448,192,74224,1,0,0:0:0:0:
320,192,74397,128,0,74569:0:0:0:0:
64,192,74569,128,0,74741:0:0:0:0:
320,192,74741,128,0,74914:0:0:0:0:
192,192,74914,1,8,0:0:0:0:
448,192,74914,128,0,75086:0:0:0:0:
320,192,75172,128,0,75345:0:0:0:0:
448,192,75345,128,0,75517:0:0:0:0:
192,192,75603,1,8,0:0:0:0:
448,192,75603,128,0,75776:0:0:0:0:
320,192,75776,128,0,75948:0:0:0:0:
64,192,75948,1,2,0:0:0:0:
192,192,75948,1,0,0:0:0:0:
320,192,76121,1,0,0:0:0:0:
192,192,76293,1,8,0:0:0:0:
448,192,76293,1,2,0:0:0:0:
64,192,76379,1,0,0:0:0:0:
320,192,76552,1,2,0:0:0:0:
448,192,76552,1,0,0:0:0:0:
64,192,76638,1,0,0:0:0:0:
192,192,76724,1,2,0:0:0:0:
320,192,76724,1,0,0:0:0:0:
64,192,76983,1,8,0:0:0:0:
448,192,76983,1,2,0:0:0:0:
320,192,77241,1,0,0:0:0:0:
64,192,77328,1,2,0:0:0:0:
192,192,77328,1,0,0:0:0:0:
320,192,77500,1,0,0:0:0:0:
64,192,77672,1,8,0:0:0:0:
448,192,77672,1,2,0:0:0:0:
192,192,77931,1,2,0:0:0:0:
320,192,77931,1,0,0:0:0:0:
64,192,78017,1,0,0:0:0:0:
320,192,78103,1,2,0:0:0:0:
448,192,78103,1,0,0:0:0:0:
192,192,78276,1,2,0:0:0:0:
320,192,78276,1,0,0:0:0:0:
64,192,78362,1,8,0:0:0:0:
448,192,78362,1,2,0:0:0:0:
448,192,78534,1,0,0:0:0:0:
320,192,78621,1,0,0:0:0:0:
64,192,78707,1,2,0:0:0:0:
192,192,78707,1,0,0:0:0:0:
320,192,78764,1,0,0:0:0:0:
448,192,78822,1,0,0:0:0:0:
64,192,78879,1,0,0:0:0:0:
192,192,79052,1,8,0:0:0:0:
448,192,79052,1,0,0:0:0:0:
320,192,79224,1,0,0:0:0:0:
64,192,79310,128,0,79483:0:0:0:0:
320,192,79483,128,0,79655:0:0:0:0:
64,192,79655,128,0,79828:0:0:0:0:
192,192,79741,1,8,0:0:0:0:
448,192,79741,1,0,0:0:0:0:
320,192,79914,128,0,80086:0:0:0:0:
64,192,80086,128,0,80259:0:0:0:0:
320,192,80259,128,0,80431:0:0:0:0:
192,192,80431,1,8,0:0:0:0:
448,192,80431,128,0,80603:0:0:0:0:
320,192,80690,128,0,80862:0:0:0:0:
448,192,80862,128,0,81034:0:0:0:0:
192,192,81121,1,8,0:0:0:0:
448,192,81121,128,0,81293:0:0:0:0:
320,192,81293,128,0,81465:0:0:0:0:
64,192,81465,1,2,0:0:0:0:
192,192,81465,1,0,0:0:0:0:
448,192,81552,1,0,0:0:0:0:
64,192,81638,128,0,81724:0:0:0:0:
320,192,81724,1,0,0:0:0:0:
64,192,81810,128,2,81897:0:0:0:0:
448,192,81810,1,8,0:0:0:0:
64,192,81983,128,0,82069:0:0:0:0:
448,192,82069,1,2,0:0:0:0:
64,192,82155,128,0,82241:0:0:0:0:
64,192,82328,128,0,82414:0:0:0:0:
320,192,82414,1,0,0:0:0:0:
64,192,82500,128,2,82586:0:0:0:0:
448,192,82500,1,8,0:0:0:0:
320,192,82672,128,0,82845:0:0:0:0:
64,192,82845,1,2,0:0:0:0:
192,192,82845,1,0,0:0:0:0:
320,192,83017,1,0,0:0:0:0:
64,192,83190,1,2,0:0:0:0:
448,192,83190,1,8,0:0:0:0:
192,192,83448,1,2,0:0:0:0:
320,192,83448,1,0,0:0:0:0:
448,192,83534,1,0,0:0:0:0:
64,192,83621,1,2,0:0:0:0:
192,192,83621,1,0,0:0:0:0:
192,192,83793,1,2,0:0:0:0:
320,192,83793,1,0,0:0:0:0:
64,192,83879,1,2,0:0:0:0:
448,192,83879,1,8,0:0:0:0:
192,192,83965,1,0,0:0:0:0:
320,192,84052,1,0,0:0:0:0:
64,192,84224,1,2,0:0:0:0:
192,192,84224,1,0,0:0:0:0:
448,192,84310,1,0,0:0:0:0:
192,192,84483,1,2,0:0:0:0:
320,192,84483,1,0,0:0:0:0:
64,192,84569,1,8,0:0:0:0:
448,192,84569,1,0,0:0:0:0:
192,192,84741,1,2,0:0:0:0:
448,192,84828,1,2,0:0:0:0:
192,192,84914,1,2,0:0:0:0:
320,192,84914,1,0,0:0:0:0:
64,192,85000,1,0,0:0:0:0:
192,192,85172,1,2,0:0:0:0:
320,192,85172,1,0,0:0:0:0:
64,192,85259,1,8,0:0:0:0:
448,192,85259,1,0,0:0:0:0:
192,192,85431,1,2,0:0:0:0:
320,192,85431,1,0,0:0:0:0:
64,192,85603,1,2,0:0:0:0:
192,192,85603,1,0,0:0:0:0:
448,192,85690,1,0,0:0:0:0:
192,192,85862,1,2,0:0:0:0:
320,192,85862,1,0,0:0:0:0:
64,192,85948,1,8,0:0:0:0:
448,192,85948,1,0,0:0:0:0:
192,192,86121,1,2,0:0:0:0:
448,192,86207,1,2,0:0:0:0:
192,192,86293,1,2,0:0:0:0:
320,192,86293,1,0,0:0:0:0:
64,192,86379,1,0,0:0:0:0:
192,192,86552,1,2,0:0:0:0:
320,192,86552,1,0,0:0:0:0:
64,192,86638,1,8,0:0:0:0:
448,192,86638,1,0,0:0:0:0:
192,192,86810,1,2,0:0:0:0:
320,192,86810,1,0,0:0:0:0:
320,192,86983,1,2,0:0:0:0:
448,192,86983,1,0,0:0:0:0:
64,192,87069,1,0,0:0:0:0:
192,192,87241,1,2,0:0:0:0:
320,192,87241,1,0,0:0:0:0:
64,192,87328,1,8,0:0:0:0:
448,192,87328,1,0,0:0:0:0:
320,192,87500,1,2,0:0:0:0:
64,192,87586,1,2,0:0:0:0:
192,192,87672,1,2,0:0:0:0:
320,192,87672,1,0,0:0:0:0:
448,192,87759,1,0,0:0:0:0:
192,192,87931,1,2,0:0:0:0:
320,192,87931,1,0,0:0:0:0:
64,192,88017,1,8,0:0:0:0:
448,192,88017,1,0,0:0:0:0:
192,192,88190,1,2,0:0:0:0:
320,192,88190,1,0,0:0:0:0:
320,192,88362,1,2,0:0:0:0:
448,192,88362,1,0,0:0:0:0:
64,192,88448,1,0,0:0:0:0:
192,192,88621,1,2,0:0:0:0:
320,192,88621,1,0,0:0:0:0:
64,192,88707,1,8,0:0:0:0:
448,192,88707,1,0,0:0:0:0:
320,192,88879,1,2,0:0:0:0:
64,192,88965,1,2,0:0:0:0:
192,192,89052,1,2,0:0:0:0:
320,192,89052,1,0,0:0:0:0:
448,192,89138,1,0,0:0:0:0:
192,192,89310,1,2,0:0:0:0:
320,192,89310,1,0,0:0:0:0:
64,192,89397,1,8,0:0:0:0:
448,192,89397,1,0,0:0:0:0:
192,192,89569,1,2,0:0:0:0:
320,192,89569,1,0,0:0:0:0:
64,192,89741,1,2,0:0:0:0:
192,192,89741,1,0,0:0:0:0:
320,192,89914,1,2,0:0:0:0:
448,192,89914,1,0,0:0:0:0:
64,192,90086,1,8,0:0:0:0:
448,192,90086,1,0,0:0:0:0:
192,192,90259,1,2,0:0:0:0:
320,192,90259,1,0,0:0:0:0:
320,192,90431,1,2,0:0:0:0:
448,192,90431,1,0,0:0:0:0:
64,192,90603,1,2,0:0:0:0:
192,192,90603,1,0,0:0:0:0:
64,192,90776,1,8,0:0:0:0:
448,192,90776,1,0,0:0:0:0:
192,192,90948,1,2,0:0:0:0:
320,192,90948,1,0,0:0:0:0:
192,192,91121,1,2,0:0:0:0:
448,192,91121,1,0,0:0:0:0:
64,192,91293,1,2,0:0:0:0:
192,192,91293,1,0,0:0:0:0:
64,192,91465,1,8,0:0:0:0:
448,192,91465,1,0,0:0:0:0:
192,192,91638,1,2,0:0:0:0:
320,192,91638,1,0,0:0:0:0:
64,192,91810,1,2,0:0:0:0:
320,192,91810,1,0,0:0:0:0:
320,192,91983,1,2,0:0:0:0:
448,192,91983,1,0,0:0:0:0:
64,192,92155,1,8,0:0:0:0:
448,192,92155,1,0,0:0:0:0:
192,192,92328,1,2,0:0:0:0:
320,192,92328,1,0,0:0:0:0:
64,192,92500,1,2,0:0:0:0:
192,192,92500,1,0,0:0:0:0:
448,192,92586,1,2,0:0:0:0:
192,192,92672,1,2,0:0:0:0:
320,192,92759,1,2,0:0:0:0:
64,192,92845,1,8,0:0:0:0:
448,192,92845,1,2,0:0:0:0:
192,192,92931,1,2,0:0:0:0:
448,192,93017,1,2,0:0:0:0:
64,192,93103,1,2,0:0:0:0:
320,192,93190,1,2,0:0:0:0:
448,192,93276,1,2,0:0:0:0:
192,192,93362,1,2,0:0:0:0:
320,192,93448,1,2,0:0:0:0:
64,192,93534,1,8,0:0:0:0:
448,192,93534,1,2,0:0:0:0:
192,192,93621,1,2,0:0:0:0:
320,192,93707,1,2,0:0:0:0:
64,192,93793,1,2,0:0:0:0:
320,192,95259,1,2,0:0:0:0:
448,192,95259,1,0,0:0:0:0:
320,192,95431,1,0,0:0:0:0:
192,192,95517,1,0,0:0:0:0:
64,192,95603,1,8,0:0:0:0:
448,192,95603,1,0,0:0:0:0:
192,192,95690,1,0,0:0:0:0:
448,192,95776,1,0,0:0:0:0:
64,192,95862,1,2,0:0:0:0:
192,192,95862,1,0,0:0:0:0:
320,192,95948,1,0,0:0:0:0:
64,192,96006,1,0,0:0:0:0:
192,192,96063,1,0,0:0:0:0:
448,192,96121,1,2,0:0:0:0:
64,192,96178,1,0,0:0:0:0:
320,192,96236,1,0,0:0:0:0:
192,192,96293,1,8,0:0:0:0:
448,192,96293,1,0,0:0:0:0:
64,192,96351,1,0,0:0:0:0:
320,192,96408,1,0,0:0:0:0:
448,192,96465,1,0,0:0:0:0:
64,192,96552,1,2,0:0:0:0:
192,192,96552,1,0,0:0:0:0:
64,192,96724,1,2,0:0:0:0:
192,192,96724,1,0,0:0:0:0:
448,192,96810,1,2,0:0:0:0:
192,192,96897,1,2,0:0:0:0:
64,192,96983,1,8,0:0:0:0:
448,192,96983,1,0,0:0:0:0:
320,192,97069,1,0,0:0:0:0:
64,192,97155,1,0,0:0:0:0:
320,192,97241,1,2,0:0:0:0:
448,192,97241,1,0,0:0:0:0:
448,192,97414,1,0,0:0:0:0:
64,192,97500,1,2,0:0:0:0:
192,192,97500,1,0,0:0:0:0:
320,192,97586,1,0,0:0:0:0:
64,192,97672,1,8,0:0:0:0:
448,192,97672,1,0,0:0:0:0:
192,192,97759,1,2,0:0:0:0:
320,192,97845,1,0,0:0:0:0:
64,192,97931,1,0,0:0:0:0:
320,192,98017,1,2,0:0:0:0:
448,192,98017,1,0,0:0:0:0:
64,192,98190,1,0,0:0:0:0:
320,192,98276,1,0,0:0:0:0:
64,192,98362,1,8,0:0:0:0:
448,192,98362,1,0,0:0:0:0:
192,192,98448,1,0,0:0:0:0:
64,192,98534,1,0,0:0:0:0:
320,192,98621,1,2,0:0:0:0:
448,192,98621,1,0,0:0:0:0:
320,192,98793,1,2,0:0:0:0:
448,192,98793,1,0,0:0:0:0:
64,192,98879,1,0,0:0:0:0:
320,192,98965,1,0,0:0:0:0:
64,192,99052,1,8,0:0:0:0:
448,192,99052,1,0,0:0:0:0:
192,192,99138,1,0,0:0:0:0:
64,192,99224,1,0,0:0:0:0:
320,192,99310,1,2,0:0:0:0:
448,192,99310,1,0,0:0:0:0:
320,192,99483,1,2,0:0:0:0:
448,192,99483,1,0,0:0:0:0:
64,192,99569,1,0,0:0:0:0:
320,192,99655,1,0,0:0:0:0:
192,192,99741,1,8,0:0:0:0:
448,192,99741,1,0,0:0:0:0:
64,192,99828,1,0,0:0:0:0:
320,192,99914,1,0,0:0:0:0:
64,192,100000,1,2,0:0:0:0:
192,192,100000,1,0,0:0:0:0:
64,192,100172,1,2,0:0:0:0:
192,192,100172,1,0,0:0:0:0:
320,192,100259,1,0,0:0:0:0:
64,192,100345,1,0,0:0:0:0:
192,192,100431,1,8,0:0:0:0:
448,192,100431,1,0,0:0:0:0:
64,192,100517,1,0,0:0:0:0:
448,192,100603,1,0,0:0:0:0:
320,192,100690,1,0,0:0:0:0:
64,192,100776,1,2,0:0:0:0:
192,192,100776,1,0,0:0:0:0:
192,192,100948,1,0,0:0:0:0:
320,192,101034,1,0,0:0:0:0:
64,192,101121,1,8,0:0:0:0:
448,192,101121,1,0,0:0:0:0:
192,192,101178,1,0,0:0:0:0:
320,192,101236,1,0,0:0:0:0:
192,192,101293,1,0,0:0:0:0:
64,192,101351,1,0,0:0:0:0:
320,192,101408,1,0,0:0:0:0:
448,192,101408,1,0,0:0:0:0:
192,192,101465,1,0,0:0:0:0:
64,192,101523,1,0,0:0:0:0:
320,192,101580,1,0,0:0:0:0:
192,192,101638,1,2,0:0:0:0:
448,192,101695,1,0,0:0:0:0:
64,192,101753,1,0,0:0:0:0:
192,192,101810,1,8,0:0:0:0:
320,192,101810,1,0,0:0:0:0:
448,192,101868,1,0,0:0:0:0:
192,192,101925,1,0,0:0:0:0:
64,192,101983,1,0,0:0:0:0:
320,192,102011,1,0,0:0:0:0:
448,192,102040,1,2,0:0:0:0:
192,192,102155,1,0,0:0:0:0:
64,192,102213,1,0,0:0:0:0:
448,192,102270,1,0,0:0:0:0:
192,192,102328,1,2,0:0:0:0:
320,192,102385,1,0,0:0:0:0:
64,192,102443,1,0,0:0:0:0:
192,192,102500,1,8,0:0:0:0:
320,192,102500,1,0,0:0:0:0:
64,192,102615,1,0,0:0:0:0:
320,192,102644,1,0,0:0:0:0:
448,192,102672,1,0,0:0:0:0:
64,192,102759,1,2,0:0:0:0:
192,192,102759,1,0,0:0:0:0:
448,192,102960,1,0,0:0:0:0:
64,192,103017,1,2,0:0:0:0:
192,192,103017,1,0,0:0:0:0:
320,192,103075,1,0,0:0:0:0:
192,192,103132,1,0,0:0:0:0:
64,192,103190,1,8,0:0:0:0:
320,192,103218,1,0,0:0:0:0:
448,192,103247,1,0,0:0:0:0:
192,192,103362,1,0,0:0:0:0:
448,192,103448,1,0,0:0:0:0:
64,192,103534,1,2,0:0:0:0:
192,192,103534,1,0,0:0:0:0:
448,192,103707,1,0,0:0:0:0:
192,192,103793,1,0,0:0:0:0:
320,192,103836,1,0,0:0:0:0:
64,192,103879,1,8,0:0:0:0:
448,192,103879,1,0,0:0:0:0:
192,192,103965,1,0,0:0:0:0:
448,192,104052,1,0,0:0:0:0:
64,192,104138,1,2,0:0:0:0:
192,192,104138,1,0,0:0:0:0:
64,192,104310,1,2,0:0:0:0:
192,192,104310,1,0,0:0:0:0:
448,192,104397,1,0,0:0:0:0:
192,192,104483,1,0,0:0:0:0:
64,192,104569,1,8,0:0:0:0:
448,192,104569,1,0,0:0:0:0:
320,192,104655,1,0,0:0:0:0:
448,192,104741,1,0,0:0:0:0:
64,192,104828,1,2,0:0:0:0:
192,192,104828,1,0,0:0:0:0:
64,192,105000,1,2,0:0:0:0:
192,192,105000,1,0,0:0:0:0:
448,192,105086,1,0,0:0:0:0:
192,192,105172,1,0,0:0:0:0:
64,192,105259,1,8,0:0:0:0:
320,192,105259,1,0,0:0:0:0:
448,192,105345,1,0,0:0:0:0:
192,192,105431,1,0,0:0:0:0:
320,192,105517,1,2,0:0:0:0:
448,192,105517,1,0,0:0:0:0:
320,192,105690,1,2,0:0:0:0:
448,192,105690,1,0,0:0:0:0:
64,192,105776,1,0,0:0:0:0:
192,192,105862,1,0,0:0:0:0:
64,192,105948,1,8,0:0:0:0:
320,192,105948,1,0,0:0:0:0:
448,192,106034,1,0,0:0:0:0:
320,192,106121,1,2,0:0:0:0:
192,192,106207,1,0,0:0:0:0:
320,192,106293,1,2,0:0:0:0:
448,192,106293,1,0,0:0:0:0:
64,192,106351,1,0,0:0:0:0:
192,192,106408,1,0,0:0:0:0:
320,192,106465,1,0,0:0:0:0:
64,192,106523,1,0,0:0:0:0:
320,192,106580,1,0,0:0:0:0:
192,192,106638,1,8,0:0:0:0:
448,192,106638,1,0,0:0:0:0:
64,192,106695,1,0,0:0:0:0:
192,192,106810,1,0,0:0:0:0:
320,192,106897,1,2,0:0:0:0:
448,192,106897,1,0,0:0:0:0:
64,192,106983,1,0,0:0:0:0:
320,192,107069,1,0,0:0:0:0:
448,192,107126,1,2,0:0:0:0:
192,192,107184,1,0,0:0:0:0:
320,192,107241,1,0,0:0:0:0:
64,192,107299,1,0,0:0:0:0:
192,192,107356,1,8,0:0:0:0:
448,192,107356,1,0,0:0:0:0:
320,192,107414,1,0,0:0:0:0:
64,192,107471,1,0,0:0:0:0:
192,192,107529,1,0,0:0:0:0:
320,192,107586,1,2,0:0:0:0:
448,192,107586,1,0,0:0:0:0:
320,192,107759,1,2,0:0:0:0:
448,192,107759,1,0,0:0:0:0:
64,192,107845,1,0,0:0:0:0:
320,192,107931,1,0,0:0:0:0:
192,192,108017,1,8,0:0:0:0:
448,192,108017,1,0,0:0:0:0:
64,192,108103,1,0,0:0:0:0:
192,192,108190,1,0,0:0:0:0:
320,192,108276,1,2,0:0:0:0:
448,192,108276,1,0,0:0:0:0:
320,192,108448,1,0,0:0:0:0:
64,192,108534,1,2,0:0:0:0:
192,192,108534,1,0,0:0:0:0:
320,192,108621,1,0,0:0:0:0:
192,192,108707,1,8,0:0:0:0:
448,192,108707,1,0,0:0:0:0:
64,192,108793,1,2,0:0:0:0:
192,192,108879,1,0,0:0:0:0:
320,192,108965,1,0,0:0:0:0:
64,192,109052,1,2,0:0:0:0:
192,192,109052,1,0,0:0:0:0:
448,192,109109,1,0,0:0:0:0:
320,192,109167,1,0,0:0:0:0:
192,192,109224,1,0,0:0:0:0:
448,192,109282,1,0,0:0:0:0:
192,192,109339,1,0,0:0:0:0:
64,192,109397,1,8,0:0:0:0:
320,192,109397,1,0,0:0:0:0:
448,192,109454,1,0,0:0:0:0:
192,192,109569,1,0,0:0:0:0:
320,192,109655,1,2,0:0:0:0:
448,192,109655,1,0,0:0:0:0:
64,192,109741,1,0,0:0:0:0:
320,192,109828,1,2,0:0:0:0:
448,192,109885,1,0,0:0:0:0:
192,192,109943,1,0,0:0:0:0:
320,192,110000,1,0,0:0:0:0:
64,192,110057,1,0,0:0:0:0:
192,192,110115,1,8,0:0:0:0:
448,192,110115,1,0,0:0:0:0:
320,192,110172,1,0,0:0:0:0:
64,192,110230,1,0,0:0:0:0:
192,192,110287,1,0,0:0:0:0:
320,192,110345,1,2,0:0:0:0:
448,192,110345,1,0,0:0:0:0:
320,192,110517,1,2,0:0:0:0:
448,192,110517,1,0,0:0:0:0:
192,192,110603,1,0,0:0:0:0:
448,192,110690,1,0,0:0:0:0:
192,192,110776,1,8,0:0:0:0:
320,192,110776,1,0,0:0:0:0:
64,192,110862,1,0,0:0:0:0:
192,192,110948,1,0,0:0:0:0:
320,192,111034,1,2,0:0:0:0:
448,192,111034,1,0,0:0:0:0:
320,192,111207,1,2,0:0:0:0:
448,192,111207,1,0,0:0:0:0:
192,192,111293,1,0,0:0:0:0:
448,192,111379,1,0,0:0:0:0:
192,192,111465,1,8,0:0:0:0:
320,192,111465,1,0,0:0:0:0:
64,192,111552,1,0,0:0:0:0:
448,192,111638,1,0,0:0:0:0:
192,192,111724,1,0,0:0:0:0:
320,192,111810,1,2,0:0:0:0:
448,192,111810,1,0,0:0:0:0:
64,192,111853,1,0,0:0:0:0:
192,192,111897,1,0,0:0:0:0:
320,192,111940,1,0,0:0:0:0:
448,192,111983,1,0,0:0:0:0:
64,192,112069,1,0,0:0:0:0:
192,192,112155,1,8,0:0:0:0:
320,192,112155,1,0,0:0:0:0:
448,192,112241,1,0,0:0:0:0:
192,192,112328,1,0,0:0:0:0:
64,192,112371,1,0,0:0:0:0:
320,192,112414,1,2,0:0:0:0:
448,192,112414,1,0,0:0:0:0:
192,192,112500,1,0,0:0:0:0:
320,192,112543,1,0,0:0:0:0:
448,192,112586,1,0,0:0:0:0:
64,192,112672,1,2,0:0:0:0:
192,192,112672,1,0,0:0:0:0:
320,192,112730,1,0,0:0:0:0:
64,192,112787,1,0,0:0:0:0:
192,192,112845,1,8,0:0:0:0:
448,192,112845,1,0,0:0:0:0:
64,192,112902,1,0,0:0:0:0:
320,192,112960,1,0,0:0:0:0:
192,192,113017,1,0,0:0:0:0:
448,192,113075,1,2,0:0:0:0:
64,192,113132,1,0,0:0:0:0:
320,192,113190,1,0,0:0:0:0:
448,192,113247,1,2,0:0:0:0:
64,192,113305,1,0,0:0:0:0:
320,192,113362,1,2,0:0:0:0:
192,192,113420,1,0,0:0:0:0:
320,192,113477,1,0,0:0:0:0:
64,192,113534,1,8,0:0:0:0:
448,192,113534,1,0,0:0:0:0:
192,192,113592,1,0,0:0:0:0:
320,192,113649,1,0,0:0:0:0:
64,192,113707,1,0,0:0:0:0:
320,192,113793,1,2,0:0:0:0:
448,192,113793,1,0,0:0:0:0:
192,192,113879,1,0,0:0:0:0:
320,192,113937,1,0,0:0:0:0:
448,192,113994,1,0,0:0:0:0:
64,192,114052,1,2,0:0:0:0:
192,192,114052,1,0,0:0:0:0:
320,192,114138,1,0,0:0:0:0:
64,192,114224,1,8,0:0:0:0:
448,192,114224,1,0,0:0:0:0:
320,192,114310,1,2,0:0:0:0:
192,192,114397,1,0,0:0:0:0:
448,192,114483,1,0,0:0:0:0:
64,192,114569,1,2,0:0:0:0:
192,192,114569,1,0,0:0:0:0:
64,192,114741,1,0,0:0:0:0:
320,192,114828,1,0,0:0:0:0:
192,192,114914,1,8,0:0:0:0:
448,192,114914,1,0,0:0:0:0:
64,192,115000,1,0,0:0:0:0:
320,192,115086,1,0,0:0:0:0:
64,192,115172,1,2,0:0:0:0:
192,192,115172,1,0,0:0:0:0:
64,192,115345,1,2,0:0:0:0:
192,192,115345,1,0,0:0:0:0:
320,192,115431,1,0,0:0:0:0:
192,192,115488,1,0,0:0:0:0:
448,192,115546,1,0,0:0:0:0:
64,192,115603,1,8,0:0:0:0:
320,192,115603,1,0,0:0:0:0:
192,192,115661,1,0,0:0:0:0:
448,192,115718,1,0,0:0:0:0:
64,192,115776,1,0,0:0:0:0:
320,192,115833,1,2,0:0:0:0:
448,192,115891,1,0,0:0:0:0:
192,192,115948,1,0,0:0:0:0:
320,192,116006,1,2,0:0:0:0:
64,192,116063,1,0,0:0:0:0:
192,192,116121,1,0,0:0:0:0:
448,192,116178,1,0,0:0:0:0:
64,192,116236,1,0,0:0:0:0:
192,192,116293,1,8,0:0:0:0:
320,192,116293,1,0,0:0:0:0:
448,192,116379,1,0,0:0:0:0:
320,192,116465,1,0,0:0:0:0:
64,192,116552,1,2,0:0:0:0:
192,192,116552,1,0,0:0:0:0:
448,192,116638,128,2,116707:0:0:0:0:
192,192,116707,128,0,116776:0:0:0:0:
64,192,116724,1,2,0:0:0:0:
448,192,116810,1,2,0:0:0:0:
192,192,116897,1,2,0:0:0:0:
448,192,116983,1,2,0:0:0:0:
64,192,117069,1,0,0:0:0:0:
320,192,117155,1,2,0:0:0:0:
448,192,117241,1,2,0:0:0:0:
64,192,117328,1,2,0:0:0:0:
192,192,117328,1,0,0:0:0:0:
448,192,117414,1,0,0:0:0:0:
64,192,117500,1,0,0:0:0:0:
320,192,117586,1,0,0:0:0:0:
64,192,117672,1,8,0:0:0:0:
448,192,117672,1,0,0:0:0:0:
192,192,117759,1,0,0:0:0:0:
448,192,117845,1,0,0:0:0:0:
64,192,117931,1,2,0:0:0:0:
192,192,117931,1,0,0:0:0:0:
320,192,118017,1,0,0:0:0:0:
64,192,118075,1,0,0:0:0:0:
192,192,118132,1,0,0:0:0:0:
448,192,118190,1,2,0:0:0:0:
64,192,118247,1,0,0:0:0:0:
320,192,118305,1,0,0:0:0:0:
192,192,118362,1,8,0:0:0:0:
448,192,118362,1,0,0:0:0:0:
64,192,118420,1,0,0:0:0:0:
320,192,118477,1,0,0:0:0:0:
448,192,118534,1,0,0:0:0:0:
64,192,118621,1,2,0:0:0:0:
192,192,118621,1,0,0:0:0:0:
64,192,118793,1,2,0:0:0:0:
192,192,118793,1,0,0:0:0:0:
448,192,118879,1,2,0:0:0:0:
192,192,118965,1,2,0:0:0:0:
64,192,119052,1,8,0:0:0:0:
448,192,119052,1,0,0:0:0:0:
320,192,119138,1,0,0:0:0:0:
64,192,119224,1,0,0:0:0:0:
320,192,119310,1,2,0:0:0:0:
448,192,119310,1,0,0:0:0:0:
448,192,119483,1,0,0:0:0:0:
64,192,119569,1,2,0:0:0:0:
192,192,119569,1,0,0:0:0:0:
320,192,119655,1,0,0:0:0:0:
64,192,119741,1,8,0:0:0:0:
448,192,119741,1,0,0:0:0:0:
320,192,119828,1,2,0:0:0:0:
192,192,119914,1,0,0:0:0:0:
192,192,120000,1,0,0:0:0:0:
320,192,120086,1,2,0:0:0:0:
448,192,120086,1,0,0:0:0:0:
192,192,120172,1,0,0:0:0:0:
64,192,120259,1,0,0:0:0:0:
320,192,120345,1,0,0:0:0:0:
64,192,120431,1,8,0:0:0:0:
448,192,120431,1,0,0:0:0:0:
192,192,120517,1,0,0:0:0:0:
64,192,120603,1,0,0:0:0:0:
320,192,120690,1,2,0:0:0:0:
448,192,120690,1,0,0:0:0:0:
320,192,120862,1,2,0:0:0:0:
448,192,120862,1,0,0:0:0:0:
64,192,120948,1,0,0:0:0:0:
320,192,121034,1,0,0:0:0:0:
64,192,121121,1,8,0:0:0:0:
448,192,121121,1,0,0:0:0:0:
192,192,121207,1,0,0:0:0:0:
64,192,121293,1,0,0:0:0:0:
320,192,121379,1,2,0:0:0:0:
448,192,121379,1,0,0:0:0:0:
320,192,121552,1,2,0:0:0:0:
448,192,121552,1,0,0:0:0:0:
64,192,121638,1,0,0:0:0:0:
320,192,121724,1,0,0:0:0:0:
192,192,121810,1,8,0:0:0:0:
448,192,121810,1,0,0:0:0:0:
64,192,121897,1,0,0:0:0:0:
320,192,121983,1,0,0:0:0:0:
64,192,122069,1,2,0:0:0:0:
192,192,122069,1,0,0:0:0:0:
64,192,122241,1,2,0:0:0:0:
192,192,122241,1,0,0:0:0:0:
320,192,122328,1,0,0:0:0:0:
64,192,122414,1,0,0:0:0:0:
192,192,122500,1,8,0:0:0:0:
448,192,122500,1,0,0:0:0:0:
64,192,122586,1,0,0:0:0:0:
448,192,122672,1,0,0:0:0:0:
320,192,122759,1,0,0:0:0:0:
64,192,122845,1,2,0:0:0:0:
192,192,122845,1,0,0:0:0:0:
448,192,122931,1,0,0:0:0:0:
192,192,123017,1,0,0:0:0:0:
320,192,123103,1,0,0:0:0:0:
64,192,123190,1,8,0:0:0:0:
448,192,123190,1,0,0:0:0:0:
192,192,123247,1,0,0:0:0:0:
320,192,123305,1,0,0:0:0:0:
192,192,123362,1,0,0:0:0:0:
64,192,123420,1,2,0:0:0:0:
320,192,123477,1,0,0:0:0:0:
448,192,123477,1,0,0:0:0:0:
192,192,123534,1,0,0:0:0:0:
64,192,123592,1,0,0:0:0:0:
320,192,123649,1,0,0:0:0:0:
192,192,123707,1,2,0:0:0:0:
448,192,123764,1,0,0:0:0:0:
64,192,123822,1,0,0:0:0:0:
192,192,123879,1,8,0:0:0:0:
320,192,123879,1,0,0:0:0:0:
448,192,123937,1,0,0:0:0:0:
192,192,123994,1,0,0:0:0:0:
64,192,124052,1,0,0:0:0:0:
320,192,124080,1,0,0:0:0:0:
448,192,124109,1,2,0:0:0:0:
192,192,124224,1,0,0:0:0:0:
64,192,124282,1,2,0:0:0:0:
448,192,124339,1,0,0:0:0:0:
192,192,124397,1,2,0:0:0:0:
320,192,124454,1,0,0:0:0:0:
64,192,124511,1,0,0:0:0:0:
192,192,124569,1,8,0:0:0:0:
320,192,124569,1,0,0:0:0:0:
64,192,124684,1,0,0:0:0:0:
320,192,124713,1,0,0:0:0:0:
448,192,124741,1,0,0:0:0:0:
192,192,124828,1,2,0:0:0:0:
64,192,124914,1,0,0:0:0:0:
448,192,125029,1,0,0:0:0:0:
64,192,125086,1,2,0:0:0:0:
192,192,125086,1,0,0:0:0:0:
320,192,125144,1,0,0:0:0:0:
192,192,125201,1,0,0:0:0:0:
64,192,125259,1,8,0:0:0:0:
320,192,125287,1,0,0:0:0:0:
448,192,125316,1,0,0:0:0:0:
192,192,125431,1,0,0:0:0:0:
192,192,125517,1,0,0:0:0:0:
320,192,125603,1,2,0:0:0:0:
448,192,125603,1,0,0:0:0:0:
64,192,125690,1,0,0:0:0:0:
448,192,125776,1,0,0:0:0:0:
192,192,125862,1,0,0:0:0:0:
320,192,125905,1,0,0:0:0:0:
64,192,125948,1,8,0:0:0:0:
448,192,125948,1,0,0:0:0:0:
192,192,126034,1,0,0:0:0:0:
448,192,126121,1,0,0:0:0:0:
64,192,126207,1,2,0:0:0:0:
192,192,126207,1,0,0:0:0:0:
64,192,126379,1,2,0:0:0:0:
192,192,126379,1,0,0:0:0:0:
448,192,126465,1,0,0:0:0:0:
192,192,126552,1,0,0:0:0:0:
64,192,126638,1,8,0:0:0:0:
448,192,126638,1,0,0:0:0:0:
320,192,126724,1,0,0:0:0:0:
448,192,126810,1,0,0:0:0:0:
64,192,126897,1,2,0:0:0:0:
192,192,126897,1,0,0:0:0:0:
64,192,127069,1,2,0:0:0:0:
192,192,127069,1,0,0:0:0:0:
448,192,127155,1,0,0:0:0:0:
192,192,127241,1,0,0:0:0:0:
64,192,127328,1,8,0:0:0:0:
320,192,127328,1,0,0:0:0:0:
448,192,127414,1,0,0:0:0:0:
192,192,127500,1,0,0:0:0:0:
320,192,127586,1,2,0:0:0:0:
448,192,127586,1,0,0:0:0:0:
320,192,127759,1,2,0:0:0:0:
448,192,127759,1,0,0:0:0:0:
64,192,127845,1,0,0:0:0:0:
192,192,127931,1,0,0:0:0:0:
64,192,128017,1,8,0:0:0:0:
320,192,128017,1,0,0:0:0:0:
448,192,128103,1,0,0:0:0:0:
192,192,128190,1,2,0:0:0:0:
320,192,128190,1,0,0:0:0:0:
64,192,128276,1,0,0:0:0:0:
320,192,128362,1,2,0:0:0:0:
448,192,128362,1,0,0:0:0:0:
64,192,128420,1,0,0:0:0:0:
192,192,128477,1,0,0:0:0:0:
320,192,128534,1,0,0:0:0:0:
64,192,128592,1,0,0:0:0:0:
320,192,128649,1,0,0:0:0:0:
192,192,128707,1,8,0:0:0:0:
448,192,128707,1,0,0:0:0:0:
64,192,128764,1,0,0:0:0:0:
192,192,128879,1,0,0:0:0:0:
320,192,128965,1,2,0:0:0:0:
448,192,128965,1,0,0:0:0:0:
64,192,129052,1,0,0:0:0:0:
320,192,129138,1,0,0:0:0:0:
448,192,129195,1,2,0:0:0:0:
192,192,129253,1,0,0:0:0:0:
320,192,129310,1,0,0:0:0:0:
64,192,129368,1,0,0:0:0:0:
192,192,129425,1,8,0:0:0:0:
448,192,129425,1,0,0:0:0:0:
320,192,129483,1,0,0:0:0:0:
64,192,129540,1,0,0:0:0:0:
192,192,129598,1,0,0:0:0:0:
320,192,129655,1,2,0:0:0:0:
448,192,129655,1,0,0:0:0:0:
64,192,129741,1,0,0:0:0:0:
320,192,129828,1,2,0:0:0:0:
448,192,129828,1,0,0:0:0:0:
192,192,129914,1,0,0:0:0:0:
320,192,130000,1,0,0:0:0:0:
192,192,130086,1,8,0:0:0:0:
448,192,130086,1,0,0:0:0:0:
64,192,130172,1,0,0:0:0:0:
192,192,130259,1,0,0:0:0:0:
320,192,130345,1,2,0:0:0:0:
448,192,130345,1,0,0:0:0:0:
64,192,130431,1,0,0:0:0:0:
320,192,130517,1,0,0:0:0:0:
64,192,130603,1,2,0:0:0:0:
192,192,130603,1,0,0:0:0:0:
320,192,130690,1,0,0:0:0:0:
64,192,130776,1,8,0:0:0:0:
448,192,130776,1,0,0:0:0:0:
64,192,130862,1,2,0:0:0:0:
320,192,130948,1,0,0:0:0:0:
448,192,130948,1,0,0:0:0:0:
320,192,131034,1,0,0:0:0:0:
64,192,131121,1,2,0:0:0:0:
192,192,131121,1,0,0:0:0:0:
448,192,131178,1,0,0:0:0:0:
320,192,131236,1,0,0:0:0:0:
192,192,131293,1,0,0:0:0:0:
448,192,131351,1,0,0:0:0:0:
192,192,131408,1,0,0:0:0:0:
64,192,131465,1,8,0:0:0:0:
320,192,131465,1,0,0:0:0:0:
448,192,131523,1,0,0:0:0:0:
192,192,131638,1,0,0:0:0:0:
320,192,131724,1,2,0:0:0:0:
448,192,131724,1,0,0:0:0:0:
64,192,131810,1,0,0:0:0:0:
320,192,131897,1,2,0:0:0:0:
448,192,131954,1,0,0:0:0:0:
192,192,132011,1,0,0:0:0:0:
320,192,132069,1,0,0:0:0:0:
64,192,132126,1,0,0:0:0:0:
192,192,132184,1,8,0:0:0:0:
448,192,132184,1,0,0:0:0:0:
320,192,132241,1,0,0:0:0:0:
64,192,132299,1,0,0:0:0:0:
192,192,132356,1,0,0:0:0:0:
320,192,132414,1,2,0:0:0:0:
448,192,132414,1,0,0:0:0:0:
64,192,132500,1,0,0:0:0:0:
320,192,132586,1,2,0:0:0:0:
448,192,132586,1,0,0:0:0:0:
192,192,132672,1,0,0:0:0:0:
448,192,132759,1,0,0:0:0:0:
192,192,132845,1,8,0:0:0:0:
320,192,132845,1,0,0:0:0:0:
64,192,132931,1,0,0:0:0:0:
192,192,133017,1,0,0:0:0:0:
320,192,133103,1,2,0:0:0:0:
448,192,133103,1,0,0:0:0:0:
64,192,133190,1,0,0:0:0:0:
320,192,133276,1,2,0:0:0:0:
448,192,133276,1,0,0:0:0:0:
192,192,133362,1,0,0:0:0:0:
64,192,133448,1,0,0:0:0:0:
192,192,133534,1,8,0:0:0:0:
320,192,133534,1,0,0:0:0:0:
448,192,133621,1,0,0:0:0:0:
320,192,133707,1,0,0:0:0:0:
192,192,133793,1,0,0:0:0:0:
320,192,133879,1,2,0:0:0:0:
448,192,133879,1,0,0:0:0:0:
64,192,133922,1,0,0:0:0:0:
192,192,133965,1,0,0:0:0:0:
320,192,134009,1,0,0:0:0:0:
448,192,134052,1,0,0:0:0:0:
64,192,134138,1,0,0:0:0:0:
192,192,134224,1,8,0:0:0:0:
320,192,134224,1,0,0:0:0:0:
448,192,134310,1,0,0:0:0:0:
192,192,134397,1,0,0:0:0:0:
64,192,134440,1,0,0:0:0:0:
320,192,134483,1,2,0:0:0:0:
448,192,134483,1,0,0:0:0:0:
192,192,134569,1,0,0:0:0:0:
320,192,134612,1,0,0:0:0:0:
448,192,134655,1,0,0:0:0:0:
64,192,134741,1,2,0:0:0:0:
192,192,134741,1,0,0:0:0:0:
320,192,134799,1,0,0:0:0:0:
64,192,134856,1,0,0:0:0:0:
192,192,134914,1,8,0:0:0:0:
448,192,134914,1,0,0:0:0:0:
64,192,134971,1,0,0:0:0:0:
320,192,135029,1,0,0:0:0:0:
192,192,135086,1,0,0:0:0:0:
448,192,135144,1,2,0:0:0:0:
64,192,135201,1,0,0:0:0:0:
320,192,135259,1,0,0:0:0:0:
448,192,135316,1,2,0:0:0:0:
64,192,135374,1,0,0:0:0:0:
320,192,135431,1,2,0:0:0:0:
192,192,135488,1,0,0:0:0:0:
320,192,135546,1,0,0:0:0:0:
64,192,135603,1,8,0:0:0:0:
448,192,135603,1,0,0:0:0:0:
192,192,135661,1,0,0:0:0:0:
320,192,135718,1,0,0:0:0:0:
64,192,135776,1,0,0:0:0:0:
320,192,135862,1,2,0:0:0:0:
448,192,135862,1,0,0:0:0:0:
192,192,135948,1,0,0:0:0:0:
320,192,136006,1,0,0:0:0:0:
448,192,136063,1,0,0:0:0:0:
64,192,136121,1,2,0:0:0:0:
192,192,136121,1,0,0:0:0:0:
320,192,136207,1,0,0:0:0:0:
64,192,136293,1,8,0:0:0:0:
448,192,136293,1,0,0:0:0:0:
64,192,136379,1,2,0:0:0:0:
320,192,136465,1,0,0:0:0:0:
448,192,136465,1,0,0:0:0:0:
448,192,136552,1,0,0:0:0:0:
64,192,136638,1,2,0:0:0:0:
192,192,136638,1,0,0:0:0:0:
320,192,136724,1,0,0:0:0:0:
64,192,136810,1,0,0:0:0:0:
320,192,136897,1,0,0:0:0:0:
192,192,136983,1,8,0:0:0:0:
448,192,136983,1,0,0:0:0:0:
64,192,137069,1,0,0:0:0:0:
320,192,137155,1,0,0:0:0:0:
64,192,137241,1,2,0:0:0:0:
192,192,137241,1,0,0:0:0:0:
448,192,137328,1,0,0:0:0:0:
64,192,137414,1,2,0:0:0:0:
192,192,137414,1,0,0:0:0:0:
320,192,137500,1,0,0:0:0:0:
192,192,137557,1,0,0:0:0:0:
448,192,137615,1,0,0:0:0:0:
64,192,137672,1,8,0:0:0:0:
320,192,137672,1,0,0:0:0:0:
192,192,137730,1,0,0:0:0:0:
448,192,137787,1,0,0:0:0:0:
64,192,137845,1,0,0:0:0:0:
320,192,137902,1,2,0:0:0:0:
448,192,137960,1,0,0:0:0:0:
192,192,138017,1,0,0:0:0:0:
320,192,138075,1,2,0:0:0:0:
64,192,138132,1,0,0:0:0:0:
192,192,138190,1,0,0:0:0:0:
448,192,138247,1,0,0:0:0:0:
64,192,138305,1,0,0:0:0:0:
192,192,138362,1,8,0:0:0:0:
320,192,138362,1,0,0:0:0:0:
448,192,138448,1,0,0:0:0:0:
448,192,138534,1,0,0:0:0:0:
64,192,138621,1,2,0:0:0:0:
192,192,138621,1,0,0:0:0:0:
320,192,138707,1,2,0:0:0:0:
64,192,138793,1,2,0:0:0:0:
192,192,138793,1,0,0:0:0:0:
192,192,138879,1,2,0:0:0:0:
448,192,138965,1,2,0:0:0:0:
64,192,139052,1,0,0:0:0:70:Snare 10.wav
320,192,139052,1,0,0:0:0:0:
320,192,139138,1,0,0:0:0:70:Snare 10.wav
320,192,139224,1,0,0:0:0:70:Snare 10.wav
192,192,139310,1,0,0:0:0:70:Snare 10.wav
64,192,139397,1,2,0:0:0:0:
320,192,139397,1,0,0:0:0:70:LR4_BassKickReverbXG.wav
448,192,139397,1,0,0:0:0:0:
192,192,140172,1,0,0:0:0:0:
