osu file format v14

[General]
AudioFilename: audio.mp3
AudioLeadIn: 0
PreviewTime: 23422
Countdown: 0
SampleSet: Normal
StackLeniency: 0.2
Mode: 1
LetterboxInBreaks: 0
WidescreenStoryboard: 1

[Editor]
Bookmarks: 23422,45491,67560,89629,111698,155836,177905,199974,222043
DistanceSpacing: 1
BeatDivisor: 4
GridSize: 32
TimelineZoom: 2.7

[Metadata]
Title:Shuu no Hazama
TitleUnicode:驟雨の狭間
Artist:Silentroom
ArtistUnicode:Silentroom
Creator:[Zeth]
Version:Ulqui's Futsuu
Source:osu!
Tags:rainshower featured artist fa mappers' guild mg nifty genjuro ulqui frenz 2019 electronic instrumental neurofunk
BeatmapID:2564617
BeatmapSetID:1226129

[Difficulty]
HPDrainRate:6
CircleSize:2
OverallDifficulty:4
ApproachRate:10
SliderMultiplier:1.4
SliderTickRate:1

[Events]
//Background and Video events
0,0,"maxresdefault.jpg",0,0
//Break Periods
2,156036,177455
//Storyboard Layer 0 (Background)
//Storyboard Layer 1 (Fail)
//Storyboard Layer 2 (Pass)
//Storyboard Layer 3 (Foreground)
//Storyboard Layer 4 (Overlay)
//Storyboard Sound Samples

[TimingPoints]
1354,344.827586206896,4,1,0,100,1,0
23767,-100,4,1,0,100,0,1
24802,-100,4,1,0,100,0,0
25147,-100,4,1,0,100,0,1
26181,-100,4,1,0,100,0,0
26526,-100,4,1,0,100,0,1
27560,-100,4,1,0,100,0,0
27905,-100,4,1,0,100,0,1
28940,-100,4,1,0,100,0,0
29285,-100,4,1,0,100,0,1
30319,-100,4,1,0,100,0,0
30664,-100,4,1,0,100,0,1
31698,-100,4,1,0,100,0,0
32043,-100,4,1,0,100,0,1
33078,-100,4,1,0,100,0,0
33422,-100,4,1,0,100,0,1
34457,-100,4,1,0,100,0,0
110319,344.827586206896,4,1,0,100,1,8
111698,-100,4,1,0,100,0,9
133077,-100,4,1,0,100,0,8
133767,-100,4,1,0,100,0,9
155836,-100,4,1,0,100,0,8
178250,-100,4,1,0,100,0,9
179284,-100,4,1,0,100,0,8
179629,-100,4,1,0,100,0,9
180663,-100,4,1,0,100,0,8
181008,-100,4,1,0,100,0,9
182043,-100,4,1,0,100,0,8
182387,-100,4,1,0,100,0,9
183422,-100,4,1,0,100,0,8
183767,-100,4,1,0,100,0,9
184801,-100,4,1,0,100,0,8
185146,-100,4,1,0,100,0,9
186181,-100,4,1,0,100,0,8
186525,-100,4,1,0,100,0,9
187560,-100,4,1,0,100,0,8
187905,-100,4,1,0,100,0,9
188939,-100,4,1,0,100,0,8
199974,-100,4,1,0,100,0,9
209629,-100,4,1,0,100,0,8
211008,-100,4,1,0,100,0,9
221956,-100,4,1,0,100,0,8

[HitObjects]
164,211,1354,5,0,0:0:0:0:
156,101,1698,1,0,0:0:0:0:
150,127,2733,1,0,0:0:0:0:
150,127,3078,1,0,0:0:0:0:
150,127,4112,1,0,0:0:0:0:
150,127,4457,1,0,0:0:0:0:
150,127,5491,1,0,0:0:0:0:
150,127,5836,1,0,0:0:0:0:
144,120,6871,1,0,0:0:0:0:
144,120,7216,1,0,0:0:0:0:
180,116,8250,1,0,0:0:0:0:
180,116,8595,1,0,0:0:0:0:
180,116,9629,1,0,0:0:0:0:
180,116,9974,1,0,0:0:0:0:
177,127,11009,1,0,0:0:0:0:
177,127,11353,1,0,0:0:0:0:
177,125,12388,1,0,0:0:0:0:
177,125,12733,1,8,0:0:0:0:
177,125,13767,1,0,0:0:0:0:
177,125,14112,1,8,0:0:0:0:
142,162,15147,1,0,0:0:0:0:
142,162,15491,1,8,0:0:0:0:
142,162,16526,1,0,0:0:0:0:
142,162,16871,1,8,0:0:0:0:
142,162,17905,1,0,0:0:0:0:
142,162,18250,1,8,0:0:0:0:
142,162,19285,1,0,0:0:0:0:
142,162,19629,1,8,0:0:0:0:
142,162,20664,1,0,0:0:0:0:
142,162,21009,1,8,0:0:0:0:
142,160,22043,1,0,0:0:0:0:
142,160,22388,1,8,0:0:0:0:
150,134,23422,1,0,0:0:0:0:
150,134,23767,1,8,0:0:0:0:
150,134,23940,1,8,0:0:0:0:
150,134,24457,1,8,0:0:0:0:
150,134,24802,1,0,0:0:0:0:
150,134,25147,1,8,0:0:0:0:
150,134,25319,1,8,0:0:0:0:
150,134,25836,1,8,0:0:0:0:
150,134,26181,1,0,0:0:0:0:
150,134,26526,1,8,0:0:0:0:
150,134,26698,1,8,0:0:0:0:
150,134,27216,1,8,0:0:0:0:
150,134,27560,1,0,0:0:0:0:
150,134,27905,1,8,0:0:0:0:
150,134,28078,1,8,0:0:0:0:
150,134,28595,1,8,0:0:0:0:
150,134,28940,1,0,0:0:0:0:
150,134,29285,1,8,0:0:0:0:
150,134,29457,1,8,0:0:0:0:
150,134,29974,1,8,0:0:0:0:
150,134,30319,1,0,0:0:0:0:
150,134,30664,1,8,0:0:0:0:
150,134,30836,1,8,0:0:0:0:
150,134,31353,1,8,0:0:0:0:
150,134,31698,1,0,0:0:0:0:
150,134,32043,1,8,0:0:0:0:
150,134,32216,1,8,0:0:0:0:
150,134,32733,1,8,0:0:0:0:
150,134,33078,1,0,0:0:0:0:
150,134,33422,1,8,0:0:0:0:
150,134,33595,1,8,0:0:0:0:
150,134,34112,1,8,0:0:0:0:
150,134,34457,1,0,0:0:0:0:
135,173,34802,1,8,0:0:0:0:
139,165,35491,1,8,0:0:0:0:
145,162,36181,1,8,0:0:0:0:
145,162,36871,1,8,0:0:0:0:
139,165,37560,1,8,0:0:0:0:
145,162,38250,1,8,0:0:0:0:
145,162,38940,1,8,0:0:0:0:
139,165,39629,1,8,0:0:0:0:
145,162,39974,1,0,0:0:0:0:
166,98,40319,1,8,0:0:0:0:
166,98,40664,1,0,0:0:0:0:
166,98,41009,1,8,0:0:0:0:
166,98,41353,1,0,0:0:0:0:
166,98,41698,1,8,0:0:0:0:
166,98,42043,1,0,0:0:0:0:
166,98,42388,1,8,0:0:0:0:
256,192,42733,12,0,44112,0:0:0:0:
82,136,45491,5,0,0:0:0:0:
110,130,45836,1,8,0:0:0:0:
186,78,46353,1,0,0:0:0:0:
99,129,46526,1,8,0:0:0:0:
182,93,46871,1,0,0:0:0:0:
182,93,47043,1,0,0:0:0:0:
144,86,47216,1,8,0:0:0:0:
170,85,47905,1,8,0:0:0:0:
186,115,48250,1,0,0:0:0:0:
161,135,48595,1,8,0:0:0:0:
183,92,49112,1,0,0:0:0:0:
161,135,49285,1,8,0:0:0:0:
173,89,49629,1,0,0:0:0:0:
173,89,49802,1,0,0:0:0:0:
161,135,49974,1,8,0:0:0:0:
161,135,50664,1,8,0:0:0:0:
174,116,51009,1,0,0:0:0:0:
129,74,51353,1,8,0:0:0:0:
195,67,51871,1,0,0:0:0:0:
129,74,52043,1,8,0:0:0:0:
188,46,52388,1,0,0:0:0:0:
181,60,52560,1,0,0:0:0:0:
129,74,52733,1,8,0:0:0:0:
155,106,53422,1,8,0:0:0:0:
168,121,53767,1,0,0:0:0:0:
168,121,54112,1,8,0:0:0:0:
168,121,54629,1,0,0:0:0:0:
168,121,54802,1,8,0:0:0:0:
208,66,55147,1,0,0:0:0:0:
208,66,55319,1,0,0:0:0:0:
179,90,55491,1,8,0:0:0:0:
147,68,55664,1,8,0:0:0:0:
179,90,56181,1,8,0:0:0:0:
179,90,56526,1,0,0:0:0:0:
176,109,56871,1,8,0:0:0:0:
191,69,57388,1,0,0:0:0:0:
176,109,57560,1,8,0:0:0:0:
177,81,57905,1,0,0:0:0:0:
177,81,58078,1,0,0:0:0:0:
176,109,58250,1,8,0:0:0:0:
176,109,58940,1,8,0:0:0:0:
176,109,59285,1,0,0:0:0:0:
176,109,59629,1,8,0:0:0:0:
176,109,60147,1,0,0:0:0:0:
176,109,60319,1,8,0:0:0:0:
152,88,60664,1,0,0:0:0:0:
150,88,60836,1,0,0:0:0:0:
170,114,61009,1,8,0:0:0:0:
163,152,61698,1,8,0:0:0:0:
165,148,62043,1,0,0:0:0:0:
163,152,62388,1,8,0:0:0:0:
163,152,62905,1,0,0:0:0:0:
165,148,63078,1,8,0:0:0:0:
194,60,63422,1,0,0:0:0:0:
176,77,63595,1,0,0:0:0:0:
177,144,63767,1,8,0:0:0:0:
177,144,64457,1,8,0:0:0:0:
177,144,64802,1,0,0:0:0:0:
177,144,65147,1,8,0:0:0:0:
177,144,65664,1,0,0:0:0:0:
197,110,65836,1,8,0:0:0:0:
187,57,66181,1,0,0:0:0:0:
187,57,66353,1,0,0:0:0:0:
177,144,66526,1,8,0:0:0:0:
184,142,66698,1,0,0:0:0:0:
100,119,67560,1,0,0:0:0:0:
123,120,67905,1,8,0:0:0:0:
109,117,68422,1,0,0:0:0:0:
109,117,68595,1,8,0:0:0:0:
160,97,68940,1,0,0:0:0:0:
160,97,69112,1,8,0:0:0:0:
160,97,69285,1,8,0:0:0:0:
153,88,69974,1,8,0:0:0:0:
153,88,70319,1,0,0:0:0:0:
153,88,70664,1,8,0:0:0:0:
144,64,71181,1,0,0:0:0:0:
144,64,71353,1,8,0:0:0:0:
144,64,71698,1,0,0:0:0:0:
144,64,71871,1,8,0:0:0:0:
144,64,72043,1,8,0:0:0:0:
144,64,72733,1,8,0:0:0:0:
144,64,73078,1,0,0:0:0:0:
144,64,73422,1,8,0:0:0:0:
192,105,73940,1,0,0:0:0:0:
192,105,74112,1,8,0:0:0:0:
192,105,74457,1,0,0:0:0:0:
192,105,74629,1,8,0:0:0:0:
192,105,74802,1,8,0:0:0:0:
141,114,75491,1,8,0:0:0:0:
141,114,75836,1,0,0:0:0:0:
141,114,76181,1,8,0:0:0:0:
141,114,76698,1,0,0:0:0:0:
141,114,76871,1,8,0:0:0:0:
141,114,77216,1,0,0:0:0:0:
141,114,77388,1,8,0:0:0:0:
141,114,77560,1,8,0:0:0:0:
158,18,77733,1,0,0:0:0:0:
144,90,78250,1,8,0:0:0:0:
155,107,78595,1,0,0:0:0:0:
160,93,78767,1,8,0:0:0:0:
155,107,78940,1,0,0:0:0:0:
152,129,79457,1,0,0:0:0:0:
152,129,79629,1,8,0:0:0:0:
169,83,79974,1,0,0:0:0:0:
169,83,80147,1,8,0:0:0:0:
169,83,80319,1,8,0:0:0:0:
169,83,81009,1,8,0:0:0:0:
169,83,81353,1,0,0:0:0:0:
169,83,81526,1,8,0:0:0:0:
169,83,81698,1,0,0:0:0:0:
153,82,82216,1,0,0:0:0:0:
144,82,82388,1,8,0:0:0:0:
144,82,82733,1,0,0:0:0:0:
144,82,82905,1,8,0:0:0:0:
144,82,83078,1,8,0:0:0:0:
144,82,83767,1,8,0:0:0:0:
154,77,84112,1,0,0:0:0:0:
153,77,84285,1,8,0:0:0:0:
153,78,84457,1,0,0:0:0:0:
146,75,84974,1,0,0:0:0:0:
145,75,85147,1,8,0:0:0:0:
144,79,85491,1,0,0:0:0:0:
146,75,85664,1,8,0:0:0:0:
146,75,85836,1,8,0:0:0:0:
141,88,86526,1,8,0:0:0:0:
141,88,86871,1,0,0:0:0:0:
141,88,87043,1,8,0:0:0:0:
141,88,87216,1,0,0:0:0:0:
165,76,87733,1,0,0:0:0:0:
165,77,87905,1,8,0:0:0:0:
165,76,88250,1,0,0:0:0:0:
165,76,88422,1,8,0:0:0:0:
165,76,88595,1,8,0:0:0:0:
131,93,88767,1,0,0:0:0:0:
156,80,89285,1,8,0:0:0:0:
176,88,89629,1,0,0:0:0:0:
194,123,89974,1,8,0:0:0:0:
195,145,90664,1,8,0:0:0:0:
195,145,91353,1,8,0:0:0:0:
195,145,92043,1,8,0:0:0:0:
195,145,92388,1,0,0:0:0:0:
195,145,92733,1,8,0:0:0:0:
181,128,92905,1,8,0:0:0:0:
181,128,93078,1,8,0:0:0:0:
177,80,93250,1,8,0:0:0:0:
186,129,93422,1,8,0:0:0:0:
202,128,93767,1,0,0:0:0:0:
154,141,94112,1,8,0:0:0:0:
155,139,94285,1,0,0:0:0:0:
154,141,94457,1,0,0:0:0:0:
194,57,94629,1,0,0:0:0:0:
160,115,94802,1,8,0:0:0:0:
160,115,95147,1,0,0:0:0:0:
181,135,95491,1,8,0:0:0:0:
179,139,96181,1,8,0:0:0:0:
179,139,96871,1,8,0:0:0:0:
179,139,97560,1,8,0:0:0:0:
179,139,97905,1,0,0:0:0:0:
179,139,98250,1,8,0:0:0:0:
195,102,98422,1,8,0:0:0:0:
179,139,98940,1,8,0:0:0:0:
179,139,99285,1,0,0:0:0:0:
179,139,99629,1,8,0:0:0:0:
186,95,99802,1,8,0:0:0:0:
178,89,99974,1,8,0:0:0:0:
186,95,100147,1,8,0:0:0:0:
186,95,100319,1,8,0:0:0:0:
186,95,100664,1,0,0:0:0:0:
192,167,101009,1,8,0:0:0:0:
192,167,101698,1,8,0:0:0:0:
192,167,102388,1,8,0:0:0:0:
198,160,103078,1,8,0:0:0:0:
198,160,103767,1,8,0:0:0:0:
198,160,104457,1,8,0:0:0:0:
198,160,105147,1,8,0:0:0:0:
198,160,105836,1,8,0:0:0:0:
152,60,106181,1,0,0:0:0:0:
198,160,106526,1,8,0:0:0:0:
198,160,106871,1,0,0:0:0:0:
198,160,107216,1,8,0:0:0:0:
198,160,107560,1,0,0:0:0:0:
198,160,107905,1,8,0:0:0:0:
198,160,108250,1,0,0:0:0:0:
198,160,108595,1,8,0:0:0:0:
256,192,108940,12,0,110319,0:0:0:0:
174,135,111698,5,0,0:0:0:0:
165,142,112043,1,8,0:0:0:0:
182,139,112387,1,0,0:0:0:0:
176,45,112560,1,0,0:0:0:0:
182,139,112732,1,8,0:0:0:0:
189,94,112905,1,0,0:0:0:0:
189,94,113250,1,0,0:0:0:0:
189,94,113422,1,8,0:0:0:0:
197,119,113594,1,8,0:0:0:0:
189,94,113767,1,0,0:0:0:0:
233,67,113939,1,0,0:0:0:0:
197,119,114284,1,8,0:0:0:0:
208,149,114456,1,0,0:0:0:0:
192,156,114801,1,8,0:0:0:0:
197,158,115491,1,8,0:0:0:0:
192,156,115836,1,0,0:0:0:0:
187,99,116008,1,0,0:0:0:0:
197,158,116181,1,8,0:0:0:0:
230,110,116353,1,0,0:0:0:0:
187,99,116698,1,8,0:0:0:0:
197,158,116870,1,8,0:0:0:0:
208,95,117215,1,0,0:0:0:0:
172,141,117560,1,8,0:0:0:0:
172,141,117905,1,0,0:0:0:0:
172,141,118077,1,0,0:0:0:0:
172,141,118250,1,8,0:0:0:0:
202,68,118422,1,0,0:0:0:0:
172,141,118767,1,0,0:0:0:0:
172,141,118939,1,8,0:0:0:0:
224,109,119112,1,0,0:0:0:0:
195,77,119284,1,0,0:0:0:0:
194,79,119456,1,8,0:0:0:0:
172,141,119801,1,8,0:0:0:0:
195,77,119974,1,0,0:0:0:0:
187,82,120318,1,8,0:0:0:0:
187,82,121008,1,8,0:0:0:0:
213,84,121353,1,0,0:0:0:0:
213,85,121525,1,0,0:0:0:0:
167,77,121698,1,8,0:0:0:0:
254,105,121870,1,0,0:0:0:0:
213,84,122215,1,8,0:0:0:0:
213,84,122387,1,8,0:0:0:0:
213,84,122732,1,0,0:0:0:0:
162,85,123077,1,8,0:0:0:0:
179,152,123422,1,0,0:0:0:0:
179,152,123594,1,0,0:0:0:0:
179,152,123767,1,8,0:0:0:0:
179,152,123939,1,0,0:0:0:0:
179,152,124284,1,0,0:0:0:0:
179,152,124456,1,8,0:0:0:0:
179,152,124629,1,8,0:0:0:0:
204,132,124801,1,0,0:0:0:0:
179,152,124974,1,0,0:0:0:0:
179,152,125318,1,8,0:0:0:0:
168,199,125491,1,0,0:0:0:0:
154,101,125836,1,8,0:0:0:0:
259,84,126008,1,0,0:0:0:0:
154,101,126181,1,0,0:0:0:0:
154,101,126353,1,8,0:0:0:0:
180,69,126698,1,0,0:0:0:0:
168,64,126870,1,0,0:0:0:0:
180,69,127215,1,8,0:0:0:0:
180,69,127905,1,8,0:0:0:0:
215,91,128250,1,0,0:0:0:0:
198,104,128594,1,8,0:0:0:0:
197,106,128767,1,8,0:0:0:0:
197,106,128939,1,0,0:0:0:0:
190,38,129112,1,0,0:0:0:0:
195,88,129284,1,8,0:0:0:0:
216,57,129629,1,0,0:0:0:0:
195,88,129801,1,0,0:0:0:0:
195,88,129974,1,8,0:0:0:0:
208,61,130146,1,0,0:0:0:0:
195,88,130491,1,0,0:0:0:0:
195,88,130663,1,8,0:0:0:0:
195,88,131008,1,0,0:0:0:0:
189,101,131353,1,8,0:0:0:0:
224,73,131698,1,0,0:0:0:0:
190,102,131870,1,0,0:0:0:0:
190,102,132043,1,8,0:0:0:0:
189,101,132387,1,0,0:0:0:0:
224,80,132560,1,0,0:0:0:0:
176,114,132732,1,8,0:0:0:0:
160,85,132905,1,8,0:0:0:0:
166,81,133077,1,0,0:0:0:0:
174,135,133767,5,0,0:0:0:0:
165,142,134112,1,8,0:0:0:0:
182,139,134456,1,0,0:0:0:0:
176,45,134629,1,0,0:0:0:0:
182,139,134801,1,8,0:0:0:0:
189,94,134974,1,0,0:0:0:0:
189,94,135318,1,0,0:0:0:0:
189,94,135491,1,8,0:0:0:0:
197,119,135663,1,8,0:0:0:0:
199,95,135836,1,0,0:0:0:0:
233,67,136008,1,0,0:0:0:0:
197,119,136353,1,8,0:0:0:0:
208,149,136525,1,0,0:0:0:0:
192,156,136870,1,8,0:0:0:0:
197,158,137560,1,8,0:0:0:0:
192,156,137905,1,0,0:0:0:0:
187,99,138077,1,0,0:0:0:0:
197,158,138250,1,8,0:0:0:0:
190,124,138422,1,0,0:0:0:0:
187,99,138767,1,8,0:0:0:0:
197,158,138939,1,8,0:0:0:0:
208,95,139284,1,0,0:0:0:0:
172,141,139629,1,8,0:0:0:0:
172,141,139974,1,0,0:0:0:0:
172,141,140146,1,0,0:0:0:0:
172,141,140318,1,8,0:0:0:0:
202,68,140491,1,0,0:0:0:0:
172,141,140836,1,0,0:0:0:0:
172,141,141008,1,8,0:0:0:0:
204,105,141181,1,0,0:0:0:0:
195,77,141353,1,0,0:0:0:0:
194,79,141525,1,8,0:0:0:0:
172,141,141870,1,8,0:0:0:0:
195,77,142043,1,0,0:0:0:0:
187,82,142387,1,8,0:0:0:0:
187,82,143077,1,8,0:0:0:0:
213,84,143422,1,0,0:0:0:0:
213,85,143594,1,0,0:0:0:0:
167,77,143767,1,8,0:0:0:0:
203,108,143939,1,0,0:0:0:0:
213,84,144284,1,8,0:0:0:0:
213,84,144456,1,8,0:0:0:0:
213,84,144801,1,0,0:0:0:0:
162,85,145146,1,8,0:0:0:0:
179,152,145491,1,0,0:0:0:0:
179,152,145663,1,0,0:0:0:0:
179,152,145836,1,8,0:0:0:0:
179,152,146008,1,0,0:0:0:0:
179,152,146353,1,0,0:0:0:0:
179,152,146525,1,8,0:0:0:0:
179,152,146698,1,8,0:0:0:0:
186,88,146870,1,0,0:0:0:0:
179,152,147043,1,0,0:0:0:0:
179,152,147387,1,8,0:0:0:0:
168,199,147560,1,0,0:0:0:0:
154,101,147905,1,8,0:0:0:0:
183,66,148077,1,0,0:0:0:0:
154,101,148250,1,0,0:0:0:0:
154,101,148422,1,8,0:0:0:0:
180,69,148767,1,0,0:0:0:0:
168,64,148939,1,0,0:0:0:0:
180,69,149284,1,8,0:0:0:0:
205,64,149456,1,0,0:0:0:0:
205,64,149629,1,0,0:0:0:0:
249,48,149801,1,8,0:0:0:0:
180,69,149974,1,8,0:0:0:0:
215,91,150318,1,0,0:0:0:0:
198,104,150663,1,8,0:0:0:0:
197,106,150836,1,8,0:0:0:0:
197,106,151008,1,0,0:0:0:0:
224,65,151181,1,0,0:0:0:0:
195,88,151353,1,8,0:0:0:0:
166,67,151698,1,0,0:0:0:0:
195,88,151870,1,0,0:0:0:0:
195,88,152043,1,8,0:0:0:0:
195,88,152215,1,0,0:0:0:0:
195,88,152560,1,0,0:0:0:0:
195,88,152732,1,8,0:0:0:0:
195,88,153077,1,0,0:0:0:0:
189,101,153422,1,8,0:0:0:0:
190,102,154112,1,8,0:0:0:0:
189,101,154456,1,0,0:0:0:0:
219,61,154629,1,0,0:0:0:0:
176,114,154801,1,8,0:0:0:0:
166,81,154974,1,0,0:0:0:0:
197,134,155318,1,0,0:0:0:0:
197,134,155491,1,8,0:0:0:0:
201,143,155663,1,8,0:0:0:0:
201,143,155836,1,0,0:0:0:0:
208,138,177905,5,0,0:0:0:0:
208,138,178250,1,8,0:0:0:0:
208,138,178422,1,8,0:0:0:0:
208,138,178939,1,8,0:0:0:0:
159,149,179284,1,0,0:0:0:0:
159,149,179629,1,8,0:0:0:0:
159,149,179801,1,8,0:0:0:0:
159,149,180318,1,8,0:0:0:0:
159,149,180663,1,0,0:0:0:0:
159,149,181008,1,8,0:0:0:0:
159,149,181181,1,8,0:0:0:0:
159,149,181698,1,8,0:0:0:0:
159,149,182043,1,0,0:0:0:0:
159,149,182387,1,8,0:0:0:0:
159,149,182560,1,8,0:0:0:0:
159,149,183077,1,8,0:0:0:0:
159,149,183422,1,0,0:0:0:0:
159,149,183767,1,8,0:0:0:0:
159,149,183939,1,8,0:0:0:0:
159,149,184456,1,8,0:0:0:0:
159,149,184801,1,0,0:0:0:0:
159,149,185146,1,8,0:0:0:0:
159,149,185318,1,8,0:0:0:0:
159,149,185836,1,8,0:0:0:0:
159,149,186181,1,0,0:0:0:0:
159,149,186525,1,8,0:0:0:0:
159,149,186698,1,8,0:0:0:0:
159,149,187215,1,8,0:0:0:0:
159,149,187560,1,0,0:0:0:0:
159,149,187905,1,8,0:0:0:0:
159,149,188077,1,8,0:0:0:0:
159,149,188594,1,8,0:0:0:0:
159,149,188939,1,0,0:0:0:0:
204,138,189284,1,8,0:0:0:0:
204,138,189974,1,8,0:0:0:0:
191,145,190663,1,8,0:0:0:0:
191,145,191353,1,8,0:0:0:0:
191,145,192043,1,8,0:0:0:0:
191,145,192732,1,8,0:0:0:0:
191,145,193422,1,8,0:0:0:0:
191,145,194112,1,8,0:0:0:0:
191,145,194456,1,0,0:0:0:0:
191,145,194801,1,8,0:0:0:0:
191,145,195146,1,0,0:0:0:0:
191,145,195491,1,8,0:0:0:0:
191,145,195836,1,0,0:0:0:0:
191,145,196181,1,8,0:0:0:0:
191,145,196525,1,0,0:0:0:0:
191,145,196870,1,8,0:0:0:0:
256,192,197215,12,0,198594,0:0:0:0:
213,143,199974,5,0,0:0:0:0:
181,99,200318,1,8,0:0:0:0:
181,99,200491,1,8,0:0:0:0:
168,110,200663,1,0,0:0:0:0:
168,110,200836,1,0,0:0:0:0:
168,110,201008,1,8,0:0:0:0:
168,110,201353,1,0,0:0:0:0:
168,110,201525,1,0,0:0:0:0:
168,110,201698,1,8,0:0:0:0:
173,54,202387,1,8,0:0:0:0:
173,54,202732,1,0,0:0:0:0:
182,94,203077,1,8,0:0:0:0:
182,94,203250,1,8,0:0:0:0:
182,94,203422,1,8,0:0:0:0:
182,94,203594,1,8,0:0:0:0:
182,94,203767,1,8,0:0:0:0:
182,94,204112,1,0,0:0:0:0:
182,94,204456,1,8,0:0:0:0:
182,94,204629,1,0,0:0:0:0:
182,94,204801,1,0,0:0:0:0:
182,94,204974,1,0,0:0:0:0:
182,94,205146,1,8,0:0:0:0:
182,94,205491,1,0,0:0:0:0:
182,94,205836,1,8,0:0:0:0:
187,38,206008,1,0,0:0:0:0:
176,69,206353,1,0,0:0:0:0:
176,68,206525,1,8,0:0:0:0:
197,82,206698,1,8,0:0:0:0:
197,82,206870,1,0,0:0:0:0:
197,82,207215,1,8,0:0:0:0:
170,119,207905,1,8,0:0:0:0:
144,130,208250,1,0,0:0:0:0:
139,133,208594,1,8,0:0:0:0:
139,133,208767,1,8,0:0:0:0:
139,133,208939,1,8,0:0:0:0:
144,130,209112,1,8,0:0:0:0:
176,98,209284,1,8,0:0:0:0:
176,98,209629,1,0,0:0:0:0:
176,98,209974,1,8,0:0:0:0:
176,98,210663,1,8,0:0:0:0:
176,98,211008,1,0,0:0:0:0:
181,103,211353,1,8,0:0:0:0:
181,103,211525,1,8,0:0:0:0:
181,103,211698,1,0,0:0:0:0:
181,104,211870,1,0,0:0:0:0:
181,104,212043,1,8,0:0:0:0:
181,103,212387,1,0,0:0:0:0:
181,103,212732,1,8,0:0:0:0:
186,97,212905,1,0,0:0:0:0:
181,103,213250,1,0,0:0:0:0:
181,103,213422,1,8,0:0:0:0:
174,80,213767,1,0,0:0:0:0:
170,82,214112,1,8,0:0:0:0:
170,82,214801,1,8,0:0:0:0:
176,121,214974,1,0,0:0:0:0:
176,121,215146,1,0,0:0:0:0:
177,97,215491,1,8,0:0:0:0:
176,103,215663,1,0,0:0:0:0:
176,103,215836,1,0,0:0:0:0:
176,103,216008,1,0,0:0:0:0:
176,103,216181,1,8,0:0:0:0:
164,85,216525,1,0,0:0:0:0:
165,83,216870,1,8,0:0:0:0:
212,42,217043,1,0,0:0:0:0:
164,85,217387,1,0,0:0:0:0:
197,40,217560,1,8,0:0:0:0:
196,42,217732,1,8,0:0:0:0:
189,69,217905,1,0,0:0:0:0:
167,103,218250,1,8,0:0:0:0:
160,79,218939,1,8,0:0:0:0:
167,103,219284,1,0,0:0:0:0:
163,104,219629,1,8,0:0:0:0:
160,108,219801,1,8,0:0:0:0:
160,108,219974,1,8,0:0:0:0:
160,108,220146,1,8,0:0:0:0:
160,108,220318,1,8,0:0:0:0:
163,104,220663,1,0,0:0:0:0:
160,108,221008,1,8,0:0:0:0:
160,108,221181,1,0,0:0:0:0:
163,104,221353,1,0,0:0:0:0:
163,104,221525,1,0,0:0:0:0:
163,104,221698,1,8,0:0:0:0:
