osu file format v14

[General]
AudioFilename: audio.mp3
AudioLeadIn: 0
PreviewTime: 23422
Countdown: 0
SampleSet: Normal
StackLeniency: 0.7
Mode: 1
LetterboxInBreaks: 0
WidescreenStoryboard: 0

[Editor]
DistanceSpacing: 1
BeatDivisor: 12
GridSize: 32
TimelineZoom: 2.7

[Metadata]
Title:Shuu no Hazama
TitleUnicode:驟雨の狭間
Artist:Silentroom
ArtistUnicode:Silentroom
Creator:[Zeth]
Version:Torment
Source:osu!
Tags:rainshower featured artist fa mappers' guild mg nifty genjuro ulqui frenz 2019 electronic instrumental neurofunk
BeatmapID:2549787
BeatmapSetID:1226129

[Difficulty]
HPDrainRate:5.5
CircleSize:5
OverallDifficulty:6.5
ApproachRate:5
SliderMultiplier:1.4
SliderTickRate:1

[Events]
//Background and Video events
0,0,"maxresdefault.jpg",0,0
//Break Periods
//Storyboard Layer 0 (Background)
//Storyboard Layer 1 (Fail)
//Storyboard Layer 2 (Pass)
//Storyboard Layer 3 (Foreground)
//Storyboard Layer 4 (Overlay)
//Storyboard Sound Samples

[TimingPoints]
1354,344.827586206896,4,1,0,100,1,0
1354,-111.111111111111,4,1,0,100,0,0
1523,-117.647058823529,4,1,0,100,0,0
1609,-121.212121212121,4,1,0,100,0,0
1695,-125,4,1,0,100,0,0
2730,-100,4,1,0,100,0,0
2902,-105.263157894737,4,1,0,100,0,0
2988,-108.108108108108,4,1,0,100,0,0
3074,-111.111111111111,4,1,0,100,0,0
4109,-111.111111111111,4,1,0,100,0,0
4281,-117.647058823529,4,1,0,100,0,0
4367,-121.212121212121,4,1,0,100,0,0
4453,-125,4,1,0,100,0,0
5488,-100,4,1,0,100,0,0
5660,-105.263157894737,4,1,0,100,0,0
5746,-108.108108108108,4,1,0,100,0,0
5832,-111.111111111111,4,1,0,100,0,0
6868,-111.111111111111,4,1,0,100,0,0
7040,-117.647058823529,4,1,0,100,0,0
7126,-121.212121212121,4,1,0,100,0,0
7212,-125,4,1,0,100,0,0
8247,-100,4,1,0,100,0,0
8419,-105.263157894737,4,1,0,100,0,0
8505,-108.108108108108,4,1,0,100,0,0
8591,-111.111111111111,4,1,0,100,0,0
9626,-111.111111111111,4,1,0,100,0,0
9798,-117.647058823529,4,1,0,100,0,0
9884,-121.212121212121,4,1,0,100,0,0
9970,-125,4,1,0,100,0,0
11005,-100,4,1,0,100,0,0
11177,-105.263157894737,4,1,0,100,0,0
11263,-108.108108108108,4,1,0,100,0,0
11349,-111.111111111111,4,1,0,100,0,0
12385,-111.111111111111,4,1,0,100,0,0
12471,-114.285714285714,4,1,0,100,0,0
12557,-117.647058823529,4,1,0,100,0,0
12643,-121.212121212121,4,1,0,100,0,0
12729,-125,4,1,0,100,0,0
13764,-100,4,1,0,100,0,0
13850,-102.564102564103,4,1,0,100,0,0
13936,-105.263157894737,4,1,0,100,0,0
14022,-108.108108108108,4,1,0,100,0,0
14108,-111.111111111111,4,1,0,100,0,0
15143,-111.111111111111,4,1,0,100,0,0
15230,-114.285714285714,4,1,0,100,0,0
15315,-117.647058823529,4,1,0,100,0,0
15401,-121.212121212121,4,1,0,100,0,0
15487,-125,4,1,0,100,0,0
16522,-100,4,1,0,100,0,0
16609,-102.564102564103,4,1,0,100,0,0
16694,-105.263157894737,4,1,0,100,0,0
16780,-108.108108108108,4,1,0,100,0,0
16866,-111.111111111111,4,1,0,100,0,0
17902,-111.111111111111,4,1,0,100,0,0
17988,-114.285714285714,4,1,0,100,0,0
18074,-117.647058823529,4,1,0,100,0,0
18160,-121.212121212121,4,1,0,100,0,0
18246,-125,4,1,0,100,0,0
19281,-90.9090909090909,4,1,0,100,0,0
19367,-93.0232558139535,4,1,0,100,0,0
19453,-95.2380952380952,4,1,0,100,0,0
19539,-97.5609756097561,4,1,0,100,0,0
19625,-100,4,1,0,100,0,0
20660,-76.9230769230769,4,1,0,100,0,0
20747,-78.4313725490196,4,1,0,100,0,0
20832,-80,4,1,0,100,0,0
20918,-81.6326530612245,4,1,0,100,0,0
21004,-83.3333333333333,4,1,0,100,0,0
22039,-66.6666666666667,4,1,0,100,0,0
22126,-67.7966101694915,4,1,0,100,0,0
22211,-68.9655172413793,4,1,0,100,0,0
22297,-70.1754385964912,4,1,0,100,0,0
22383,-71.4285714285714,4,1,0,100,0,0
22474,-50,4,1,0,100,0,0
23422,-100,4,1,0,100,0,0
23767,-50,4,1,0,100,0,1
24055,-57.9999976800001,4,1,0,100,0,1
24457,-74.7422699675843,4,1,0,100,0,1
24802,-99.3150242775577,4,1,0,100,0,0
25147,-45.4545454545455,4,1,0,100,0,1
25406,-51.2820512820513,4,1,0,100,0,1
25578,-56.0747768364069,4,1,0,100,0,1
25836,-65.2174054820447,4,1,0,100,0,1
26181,-83.3333333333333,4,1,0,100,0,0
26526,-41.6666666666667,4,1,0,100,0,1
26813,-47.1204237822433,4,1,0,100,0,1
27216,-57.6923187869844,4,1,0,100,0,1
27560,-71.4285714285714,4,1,0,100,0,0
27905,-38.4615384615385,4,1,0,100,0,1
28164,-45.3976127211374,4,1,0,100,0,1
28336,-51.6014244057193,4,1,0,100,0,1
28509,-59.7691833676707,4,1,0,100,0,1
28595,-64.9059836826357,4,1,0,100,0,1
28940,-98.9086420436899,4,1,0,100,0,0
29285,-50,4,1,0,100,0,1
29571,-57.9999976800001,4,1,0,100,0,1
29973,-74.7422699675843,4,1,0,100,0,1
30319,-99.3150242775577,4,1,0,100,0,0
30664,-45.4545454545455,4,1,0,100,0,1
30920,-51.2820512820513,4,1,0,100,0,1
31092,-56.0747768364069,4,1,0,100,0,1
31350,-65.2174054820447,4,1,0,100,0,1
31698,-83.3333333333333,4,1,0,100,0,0
32043,-41.6666666666667,4,1,0,100,0,1
32329,-47.1204237822433,4,1,0,100,0,1
32732,-57.6923187869844,4,1,0,100,0,1
33078,-71.4285714285714,4,1,0,100,0,0
33422,-38.4615384615385,4,1,0,100,0,1
33680,-45.3976127211374,4,1,0,100,0,1
33852,-51.6014244057193,4,1,0,100,0,1
34025,-59.7691833676707,4,1,0,100,0,1
34111,-64.9059836826357,4,1,0,100,0,1
34457,-83.3333333333333,4,1,0,100,0,0
34716,-84.6560846560847,4,1,0,100,0,0
34802,-85.1063829787234,4,1,0,100,0,0
34974,-86.0215053763441,4,1,0,100,0,0
35060,-86.4864864864865,4,1,0,100,0,0
35147,-86.9565217391304,4,1,0,100,0,0
35405,-88.3977900552486,4,1,0,100,0,0
35491,-88.8888888888889,4,1,0,100,0,0
35664,-89.8876404494382,4,1,0,100,0,0
35750,-90.3954802259887,4,1,0,100,0,0
35836,-90.9090909090909,4,1,0,100,0,0
35922,-91.4285714285714,4,1,0,100,0,0
36095,-92.485549132948,4,1,0,100,0,0
36181,-93.0232558139535,4,1,0,100,0,0
36353,-94.1176470588235,4,1,0,100,0,0
36440,-94.6745562130178,4,1,0,100,0,0
36526,-95.2380952380952,4,1,0,100,0,0
36785,-96.969696969697,4,1,0,100,0,0
36871,-97.5609756097561,4,1,0,100,0,0
37043,-98.7654320987654,4,1,0,100,0,0
37129,-99.3788819875776,4,1,0,100,0,0
37216,-100,4,1,0,100,0,0
37302,-100.62893081761,4,1,0,100,0,0
37474,-101.910828025478,4,1,0,100,0,0
37560,-102.564102564103,4,1,0,100,0,0
37733,-103.896103896104,4,1,0,100,0,0
37819,-104.575163398693,4,1,0,100,0,0
37905,-105.263157894737,4,1,0,100,0,0
38164,-107.38255033557,4,1,0,100,0,0
38250,-108.108108108108,4,1,0,100,0,0
38422,-109.58904109589,4,1,0,100,0,0
38509,-110.344827586207,4,1,0,100,0,0
38595,-111.111111111111,4,1,0,100,0,0
38853,-113.475177304965,4,1,0,100,0,0
38940,-114.285714285714,4,1,0,100,0,0
39112,-115.942028985507,4,1,0,100,0,0
39198,-116.788321167883,4,1,0,100,0,0
39285,-117.647058823529,4,1,0,100,0,0
39543,-120.300751879699,4,1,0,100,0,0
39629,-121.212121212121,4,1,0,100,0,0
39802,-123.076923076923,4,1,0,100,0,0
39974,-125,4,1,0,100,0,0
40147,-123.456790123457,4,1,0,100,0,0
40319,-121.951219512195,4,1,0,100,0,0
40491,-120.481927710843,4,1,0,100,0,0
40664,-117.647058823529,4,1,0,100,0,0
40836,-114.942528735632,4,1,0,100,0,0
41009,-112.359550561798,4,1,0,100,0,0
41181,-109.89010989011,4,1,0,100,0,0
41353,-106.382978723404,4,1,0,100,0,0
41526,-103.092783505155,4,1,0,100,0,0
41698,-100,4,1,0,100,0,0
41871,-97.0873786407767,4,1,0,100,0,0
42036,-93.4579439252336,4,1,0,100,0,0
42209,-90.0900900900901,4,1,0,100,0,0
42381,-86.9565217391304,4,1,0,100,0,0
42553,-84.0336134453781,4,1,0,100,0,0
42726,-80.6451612903226,4,1,0,100,0,0
42812,-78.8288554601989,4,1,0,100,0,0
42898,-77.0925025228521,4,1,0,100,0,0
42984,-75.4310507394506,4,1,0,100,0,0
43071,-73.8396468692728,4,1,0,100,0,0
43157,-72.3140570572373,4,1,0,100,0,0
43243,-70.850180915937,4,1,0,100,0,0
43329,-69.4444444444444,4,1,0,100,0,0
43415,-68.0920604657497,4,1,0,100,0,0
43501,-66.7913438418381,4,1,0,100,0,0
43587,-65.5436848659632,4,1,0,100,0,0
43673,-64.3376439554784,4,1,0,100,0,0
43760,-63.1751847874155,4,1,0,100,0,0
43846,-62.0539869686627,4,1,0,100,0,0
43932,-60.9756097560976,4,1,0,100,0,0
44018,-59.9304806424548,4,1,0,100,0,0
44105,-100,4,1,0,100,0,0
44970,-125,4,1,0,100,0,0
45487,-76.9230769230769,4,1,0,100,0,0
45545,-77.3468184933149,4,1,0,100,0,0
45602,-77.7751939130022,4,1,0,100,0,0
45660,-78.2084019286192,4,1,0,100,0,0
45746,-78.8672766261841,4,1,0,100,0,0
45832,-79.5374104209915,4,1,0,100,0,0
46091,-81.6177952911429,4,1,0,100,0,0
46263,-83.0662752583776,4,1,0,100,0,0
46349,-83.8100027238251,4,1,0,100,0,0
46436,-84.56709680311,4,1,0,100,0,0
46522,-85.3380667514358,4,1,0,100,0,0
46781,-87.7375384180746,4,1,0,100,0,0
46867,-88.5676834236724,4,1,0,100,0,0
46953,-89.4136076781253,4,1,0,100,0,0
47039,-90.2759283750784,4,1,0,100,0,0
47125,-91.1549606985387,4,1,0,100,0,0
47212,-92.0513646614811,4,1,0,100,0,0
47470,-94.8493933907046,4,1,0,100,0,0
47643,-96.8112316518513,4,1,0,100,0,0
47729,-97.8229502423564,4,1,0,100,0,0
47815,-98.8559402040189,4,1,0,100,0,0
47901,-99.9110791395658,4,1,0,100,0,0
48074,-76.9230769230769,4,1,0,100,0,0
48160,-77.5193798449612,4,1,0,100,0,0
48246,-78.125,4,1,0,100,0,0
48505,-80,4,1,0,100,0,0
48591,-80.6451612903226,4,1,0,100,0,0
48849,-82.6446280991736,4,1,0,100,0,0
49022,-84.0336134453782,4,1,0,100,0,0
49108,-84.7457627118644,4,1,0,100,0,0
49194,-85.4700854700855,4,1,0,100,0,0
49281,-86.2068965517241,4,1,0,100,0,0
49453,-87.719298245614,4,1,0,100,0,0
49539,-88.495575221239,4,1,0,100,0,0
49712,-90.0900900900901,4,1,0,100,0,0
49798,-90.9090909090909,4,1,0,100,0,0
49884,-91.743119266055,4,1,0,100,0,0
49970,-92.5925925925926,4,1,0,100,0,0
50229,-95.2380952380952,4,1,0,100,0,0
50401,-97.0873786407767,4,1,0,100,0,0
50487,-98.0392156862745,4,1,0,100,0,0
50574,-99.009900990099,4,1,0,100,0,0
50660,-100,4,1,0,100,0,0
50832,-71.4285714285714,4,1,0,100,0,0
50918,-72.1153672799598,4,1,0,100,0,0
51005,-72.8155516542601,4,1,0,100,0,0
51062,-73.2899261530704,4,1,0,100,0,0
51120,-73.7704676162401,4,1,0,100,0,0
51177,-74.2574073620279,4,1,0,100,0,0
51263,-75.0000187500047,4,1,0,100,0,0
51349,-75.7575757575758,4,1,0,100,0,0
51608,-78.125,4,1,0,100,0,0
51780,-79.7872552625679,4,1,0,100,0,0
51866,-80.6451612903226,4,1,0,100,0,0
51953,-81.5217169777943,4,1,0,100,0,0
52039,-82.4176050597816,4,1,0,100,0,0
52212,-84.2696392501013,4,1,0,100,0,0
52298,-85.227296939573,4,1,0,100,0,0
52384,-86.2068965517241,4,1,0,100,0,0
52470,-87.2092769740474,4,1,0,100,0,0
52556,-88.2353200692118,4,1,0,100,0,0
52642,-89.2857142857143,4,1,0,100,0,0
52729,-90.3614185658378,4,1,0,100,0,0
52987,-93.7499707031342,4,1,0,100,0,0
53160,-96.1538461538461,4,1,0,100,0,0
53246,-97.4025657783877,4,1,0,100,0,0
53332,-98.6842429882378,4,1,0,100,0,0
53418,-100,4,1,0,100,0,0
53591,-76.9230769230769,4,1,0,100,0,0
53677,-77.639751552795,4,1,0,100,0,0
53763,-78.3699059561128,4,1,0,100,0,0
54022,-80.6451612903226,4,1,0,100,0,0
54108,-81.4332247557003,4,1,0,100,0,0
54366,-83.8926174496644,4,1,0,100,0,0
54539,-85.6164383561644,4,1,0,100,0,0
54625,-86.5051903114187,4,1,0,100,0,0
54711,-87.4125874125874,4,1,0,100,0,0
54798,-88.339222614841,4,1,0,100,0,0
54970,-90.2527075812274,4,1,0,100,0,0
55056,-91.2408759124088,4,1,0,100,0,0
55229,-93.2835820895522,4,1,0,100,0,0
55315,-94.3396226415094,4,1,0,100,0,0
55401,-95.4198473282443,4,1,0,100,0,0
55487,-96.5250965250965,4,1,0,100,0,0
55660,-98.8142292490119,4,1,0,100,0,0
55746,-100,4,1,0,100,0,0
55922,-96.1538461538461,4,1,0,100,0,0
56008,-92.8758639777247,4,1,0,100,0,0
56095,-89.8140131415864,4,1,0,100,0,0
56181,-86.947600159288,4,1,0,100,0,0
56239,-85.1362350032522,4,1,0,100,0,0
56296,-83.3987318388836,4,1,0,100,0,0
56353,-81.7307967363258,4,1,0,100,0,0
56439,-79.3502799081124,4,1,0,100,0,0
56526,-71.4285714285714,4,1,0,100,0,0
56583,-71.9163698917802,4,1,0,100,0,0
56641,-72.4108242596536,4,1,0,100,0,0
56698,-72.9121780107079,4,1,0,100,0,0
56785,-73.6773081258703,4,1,0,100,0,0
56871,-74.4586668771365,4,1,0,100,0,0
57129,-76.9055069726378,4,1,0,100,0,0
57302,-78.6280969641692,4,1,0,100,0,0
57388,-79.5186260453717,4,1,0,100,0,0
57474,-80.4296228735413,4,1,0,100,0,0
57560,-81.3616688905523,4,1,0,100,0,0
57819,-84.292156614827,4,1,0,100,0,0
57905,-85.3164429527338,4,1,0,100,0,0
57991,-86.3659289864786,4,1,0,100,0,0
58078,-87.441632710166,4,1,0,100,0,0
58164,-88.5443921737383,4,1,0,100,0,0
58250,-89.6753215308653,4,1,0,100,0,0
58509,-93.2484399535996,4,1,0,100,0,0
58681,-95.7930563445178,4,1,0,100,0,0
58767,-97.1181169962532,4,1,0,100,0,0
58853,-98.4804467073063,4,1,0,100,0,0
58940,-99.8814407298537,4,1,0,100,0,0
59112,-76.9230769230769,4,1,0,100,0,0
59198,-77.5193798449612,4,1,0,100,0,0
59285,-78.125,4,1,0,100,0,0
59543,-80,4,1,0,100,0,0
59629,-80.6451612903226,4,1,0,100,0,0
59888,-82.6446280991736,4,1,0,100,0,0
60060,-84.0336134453782,4,1,0,100,0,0
60147,-84.7457627118644,4,1,0,100,0,0
60233,-85.4700854700855,4,1,0,100,0,0
60319,-86.2068965517241,4,1,0,100,0,0
60491,-87.719298245614,4,1,0,100,0,0
60578,-88.495575221239,4,1,0,100,0,0
60750,-90.0900900900901,4,1,0,100,0,0
60836,-90.9090909090909,4,1,0,100,0,0
60922,-91.743119266055,4,1,0,100,0,0
61009,-92.5925925925926,4,1,0,100,0,0
61267,-95.2380952380952,4,1,0,100,0,0
61440,-97.0873786407767,4,1,0,100,0,0
61526,-98.0392156862745,4,1,0,100,0,0
61612,-99.009900990099,4,1,0,100,0,0
61698,-100,4,1,0,100,0,0
61871,-71.4285714285714,4,1,0,100,0,0
61957,-72.1153672799598,4,1,0,100,0,0
62043,-72.8155516542601,4,1,0,100,0,0
62100,-73.2899261530704,4,1,0,100,0,0
62158,-73.7704676162401,4,1,0,100,0,0
62215,-74.2574073620279,4,1,0,100,0,0
62302,-75.0000187500047,4,1,0,100,0,0
62388,-75.7575757575758,4,1,0,100,0,0
62647,-78.125,4,1,0,100,0,0
62819,-79.7872552625679,4,1,0,100,0,0
62905,-80.6451612903226,4,1,0,100,0,0
62991,-81.5217169777943,4,1,0,100,0,0
63078,-82.4176050597816,4,1,0,100,0,0
63250,-84.2696392501013,4,1,0,100,0,0
63336,-85.227296939573,4,1,0,100,0,0
63422,-86.2068965517241,4,1,0,100,0,0
63509,-87.2092769740474,4,1,0,100,0,0
63595,-88.2353200692118,4,1,0,100,0,0
63681,-89.2857142857143,4,1,0,100,0,0
63767,-90.3614185658378,4,1,0,100,0,0
64026,-93.7499707031342,4,1,0,100,0,0
64198,-96.1538461538461,4,1,0,100,0,0
64285,-97.4025657783877,4,1,0,100,0,0
64371,-98.6842429882378,4,1,0,100,0,0
64457,-100,4,1,0,100,0,0
64629,-76.9230769230769,4,1,0,100,0,0
64716,-77.6373404552654,4,1,0,100,0,0
64802,-78.3649927904207,4,1,0,100,0,0
65060,-80.6322211193526,4,1,0,100,0,0
65147,-81.4173788651883,4,1,0,100,0,0
65405,-83.867358740111,4,1,0,100,0,0
65578,-85.5842709803422,4,1,0,100,0,0
65664,-86.4694356485813,4,1,0,100,0,0
65750,-87.373025151199,4,1,0,100,0,0
65836,-88.2956987633304,4,1,0,100,0,0
66009,-90.2007688713539,4,1,0,100,0,0
66095,-91.1844680024583,4,1,0,100,0,0
66267,-93.2177557452433,4,1,0,100,0,0
66353,-94.2687432185423,4,1,0,100,0,0
66440,-95.3436997359933,4,1,0,100,0,0
66526,-96.4434547202802,4,1,0,100,0,0
66698,-98.7208736402434,4,1,0,100,0,0
66785,-99.900399301896,4,1,0,100,0,0
66871,-66.6666666666667,4,1,0,100,0,0
66957,-68.7500214843817,4,1,0,100,0,0
67043,-70.9677373569202,4,1,0,100,0,0
67129,-73.3333528888941,4,1,0,100,0,0
67216,-75.862058501785,4,1,0,100,0,0
67302,-78.5714454081669,4,1,0,100,0,0
67388,-81.4814633744896,4,1,0,100,0,0
67474,-84.6153976331381,4,1,0,100,0,0
67560,-87.999971840009,4,1,0,100,0,0
67819,-100,4,1,0,100,0,0
67905,-66.6666666666667,4,1,0,100,0,0
68078,-68.1764570331515,4,1,0,100,0,0
68164,-68.9572899233402,4,1,0,100,0,0
68336,-70.5738714355784,4,1,0,100,0,0
68422,-71.410922729097,4,1,0,100,0,0
68509,-72.2680682817616,4,1,0,100,0,0
68595,-73.1460404585379,4,1,0,100,0,0
68681,-74.0456076515769,4,1,0,100,0,0
68853,-75.9127944182841,4,1,0,100,0,0
68939,-76.8821519621863,4,1,0,100,0,0
69025,-77.8765858593253,4,1,0,100,0,0
69111,-78.8970819125284,4,1,0,100,0,0
69198,-79.9446782826284,4,1,0,100,0,0
69285,-81.020469011291,4,1,0,100,0,0
69457,-83.2613122981954,4,1,0,100,0,0
69543,-84.4288682563497,4,1,0,100,0,0
69716,-86.865049065723,4,1,0,100,0,0
69802,-88.1366329338394,4,1,0,100,0,0
69888,-89.4459983202042,4,1,0,100,0,0
69974,-90.7948544740073,4,1,0,100,0,0
70147,-66.6666666666667,4,1,0,100,0,0
70233,-67.2645589092917,4,1,0,100,0,0
70319,-67.8733185233752,4,1,0,100,0,0
70405,-68.4931506849315,4,1,0,100,0,0
70578,-69.7674580854554,4,1,0,100,0,0
70664,-70.4225352112676,4,1,0,100,0,0
70750,-71.0900305473861,4,1,0,100,0,0
70922,-72.463768115942,4,1,0,100,0,0
71095,-73.8916438156758,4,1,0,100,0,0
71181,-74.6268656716418,4,1,0,100,0,0
71267,-75.3768654831996,4,1,0,100,0,0
71354,-76.1421513051145,4,1,0,100,0,0
71526,-77.7201871191225,4,1,0,100,0,0
71612,-78.5340519722649,4,1,0,100,0,0
71785,-80.2138822957534,4,1,0,100,0,0
71871,-81.0811029948927,4,1,0,100,0,0
71957,-81.9672131147541,4,1,0,100,0,0
72043,-82.8729052837278,4,1,0,100,0,0
72129,-83.7989060890799,4,1,0,100,0,0
72302,-85.7142612244968,4,1,0,100,0,0
72474,-87.719298245614,4,1,0,100,0,0
72560,-88.7573701901272,4,1,0,100,0,0
72647,-89.8203861737683,4,1,0,100,0,0
72733,-90.9090909090909,4,1,0,100,0,0
72905,-62.5,4,1,0,100,0,0
72991,-63.1579080332438,4,1,0,100,0,0
73078,-63.8297736532396,4,1,0,100,0,0
73135,-64.2856959183726,4,1,0,100,0,0
73193,-64.7482200714302,4,1,0,100,0,0
73250,-65.2174054820447,4,1,0,100,0,0
73336,-65.9340514430656,4,1,0,100,0,0
73422,-66.6666666666667,4,1,0,100,0,0
73595,-68.1818026859539,4,1,0,100,0,0
73681,-68.9655172413793,4,1,0,100,0,0
73853,-70.588218685125,4,1,0,100,0,0
73939,-71.4285714285714,4,1,0,100,0,0
74026,-72.2891740455841,4,1,0,100,0,0
74112,-73.1707138608015,4,1,0,100,0,0
74285,-75.0000187500047,4,1,0,100,0,0
74371,-75.9493478609246,4,1,0,100,0,0
74457,-76.9230769230769,4,1,0,100,0,0
74543,-77.9220981615839,4,1,0,100,0,0
74629,-78.9473476454348,4,1,0,100,0,0
74715,-80,4,1,0,100,0,0
74802,-81.0811029948927,4,1,0,100,0,0
74974,-83.3333333333333,4,1,0,100,0,0
75060,-84.5070660583285,4,1,0,100,0,0
75233,-86.9565217391304,4,1,0,100,0,0
75319,-88.2353200692118,4,1,0,100,0,0
75405,-89.5522120739665,4,1,0,100,0,0
75491,-90.9090909090909,4,1,0,100,0,0
75664,-66.6666666666667,4,1,0,100,0,0
75750,-67.3854447439353,4,1,0,100,0,0
75836,-68.1198910081744,4,1,0,100,0,0
75922,-68.870523415978,4,1,0,100,0,0
76095,-70.4225352112676,4,1,0,100,0,0
76181,-71.2250712250712,4,1,0,100,0,0
76353,-72.8862973760933,4,1,0,100,0,0
76440,-73.7463126843658,4,1,0,100,0,0
76612,-75.5287009063444,4,1,0,100,0,0
76698,-76.4525993883792,4,1,0,100,0,0
76785,-77.3993808049536,4,1,0,100,0,0
76871,-78.3699059561128,4,1,0,100,0,0
76957,-79.3650793650794,4,1,0,100,0,0
77043,-80.3858520900322,4,1,0,100,0,0
77129,-81.4332247557003,4,1,0,100,0,0
77302,-83.6120401337793,4,1,0,100,0,0
77388,-84.7457627118644,4,1,0,100,0,0
77474,-85.9106529209622,4,1,0,100,0,0
77560,-87.1080139372822,4,1,0,100,0,0
77733,-89.6057347670251,4,1,0,100,0,0
77819,-90.9090909090909,4,1,0,100,0,0
77991,-86.9565217391304,4,1,0,100,0,0
78078,-83.3809299475117,4,1,0,100,0,0
78164,-80.0877762027182,4,1,0,100,0,0
78250,-77.0448670783431,4,1,0,100,0,0
78336,-74.2247227706605,4,1,0,100,0,0
78422,-71.603744875857,4,1,0,100,0,0
78509,-69.1615544750984,4,1,0,100,0,0
78595,-62.5,4,1,0,100,0,0
78652,-62.9670978023853,4,1,0,100,0,0
78710,-63.4412701957354,4,1,0,100,0,0
78767,-63.9225974052539,4,1,0,100,0,0
78854,-64.6584610768996,4,1,0,100,0,0
78940,-65.4115070614993,4,1,0,100,0,0
79112,-66.9713864751285,4,1,0,100,0,0
79198,-67.7795618864679,4,1,0,100,0,0
79371,-69.4558757239907,4,1,0,100,0,0
79457,-70.3255651714045,4,1,0,100,0,0
79543,-71.2172596453096,4,1,0,100,0,0
79629,-72.1318570346594,4,1,0,100,0,0
79716,-73.0702512009096,4,1,0,100,0,0
79888,-75.0222440953743,4,1,0,100,0,0
79974,-76.0378790298175,4,1,0,100,0,0
80060,-77.0814496554074,4,1,0,100,0,0
80147,-78.1540024618511,4,1,0,100,0,0
80233,-79.2568246070248,4,1,0,100,0,0
80319,-80.3912158126306,4,1,0,100,0,0
80491,-82.7602873106134,4,1,0,100,0,0
80578,-83.9980378058369,4,1,0,100,0,0
80750,-86.5878832379712,4,1,0,100,0,0
80836,-87.9436316498577,4,1,0,100,0,0
80922,-89.6515245241745,4,1,0,100,0,0
81009,-90.8110974793564,4,1,0,100,0,0
81181,-66.6666666666667,4,1,0,100,0,0
81267,-67.2645589092917,4,1,0,100,0,0
81354,-67.8733185233752,4,1,0,100,0,0
81440,-68.4931506849315,4,1,0,100,0,0
81612,-69.7674580854554,4,1,0,100,0,0
81698,-70.4225352112676,4,1,0,100,0,0
81871,-71.7703520981704,4,1,0,100,0,0
81957,-72.463768115942,4,1,0,100,0,0
82129,-73.8916438156758,4,1,0,100,0,0
82216,-74.6268656716418,4,1,0,100,0,0
82302,-75.3768654831996,4,1,0,100,0,0
82388,-76.1421513051145,4,1,0,100,0,0
82474,-76.9230769230769,4,1,0,100,0,0
82560,-77.7201871191225,4,1,0,100,0,0
82647,-78.5340519722649,4,1,0,100,0,0
82819,-80.2138822957534,4,1,0,100,0,0
82905,-81.0811029948927,4,1,0,100,0,0
82991,-81.9672131147541,4,1,0,100,0,0
83078,-82.8729052837278,4,1,0,100,0,0
83250,-84.7457627118644,4,1,0,100,0,0
83336,-85.7142612244968,4,1,0,100,0,0
83509,-87.719298245614,4,1,0,100,0,0
83595,-88.7573701901272,4,1,0,100,0,0
83681,-89.8203861737683,4,1,0,100,0,0
83767,-90.9090909090909,4,1,0,100,0,0
83940,-62.5,4,1,0,100,0,0
84026,-63.1579080332438,4,1,0,100,0,0
84112,-63.8297736532396,4,1,0,100,0,0
84198,-64.5161290322581,4,1,0,100,0,0
84284,-65.2174054820447,4,1,0,100,0,0
84371,-65.9340514430656,4,1,0,100,0,0
84457,-66.6666666666667,4,1,0,100,0,0
84629,-68.1818026859539,4,1,0,100,0,0
84716,-68.9655172413793,4,1,0,100,0,0
84888,-70.588218685125,4,1,0,100,0,0
84974,-71.4285714285714,4,1,0,100,0,0
85060,-72.2891740455841,4,1,0,100,0,0
85147,-73.1707138608015,4,1,0,100,0,0
85319,-75.0000187500047,4,1,0,100,0,0
85405,-75.9493478609246,4,1,0,100,0,0
85491,-76.9230769230769,4,1,0,100,0,0
85578,-77.9220981615839,4,1,0,100,0,0
85664,-78.9473476454348,4,1,0,100,0,0
85750,-80,4,1,0,100,0,0
85836,-81.0811029948927,4,1,0,100,0,0
86009,-83.3333333333333,4,1,0,100,0,0
86095,-84.5070660583285,4,1,0,100,0,0
86267,-86.9565217391304,4,1,0,100,0,0
86354,-88.2353200692118,4,1,0,100,0,0
86440,-89.5522120739665,4,1,0,100,0,0
86526,-90.9090909090909,4,1,0,100,0,0
86698,-62.5,4,1,0,100,0,0
86785,-63.1970236729731,4,1,0,100,0,0
86871,-63.9097696308444,4,1,0,100,0,0
86957,-64.6387758967176,4,1,0,100,0,0
87129,-66.147847052948,4,1,0,100,0,0
87216,-66.9291180482398,4,1,0,100,0,0
87302,-67.7290647767548,4,1,0,100,0,0
87388,-68.5483649843984,4,1,0,100,0,0
87474,-69.3877777592744,4,1,0,100,0,0
87647,-71.1297249698054,4,1,0,100,0,0
87733,-72.0339135665071,4,1,0,100,0,0
87819,-72.9613859161178,4,1,0,100,0,0
87905,-73.9130531190939,4,1,0,100,0,0
87991,-74.8898744396365,4,1,0,100,0,0
88078,-75.8928605309313,4,1,0,100,0,0
88164,-76.9230769230769,4,1,0,100,0,0
88336,-79.0697600865339,4,1,0,100,0,0
88422,-80.18866789783,4,1,0,100,0,0
88509,-81.3396973512541,4,1,0,100,0,0
88595,-82.524251814502,4,1,0,100,0,0
88681,-83.7438176126647,4,1,0,100,0,0
88767,-84.9999702500104,4,1,0,100,0,0
88854,-86.2943812002513,4,1,0,100,0,0
89026,-89.005268221826,4,1,0,100,0,0
89112,-90.4255607741151,4,1,0,100,0,0
89198,-91.8919167275451,4,1,0,100,0,0
89285,-93.4066139355195,4,1,0,100,0,0
89371,-94.972082956215,4,1,0,100,0,0
89457,-96.59092006715,4,1,0,100,0,0
89543,-98.2659016338671,4,1,0,100,0,0
89629,-58.8235294117647,4,1,0,100,0,0
89974,-50,4,1,0,100,0,0
92388,-90.9090909090909,4,1,0,100,0,0
92733,-93.0232558139535,4,1,0,100,0,0
92905,-94.1176470588235,4,1,0,100,0,0
92991,-94.6745562130178,4,1,0,100,0,0
93164,-95.8083832335329,4,1,0,100,0,0
93336,-96.969696969697,4,1,0,100,0,0
93422,-97.5609756097561,4,1,0,100,0,0
93595,-98.7654320987654,4,1,0,100,0,0
93681,-99.3788819875776,4,1,0,100,0,0
93767,-100,4,1,0,100,0,0
93940,-111.111111111111,4,1,0,100,0,0
94026,-112.359550561798,4,1,0,100,0,0
94112,-113.636363636364,4,1,0,100,0,0
94371,-117.647058823529,4,1,0,100,0,0
94543,-120.481927710843,4,1,0,100,0,0
94716,-123.456790123457,4,1,0,100,0,0
94802,-125,4,1,0,100,0,0
95147,-58.8235294117647,4,1,0,100,0,0
95491,-50,4,1,0,100,0,0
97905,-58.8235294117647,4,1,0,100,0,0
98078,-50,4,1,0,100,0,0
99285,-90.9090909090909,4,1,0,100,0,0
99629,-93.0232558139535,4,1,0,100,0,0
99802,-94.1176470588235,4,1,0,100,0,0
99888,-94.6745562130178,4,1,0,100,0,0
100060,-95.8083832335329,4,1,0,100,0,0
100233,-96.969696969697,4,1,0,100,0,0
100319,-97.5609756097561,4,1,0,100,0,0
100664,-100,4,1,0,100,0,0
100923,-100.946372239748,4,1,0,100,0,0
101009,-101.26582278481,4,1,0,100,0,0
101181,-101.910828025478,4,1,0,100,0,0
101267,-102.23642172524,4,1,0,100,0,0
101354,-102.564102564103,4,1,0,100,0,0
101612,-103.559870550162,4,1,0,100,0,0
101698,-103.896103896104,4,1,0,100,0,0
101871,-104.575163398693,4,1,0,100,0,0
101957,-104.918032786885,4,1,0,100,0,0
102043,-105.263157894737,4,1,0,100,0,0
102129,-105.610561056106,4,1,0,100,0,0
102302,-106.312292358804,4,1,0,100,0,0
102388,-106.666666666667,4,1,0,100,0,0
102560,-107.38255033557,4,1,0,100,0,0
102647,-107.744107744108,4,1,0,100,0,0
102733,-108.108108108108,4,1,0,100,0,0
102992,-109.215017064846,4,1,0,100,0,0
103078,-109.58904109589,4,1,0,100,0,0
103250,-110.344827586207,4,1,0,100,0,0
103336,-110.726643598616,4,1,0,100,0,0
103423,-111.111111111111,4,1,0,100,0,0
103509,-111.498257839721,4,1,0,100,0,0
103681,-112.280701754386,4,1,0,100,0,0
103767,-112.676056338028,4,1,0,100,0,0
103940,-113.475177304965,4,1,0,100,0,0
104026,-113.879003558719,4,1,0,100,0,0
104112,-114.285714285714,4,1,0,100,0,0
104371,-115.523465703971,4,1,0,100,0,0
104457,-115.942028985507,4,1,0,100,0,0
104629,-116.788321167883,4,1,0,100,0,0
104716,-117.216117216117,4,1,0,100,0,0
104802,-117.647058823529,4,1,0,100,0,0
105060,-118.959107806691,4,1,0,100,0,0
105147,-119.402985074627,4,1,0,100,0,0
105319,-120.300751879699,4,1,0,100,0,0
105405,-120.754716981132,4,1,0,100,0,0
105492,-121.212121212121,4,1,0,100,0,0
105750,-122.605363984674,4,1,0,100,0,0
105836,-123.076923076923,4,1,0,100,0,0
106009,-124.031007751938,4,1,0,100,0,0
106181,-125,4,1,0,100,0,0
106349,-123.456790123457,4,1,0,100,0,0
106521,-121.951219512195,4,1,0,100,0,0
106693,-120.481927710843,4,1,0,100,0,0
106866,-117.647058823529,4,1,0,100,0,0
107038,-114.942528735632,4,1,0,100,0,0
107211,-112.359550561798,4,1,0,100,0,0
107383,-109.89010989011,4,1,0,100,0,0
107555,-106.382978723404,4,1,0,100,0,0
107728,-103.092783505155,4,1,0,100,0,0
107900,-100,4,1,0,100,0,0
108073,-97.0873786407767,4,1,0,100,0,0
108238,-93.4579439252336,4,1,0,100,0,0
108411,-90.0900900900901,4,1,0,100,0,0
108583,-86.9565217391304,4,1,0,100,0,0
108755,-84.0336134453781,4,1,0,100,0,0
108928,-80.6451612903226,4,1,0,100,0,0
109014,-78.8288554601989,4,1,0,100,0,0
109100,-77.0925025228521,4,1,0,100,0,0
109186,-75.4310507394506,4,1,0,100,0,0
109273,-73.8396468692728,4,1,0,100,0,0
109359,-72.3140570572373,4,1,0,100,0,0
109445,-70.850180915937,4,1,0,100,0,0
109531,-69.4444444444444,4,1,0,100,0,0
109617,-68.0920604657497,4,1,0,100,0,0
109703,-66.7913438418381,4,1,0,100,0,0
109789,-65.5436848659632,4,1,0,100,0,0
109875,-64.3376439554784,4,1,0,100,0,0
109962,-63.1751847874155,4,1,0,100,0,0
110048,-62.0539869686627,4,1,0,100,0,0
110134,-60.9756097560976,4,1,0,100,0,0
110220,-59.9304806424548,4,1,0,100,0,0
110319,344.827586206896,4,3,0,100,1,8
111655,-100,4,1,0,100,0,8
111698,-83.3333333333333,4,1,0,100,0,1
132301,-82.6446280991736,4,1,0,100,0,1
132387,-81.9672131147541,4,1,0,100,0,1
132474,-81.3008130081301,4,1,0,100,0,1
132646,-80,4,1,0,100,0,1
132732,-79.3650793650794,4,1,0,100,0,1
132905,-78.125,4,1,0,100,0,1
132991,-77.5193798449612,4,1,0,100,0,1
133077,-71.4285714285714,4,1,0,100,0,0
133250,-74.0740740740741,4,1,0,100,0,0
133336,-75.4716981132076,4,1,0,100,0,0
133422,-76.9230769230769,4,1,0,100,0,0
133508,-78.4313725490196,4,1,0,100,0,0
133594,-80,4,1,0,100,0,0
133681,-81.6326530612245,4,1,0,100,0,0
133767,-83.3333333333333,4,1,0,100,0,1
153422,-83.3333333333333,4,1,0,100,0,1
153594,-81.4009427857193,4,1,0,100,0,1
153681,-80.4680018990449,4,1,0,100,0,1
153767,-79.5562036734282,4,1,0,100,0,1
153853,-78.6647755654621,4,1,0,100,0,1
153939,-77.7931635367884,4,1,0,100,0,1
154025,-76.9406549034664,4,1,0,100,0,1
154112,-76.1065705085517,4,1,0,100,0,1
154284,-74.4916133617097,4,1,0,100,0,1
154370,-73.7095122862701,4,1,0,100,0,1
154456,-72.9437166282496,4,1,0,100,0,1
154543,-72.1936696258852,4,1,0,100,0,1
154629,-71.4588393512395,4,1,0,100,0,1
154715,-70.7388674707318,4,1,0,100,0,1
154801,-70.0332587946016,4,1,0,100,0,1
154974,-68.6633982889081,4,1,0,100,0,1
155060,-67.9983925180009,4,1,0,100,0,1
155146,-67.3461443658889,4,1,0,100,0,1
155232,-66.7062457057854,4,1,0,100,0,1
155318,-66.0784364256059,4,1,0,100,0,1
155405,-65.4623342821008,4,1,0,100,0,1
155491,-64.8575727701966,4,1,0,100,0,1
155577,-64.2639242251217,4,1,0,100,0,1
155663,-63.6810445729103,4,1,0,100,0,1
155750,-63.1086035959282,4,1,0,100,0,1
155836,-62.5464016116957,4,1,0,100,0,0
157215,-102.564102564103,4,1,0,100,0,0
158594,-105.263157894737,4,1,0,100,0,0
159974,-108.108108108108,4,1,0,100,0,0
161353,-111.111111111111,4,1,0,100,0,0
162732,-114.285714285714,4,1,0,100,0,0
164112,-117.647058823529,4,1,0,100,0,0
165491,-121.212121212121,4,1,0,100,0,0
166870,-125,4,1,0,100,0,0
168250,-129.032258064516,4,1,0,100,0,0
169629,-133.333333333333,4,1,0,100,0,0
171008,-137.931034482759,4,1,0,100,0,0
172387,-142.857142857143,4,1,0,100,0,0
173767,-148.148148148148,4,1,0,100,0,0
175146,-153.846153846154,4,1,0,100,0,0
175836,-125,4,1,0,100,0,0
176525,-160,4,1,0,100,0,0
177905,-100,4,1,0,100,0,0
178250,-50,4,1,0,100,0,1
178537,-57.9999976800001,4,1,0,100,0,1
178939,-74.7422699675843,4,1,0,100,0,1
179284,-99.3150242775577,4,1,0,100,0,0
179629,-45.4545454545455,4,1,0,100,0,1
179887,-51.2367527375797,4,1,0,100,0,1
179974,-53.5055212347362,4,1,0,100,0,1
180146,-58.7044629480912,4,1,0,100,0,1
180319,-65.0224229825655,4,1,0,100,0,1
180663,-82.8571120816441,4,1,0,100,0,0
181008,-41.6666666666667,4,1,0,100,0,1
181296,-47.0779205494182,4,1,0,100,0,1
181698,-57.5396836813429,4,1,0,100,0,1
182043,-71.0784087250168,4,1,0,100,0,0
182387,-38.4615384615385,4,1,0,100,0,1
182646,-45.3976127211374,4,1,0,100,0,1
182732,-48.3011285558687,4,1,0,100,0,1
182905,-55.3857980844268,4,1,0,100,0,1
183077,-64.9059836826357,4,1,0,100,0,1
183422,-98.9086420436899,4,1,0,100,0,0
183767,-50,4,1,0,100,0,1
184054,-58.0645236212289,4,1,0,100,0,1
184456,-75.0000187500047,4,1,0,100,0,1
184801,-100,4,1,0,100,0,0
185146,-45.4545454545455,4,1,0,100,0,1
185405,-51.2367527375797,4,1,0,100,0,1
185491,-53.5055212347362,4,1,0,100,0,1
185663,-58.7044629480912,4,1,0,100,0,1
185836,-65.0224229825655,4,1,0,100,0,1
186181,-82.8571120816441,4,1,0,100,0,0
186525,-41.6666666666667,4,1,0,100,0,1
186813,-47.0779205494182,4,1,0,100,0,1
187215,-57.5396836813429,4,1,0,100,0,1
187560,-71.0784087250168,4,1,0,100,0,0
187905,-38.4615384615385,4,1,0,100,0,1
188163,-44.4444444444444,4,1,0,100,0,1
188250,-46.8750073242199,4,1,0,100,0,1
188422,-52.6315789473684,4,1,0,100,0,1
188594,-59.9999880000024,4,1,0,100,0,1
188939,-83.3333333333333,4,1,0,100,0,0
189190,-84.6560846560847,4,1,0,100,0,0
189276,-85.1063829787234,4,1,0,100,0,0
189448,-86.0215053763441,4,1,0,100,0,0
189534,-86.4864864864865,4,1,0,100,0,0
189621,-86.9565217391304,4,1,0,100,0,0
189879,-88.3977900552486,4,1,0,100,0,0
189965,-88.8888888888889,4,1,0,100,0,0
190138,-89.8876404494382,4,1,0,100,0,0
190224,-90.3954802259887,4,1,0,100,0,0
190310,-90.9090909090909,4,1,0,100,0,0
190396,-91.4285714285714,4,1,0,100,0,0
190569,-92.485549132948,4,1,0,100,0,0
190655,-93.0232558139535,4,1,0,100,0,0
190827,-94.1176470588235,4,1,0,100,0,0
190914,-94.6745562130178,4,1,0,100,0,0
191000,-95.2380952380952,4,1,0,100,0,0
191259,-96.969696969697,4,1,0,100,0,0
191345,-97.5609756097561,4,1,0,100,0,0
191517,-98.7654320987654,4,1,0,100,0,0
191603,-99.3788819875776,4,1,0,100,0,0
191690,-100,4,1,0,100,0,0
191776,-100.62893081761,4,1,0,100,0,0
191948,-101.910828025478,4,1,0,100,0,0
192034,-102.564102564103,4,1,0,100,0,0
192207,-103.896103896104,4,1,0,100,0,0
192293,-104.575163398693,4,1,0,100,0,0
192379,-105.263157894737,4,1,0,100,0,0
192638,-107.38255033557,4,1,0,100,0,0
192724,-108.108108108108,4,1,0,100,0,0
192896,-109.58904109589,4,1,0,100,0,0
192983,-110.344827586207,4,1,0,100,0,0
193069,-111.111111111111,4,1,0,100,0,0
193327,-113.475177304965,4,1,0,100,0,0
193414,-114.285714285714,4,1,0,100,0,0
193586,-115.942028985507,4,1,0,100,0,0
193672,-116.788321167883,4,1,0,100,0,0
193759,-117.647058823529,4,1,0,100,0,0
194017,-120.300751879699,4,1,0,100,0,0
194103,-121.212121212121,4,1,0,100,0,0
194276,-123.076923076923,4,1,0,100,0,0
194448,-125,4,1,0,100,0,0
194621,-123.456790123457,4,1,0,100,0,0
194793,-121.951219512195,4,1,0,100,0,0
194965,-120.481927710843,4,1,0,100,0,0
195138,-117.647058823529,4,1,0,100,0,0
195310,-114.942528735632,4,1,0,100,0,0
195483,-112.359550561798,4,1,0,100,0,0
195655,-109.89010989011,4,1,0,100,0,0
195827,-106.382978723404,4,1,0,100,0,0
196000,-103.092783505155,4,1,0,100,0,0
196172,-100,4,1,0,100,0,0
196345,-97.0873786407767,4,1,0,100,0,0
196510,-93.4579439252336,4,1,0,100,0,0
196683,-90.0900900900901,4,1,0,100,0,0
196855,-86.9565217391304,4,1,0,100,0,0
197027,-84.0336134453781,4,1,0,100,0,0
197200,-80.6451612903226,4,1,0,100,0,0
197286,-78.8288554601989,4,1,0,100,0,0
197372,-77.0925025228521,4,1,0,100,0,0
197458,-75.4310507394506,4,1,0,100,0,0
197545,-73.8396468692728,4,1,0,100,0,0
197631,-72.3140570572373,4,1,0,100,0,0
197717,-70.850180915937,4,1,0,100,0,0
197803,-69.4444444444444,4,1,0,100,0,0
197889,-68.0920604657497,4,1,0,100,0,0
197975,-66.7913438418381,4,1,0,100,0,0
198061,-65.5436848659632,4,1,0,100,0,0
198147,-64.3376439554784,4,1,0,100,0,0
198234,-63.1751847874155,4,1,0,100,0,0
198320,-62.0539869686627,4,1,0,100,0,0
198406,-60.9756097560976,4,1,0,100,0,0
198492,-59.9304806424548,4,1,0,100,0,0
198579,-100,4,1,0,100,0,0
199456,-125,4,1,0,100,0,0
199974,-58.8235294117647,4,1,0,100,0,1
200318,-50,4,1,0,100,0,1
202732,-83.3333333333333,4,1,0,100,0,1
203077,-85.1016752264768,4,1,0,100,0,1
203250,-86.0143282668027,4,1,0,100,0,1
203336,-86.4779602270565,4,1,0,100,0,1
203508,-87.4205347339269,4,1,0,100,0,1
203681,-88.3838049051244,4,1,0,100,0,1
203767,-88.873484151636,4,1,0,100,0,1
203939,-89.8693030725416,4,1,0,100,0,1
204025,-90.3755465461177,4,1,0,100,0,1
204112,-90.887608383473,4,1,0,100,0,1
204198,-91.4055059020535,4,1,0,100,0,1
204370,-92.4592116187944,4,1,0,100,0,1
204456,-92.9951410038825,4,1,0,100,0,1
204629,-94.0860341513487,4,1,0,100,0,1
204715,-94.641135012204,4,1,0,100,0,1
204887,-95.7711299844084,4,1,0,100,0,1
205060,-96.9285287800188,4,1,0,100,0,1
205146,-97.5176872705287,4,1,0,100,0,1
205491,-58.8235294117647,4,1,0,100,0,1
205836,-50,4,1,0,100,0,1
208250,-90.9090909090909,4,1,0,100,0,1
208422,-91.9540229885058,4,1,0,100,0,1
208508,-92.485549132948,4,1,0,100,0,1
208594,-93.0232558139535,4,1,0,100,0,1
208767,-94.1176470588235,4,1,0,100,0,1
208853,-94.6745562130178,4,1,0,100,0,1
209025,-95.8083832335329,4,1,0,100,0,1
209198,-96.969696969697,4,1,0,100,0,1
209284,-97.5609756097561,4,1,0,100,0,1
209456,-98.7654320987654,4,1,0,100,0,1
209543,-99.3788819875776,4,1,0,100,0,1
209629,-100,4,1,0,100,0,0
209801,-111.111111111111,4,1,0,100,0,0
209887,-112.359550561798,4,1,0,100,0,0
209974,-113.636363636364,4,1,0,100,0,0
210146,-116.279069767442,4,1,0,100,0,0
210232,-117.647058823529,4,1,0,100,0,0
210405,-120.481927710843,4,1,0,100,0,0
210577,-123.456790123457,4,1,0,100,0,0
210663,-125,4,1,0,100,0,0
211008,-58.8235294117647,4,1,0,100,0,1
211353,-50,4,1,0,100,0,1
213767,-58.8235294117647,4,1,0,100,0,1
213939,-50,4,1,0,100,0,1
215146,-90.9090909090909,4,1,0,100,0,1
215318,-92.2979229275424,4,1,0,100,0,1
215405,-93.0083744740376,4,1,0,100,0,1
215491,-93.7297602299004,4,1,0,100,0,1
215663,-95.2068129995382,4,1,0,100,0,1
215750,-95.962935275879,4,1,0,100,0,1
215922,-97.5117916134008,4,1,0,100,0,1
216094,-99.1113674791817,4,1,0,100,0,1
216181,-99.9310475771717,4,1,0,100,0,1
216525,-58.8235294117647,4,1,0,100,0,1
216870,-50,4,1,0,100,0,1
219284,-83.3333333333333,4,1,0,100,0,1
219456,-85.3597015141957,4,1,0,100,0,1
219543,-86.4102586259041,4,1,0,100,0,1
219629,-87.4869972450345,4,1,0,100,0,1
219801,-89.7231144687494,4,1,0,100,0,1
219887,-90.8845520800293,4,1,0,100,0,1
220060,-93.3001184911505,4,1,0,100,0,1
220232,-95.8475946566883,4,1,0,100,0,1
220318,-97.1741749912543,4,1,0,100,0,1
220491,-99.9407351440596,4,1,0,100,0,1
220577,-101.383890099863,4,1,0,100,0,1
220663,-102.869334342824,4,1,0,100,0,1
220750,-104.398954340073,4,1,0,100,0,1
220922,-107.598961454824,4,1,0,100,0,1
221008,-109.273614574478,4,1,0,100,0,1
221181,-112.784456497343,4,1,0,100,0,1
221267,-114.625792637356,4,1,0,100,0,1
221439,-118.495065273007,4,1,0,100,0,1
221612,-122.634683541199,4,1,0,100,0,1
221698,-124.814806031551,4,1,0,100,0,1
221784,-66.6666666666667,4,1,0,40,0,1
221956,-50,4,1,0,40,0,0

[HitObjects]
256,192,1354,5,0,0:0:0:0:
256,192,1526,1,2,0:0:0:0:
256,192,1612,1,2,0:0:0:0:
256,192,1698,1,0,0:0:0:0:
256,192,2733,1,0,0:0:0:0:
256,192,2905,1,2,0:0:0:0:
256,192,2991,1,2,0:0:0:0:
256,192,3078,1,0,0:0:0:0:
256,192,4112,1,0,0:0:0:0:
256,192,4285,1,2,0:0:0:0:
256,192,4371,1,2,0:0:0:0:
256,192,4457,1,0,0:0:0:0:
256,192,5491,1,0,0:0:0:0:
256,192,5664,1,2,0:0:0:0:
256,192,5750,1,2,0:0:0:0:
256,192,5836,1,0,0:0:0:0:
256,192,6871,1,0,0:0:0:0:
256,192,7043,1,2,0:0:0:0:
256,192,7129,1,0,0:0:0:0:
256,192,7216,1,0,0:0:0:0:
256,192,8250,1,0,0:0:0:0:
256,192,8422,1,2,0:0:0:0:
256,192,8509,1,0,0:0:0:0:
256,192,8595,1,0,0:0:0:0:
256,192,9629,1,0,0:0:0:0:
256,192,9802,1,2,0:0:0:0:
256,192,9888,1,0,0:0:0:0:
256,192,9974,1,0,0:0:0:0:
256,192,11009,1,0,0:0:0:0:
256,192,11181,1,2,0:0:0:0:
256,192,11267,1,0,0:0:0:0:
256,192,11353,1,0,0:0:0:0:
256,192,12388,1,0,0:0:0:0:
256,192,12474,1,2,0:0:0:0:
256,192,12560,1,2,0:0:0:0:
256,192,12647,1,2,0:0:0:0:
256,192,12733,1,0,0:0:0:0:
256,192,13767,1,0,0:0:0:0:
256,192,13853,1,2,0:0:0:0:
256,192,13940,1,2,0:0:0:0:
256,192,14026,1,2,0:0:0:0:
256,192,14112,1,0,0:0:0:0:
256,192,15147,1,0,0:0:0:0:
256,192,15233,1,2,0:0:0:0:
256,192,15319,1,2,0:0:0:0:
256,192,15405,1,2,0:0:0:0:
256,192,15491,1,0,0:0:0:0:
256,192,16526,1,0,0:0:0:0:
256,192,16612,1,2,0:0:0:0:
256,192,16698,1,2,0:0:0:0:
256,192,16785,1,2,0:0:0:0:
256,192,16871,1,0,0:0:0:0:
256,192,17905,1,0,0:0:0:0:
256,192,17991,1,2,0:0:0:0:
256,192,18078,1,2,0:0:0:0:
256,192,18164,1,0,0:0:0:0:
256,192,18250,1,0,0:0:0:0:
256,192,19285,1,0,0:0:0:0:
256,192,19371,1,2,0:0:0:0:
256,192,19457,1,2,0:0:0:0:
256,192,19543,1,0,0:0:0:0:
256,192,19629,1,0,0:0:0:0:
256,192,20664,1,0,0:0:0:0:
256,192,20750,1,2,0:0:0:0:
256,192,20836,1,2,0:0:0:0:
256,192,20922,1,0,0:0:0:0:
256,192,21009,1,0,0:0:0:0:
256,192,22043,1,0,0:0:0:0:
256,192,22129,1,2,0:0:0:0:
256,192,22216,1,2,0:0:0:0:
256,192,22302,1,0,0:0:0:0:
256,192,22388,1,0,0:0:0:0:
256,192,22474,12,0,23250,0:0:0:0:
256,192,23422,5,0,0:0:0:0:
256,192,23767,1,6,0:0:0:0:
256,192,24055,1,0,0:0:0:0:
256,192,24457,1,2,0:0:0:0:
256,192,24802,1,0,0:0:0:0:
256,192,25147,1,6,0:0:0:0:
256,192,25406,1,0,0:0:0:0:
256,192,25578,1,0,0:0:0:0:
256,192,25836,1,2,0:0:0:0:
256,192,26181,1,0,0:0:0:0:
256,192,26526,1,6,0:0:0:0:
256,192,26813,1,0,0:0:0:0:
256,192,27216,1,2,0:0:0:0:
256,192,27560,1,0,0:0:0:0:
256,192,27905,1,6,0:0:0:0:
256,192,28164,1,0,0:0:0:0:
256,192,28336,1,0,0:0:0:0:
256,192,28509,1,0,0:0:0:0:
256,192,28595,1,2,0:0:0:0:
256,192,28940,1,0,0:0:0:0:
256,192,29285,1,6,0:0:0:0:
256,192,29572,1,0,0:0:0:0:
256,192,29974,1,2,0:0:0:0:
256,192,30319,1,0,0:0:0:0:
256,192,30664,1,6,0:0:0:0:
256,192,30922,1,0,0:0:0:0:
256,192,31095,1,0,0:0:0:0:
256,192,31353,1,2,0:0:0:0:
256,192,31698,1,0,0:0:0:0:
256,192,32043,1,6,0:0:0:0:
256,192,32331,1,0,0:0:0:0:
256,192,32733,1,2,0:0:0:0:
256,192,33078,1,0,0:0:0:0:
256,192,33422,1,6,0:0:0:0:
256,192,33681,1,0,0:0:0:0:
256,192,33853,1,0,0:0:0:0:
256,192,34026,1,0,0:0:0:0:
256,192,34112,1,2,0:0:0:0:
256,192,34457,1,0,0:0:0:0:
256,192,34716,1,0,0:0:0:0:
256,192,34802,1,2,0:0:0:0:
256,192,34974,1,0,0:0:0:0:
256,192,35060,1,0,0:0:0:0:
256,192,35147,1,0,0:0:0:0:
256,192,35405,1,0,0:0:0:0:
256,192,35491,1,2,0:0:0:0:
256,192,35664,1,0,0:0:0:0:
256,192,35750,1,2,0:0:0:0:
256,192,35836,1,0,0:0:0:0:
256,192,35922,1,0,0:0:0:0:
256,192,36095,1,0,0:0:0:0:
256,192,36181,1,2,0:0:0:0:
256,192,36353,1,0,0:0:0:0:
256,192,36440,1,0,0:0:0:0:
256,192,36526,1,0,0:0:0:0:
256,192,36785,1,0,0:0:0:0:
256,192,36871,1,2,0:0:0:0:
256,192,37043,1,2,0:0:0:0:
256,192,37129,1,0,0:0:0:0:
256,192,37216,1,0,0:0:0:0:
256,192,37302,1,0,0:0:0:0:
256,192,37474,1,0,0:0:0:0:
256,192,37560,1,2,0:0:0:0:
256,192,37733,1,2,0:0:0:0:
256,192,37819,1,0,0:0:0:0:
256,192,37905,1,0,0:0:0:0:
256,192,38164,1,0,0:0:0:0:
256,192,38250,1,2,0:0:0:0:
256,192,38422,1,0,0:0:0:0:
256,192,38509,1,0,0:0:0:0:
256,192,38595,1,0,0:0:0:0:
256,192,38853,1,0,0:0:0:0:
256,192,38940,1,2,0:0:0:0:
256,192,39112,1,0,0:0:0:0:
256,192,39198,1,2,0:0:0:0:
256,192,39285,1,0,0:0:0:0:
256,192,39543,1,0,0:0:0:0:
256,192,39629,1,2,0:0:0:0:
256,192,39802,1,0,0:0:0:0:
256,192,39974,1,0,0:0:0:0:
256,192,40147,1,0,0:0:0:0:
256,192,40319,1,2,0:0:0:0:
256,192,40491,1,0,0:0:0:0:
256,192,40664,1,0,0:0:0:0:
256,192,40836,1,0,0:0:0:0:
256,192,41009,1,2,0:0:0:0:
256,192,41181,1,0,0:0:0:0:
256,192,41353,1,0,0:0:0:0:
256,192,41526,1,2,0:0:0:0:
256,192,41698,1,2,0:0:0:0:
256,192,41871,1,0,0:0:0:0:
256,192,42043,1,0,0:0:0:0:
256,192,42216,1,2,0:0:0:0:
256,192,42388,1,2,0:0:0:0:
256,192,42560,1,0,0:0:0:0:
256,192,42733,1,0,0:0:0:0:
256,192,42819,1,0,0:0:0:0:
256,192,42905,1,0,0:0:0:0:
256,192,42991,1,0,0:0:0:0:
256,192,43078,1,2,0:0:0:0:
256,192,43164,1,2,0:0:0:0:
256,192,43250,1,0,0:0:0:0:
256,192,43336,1,0,0:0:0:0:
256,192,43422,1,2,0:0:0:0:
256,192,43509,1,0,0:0:0:0:
256,192,43595,1,0,0:0:0:0:
256,192,43681,1,0,0:0:0:0:
256,192,43767,1,2,0:0:0:0:
256,192,43853,1,2,0:0:0:0:
256,192,43940,1,0,0:0:0:0:
256,192,44026,1,0,0:0:0:0:
256,192,44974,12,0,45319,0:0:0:0:
256,192,45491,5,0,0:0:0:0:
256,192,45549,1,2,0:0:0:0:
256,192,45606,1,2,0:0:0:0:
256,192,45664,1,2,0:0:0:0:
256,192,45750,1,0,0:0:0:0:
256,192,45836,1,2,0:0:0:0:
256,192,46095,1,0,0:0:0:0:
256,192,46267,1,2,0:0:0:0:
256,192,46353,1,0,0:0:0:0:
256,192,46440,1,0,0:0:0:0:
256,192,46526,1,2,0:0:0:0:
256,192,46785,1,0,0:0:0:0:
256,192,46871,1,2,0:0:0:0:
256,192,46957,1,0,0:0:0:0:
256,192,47043,1,0,0:0:0:0:
256,192,47129,1,0,0:0:0:0:
256,192,47216,1,2,0:0:0:0:
256,192,47474,1,0,0:0:0:0:
256,192,47647,1,2,0:0:0:0:
256,192,47733,1,2,0:0:0:0:
256,192,47819,1,0,0:0:0:0:
256,192,47905,1,2,0:0:0:0:
256,192,48078,5,2,0:0:0:0:
256,192,48164,1,0,0:0:0:0:
256,192,48250,1,0,0:0:0:0:
256,192,48509,1,0,0:0:0:0:
256,192,48595,1,2,0:0:0:0:
256,192,48853,1,0,0:0:0:0:
256,192,49026,1,2,0:0:0:0:
256,192,49112,1,0,0:0:0:0:
256,192,49198,1,2,0:0:0:0:
256,192,49285,1,2,0:0:0:0:
256,192,49457,1,0,0:0:0:0:
256,192,49543,1,0,0:0:0:0:
256,192,49716,1,2,0:0:0:0:
256,192,49802,1,2,0:0:0:0:
256,192,49888,1,0,0:0:0:0:
256,192,49974,1,2,0:0:0:0:
256,192,50233,1,0,0:0:0:0:
256,192,50405,1,2,0:0:0:0:
256,192,50491,1,0,0:0:0:0:
256,192,50578,1,0,0:0:0:0:
256,192,50664,1,2,0:0:0:0:
256,192,50836,5,0,0:0:0:0:
256,192,50922,1,2,0:0:0:0:
256,192,51009,1,0,0:0:0:0:
256,192,51066,1,2,0:0:0:0:
256,192,51124,1,2,0:0:0:0:
256,192,51181,1,2,0:0:0:0:
256,192,51267,1,0,0:0:0:0:
256,192,51353,1,2,0:0:0:0:
256,192,51612,1,0,0:0:0:0:
256,192,51784,1,2,0:0:0:0:
256,192,51870,1,0,0:0:0:0:
256,192,51957,1,0,0:0:0:0:
256,192,52043,1,2,0:0:0:0:
256,192,52216,1,0,0:0:0:0:
256,192,52302,1,0,0:0:0:0:
256,192,52388,1,2,0:0:0:0:
256,192,52474,1,0,0:0:0:0:
256,192,52560,1,0,0:0:0:0:
256,192,52646,1,2,0:0:0:0:
256,192,52733,1,2,0:0:0:0:
256,192,52991,1,0,0:0:0:0:
256,192,53164,1,2,0:0:0:0:
256,192,53250,1,2,0:0:0:0:
256,192,53336,1,0,0:0:0:0:
256,192,53422,1,2,0:0:0:0:
256,192,53595,5,2,0:0:0:0:
256,192,53681,1,0,0:0:0:0:
256,192,53767,1,0,0:0:0:0:
256,192,54026,1,0,0:0:0:0:
256,192,54112,1,2,0:0:0:0:
256,192,54370,1,0,0:0:0:0:
256,192,54543,1,2,0:0:0:0:
256,192,54629,1,0,0:0:0:0:
256,192,54715,1,2,0:0:0:0:
256,192,54802,1,2,0:0:0:0:
256,192,54974,1,0,0:0:0:0:
256,192,55060,1,0,0:0:0:0:
256,192,55233,1,2,0:0:0:0:
256,192,55319,1,2,0:0:0:0:
256,192,55405,1,0,0:0:0:0:
256,192,55491,1,2,0:0:0:0:
256,192,55664,1,0,0:0:0:0:
256,192,55750,1,2,0:0:0:0:
256,192,55922,5,2,0:0:0:0:
256,192,56008,1,0,0:0:0:0:
256,192,56095,1,0,0:0:0:0:
256,192,56181,1,2,0:0:0:0:
256,192,56239,1,2,0:0:0:0:
256,192,56296,1,2,0:0:0:0:
256,192,56353,1,0,0:0:0:0:
256,192,56439,1,2,0:0:0:0:
256,192,56526,5,0,0:0:0:0:
256,192,56583,1,2,0:0:0:0:
256,192,56641,1,2,0:0:0:0:
256,192,56698,1,2,0:0:0:0:
256,192,56785,1,0,0:0:0:0:
256,192,56871,1,2,0:0:0:0:
256,192,57129,1,0,0:0:0:0:
256,192,57302,1,2,0:0:0:0:
256,192,57388,1,0,0:0:0:0:
256,192,57474,1,0,0:0:0:0:
256,192,57560,1,2,0:0:0:0:
256,192,57819,1,0,0:0:0:0:
256,192,57905,1,2,0:0:0:0:
256,192,57991,1,0,0:0:0:0:
256,192,58078,1,0,0:0:0:0:
256,192,58164,1,0,0:0:0:0:
256,192,58250,1,2,0:0:0:0:
256,192,58509,1,0,0:0:0:0:
256,192,58681,1,2,0:0:0:0:
256,192,58767,1,2,0:0:0:0:
256,192,58853,1,0,0:0:0:0:
256,192,58940,1,2,0:0:0:0:
256,192,59112,5,2,0:0:0:0:
256,192,59198,1,0,0:0:0:0:
256,192,59285,1,0,0:0:0:0:
256,192,59543,1,0,0:0:0:0:
256,192,59629,1,2,0:0:0:0:
256,192,59888,1,0,0:0:0:0:
256,192,60060,1,2,0:0:0:0:
256,192,60147,1,0,0:0:0:0:
256,192,60233,1,2,0:0:0:0:
256,192,60319,1,2,0:0:0:0:
256,192,60491,1,0,0:0:0:0:
256,192,60578,1,0,0:0:0:0:
256,192,60750,1,2,0:0:0:0:
256,192,60836,1,2,0:0:0:0:
256,192,60922,1,0,0:0:0:0:
256,192,61009,1,2,0:0:0:0:
256,192,61267,1,0,0:0:0:0:
256,192,61440,1,2,0:0:0:0:
256,192,61526,1,0,0:0:0:0:
256,192,61612,1,0,0:0:0:0:
256,192,61698,1,2,0:0:0:0:
256,192,61871,5,0,0:0:0:0:
256,192,61957,1,2,0:0:0:0:
256,192,62043,1,0,0:0:0:0:
256,192,62100,1,2,0:0:0:0:
256,192,62158,1,2,0:0:0:0:
256,192,62215,1,2,0:0:0:0:
256,192,62302,1,0,0:0:0:0:
256,192,62388,1,2,0:0:0:0:
256,192,62647,1,0,0:0:0:0:
256,192,62819,1,2,0:0:0:0:
256,192,62905,1,0,0:0:0:0:
256,192,62991,1,0,0:0:0:0:
256,192,63078,1,2,0:0:0:0:
256,192,63250,1,0,0:0:0:0:
256,192,63336,1,0,0:0:0:0:
256,192,63422,1,2,0:0:0:0:
256,192,63509,1,0,0:0:0:0:
256,192,63595,1,0,0:0:0:0:
256,192,63681,1,2,0:0:0:0:
256,192,63767,1,2,0:0:0:0:
256,192,64026,1,0,0:0:0:0:
256,192,64198,1,2,0:0:0:0:
256,192,64285,1,2,0:0:0:0:
256,192,64371,1,0,0:0:0:0:
256,192,64457,1,2,0:0:0:0:
256,192,64629,5,2,0:0:0:0:
256,192,64716,1,0,0:0:0:0:
256,192,64802,1,0,0:0:0:0:
256,192,65060,1,0,0:0:0:0:
256,192,65147,1,2,0:0:0:0:
256,192,65405,1,0,0:0:0:0:
256,192,65578,1,2,0:0:0:0:
256,192,65664,1,0,0:0:0:0:
256,192,65750,1,2,0:0:0:0:
256,192,65836,1,2,0:0:0:0:
256,192,66009,1,0,0:0:0:0:
256,192,66095,1,0,0:0:0:0:
256,192,66267,1,2,0:0:0:0:
256,192,66353,1,2,0:0:0:0:
256,192,66440,1,0,0:0:0:0:
256,192,66526,1,2,0:0:0:0:
256,192,66698,1,0,0:0:0:0:
256,192,66785,1,0,0:0:0:0:
256,192,66871,5,2,0:0:0:0:
256,192,66957,1,0,0:0:0:0:
256,192,67043,1,2,0:0:0:0:
256,192,67129,1,2,0:0:0:0:
256,192,67216,1,0,0:0:0:0:
256,192,67302,1,2,0:0:0:0:
256,192,67388,1,0,0:0:0:0:
256,192,67474,1,0,0:0:0:0:
256,192,67560,1,0,0:0:0:0:
256,192,67819,1,0,0:0:0:0:
256,192,67905,5,6,0:0:0:0:
256,192,68078,1,2,0:0:0:0:
256,192,68164,1,0,0:0:0:0:
256,192,68336,1,2,0:0:0:0:
256,192,68422,1,0,0:0:0:0:
256,192,68509,1,0,0:0:0:0:
256,192,68595,1,2,0:0:0:0:
256,192,68681,1,2,0:0:0:0:
256,192,68853,1,0,0:0:0:0:
256,192,68939,1,2,0:0:0:0:
256,192,69025,1,0,0:0:0:0:
256,192,69111,1,0,0:0:0:0:
256,192,69198,1,0,0:0:0:0:
256,192,69285,1,2,0:0:0:0:
256,192,69457,1,2,0:0:0:0:
256,192,69543,1,0,0:0:0:0:
256,192,69716,1,2,0:0:0:0:
256,192,69802,1,2,0:0:0:0:
256,192,69888,1,0,0:0:0:0:
256,192,69974,1,2,0:0:0:0:
256,192,70147,5,2,0:0:0:0:
256,192,70233,1,0,0:0:0:0:
256,192,70319,1,0,0:0:0:0:
256,192,70405,1,0,0:0:0:0:
256,192,70578,1,0,0:0:0:0:
256,192,70664,1,2,0:0:0:0:
256,192,70750,1,2,0:0:0:0:
256,192,70922,1,0,0:0:0:0:
256,192,71095,1,2,0:0:0:0:
256,192,71181,1,0,0:0:0:0:
256,192,71267,1,2,0:0:0:0:
256,192,71354,1,2,0:0:0:0:
256,192,71526,1,0,0:0:0:0:
256,192,71612,1,0,0:0:0:0:
256,192,71785,1,2,0:0:0:0:
256,192,71871,1,0,0:0:0:0:
256,192,71957,1,0,0:0:0:0:
256,192,72043,1,2,0:0:0:0:
256,192,72129,1,2,0:0:0:0:
256,192,72302,1,0,0:0:0:0:
256,192,72474,1,2,0:0:0:0:
256,192,72560,1,0,0:0:0:0:
256,192,72647,1,0,0:0:0:0:
256,192,72733,1,2,0:0:0:0:
256,192,72905,5,0,0:0:0:0:
256,192,72991,1,2,0:0:0:0:
256,192,73078,1,0,0:0:0:0:
256,192,73135,1,2,0:0:0:0:
256,192,73193,1,2,0:0:0:0:
256,192,73250,1,2,0:0:0:0:
256,192,73336,1,0,0:0:0:0:
256,192,73422,1,2,0:0:0:0:
256,192,73595,1,2,0:0:0:0:
256,192,73681,1,0,0:0:0:0:
256,192,73853,1,2,0:0:0:0:
256,192,73939,1,0,0:0:0:0:
256,192,74026,1,0,0:0:0:0:
256,192,74112,1,2,0:0:0:0:
256,192,74285,1,0,0:0:0:0:
256,192,74371,1,0,0:0:0:0:
256,192,74457,1,2,0:0:0:0:
256,192,74543,1,0,0:0:0:0:
256,192,74629,1,0,0:0:0:0:
256,192,74715,1,2,0:0:0:0:
256,192,74802,1,2,0:0:0:0:
256,192,74974,1,2,0:0:0:0:
256,192,75060,1,0,0:0:0:0:
256,192,75233,1,2,0:0:0:0:
256,192,75319,1,2,0:0:0:0:
256,192,75405,1,0,0:0:0:0:
256,192,75491,1,2,0:0:0:0:
256,192,75664,5,2,0:0:0:0:
256,192,75750,1,2,0:0:0:0:
256,192,75836,1,0,0:0:0:0:
256,192,75922,1,0,0:0:0:0:
256,192,76095,1,0,0:0:0:0:
256,192,76181,1,2,0:0:0:0:
256,192,76353,1,0,0:0:0:0:
256,192,76440,1,0,0:0:0:0:
256,192,76612,1,2,0:0:0:0:
256,192,76698,1,0,0:0:0:0:
256,192,76785,1,2,0:0:0:0:
256,192,76871,1,2,0:0:0:0:
256,192,76957,1,2,0:0:0:0:
256,192,77043,1,0,0:0:0:0:
256,192,77129,1,0,0:0:0:0:
256,192,77302,1,2,0:0:0:0:
256,192,77388,1,2,0:0:0:0:
256,192,77474,1,0,0:0:0:0:
256,192,77560,1,2,0:0:0:0:
256,192,77733,1,0,0:0:0:0:
256,192,77819,1,2,0:0:0:0:
256,192,77991,5,2,0:0:0:0:
256,192,78078,1,0,0:0:0:0:
256,192,78164,1,2,0:0:0:0:
256,192,78250,1,2,0:0:0:0:
256,192,78336,1,0,0:0:0:0:
256,192,78422,1,0,0:0:0:0:
256,192,78509,1,2,0:0:0:0:
256,192,78595,5,0,0:0:0:0:
256,192,78652,1,2,0:0:0:0:
256,192,78710,1,2,0:0:0:0:
256,192,78767,1,2,0:0:0:0:
256,192,78854,1,0,0:0:0:0:
256,192,78940,1,2,0:0:0:0:
256,192,79112,1,2,0:0:0:0:
256,192,79198,1,0,0:0:0:0:
256,192,79371,1,2,0:0:0:0:
256,192,79457,1,0,0:0:0:0:
256,192,79543,1,0,0:0:0:0:
256,192,79629,1,2,0:0:0:0:
256,192,79716,1,2,0:0:0:0:
256,192,79888,1,0,0:0:0:0:
256,192,79974,1,2,0:0:0:0:
256,192,80060,1,0,0:0:0:0:
256,192,80147,1,0,0:0:0:0:
256,192,80233,1,0,0:0:0:0:
256,192,80319,1,2,0:0:0:0:
256,192,80491,1,2,0:0:0:0:
256,192,80578,1,0,0:0:0:0:
256,192,80750,1,2,0:0:0:0:
256,192,80836,1,2,0:0:0:0:
256,192,80922,1,0,0:0:0:0:
256,192,81009,1,2,0:0:0:0:
256,192,81181,5,2,0:0:0:0:
256,192,81267,1,0,0:0:0:0:
256,192,81354,1,0,0:0:0:0:
256,192,81440,1,0,0:0:0:0:
256,192,81612,1,0,0:0:0:0:
256,192,81698,1,2,0:0:0:0:
256,192,81871,1,0,0:0:0:0:
256,192,81957,1,0,0:0:0:0:
256,192,82129,1,2,0:0:0:0:
256,192,82216,1,0,0:0:0:0:
256,192,82302,1,2,0:0:0:0:
256,192,82388,1,2,0:0:0:0:
256,192,82474,1,2,0:0:0:0:
256,192,82560,1,0,0:0:0:0:
256,192,82647,1,0,0:0:0:0:
256,192,82819,1,0,0:0:0:0:
256,192,82905,1,2,0:0:0:0:
256,192,82991,1,0,0:0:0:0:
256,192,83078,1,2,0:0:0:0:
256,192,83250,1,2,0:0:0:0:
256,192,83336,1,0,0:0:0:0:
256,192,83509,1,2,0:0:0:0:
256,192,83595,1,0,0:0:0:0:
256,192,83681,1,0,0:0:0:0:
256,192,83767,1,2,0:0:0:0:
256,192,83940,5,0,0:0:0:0:
256,192,84026,1,2,0:0:0:0:
256,192,84112,1,0,0:0:0:0:
256,192,84198,1,0,0:0:0:0:
256,192,84284,1,2,0:0:0:0:
256,192,84371,1,0,0:0:0:0:
256,192,84457,1,2,0:0:0:0:
256,192,84629,1,0,0:0:0:0:
256,192,84716,1,0,0:0:0:0:
256,192,84888,1,2,0:0:0:0:
256,192,84974,1,0,0:0:0:0:
256,192,85060,1,0,0:0:0:0:
256,192,85147,1,2,0:0:0:0:
256,192,85319,1,0,0:0:0:0:
256,192,85405,1,0,0:0:0:0:
256,192,85491,1,2,0:0:0:0:
256,192,85578,1,0,0:0:0:0:
256,192,85664,1,0,0:0:0:0:
256,192,85750,1,2,0:0:0:0:
256,192,85836,1,2,0:0:0:0:
256,192,86009,1,2,0:0:0:0:
256,192,86095,1,0,0:0:0:0:
256,192,86267,1,2,0:0:0:0:
256,192,86354,1,2,0:0:0:0:
256,192,86440,1,0,0:0:0:0:
256,192,86526,1,2,0:0:0:0:
256,192,86698,5,2,0:0:0:0:
256,192,86785,1,2,0:0:0:0:
256,192,86871,1,0,0:0:0:0:
256,192,86957,1,0,0:0:0:0:
256,192,87129,1,0,0:0:0:0:
256,192,87216,1,2,0:0:0:0:
256,192,87302,1,2,0:0:0:0:
256,192,87388,1,0,0:0:0:0:
256,192,87474,1,0,0:0:0:0:
256,192,87647,1,2,0:0:0:0:
256,192,87733,1,0,0:0:0:0:
256,192,87819,1,2,0:0:0:0:
256,192,87905,1,2,0:0:0:0:
256,192,87991,1,2,0:0:0:0:
256,192,88078,1,0,0:0:0:0:
256,192,88164,1,0,0:0:0:0:
256,192,88336,1,2,0:0:0:0:
256,192,88422,1,2,0:0:0:0:
256,192,88509,1,0,0:0:0:0:
256,192,88595,1,2,0:0:0:0:
256,192,88681,1,0,0:0:0:0:
256,192,88767,1,0,0:0:0:0:
256,192,88854,1,0,0:0:0:0:
256,192,89026,1,0,0:0:0:0:
256,192,89112,1,2,0:0:0:0:
256,192,89198,1,0,0:0:0:0:
256,192,89285,1,2,0:0:0:0:
256,192,89371,1,2,0:0:0:0:
256,192,89457,1,0,0:0:0:0:
256,192,89543,1,2,0:0:0:0:
256,192,89629,1,4,0:0:0:0:
256,192,89974,2,4,L|352:192,24,70
256,192,92388,1,0,0:0:0:0:
256,192,92733,1,2,0:0:0:0:
256,192,92905,1,2,0:0:0:0:
256,192,92991,1,0,0:0:0:0:
256,192,93164,1,0,0:0:0:0:
256,192,93336,1,0,0:0:0:0:
256,192,93422,1,2,0:0:0:0:
256,192,93595,1,0,0:0:0:0:
256,192,93681,1,2,0:0:0:0:
256,192,93767,1,0,0:0:0:0:
256,192,93940,1,0,0:0:0:0:
256,192,94026,1,0,0:0:0:0:
256,192,94112,1,2,0:0:0:0:
256,192,94371,1,0,0:0:0:0:
256,192,94543,1,0,0:0:0:0:
256,192,94716,1,0,0:0:0:0:
256,192,94802,1,2,0:0:0:0:
256,192,95147,1,4,0:0:0:0:
256,192,95491,2,4,L|352:192,24,70
288,192,97905,1,4,0:0:0:0:
288,192,98078,2,4,L|384:192,10,70
256,192,99285,1,0,0:0:0:0:
256,192,99629,1,2,0:0:0:0:
256,192,99802,1,2,0:0:0:0:
256,192,99888,1,0,0:0:0:0:
256,192,100060,1,0,0:0:0:0:
256,192,100233,1,0,0:0:0:0:
256,192,100319,1,2,0:0:0:0:
256,192,100664,5,0,0:0:0:0:
256,192,100923,1,0,0:0:0:0:
256,192,101009,1,2,0:0:0:0:
256,192,101181,1,0,0:0:0:0:
256,192,101267,1,0,0:0:0:0:
256,192,101354,1,0,0:0:0:0:
256,192,101612,1,0,0:0:0:0:
256,192,101698,1,2,0:0:0:0:
256,192,101871,1,0,0:0:0:0:
256,192,101957,1,2,0:0:0:0:
256,192,102043,1,0,0:0:0:0:
256,192,102129,1,0,0:0:0:0:
256,192,102302,1,0,0:0:0:0:
256,192,102388,1,2,0:0:0:0:
256,192,102560,1,0,0:0:0:0:
256,192,102647,1,0,0:0:0:0:
256,192,102733,1,0,0:0:0:0:
256,192,102992,1,0,0:0:0:0:
256,192,103078,1,2,0:0:0:0:
256,192,103250,1,2,0:0:0:0:
256,192,103336,1,0,0:0:0:0:
256,192,103423,1,0,0:0:0:0:
256,192,103509,1,0,0:0:0:0:
256,192,103681,1,0,0:0:0:0:
256,192,103767,1,2,0:0:0:0:
256,192,103940,1,2,0:0:0:0:
256,192,104026,1,0,0:0:0:0:
256,192,104112,1,0,0:0:0:0:
256,192,104371,1,0,0:0:0:0:
256,192,104457,1,2,0:0:0:0:
256,192,104629,1,0,0:0:0:0:
256,192,104716,1,0,0:0:0:0:
256,192,104802,1,0,0:0:0:0:
256,192,105060,1,0,0:0:0:0:
256,192,105147,1,2,0:0:0:0:
256,192,105319,1,0,0:0:0:0:
256,192,105405,1,2,0:0:0:0:
256,192,105492,1,0,0:0:0:0:
256,192,105750,1,0,0:0:0:0:
256,192,105836,1,2,0:0:0:0:
256,192,106009,1,0,0:0:0:0:
256,192,106181,1,0,0:0:0:0:
256,192,106354,1,0,0:0:0:0:
256,192,106526,1,2,0:0:0:0:
256,192,106698,1,0,0:0:0:0:
256,192,106871,1,0,0:0:0:0:
256,192,107043,1,0,0:0:0:0:
256,192,107216,1,2,0:0:0:0:
256,192,107388,1,0,0:0:0:0:
256,192,107560,1,0,0:0:0:0:
256,192,107733,1,2,0:0:0:0:
256,192,107905,1,2,0:0:0:0:
256,192,108078,1,0,0:0:0:0:
256,192,108250,1,0,0:0:0:0:
256,192,108423,1,2,0:0:0:0:
256,192,108595,1,2,0:0:0:0:
256,192,108767,1,0,0:0:0:0:
256,192,108940,1,0,0:0:0:0:
256,192,109026,1,0,0:0:0:0:
256,192,109112,1,0,0:0:0:0:
256,192,109198,1,0,0:0:0:0:
256,192,109285,1,2,0:0:0:0:
256,192,109371,1,2,0:0:0:0:
256,192,109457,1,0,0:0:0:0:
256,192,109543,1,0,0:0:0:0:
256,192,109629,1,2,0:0:0:0:
256,192,109716,1,0,0:0:0:0:
256,192,109802,1,0,0:0:0:0:
256,192,109888,1,0,0:0:0:0:
256,192,109974,1,2,0:0:0:0:
256,192,110060,1,2,0:0:0:0:
256,192,110147,1,0,0:0:0:0:
256,192,110233,1,0,0:0:0:0:
256,192,111698,5,4,0:0:0:0:
256,192,111956,1,0,0:0:0:0:
256,192,112043,1,2,0:0:0:0:
256,192,112215,1,2,0:0:0:0:
256,192,112301,1,2,0:0:0:0:
256,192,112387,1,0,0:0:0:0:
256,192,112474,1,2,0:0:0:0:
256,192,112560,1,0,0:0:0:0:
256,192,112646,1,0,0:0:0:0:
256,192,112732,1,2,0:0:0:0:
256,192,112905,1,0,0:0:0:0:
256,192,112991,1,2,0:0:0:0:
256,192,113077,1,0,0:0:0:0:
256,192,113163,1,0,0:0:0:0:
256,192,113336,1,0,0:0:0:0:
256,192,113422,1,2,0:0:0:0:
256,192,113508,1,0,0:0:0:0:
256,192,113594,1,2,0:0:0:0:
256,192,113767,1,2,0:0:0:0:
256,192,113853,1,2,0:0:0:0:
256,192,113939,1,0,0:0:0:0:
256,192,114025,1,0,0:0:0:0:
256,192,114112,1,2,0:0:0:0:
256,192,114284,1,0,0:0:0:0:
256,192,114370,1,2,0:0:0:0:
256,192,114456,1,0,0:0:0:0:
256,192,114629,1,2,0:0:0:0:
256,192,114715,1,0,0:0:0:0:
256,192,114801,1,0,0:0:0:0:
256,192,114887,1,2,0:0:0:0:
256,192,115060,1,0,0:0:0:0:
256,192,115146,1,2,0:0:0:0:
256,192,115232,1,0,0:0:0:0:
256,192,115318,1,0,0:0:0:0:
256,192,115405,1,2,0:0:0:0:
256,192,115491,1,2,0:0:0:0:
256,192,115663,1,2,0:0:0:0:
256,192,115750,1,0,0:0:0:0:
256,192,115836,1,2,0:0:0:0:
256,192,115922,1,0,0:0:0:0:
256,192,116094,1,0,0:0:0:0:
256,192,116181,1,2,0:0:0:0:
256,192,116267,1,2,0:0:0:0:
256,192,116439,1,0,0:0:0:0:
256,192,116525,1,2,0:0:0:0:
256,192,116612,1,0,0:0:0:0:
256,192,116698,1,2,0:0:0:0:
256,192,116784,1,2,0:0:0:0:
256,192,116870,1,2,0:0:0:0:
256,192,117043,1,2,0:0:0:0:
256,192,117129,1,0,0:0:0:0:
256,192,117215,1,0,0:0:0:0:
256,192,117474,1,0,0:0:0:0:
256,192,117560,1,2,0:0:0:0:
256,192,117732,1,0,0:0:0:0:
256,192,117818,1,0,0:0:0:0:
256,192,117905,1,2,0:0:0:0:
256,192,117991,1,2,0:0:0:0:
256,192,118077,1,0,0:0:0:0:
256,192,118163,1,2,0:0:0:0:
256,192,118250,1,2,0:0:0:0:
256,192,118422,1,0,0:0:0:0:
256,192,118508,1,2,0:0:0:0:
256,192,118594,1,0,0:0:0:0:
256,192,118681,1,0,0:0:0:0:
256,192,118853,1,0,0:0:0:0:
256,192,118939,1,2,0:0:0:0:
256,192,119025,1,2,0:0:0:0:
256,192,119112,1,0,0:0:0:0:
256,192,119284,1,0,0:0:0:0:
256,192,119370,1,2,0:0:0:0:
256,192,119456,1,0,0:0:0:0:
256,192,119543,1,0,0:0:0:0:
256,192,119629,1,2,0:0:0:0:
256,192,119801,1,2,0:0:0:0:
256,192,119887,1,2,0:0:0:0:
256,192,119974,1,0,0:0:0:0:
256,192,120146,1,0,0:0:0:0:
256,192,120232,1,0,0:0:0:0:
256,192,120318,1,2,0:0:0:0:
256,192,120405,1,2,0:0:0:0:
256,192,120577,1,2,0:0:0:0:
256,192,120663,1,0,0:0:0:0:
256,192,120750,1,0,0:0:0:0:
256,192,120836,1,2,0:0:0:0:
256,192,120922,1,2,0:0:0:0:
256,192,121008,1,2,0:0:0:0:
256,192,121181,1,0,0:0:0:0:
256,192,121267,1,2,0:0:0:0:
256,192,121353,1,0,0:0:0:0:
256,192,121439,1,0,0:0:0:0:
256,192,121525,1,2,0:0:0:0:
256,192,121612,1,0,0:0:0:0:
256,192,121698,1,2,0:0:0:0:
256,192,121784,1,2,0:0:0:0:
256,192,121870,1,0,0:0:0:0:
256,192,121956,1,0,0:0:0:0:
256,192,122043,1,2,0:0:0:0:
256,192,122129,1,0,0:0:0:0:
256,192,122215,1,2,0:0:0:0:
256,192,122301,1,0,0:0:0:0:
256,192,122387,1,2,0:0:0:0:
256,192,122474,1,2,0:0:0:0:
256,192,122560,1,0,0:0:0:0:
256,192,122646,1,2,0:0:0:0:
256,192,122732,1,0,0:0:0:0:
256,192,122991,1,0,0:0:0:0:
256,192,123077,1,2,0:0:0:0:
256,192,123163,1,0,0:0:0:0:
256,192,123250,1,0,0:0:0:0:
256,192,123336,1,0,0:0:0:0:
256,192,123422,1,2,0:0:0:0:
256,192,123594,1,0,0:0:0:0:
256,192,123681,1,0,0:0:0:0:
256,192,123767,1,2,0:0:0:0:
256,192,123939,1,2,0:0:0:0:
256,192,124025,1,2,0:0:0:0:
256,192,124112,1,0,0:0:0:0:
256,192,124198,1,0,0:0:0:0:
256,192,124370,1,0,0:0:0:0:
256,192,124456,1,2,0:0:0:0:
256,192,124543,1,2,0:0:0:0:
256,192,124629,1,0,0:0:0:0:
256,192,124801,1,2,0:0:0:0:
256,192,124887,1,2,0:0:0:0:
256,192,124974,1,0,0:0:0:0:
256,192,125060,1,0,0:0:0:0:
256,192,125146,1,2,0:0:0:0:
256,192,125232,1,0,0:0:0:0:
256,192,125318,1,2,0:0:0:0:
256,192,125405,1,2,0:0:0:0:
256,192,125491,1,0,0:0:0:0:
256,192,125663,1,2,0:0:0:0:
256,192,125750,1,0,0:0:0:0:
256,192,125836,1,2,0:0:0:0:
256,192,125922,1,2,0:0:0:0:
256,192,126008,1,0,0:0:0:0:
256,192,126094,1,2,0:0:0:0:
256,192,126267,1,0,0:0:0:0:
256,192,126353,1,2,0:0:0:0:
256,192,126439,1,0,0:0:0:0:
256,192,126525,1,2,0:0:0:0:
256,192,126612,1,2,0:0:0:0:
256,192,126698,1,0,0:0:0:0:
256,192,126784,1,0,0:0:0:0:
256,192,126956,1,0,0:0:0:0:
256,192,127043,1,0,0:0:0:0:
256,192,127129,1,2,0:0:0:0:
256,192,127215,1,2,0:0:0:0:
256,192,127301,1,0,0:0:0:0:
256,192,127474,1,2,0:0:0:0:
256,192,127560,1,0,0:0:0:0:
256,192,127646,1,0,0:0:0:0:
256,192,127732,1,2,0:0:0:0:
256,192,127818,1,0,0:0:0:0:
256,192,127905,1,2,0:0:0:0:
256,192,128077,1,2,0:0:0:0:
256,192,128163,1,0,0:0:0:0:
256,192,128250,1,0,0:0:0:0:
256,192,128422,1,2,0:0:0:0:
256,192,128508,1,0,0:0:0:0:
256,192,128594,1,2,0:0:0:0:
256,192,128681,1,0,0:0:0:0:
256,192,128767,1,2,0:0:0:0:
256,192,128853,1,2,0:0:0:0:
256,192,128939,1,0,0:0:0:0:
256,192,129025,1,2,0:0:0:0:
256,192,129112,1,0,0:0:0:0:
256,192,129198,1,0,0:0:0:0:
256,192,129284,1,2,0:0:0:0:
256,192,129456,1,2,0:0:0:0:
256,192,129543,1,0,0:0:0:0:
256,192,129629,1,2,0:0:0:0:
256,192,129715,1,0,0:0:0:0:
256,192,129887,1,0,0:0:0:0:
256,192,129974,1,2,0:0:0:0:
256,192,130060,1,2,0:0:0:0:
256,192,130146,1,0,0:0:0:0:
256,192,130232,1,0,0:0:0:0:
256,192,130405,1,2,0:0:0:0:
256,192,130491,1,0,0:0:0:0:
256,192,130577,1,0,0:0:0:0:
256,192,130663,1,2,0:0:0:0:
256,192,130836,1,0,0:0:0:0:
256,192,130922,1,2,0:0:0:0:
256,192,131008,1,0,0:0:0:0:
256,192,131181,1,0,0:0:0:0:
256,192,131267,1,0,0:0:0:0:
256,192,131353,1,2,0:0:0:0:
256,192,131525,1,0,0:0:0:0:
256,192,131612,1,2,0:0:0:0:
256,192,131698,1,0,0:0:0:0:
256,192,131784,1,0,0:0:0:0:
256,192,131870,1,2,0:0:0:0:
256,192,131956,1,0,0:0:0:0:
256,192,132043,1,2,0:0:0:0:
256,192,132215,1,0,0:0:0:0:
256,192,132301,1,2,0:0:0:0:
256,192,132387,1,0,0:0:0:0:
256,192,132474,1,0,0:0:0:0:
256,192,132646,1,0,0:0:0:0:
256,192,132732,1,2,0:0:0:0:
256,192,132905,1,0,0:0:0:0:
256,192,132991,1,0,0:0:0:0:
256,192,133077,1,6,0:0:0:0:
256,192,133250,1,0,0:0:0:0:
256,192,133336,1,2,0:0:0:0:
256,192,133422,1,0,0:0:0:0:
256,192,133508,1,0,0:0:0:0:
256,192,133594,1,2,0:0:0:0:
256,192,133681,1,2,0:0:0:0:
256,192,133767,1,4,0:0:0:0:
256,192,134025,1,0,0:0:0:0:
256,192,134112,1,2,0:0:0:0:
256,192,134284,1,2,0:0:0:0:
256,192,134370,1,2,0:0:0:0:
256,192,134456,1,0,0:0:0:0:
256,192,134543,1,2,0:0:0:0:
256,192,134629,1,0,0:0:0:0:
256,192,134715,1,0,0:0:0:0:
256,192,134801,1,2,0:0:0:0:
256,192,134974,1,0,0:0:0:0:
256,192,135060,1,2,0:0:0:0:
256,192,135146,1,0,0:0:0:0:
256,192,135232,1,0,0:0:0:0:
256,192,135405,1,0,0:0:0:0:
256,192,135491,1,2,0:0:0:0:
256,192,135577,1,0,0:0:0:0:
256,192,135663,1,2,0:0:0:0:
256,192,135836,1,2,0:0:0:0:
256,192,135922,1,2,0:0:0:0:
256,192,136008,1,0,0:0:0:0:
256,192,136094,1,0,0:0:0:0:
256,192,136181,1,2,0:0:0:0:
256,192,136353,1,0,0:0:0:0:
256,192,136439,1,2,0:0:0:0:
256,192,136525,1,0,0:0:0:0:
256,192,136612,1,0,0:0:0:0:
256,192,136698,1,2,0:0:0:0:
256,192,136784,1,0,0:0:0:0:
256,192,136870,1,0,0:0:0:0:
256,192,136956,1,2,0:0:0:0:
256,192,137129,1,0,0:0:0:0:
256,192,137215,1,2,0:0:0:0:
256,192,137301,1,0,0:0:0:0:
256,192,137387,1,0,0:0:0:0:
256,192,137474,1,2,0:0:0:0:
256,192,137560,1,2,0:0:0:0:
256,192,137732,1,2,0:0:0:0:
256,192,137819,1,0,0:0:0:0:
256,192,137905,1,2,0:0:0:0:
256,192,137991,1,0,0:0:0:0:
256,192,138077,1,0,0:0:0:0:
256,192,138163,1,0,0:0:0:0:
256,192,138250,1,2,0:0:0:0:
256,192,138336,1,2,0:0:0:0:
256,192,138508,1,0,0:0:0:0:
256,192,138594,1,2,0:0:0:0:
256,192,138681,1,0,0:0:0:0:
256,192,138767,1,2,0:0:0:0:
256,192,138853,1,2,0:0:0:0:
256,192,138939,1,2,0:0:0:0:
256,192,139112,1,2,0:0:0:0:
256,192,139198,1,0,0:0:0:0:
256,192,139284,1,0,0:0:0:0:
256,192,139543,1,0,0:0:0:0:
256,192,139629,1,2,0:0:0:0:
256,192,139801,1,0,0:0:0:0:
256,192,139887,1,0,0:0:0:0:
256,192,139974,1,2,0:0:0:0:
256,192,140060,1,2,0:0:0:0:
256,192,140146,1,0,0:0:0:0:
256,192,140232,1,2,0:0:0:0:
256,192,140319,1,2,0:0:0:0:
256,192,140491,1,0,0:0:0:0:
256,192,140577,1,2,0:0:0:0:
256,192,140663,1,0,0:0:0:0:
256,192,140750,1,0,0:0:0:0:
256,192,140922,1,0,0:0:0:0:
256,192,141008,1,2,0:0:0:0:
256,192,141094,1,2,0:0:0:0:
256,192,141181,1,0,0:0:0:0:
256,192,141353,1,0,0:0:0:0:
256,192,141439,1,2,0:0:0:0:
256,192,141525,1,0,0:0:0:0:
256,192,141612,1,0,0:0:0:0:
256,192,141698,1,2,0:0:0:0:
256,192,141784,1,0,0:0:0:0:
256,192,141870,1,2,0:0:0:0:
256,192,141956,1,2,0:0:0:0:
256,192,142043,1,0,0:0:0:0:
256,192,142215,1,0,0:0:0:0:
256,192,142301,1,0,0:0:0:0:
256,192,142387,1,2,0:0:0:0:
256,192,142474,1,2,0:0:0:0:
256,192,142646,1,2,0:0:0:0:
256,192,142732,1,0,0:0:0:0:
256,192,142819,1,0,0:0:0:0:
256,192,142905,1,2,0:0:0:0:
256,192,142991,1,2,0:0:0:0:
256,192,143077,1,2,0:0:0:0:
256,192,143250,1,0,0:0:0:0:
256,192,143336,1,2,0:0:0:0:
256,192,143422,1,0,0:0:0:0:
256,192,143508,1,0,0:0:0:0:
256,192,143594,1,2,0:0:0:0:
256,192,143681,1,0,0:0:0:0:
256,192,143767,1,2,0:0:0:0:
256,192,143853,1,2,0:0:0:0:
256,192,143939,1,0,0:0:0:0:
256,192,144025,1,0,0:0:0:0:
256,192,144112,1,2,0:0:0:0:
256,192,144198,1,0,0:0:0:0:
256,192,144284,1,2,0:0:0:0:
256,192,144370,1,0,0:0:0:0:
256,192,144456,1,2,0:0:0:0:
256,192,144543,1,2,0:0:0:0:
256,192,144629,1,0,0:0:0:0:
256,192,144715,1,2,0:0:0:0:
256,192,144801,1,0,0:0:0:0:
256,192,144974,1,0,0:0:0:0:
256,192,145060,1,2,0:0:0:0:
256,192,145146,1,0,0:0:0:0:
256,192,145232,1,0,0:0:0:0:
256,192,145318,1,2,0:0:0:0:
256,192,145405,1,0,0:0:0:0:
256,192,145491,1,2,0:0:0:0:
256,192,145663,1,0,0:0:0:0:
256,192,145750,1,0,0:0:0:0:
256,192,145836,1,2,0:0:0:0:
256,192,145922,1,0,0:0:0:0:
256,192,146008,1,2,0:0:0:0:
256,192,146094,1,2,0:0:0:0:
256,192,146181,1,0,0:0:0:0:
256,192,146267,1,0,0:0:0:0:
256,192,146439,1,0,0:0:0:0:
256,192,146525,1,2,0:0:0:0:
256,192,146612,1,2,0:0:0:0:
256,192,146698,1,0,0:0:0:0:
256,192,146784,1,0,0:0:0:0:
256,192,146956,1,2,0:0:0:0:
256,192,147043,1,0,0:0:0:0:
256,192,147129,1,0,0:0:0:0:
256,192,147215,1,2,0:0:0:0:
256,192,147301,1,0,0:0:0:0:
256,192,147387,1,2,0:0:0:0:
256,192,147474,1,2,0:0:0:0:
256,192,147560,1,0,0:0:0:0:
256,192,147732,1,2,0:0:0:0:
256,192,147819,1,0,0:0:0:0:
256,192,147905,1,2,0:0:0:0:
256,192,147991,1,2,0:0:0:0:
256,192,148077,1,0,0:0:0:0:
256,192,148163,1,2,0:0:0:0:
256,192,148250,1,0,0:0:0:0:
256,192,148422,1,2,0:0:0:0:
256,192,148508,1,0,0:0:0:0:
256,192,148594,1,2,0:0:0:0:
256,192,148681,1,2,0:0:0:0:
256,192,148767,1,2,0:0:0:0:
256,192,148853,1,0,0:0:0:0:
256,192,148939,1,2,0:0:0:0:
256,192,149025,1,0,0:0:0:0:
256,192,149112,1,2,0:0:0:0:
256,192,149198,1,2,0:0:0:0:
256,192,149284,1,0,0:0:0:0:
256,192,149370,1,0,0:0:0:0:
256,192,149543,1,2,0:0:0:0:
256,192,149629,1,0,0:0:0:0:
256,192,149715,1,0,0:0:0:0:
256,192,149801,1,2,0:0:0:0:
256,192,149887,1,0,0:0:0:0:
256,192,149974,1,2,0:0:0:0:
256,192,150146,1,2,0:0:0:0:
256,192,150232,1,0,0:0:0:0:
256,192,150319,1,0,0:0:0:0:
256,192,150491,1,2,0:0:0:0:
256,192,150577,1,0,0:0:0:0:
256,192,150663,1,2,0:0:0:0:
256,192,150750,1,0,0:0:0:0:
256,192,150836,1,2,0:0:0:0:
256,192,150922,1,2,0:0:0:0:
256,192,151008,1,0,0:0:0:0:
256,192,151094,1,2,0:0:0:0:
256,192,151181,1,0,0:0:0:0:
256,192,151267,1,0,0:0:0:0:
256,192,151353,1,2,0:0:0:0:
256,192,151525,1,2,0:0:0:0:
256,192,151612,1,0,0:0:0:0:
256,192,151698,1,2,0:0:0:0:
256,192,151784,1,0,0:0:0:0:
256,192,151956,1,0,0:0:0:0:
256,192,152043,1,2,0:0:0:0:
256,192,152129,1,2,0:0:0:0:
256,192,152215,1,0,0:0:0:0:
256,192,152301,1,0,0:0:0:0:
256,192,152474,1,2,0:0:0:0:
256,192,152560,1,0,0:0:0:0:
256,192,152646,1,0,0:0:0:0:
256,192,152732,1,2,0:0:0:0:
256,192,152818,1,2,0:0:0:0:
256,192,152905,1,0,0:0:0:0:
256,192,152991,1,2,0:0:0:0:
256,192,153077,1,0,0:0:0:0:
256,192,153250,1,0,0:0:0:0:
256,192,153336,1,0,0:0:0:0:
256,192,153422,1,2,0:0:0:0:
256,192,153594,1,0,0:0:0:0:
256,192,153681,1,2,0:0:0:0:
256,192,153767,1,0,0:0:0:0:
256,192,153853,1,0,0:0:0:0:
256,192,153939,1,2,0:0:0:0:
256,192,154025,1,0,0:0:0:0:
256,192,154112,1,2,0:0:0:0:
256,192,154284,1,2,0:0:0:0:
256,192,154370,1,0,0:0:0:0:
256,192,154456,1,2,0:0:0:0:
256,192,154543,1,2,0:0:0:0:
256,192,154629,1,0,0:0:0:0:
256,192,154715,1,0,0:0:0:0:
256,192,154801,1,2,0:0:0:0:
256,192,154974,1,0,0:0:0:0:
256,192,155060,1,0,0:0:0:0:
256,192,155146,1,2,0:0:0:0:
256,192,155232,1,0,0:0:0:0:
256,192,155318,1,2,0:0:0:0:
256,192,155405,1,2,0:0:0:0:
256,192,155491,1,2,0:0:0:0:
256,192,155577,1,2,0:0:0:0:
256,192,155663,1,2,0:0:0:0:
256,192,155750,1,2,0:0:0:0:
256,192,155836,1,4,0:0:0:0:
256,192,158767,1,2,0:0:0:0:
256,192,161353,1,0,0:0:0:0:
256,192,164112,5,0,0:0:0:0:
256,192,166870,5,0,0:0:0:0:
256,192,169801,1,2,0:0:0:0:
256,192,172387,1,0,0:0:0:0:
256,192,175836,12,2,177732,0:0:0:0:
256,192,177905,5,0,0:0:0:0:
256,192,178250,1,6,0:0:0:0:
256,192,178537,1,0,0:0:0:0:
256,192,178939,1,2,0:0:0:0:
256,192,179284,1,0,0:0:0:0:
256,192,179629,1,6,0:0:0:0:
256,192,179887,1,0,0:0:0:0:
256,192,179974,1,0,0:0:0:0:
256,192,180146,1,0,0:0:0:0:
256,192,180319,1,2,0:0:0:0:
256,192,180663,1,0,0:0:0:0:
256,192,181008,1,6,0:0:0:0:
256,192,181296,1,0,0:0:0:0:
256,192,181698,1,2,0:0:0:0:
256,192,182043,1,0,0:0:0:0:
256,192,182387,1,6,0:0:0:0:
256,192,182646,1,0,0:0:0:0:
256,192,182732,1,0,0:0:0:0:
256,192,182905,1,0,0:0:0:0:
256,192,183077,1,2,0:0:0:0:
256,192,183422,1,0,0:0:0:0:
256,192,183767,1,6,0:0:0:0:
256,192,184054,1,0,0:0:0:0:
256,192,184456,1,2,0:0:0:0:
256,192,184801,1,0,0:0:0:0:
256,192,185146,1,6,0:0:0:0:
256,192,185405,1,0,0:0:0:0:
256,192,185491,1,0,0:0:0:0:
256,192,185663,1,0,0:0:0:0:
256,192,185836,1,2,0:0:0:0:
256,192,186181,1,0,0:0:0:0:
256,192,186525,1,6,0:0:0:0:
256,192,186813,1,0,0:0:0:0:
256,192,187215,1,2,0:0:0:0:
256,192,187560,1,0,0:0:0:0:
256,192,187905,1,6,0:0:0:0:
256,192,188163,1,0,0:0:0:0:
256,192,188250,1,0,0:0:0:0:
256,192,188422,1,0,0:0:0:0:
256,192,188594,1,2,0:0:0:0:
256,192,188939,1,0,0:0:0:0:
256,192,189198,1,0,0:0:0:0:
256,192,189284,1,2,0:0:0:0:
256,192,189456,1,0,0:0:0:0:
256,192,189543,1,0,0:0:0:0:
256,192,189629,1,0,0:0:0:0:
256,192,189887,1,0,0:0:0:0:
256,192,189974,1,2,0:0:0:0:
256,192,190146,1,0,0:0:0:0:
256,192,190232,1,2,0:0:0:0:
256,192,190318,1,0,0:0:0:0:
256,192,190405,1,0,0:0:0:0:
256,192,190577,1,0,0:0:0:0:
256,192,190663,1,2,0:0:0:0:
256,192,190836,1,0,0:0:0:0:
256,192,190922,1,0,0:0:0:0:
256,192,191008,1,0,0:0:0:0:
256,192,191267,1,0,0:0:0:0:
256,192,191353,1,2,0:0:0:0:
256,192,191525,1,2,0:0:0:0:
256,192,191612,1,0,0:0:0:0:
256,192,191698,1,0,0:0:0:0:
256,192,191784,1,0,0:0:0:0:
256,192,191956,1,0,0:0:0:0:
256,192,192043,1,2,0:0:0:0:
256,192,192215,1,2,0:0:0:0:
256,192,192301,1,0,0:0:0:0:
256,192,192387,1,0,0:0:0:0:
256,192,192646,1,0,0:0:0:0:
256,192,192732,1,2,0:0:0:0:
256,192,192905,1,0,0:0:0:0:
256,192,192991,1,0,0:0:0:0:
256,192,193077,1,0,0:0:0:0:
256,192,193336,1,0,0:0:0:0:
256,192,193422,1,2,0:0:0:0:
256,192,193594,1,0,0:0:0:0:
256,192,193681,1,2,0:0:0:0:
256,192,193767,1,0,0:0:0:0:
256,192,194025,1,0,0:0:0:0:
256,192,194112,1,2,0:0:0:0:
256,192,194284,1,0,0:0:0:0:
256,192,194457,1,0,0:0:0:0:
256,192,194630,1,0,0:0:0:0:
256,192,194802,1,2,0:0:0:0:
256,192,194974,1,0,0:0:0:0:
256,192,195147,1,0,0:0:0:0:
256,192,195319,1,0,0:0:0:0:
256,192,195492,1,2,0:0:0:0:
256,192,195664,1,0,0:0:0:0:
256,192,195836,1,0,0:0:0:0:
256,192,196009,1,2,0:0:0:0:
256,192,196181,1,2,0:0:0:0:
256,192,196354,1,0,0:0:0:0:
256,192,196526,1,0,0:0:0:0:
256,192,196699,1,2,0:0:0:0:
256,192,196871,1,2,0:0:0:0:
256,192,197043,1,0,0:0:0:0:
256,192,197216,1,0,0:0:0:0:
256,192,197302,1,0,0:0:0:0:
256,192,197388,1,0,0:0:0:0:
256,192,197474,1,0,0:0:0:0:
256,192,197561,1,2,0:0:0:0:
256,192,197647,1,2,0:0:0:0:
256,192,197733,1,0,0:0:0:0:
256,192,197819,1,0,0:0:0:0:
256,192,197905,1,2,0:0:0:0:
256,192,197992,1,0,0:0:0:0:
256,192,198078,1,0,0:0:0:0:
256,192,198164,1,0,0:0:0:0:
256,192,198250,1,2,0:0:0:0:
256,192,198336,1,2,0:0:0:0:
256,192,198423,1,0,0:0:0:0:
256,192,198509,1,0,0:0:0:0:
256,192,199456,12,0,199801,0:0:0:0:
256,192,199974,5,4,0:0:0:0:
256,192,200318,2,4,L|352:192,24,70
256,192,202732,1,0,0:0:0:0:
256,192,203077,1,2,0:0:0:0:
256,192,203250,1,2,0:0:0:0:
256,192,203336,1,0,0:0:0:0:
256,192,203508,1,0,0:0:0:0:
256,192,203681,1,0,0:0:0:0:
256,192,203767,1,2,0:0:0:0:
256,192,203939,1,0,0:0:0:0:
256,192,204025,1,2,0:0:0:0:
256,192,204112,1,0,0:0:0:0:
256,192,204198,1,0,0:0:0:0:
256,192,204370,1,0,0:0:0:0:
256,192,204456,1,2,0:0:0:0:
256,192,204629,1,2,0:0:0:0:
256,192,204715,1,0,0:0:0:0:
256,192,204887,1,0,0:0:0:0:
256,192,205060,1,0,0:0:0:0:
256,192,205146,1,2,0:0:0:0:
256,192,205491,1,4,0:0:0:0:
256,192,205836,2,4,L|384:192,24,70
256,192,208250,1,0,0:0:0:0:
256,192,208422,1,2,0:0:0:0:
256,192,208508,1,0,0:0:0:0:
256,192,208594,1,2,0:0:0:0:
256,192,208767,1,2,0:0:0:0:
256,192,208853,1,0,0:0:0:0:
256,192,209025,1,0,0:0:0:0:
256,192,209198,1,0,0:0:0:0:
256,192,209284,1,2,0:0:0:0:
256,192,209456,1,0,0:0:0:0:
256,192,209543,1,0,0:0:0:0:
256,192,209629,1,0,0:0:0:0:
256,192,209801,1,0,0:0:0:0:
288,192,209887,1,0,0:0:0:0:
256,192,209974,1,2,0:0:0:0:
256,192,210146,1,0,0:0:0:0:
256,192,210232,1,0,0:0:0:0:
256,192,210405,1,0,0:0:0:0:
256,192,210577,1,0,0:0:0:0:
256,192,210663,1,2,0:0:0:0:
256,192,211008,1,4,0:0:0:0:
256,192,211353,2,4,L|352:192,24,70
256,192,213767,1,4,0:0:0:0:
256,192,213939,2,4,L|352:192,10,70
256,192,215146,1,0,0:0:0:0:
256,192,215318,1,2,0:0:0:0:
256,192,215405,1,0,0:0:0:0:
256,192,215491,1,2,0:0:0:0:
256,192,215663,1,0,0:0:0:0:
256,192,215750,1,0,0:0:0:0:
256,192,215922,1,0,0:0:0:0:
256,192,216094,1,0,0:0:0:0:
256,192,216181,1,2,0:0:0:0:
256,192,216525,1,4,0:0:0:0:
256,192,216870,2,4,L|384:192,24,70
256,192,219284,1,0,0:0:0:0:
256,192,219456,1,2,0:0:0:0:
256,192,219543,1,0,0:0:0:0:
256,192,219629,1,2,0:0:0:0:
256,192,219801,1,0,0:0:0:0:
256,192,219887,1,0,0:0:0:0:
256,192,220060,1,0,0:0:0:0:
256,192,220232,1,0,0:0:0:0:
256,192,220318,1,2,0:0:0:0:
256,192,220491,1,0,0:0:0:0:
256,192,220577,1,0,0:0:0:0:
256,192,220750,1,0,0:0:0:0:
256,192,220922,1,0,0:0:0:0:
256,192,221008,1,2,0:0:0:0:
256,192,221181,1,0,0:0:0:0:
256,192,221267,1,0,0:0:0:0:
256,192,221439,1,0,0:0:0:0:
256,192,221612,1,0,0:0:0:0:
256,192,221698,1,2,0:0:0:0:
256,192,221784,12,0,221956,0:0:0:0:
