osu file format v14

[General]
AudioFilename: audio.mp3
AudioLeadIn: 0
PreviewTime: 23422
Countdown: 0
SampleSet: Normal
StackLeniency: 0.2
Mode: 1
LetterboxInBreaks: 0
WidescreenStoryboard: 0

[Editor]
Bookmarks: 23422,45491,67560,89629,111698,155836,177905,199974,222043
DistanceSpacing: 1
BeatDivisor: 4
GridSize: 32
TimelineZoom: 2.7

[Metadata]
Title:Shuu no Hazama
TitleUnicode:驟雨の狭間
Artist:Silentroom
ArtistUnicode:Silentroom
Creator:[Zeth]
Version:Genjuro's Muzukashii
Source:osu!
Tags:rainshower featured artist fa mappers' guild mg nifty genjuro ulqui frenz 2019 electronic instrumental neurofunk
BeatmapID:2553781
BeatmapSetID:1226129

[Difficulty]
HPDrainRate:5
CircleSize:2
OverallDifficulty:5
ApproachRate:10
SliderMultiplier:1.4
SliderTickRate:1

[Events]
//Background and Video events
0,0,"maxresdefault.jpg",0,0
//Break Periods
2,156036,177455
//Storyboard Layer 0 (Background)
//Storyboard Layer 1 (Fail)
//Storyboard Layer 2 (Pass)
//Storyboard Layer 3 (Foreground)
//Storyboard Layer 4 (Overlay)
//Storyboard Sound Samples

[TimingPoints]
1354,344.827586206896,4,1,0,100,1,0
23767,-100,4,1,0,100,0,1
24802,-100,4,1,0,100,0,0
25147,-100,4,1,0,100,0,1
26181,-100,4,1,0,100,0,0
26526,-100,4,1,0,100,0,1
27560,-100,4,1,0,100,0,0
27905,-100,4,1,0,100,0,1
28940,-100,4,1,0,100,0,0
29285,-100,4,1,0,100,0,1
30319,-100,4,1,0,100,0,0
30664,-100,4,1,0,100,0,1
31698,-100,4,1,0,100,0,0
32043,-100,4,1,0,100,0,1
33078,-100,4,1,0,100,0,0
33422,-100,4,1,0,100,0,1
34457,-100,4,1,0,100,0,0
110319,344.827586206896,4,1,0,100,1,8
111698,-100,4,1,0,100,0,9
133077,-100,4,1,0,100,0,8
133767,-100,4,1,0,100,0,9
155836,-100,4,1,0,100,0,8
178250,-100,4,1,0,100,0,9
179284,-100,4,1,0,100,0,8
179629,-100,4,1,0,100,0,9
180663,-100,4,1,0,100,0,8
181008,-100,4,1,0,100,0,9
182043,-100,4,1,0,100,0,8
182387,-100,4,1,0,100,0,9
183422,-100,4,1,0,100,0,8
183767,-100,4,1,0,100,0,9
184801,-100,4,1,0,100,0,8
185146,-100,4,1,0,100,0,9
186181,-100,4,1,0,100,0,8
186525,-100,4,1,0,100,0,9
187560,-100,4,1,0,100,0,8
187905,-100,4,1,0,100,0,9
188939,-100,4,1,0,100,0,8
199974,-100,4,1,0,100,0,9
209629,-100,4,1,0,100,0,8
211008,-100,4,1,0,100,0,9
221956,-100,4,1,0,100,0,8

[HitObjects]
256,192,1354,5,0,0:0:0:0:
256,192,1698,1,0,0:0:0:0:
256,192,2733,1,0,0:0:0:0:
256,192,3078,1,0,0:0:0:0:
256,192,4112,1,0,0:0:0:0:
256,192,4457,1,0,0:0:0:0:
256,192,5491,1,0,0:0:0:0:
256,192,5836,1,0,0:0:0:0:
256,192,6871,1,0,0:0:0:0:
256,192,7216,1,0,0:0:0:0:
256,192,8250,1,0,0:0:0:0:
256,192,8595,1,0,0:0:0:0:
256,192,9629,1,0,0:0:0:0:
256,192,9974,1,0,0:0:0:0:
256,192,11009,1,0,0:0:0:0:
256,192,11353,1,0,0:0:0:0:
256,192,12388,1,0,0:0:0:0:
256,192,12560,1,8,0:0:0:0:
256,192,12733,1,0,0:0:0:0:
256,192,13767,1,0,0:0:0:0:
256,192,13940,1,8,0:0:0:0:
256,192,14112,1,0,0:0:0:0:
256,192,15147,1,0,0:0:0:0:
256,192,15319,1,8,0:0:0:0:
256,192,15491,1,0,0:0:0:0:
256,192,16526,1,0,0:0:0:0:
256,192,16698,1,8,0:0:0:0:
256,192,16871,1,0,0:0:0:0:
256,192,17905,1,0,0:0:0:0:
256,192,18078,1,8,0:0:0:0:
256,192,18250,1,0,0:0:0:0:
256,192,19285,1,0,0:0:0:0:
256,192,19457,1,8,0:0:0:0:
256,192,19629,1,0,0:0:0:0:
256,192,20664,1,0,0:0:0:0:
256,192,20836,1,8,0:0:0:0:
256,192,21009,1,0,0:0:0:0:
256,192,22043,1,0,0:0:0:0:
256,192,22216,1,8,0:0:0:0:
256,192,22388,1,0,0:0:0:0:
256,192,23422,1,0,0:0:0:0:
256,192,23767,2,4,L|256:128,8,35
256,192,24802,1,0,0:0:0:0:
256,192,25147,2,4,L|256:128,8,35
256,192,26181,1,0,0:0:0:0:
256,192,26526,2,4,L|256:128,8,35
256,192,27560,1,0,0:0:0:0:
256,192,27905,2,4,L|256:128,8,35
256,192,28940,1,0,0:0:0:0:
256,192,29285,2,4,L|256:128,8,35
256,192,30319,1,0,0:0:0:0:
256,192,30664,2,4,L|256:128,8,35
256,192,31698,1,0,0:0:0:0:
256,192,32043,2,4,L|256:128,8,35
256,192,33078,1,0,0:0:0:0:
256,192,33422,2,4,L|256:128,8,35
256,192,34457,1,0,0:0:0:0:
256,192,34802,1,8,0:0:0:0:
256,192,35491,1,8,0:0:0:0:
256,192,35664,1,0,0:0:0:0:
256,192,35836,1,0,0:0:0:0:
256,192,36181,1,8,0:0:0:0:
256,192,36353,1,0,0:0:0:0:
256,192,36440,1,0,0:0:0:0:
256,192,36871,1,8,0:0:0:0:
256,192,37043,1,0,0:0:0:0:
256,192,37216,1,0,0:0:0:0:
256,192,37560,1,8,0:0:0:0:
256,192,37733,1,0,0:0:0:0:
256,192,37819,1,0,0:0:0:0:
256,192,37905,1,0,0:0:0:0:
256,192,38250,1,8,0:0:0:0:
256,192,38422,1,0,0:0:0:0:
256,192,38595,1,0,0:0:0:0:
256,192,38940,1,8,0:0:0:0:
256,192,39112,1,0,0:0:0:0:
256,192,39198,1,0,0:0:0:0:
256,192,39629,1,8,0:0:0:0:
256,192,39802,1,0,0:0:0:0:
256,192,39974,1,0,0:0:0:0:
256,192,40319,1,8,0:0:0:0:
256,192,41009,1,8,0:0:0:0:
256,192,41181,1,0,0:0:0:0:
256,192,41353,1,0,0:0:0:0:
256,192,41526,1,0,0:0:0:0:
256,192,41698,1,8,0:0:0:0:
256,192,42043,1,0,0:0:0:0:
256,192,42216,1,0,0:0:0:0:
256,192,42388,1,8,0:0:0:0:
256,192,42733,1,0,0:0:0:0:
256,192,42819,1,0,0:0:0:0:
256,192,42905,1,0,0:0:0:0:
256,192,43078,1,8,0:0:0:0:
256,192,43250,1,0,0:0:0:0:
256,192,43422,1,0,0:0:0:0:
256,192,43509,1,0,0:0:0:0:
256,192,43595,1,0,0:0:0:0:
256,192,43767,1,8,0:0:0:0:
256,192,43940,1,0,0:0:0:0:
256,192,44026,1,0,0:0:0:0:
256,192,45491,1,0,0:0:0:0:
256,192,45836,1,8,0:0:0:0:
256,192,46526,1,8,0:0:0:0:
256,192,46785,1,0,0:0:0:0:
256,192,46957,1,0,0:0:0:0:
256,192,47043,1,0,0:0:0:0:
256,192,47216,1,8,0:0:0:0:
256,192,47474,1,0,0:0:0:0:
256,192,47905,1,8,0:0:0:0:
256,192,48164,1,0,0:0:0:0:
256,192,48250,1,0,0:0:0:0:
256,192,48595,1,8,0:0:0:0:
256,192,48853,1,0,0:0:0:0:
256,192,49285,1,8,0:0:0:0:
256,192,49457,1,0,0:0:0:0:
256,192,49716,1,0,0:0:0:0:
256,192,49802,1,0,0:0:0:0:
256,192,49974,1,8,0:0:0:0:
256,192,50233,1,0,0:0:0:0:
256,192,50664,1,8,0:0:0:0:
256,192,50836,1,0,0:0:0:0:
256,192,51009,1,0,0:0:0:0:
256,192,51353,1,8,0:0:0:0:
256,192,52043,1,8,0:0:0:0:
256,192,52216,1,0,0:0:0:0:
256,192,52474,1,0,0:0:0:0:
256,192,52560,1,0,0:0:0:0:
256,192,52733,1,8,0:0:0:0:
256,192,52991,1,0,0:0:0:0:
256,192,53422,1,8,0:0:0:0:
256,192,53681,1,0,0:0:0:0:
256,192,53767,1,0,0:0:0:0:
256,192,54112,1,8,0:0:0:0:
256,192,54371,1,0,0:0:0:0:
256,192,54802,1,8,0:0:0:0:
256,192,54974,1,0,0:0:0:0:
256,192,55233,1,0,0:0:0:0:
256,192,55319,1,0,0:0:0:0:
256,192,55491,1,8,0:0:0:0:
256,192,55750,1,0,0:0:0:0:
256,192,56181,1,8,0:0:0:0:
256,192,56353,1,0,0:0:0:0:
256,192,56526,1,0,0:0:0:0:
256,192,56871,1,8,0:0:0:0:
256,192,57560,1,8,0:0:0:0:
256,192,57819,1,0,0:0:0:0:
256,192,57991,1,0,0:0:0:0:
256,192,58078,1,0,0:0:0:0:
256,192,58250,1,8,0:0:0:0:
256,192,58509,1,0,0:0:0:0:
256,192,58940,1,8,0:0:0:0:
256,192,59198,1,0,0:0:0:0:
256,192,59285,1,0,0:0:0:0:
256,192,59629,1,8,0:0:0:0:
256,192,59888,1,0,0:0:0:0:
256,192,60319,1,8,0:0:0:0:
256,192,60491,1,0,0:0:0:0:
256,192,60750,1,0,0:0:0:0:
256,192,60836,1,0,0:0:0:0:
256,192,61009,1,8,0:0:0:0:
256,192,61267,1,0,0:0:0:0:
256,192,61698,1,8,0:0:0:0:
256,192,61871,1,0,0:0:0:0:
256,192,62043,1,0,0:0:0:0:
256,192,62388,1,8,0:0:0:0:
256,192,63078,1,8,0:0:0:0:
256,192,63250,1,0,0:0:0:0:
256,192,63509,1,0,0:0:0:0:
256,192,63595,1,0,0:0:0:0:
256,192,63767,1,8,0:0:0:0:
256,192,64026,1,0,0:0:0:0:
256,192,64457,1,8,0:0:0:0:
256,192,64716,1,0,0:0:0:0:
256,192,64802,1,0,0:0:0:0:
256,192,65147,1,8,0:0:0:0:
256,192,65405,1,0,0:0:0:0:
256,192,65836,1,8,0:0:0:0:
256,192,66009,1,0,0:0:0:0:
256,192,66267,1,0,0:0:0:0:
256,192,66353,1,0,0:0:0:0:
256,192,66526,1,8,0:0:0:0:
256,192,66785,1,0,0:0:0:0:
256,192,66957,1,8,0:0:0:0:
256,192,67043,1,8,0:0:0:0:
256,192,67216,1,8,0:0:0:0:
256,192,67302,1,8,0:0:0:0:
256,192,67388,1,8,0:0:0:0:
256,192,67560,1,0,0:0:0:0:
256,192,67819,1,8,0:0:0:0:
256,192,67905,1,8,0:0:0:0:
256,192,68509,1,8,0:0:0:0:
256,192,68595,1,8,0:0:0:0:
256,192,68853,1,0,0:0:0:0:
256,192,69026,1,0,0:0:0:0:
256,192,69112,1,0,0:0:0:0:
256,192,69285,1,8,0:0:0:0:
256,192,69543,1,0,0:0:0:0:
256,192,69888,1,8,0:0:0:0:
256,192,69974,1,8,0:0:0:0:
256,192,70233,1,0,0:0:0:0:
256,192,70319,1,0,0:0:0:0:
256,192,70578,1,8,0:0:0:0:
256,192,70664,1,8,0:0:0:0:
256,192,70922,1,0,0:0:0:0:
256,192,71267,1,8,0:0:0:0:
256,192,71353,1,8,0:0:0:0:
256,192,71526,1,0,0:0:0:0:
256,192,71785,1,0,0:0:0:0:
256,192,71871,1,0,0:0:0:0:
256,192,72043,1,8,0:0:0:0:
256,192,72302,1,0,0:0:0:0:
256,192,72647,1,8,0:0:0:0:
256,192,72733,1,8,0:0:0:0:
256,192,72905,1,0,0:0:0:0:
256,192,73078,1,0,0:0:0:0:
256,192,73336,1,8,0:0:0:0:
256,192,73422,1,8,0:0:0:0:
256,192,74026,1,8,0:0:0:0:
256,192,74112,1,8,0:0:0:0:
256,192,74285,1,0,0:0:0:0:
256,192,74543,1,0,0:0:0:0:
256,192,74629,1,0,0:0:0:0:
256,192,74802,1,8,0:0:0:0:
256,192,75060,1,0,0:0:0:0:
256,192,75405,1,8,0:0:0:0:
256,192,75491,1,8,0:0:0:0:
256,192,75750,1,0,0:0:0:0:
256,192,75836,1,0,0:0:0:0:
256,192,76095,1,8,0:0:0:0:
256,192,76181,1,8,0:0:0:0:
256,192,76440,1,0,0:0:0:0:
256,192,76785,1,8,0:0:0:0:
256,192,76871,1,8,0:0:0:0:
256,192,77043,1,0,0:0:0:0:
256,192,77302,1,0,0:0:0:0:
256,192,77388,1,0,0:0:0:0:
256,192,77560,1,8,0:0:0:0:
256,192,77819,1,0,0:0:0:0:
256,192,78164,1,8,0:0:0:0:
256,192,78250,1,8,0:0:0:0:
256,192,78422,1,0,0:0:0:0:
256,192,78595,1,0,0:0:0:0:
256,192,78767,1,8,0:0:0:0:
256,192,78940,1,8,0:0:0:0:
256,192,79543,1,8,0:0:0:0:
256,192,79629,1,8,0:0:0:0:
256,192,79888,1,0,0:0:0:0:
256,192,80060,1,0,0:0:0:0:
256,192,80147,1,0,0:0:0:0:
256,192,80319,1,8,0:0:0:0:
256,192,80578,1,0,0:0:0:0:
256,192,80922,1,8,0:0:0:0:
256,192,81009,1,8,0:0:0:0:
256,192,81267,1,0,0:0:0:0:
256,192,81353,1,0,0:0:0:0:
256,192,81526,1,8,0:0:0:0:
256,192,81698,1,8,0:0:0:0:
256,192,81957,1,0,0:0:0:0:
256,192,82302,1,8,0:0:0:0:
256,192,82388,1,8,0:0:0:0:
256,192,82560,1,0,0:0:0:0:
256,192,82819,1,0,0:0:0:0:
256,192,82905,1,0,0:0:0:0:
256,192,83078,1,8,0:0:0:0:
256,192,83336,1,0,0:0:0:0:
256,192,83681,1,8,0:0:0:0:
256,192,83767,1,8,0:0:0:0:
256,192,83940,1,0,0:0:0:0:
256,192,84112,1,0,0:0:0:0:
256,192,84285,1,8,0:0:0:0:
256,192,84457,1,8,0:0:0:0:
256,192,85060,1,8,0:0:0:0:
256,192,85147,1,8,0:0:0:0:
256,192,85319,1,0,0:0:0:0:
256,192,85578,1,0,0:0:0:0:
256,192,85664,1,0,0:0:0:0:
256,192,85836,1,8,0:0:0:0:
256,192,86095,1,0,0:0:0:0:
256,192,86440,1,8,0:0:0:0:
256,192,86526,1,8,0:0:0:0:
256,192,86785,1,0,0:0:0:0:
256,192,86871,1,0,0:0:0:0:
256,192,87043,1,8,0:0:0:0:
256,192,87216,1,8,0:0:0:0:
256,192,87474,1,0,0:0:0:0:
256,192,87819,1,8,0:0:0:0:
256,192,87905,1,8,0:0:0:0:
256,192,88078,1,0,0:0:0:0:
256,192,88336,1,0,0:0:0:0:
256,192,88422,1,0,0:0:0:0:
256,192,88595,1,8,0:0:0:0:
256,192,88853,1,0,0:0:0:0:
256,192,89198,1,8,0:0:0:0:
256,192,89285,1,8,0:0:0:0:
256,192,89457,1,0,0:0:0:0:
256,192,89629,1,0,0:0:0:0:
256,192,89974,2,0,L|256:128,16,35
256,192,92388,1,0,0:0:0:0:
256,192,92733,1,8,0:0:0:0:
256,192,92991,1,0,0:0:0:0:
256,192,93164,1,0,0:0:0:0:
256,192,93336,1,8,0:0:0:0:
256,192,93422,1,8,0:0:0:0:
256,192,93767,1,0,0:0:0:0:
256,192,94112,1,8,0:0:0:0:
256,192,94371,1,0,0:0:0:0:
256,192,94543,1,0,0:0:0:0:
256,192,94716,1,8,0:0:0:0:
256,192,94802,1,8,0:0:0:0:
256,192,95147,1,0,0:0:0:0:
256,192,95491,2,0,L|256:128,16,35
256,192,97905,1,0,0:0:0:0:
256,192,98250,2,0,L|256:128,8,35
256,192,99285,1,0,0:0:0:0:
256,192,99629,1,8,0:0:0:0:
256,192,99888,1,0,0:0:0:0:
256,192,100060,1,0,0:0:0:0:
256,192,100233,1,8,0:0:0:0:
256,192,100319,1,8,0:0:0:0:
256,192,100664,1,0,0:0:0:0:
256,192,101009,1,8,0:0:0:0:
256,192,101698,1,8,0:0:0:0:
256,192,101871,1,0,0:0:0:0:
256,192,102043,1,0,0:0:0:0:
256,192,102388,1,8,0:0:0:0:
256,192,102560,1,0,0:0:0:0:
256,192,102647,1,0,0:0:0:0:
256,192,103078,1,8,0:0:0:0:
256,192,103250,1,0,0:0:0:0:
256,192,103422,1,0,0:0:0:0:
256,192,103767,1,8,0:0:0:0:
256,192,103940,1,0,0:0:0:0:
256,192,104026,1,0,0:0:0:0:
256,192,104112,1,0,0:0:0:0:
256,192,104457,1,8,0:0:0:0:
256,192,104629,1,0,0:0:0:0:
256,192,104802,1,0,0:0:0:0:
256,192,105147,1,8,0:0:0:0:
256,192,105319,1,0,0:0:0:0:
256,192,105405,1,0,0:0:0:0:
256,192,105836,1,8,0:0:0:0:
256,192,106009,1,0,0:0:0:0:
256,192,106181,1,0,0:0:0:0:
256,192,106526,1,8,0:0:0:0:
256,192,107216,1,8,0:0:0:0:
256,192,107388,1,0,0:0:0:0:
256,192,107560,1,0,0:0:0:0:
256,192,107733,1,0,0:0:0:0:
256,192,107905,1,8,0:0:0:0:
256,192,108250,1,0,0:0:0:0:
256,192,108422,1,0,0:0:0:0:
256,192,108595,1,8,0:0:0:0:
256,192,108940,1,0,0:0:0:0:
256,192,109026,1,0,0:0:0:0:
256,192,109112,1,0,0:0:0:0:
256,192,109285,1,8,0:0:0:0:
256,192,109457,1,0,0:0:0:0:
256,192,109629,1,0,0:0:0:0:
256,192,109716,1,0,0:0:0:0:
256,192,109802,1,0,0:0:0:0:
256,192,109974,1,8,0:0:0:0:
256,192,110147,1,0,0:0:0:0:
256,192,110233,1,0,0:0:0:0:
256,192,111698,1,4,0:0:0:0:
256,192,112043,1,8,0:0:0:0:
256,192,112215,1,0,0:0:0:0:
256,192,112301,1,0,0:0:0:0:
256,192,112560,1,0,0:0:0:0:
256,192,112732,1,8,0:0:0:0:
256,192,112991,1,0,0:0:0:0:
256,192,113163,1,0,0:0:0:0:
256,192,113250,1,0,0:0:0:0:
256,192,113422,1,8,0:0:0:0:
256,192,113594,1,0,0:0:0:0:
256,192,113681,1,0,0:0:0:0:
256,192,113767,1,0,0:0:0:0:
256,192,113853,1,0,0:0:0:0:
256,192,113939,1,0,0:0:0:0:
256,192,114112,1,8,0:0:0:0:
256,192,114456,1,0,0:0:0:0:
256,192,114629,1,8,0:0:0:0:
256,192,114715,1,8,0:0:0:0:
256,192,114801,1,8,0:0:0:0:
256,192,114974,1,0,0:0:0:0:
256,192,115060,1,0,0:0:0:0:
256,192,115232,1,0,0:0:0:0:
256,192,115491,1,8,0:0:0:0:
256,192,115750,1,0,0:0:0:0:
256,192,115922,1,0,0:0:0:0:
256,192,116008,1,0,0:0:0:0:
256,192,116181,1,8,0:0:0:0:
256,192,116353,1,0,0:0:0:0:
256,192,116439,1,0,0:0:0:0:
256,192,116525,1,0,0:0:0:0:
256,192,116612,1,0,0:0:0:0:
256,192,116698,1,0,0:0:0:0:
256,192,116870,1,8,0:0:0:0:
256,192,117215,1,0,0:0:0:0:
256,192,117301,1,0,0:0:0:0:
256,192,117387,1,0,0:0:0:0:
256,192,117560,1,8,0:0:0:0:
256,192,117732,1,0,0:0:0:0:
256,192,117818,1,0,0:0:0:0:
256,192,118077,1,0,0:0:0:0:
256,192,118250,1,8,0:0:0:0:
256,192,118508,1,0,0:0:0:0:
256,192,118681,1,0,0:0:0:0:
256,192,118767,1,0,0:0:0:0:
256,192,118939,1,8,0:0:0:0:
256,192,119112,1,0,0:0:0:0:
256,192,119198,1,0,0:0:0:0:
256,192,119284,1,0,0:0:0:0:
256,192,119370,1,0,0:0:0:0:
256,192,119456,1,0,0:0:0:0:
256,192,119629,1,8,0:0:0:0:
256,192,119974,1,0,0:0:0:0:
256,192,120146,1,8,0:0:0:0:
256,192,120232,1,8,0:0:0:0:
256,192,120318,1,8,0:0:0:0:
256,192,120491,1,0,0:0:0:0:
256,192,120577,1,0,0:0:0:0:
256,192,120750,1,0,0:0:0:0:
256,192,121008,1,8,0:0:0:0:
256,192,121267,1,0,0:0:0:0:
256,192,121439,1,0,0:0:0:0:
256,192,121525,1,0,0:0:0:0:
256,192,121698,1,8,0:0:0:0:
256,192,121870,1,0,0:0:0:0:
256,192,121956,1,0,0:0:0:0:
256,192,122043,1,0,0:0:0:0:
256,192,122129,1,0,0:0:0:0:
256,192,122215,1,0,0:0:0:0:
256,192,122387,1,8,0:0:0:0:
256,192,122732,1,0,0:0:0:0:
256,192,123077,1,8,0:0:0:0:
256,192,123250,1,0,0:0:0:0:
256,192,123336,1,0,0:0:0:0:
256,192,123508,1,0,0:0:0:0:
256,192,123594,1,0,0:0:0:0:
256,192,123767,1,8,0:0:0:0:
256,192,124025,1,0,0:0:0:0:
256,192,124198,1,0,0:0:0:0:
256,192,124284,1,0,0:0:0:0:
256,192,124456,1,8,0:0:0:0:
256,192,124629,1,0,0:0:0:0:
256,192,124715,1,0,0:0:0:0:
256,192,124801,1,0,0:0:0:0:
256,192,124887,1,0,0:0:0:0:
256,192,124974,1,0,0:0:0:0:
256,192,125146,1,8,0:0:0:0:
256,192,125491,1,0,0:0:0:0:
256,192,125663,1,8,0:0:0:0:
256,192,125750,1,8,0:0:0:0:
256,192,125836,1,8,0:0:0:0:
256,192,126008,1,0,0:0:0:0:
256,192,126094,1,0,0:0:0:0:
256,192,126267,1,0,0:0:0:0:
256,192,126525,1,8,0:0:0:0:
256,192,126784,1,0,0:0:0:0:
256,192,126956,1,0,0:0:0:0:
256,192,127043,1,0,0:0:0:0:
256,192,127215,1,8,0:0:0:0:
256,192,127387,1,0,0:0:0:0:
256,192,127474,1,0,0:0:0:0:
256,192,127560,1,0,0:0:0:0:
256,192,127646,1,0,0:0:0:0:
256,192,127732,1,0,0:0:0:0:
256,192,127905,1,8,0:0:0:0:
256,192,128250,1,0,0:0:0:0:
256,192,128336,1,0,0:0:0:0:
256,192,128422,1,0,0:0:0:0:
256,192,128594,1,8,0:0:0:0:
256,192,128767,1,0,0:0:0:0:
256,192,128853,1,0,0:0:0:0:
256,192,129025,1,0,0:0:0:0:
256,192,129112,1,0,0:0:0:0:
256,192,129284,1,8,0:0:0:0:
256,192,129543,1,0,0:0:0:0:
256,192,129715,1,0,0:0:0:0:
256,192,129801,1,0,0:0:0:0:
256,192,129974,1,8,0:0:0:0:
256,192,130146,1,0,0:0:0:0:
256,192,130232,1,0,0:0:0:0:
256,192,130318,1,0,0:0:0:0:
256,192,130405,1,0,0:0:0:0:
256,192,130491,1,0,0:0:0:0:
256,192,130663,1,8,0:0:0:0:
256,192,131008,1,0,0:0:0:0:
256,192,131181,1,8,0:0:0:0:
256,192,131267,1,8,0:0:0:0:
256,192,131353,1,8,0:0:0:0:
256,192,131525,1,0,0:0:0:0:
256,192,131612,1,0,0:0:0:0:
256,192,131784,1,0,0:0:0:0:
256,192,132043,1,8,0:0:0:0:
256,192,132301,1,0,0:0:0:0:
256,192,132474,1,0,0:0:0:0:
256,192,132560,1,0,0:0:0:0:
256,192,132732,1,8,0:0:0:0:
256,192,132905,1,0,0:0:0:0:
256,192,132991,1,0,0:0:0:0:
256,192,133077,1,0,0:0:0:0:
256,192,133767,1,4,0:0:0:0:
256,192,134112,1,8,0:0:0:0:
256,192,134284,1,0,0:0:0:0:
256,192,134370,1,0,0:0:0:0:
256,192,134629,1,0,0:0:0:0:
256,192,134801,1,8,0:0:0:0:
256,192,135060,1,0,0:0:0:0:
256,192,135232,1,0,0:0:0:0:
256,192,135318,1,0,0:0:0:0:
256,192,135491,1,8,0:0:0:0:
256,192,135663,1,0,0:0:0:0:
256,192,135750,1,0,0:0:0:0:
256,192,135836,1,0,0:0:0:0:
256,192,135922,1,0,0:0:0:0:
256,192,136008,1,0,0:0:0:0:
256,192,136181,1,8,0:0:0:0:
256,192,136525,1,0,0:0:0:0:
256,192,136698,1,8,0:0:0:0:
256,192,136784,1,8,0:0:0:0:
256,192,136870,1,8,0:0:0:0:
256,192,137043,1,0,0:0:0:0:
256,192,137129,1,0,0:0:0:0:
256,192,137301,1,0,0:0:0:0:
256,192,137560,1,8,0:0:0:0:
256,192,137818,1,0,0:0:0:0:
256,192,137991,1,0,0:0:0:0:
256,192,138077,1,0,0:0:0:0:
256,192,138250,1,8,0:0:0:0:
256,192,138422,1,0,0:0:0:0:
256,192,138508,1,0,0:0:0:0:
256,192,138594,1,0,0:0:0:0:
256,192,138681,1,0,0:0:0:0:
256,192,138767,1,0,0:0:0:0:
256,192,138939,1,8,0:0:0:0:
256,192,139284,1,0,0:0:0:0:
256,192,139370,1,0,0:0:0:0:
256,192,139456,1,0,0:0:0:0:
256,192,139629,1,8,0:0:0:0:
256,192,139801,1,0,0:0:0:0:
256,192,139887,1,0,0:0:0:0:
256,192,140146,1,0,0:0:0:0:
256,192,140318,1,8,0:0:0:0:
256,192,140577,1,0,0:0:0:0:
256,192,140750,1,0,0:0:0:0:
256,192,140836,1,0,0:0:0:0:
256,192,141008,1,8,0:0:0:0:
256,192,141181,1,0,0:0:0:0:
256,192,141267,1,0,0:0:0:0:
256,192,141353,1,0,0:0:0:0:
256,192,141439,1,0,0:0:0:0:
256,192,141525,1,0,0:0:0:0:
256,192,141698,1,8,0:0:0:0:
256,192,142043,1,0,0:0:0:0:
256,192,142215,1,8,0:0:0:0:
256,192,142301,1,8,0:0:0:0:
256,192,142387,1,8,0:0:0:0:
256,192,142560,1,0,0:0:0:0:
256,192,142646,1,0,0:0:0:0:
256,192,142818,1,0,0:0:0:0:
256,192,143077,1,8,0:0:0:0:
256,192,143336,1,0,0:0:0:0:
256,192,143508,1,0,0:0:0:0:
256,192,143594,1,0,0:0:0:0:
256,192,143767,1,8,0:0:0:0:
256,192,143939,1,0,0:0:0:0:
256,192,144025,1,0,0:0:0:0:
256,192,144112,1,0,0:0:0:0:
256,192,144198,1,0,0:0:0:0:
256,192,144284,1,0,0:0:0:0:
256,192,144456,1,8,0:0:0:0:
256,192,144801,1,0,0:0:0:0:
256,192,145146,1,8,0:0:0:0:
256,192,145318,1,0,0:0:0:0:
256,192,145405,1,0,0:0:0:0:
256,192,145577,1,0,0:0:0:0:
256,192,145663,1,0,0:0:0:0:
256,192,145836,1,8,0:0:0:0:
256,192,146094,1,0,0:0:0:0:
256,192,146267,1,0,0:0:0:0:
256,192,146353,1,0,0:0:0:0:
256,192,146525,1,8,0:0:0:0:
256,192,146698,1,0,0:0:0:0:
256,192,146784,1,0,0:0:0:0:
256,192,146870,1,0,0:0:0:0:
256,192,146956,1,0,0:0:0:0:
256,192,147043,1,0,0:0:0:0:
256,192,147215,1,8,0:0:0:0:
256,192,147560,1,0,0:0:0:0:
256,192,147732,1,8,0:0:0:0:
256,192,147818,1,8,0:0:0:0:
256,192,147905,1,8,0:0:0:0:
256,192,148077,1,0,0:0:0:0:
256,192,148163,1,0,0:0:0:0:
256,192,148336,1,0,0:0:0:0:
256,192,148594,1,8,0:0:0:0:
256,192,148853,1,0,0:0:0:0:
256,192,149025,1,0,0:0:0:0:
256,192,149112,1,0,0:0:0:0:
256,192,149284,1,8,0:0:0:0:
256,192,149456,1,0,0:0:0:0:
256,192,149543,1,0,0:0:0:0:
256,192,149629,1,0,0:0:0:0:
256,192,149715,1,0,0:0:0:0:
256,192,149801,1,0,0:0:0:0:
256,192,149974,1,8,0:0:0:0:
256,192,150318,1,0,0:0:0:0:
256,192,150405,1,0,0:0:0:0:
256,192,150491,1,0,0:0:0:0:
256,192,150663,1,8,0:0:0:0:
256,192,150836,1,0,0:0:0:0:
256,192,150922,1,0,0:0:0:0:
256,192,151094,1,0,0:0:0:0:
256,192,151181,1,0,0:0:0:0:
256,192,151353,1,8,0:0:0:0:
256,192,151612,1,0,0:0:0:0:
256,192,151784,1,0,0:0:0:0:
256,192,151870,1,0,0:0:0:0:
256,192,152043,1,8,0:0:0:0:
256,192,152215,1,0,0:0:0:0:
256,192,152301,1,0,0:0:0:0:
256,192,152387,1,0,0:0:0:0:
256,192,152474,1,0,0:0:0:0:
256,192,152560,1,0,0:0:0:0:
256,192,152732,1,8,0:0:0:0:
256,192,153077,1,0,0:0:0:0:
256,192,153250,1,8,0:0:0:0:
256,192,153336,1,8,0:0:0:0:
256,192,153422,1,8,0:0:0:0:
256,192,153594,1,0,0:0:0:0:
256,192,153681,1,0,0:0:0:0:
256,192,153853,1,0,0:0:0:0:
256,192,154112,1,8,0:0:0:0:
256,192,154370,1,0,0:0:0:0:
256,192,154543,1,0,0:0:0:0:
256,192,154629,1,0,0:0:0:0:
256,192,154801,1,8,0:0:0:0:
256,192,154974,1,0,0:0:0:0:
256,192,155060,1,0,0:0:0:0:
256,192,155146,1,0,0:0:0:0:
256,192,155232,1,0,0:0:0:0:
256,192,155318,1,0,0:0:0:0:
256,192,155491,1,8,0:0:0:0:
256,192,155577,1,8,0:0:0:0:
256,192,155663,1,8,0:0:0:0:
256,192,155836,1,4,0:0:0:0:
256,192,177905,5,0,0:0:0:0:
256,192,178250,2,4,L|256:128,8,35
256,192,179284,1,0,0:0:0:0:
256,192,179629,2,4,L|256:128,8,35
256,192,180663,1,0,0:0:0:0:
256,192,181008,2,4,L|256:128,8,35
256,192,182043,1,0,0:0:0:0:
256,192,182387,2,4,L|256:128,8,35
256,192,183422,1,0,0:0:0:0:
256,192,183767,2,4,L|256:128,8,35
256,192,184801,1,0,0:0:0:0:
256,192,185146,2,4,L|256:128,8,35
256,192,186181,1,0,0:0:0:0:
256,192,186525,2,4,L|256:128,8,35
256,192,187560,1,0,0:0:0:0:
256,192,187905,2,4,L|256:128,8,35
256,192,188939,1,0,0:0:0:0:
256,192,189284,1,8,0:0:0:0:
256,192,189974,1,8,0:0:0:0:
256,192,190146,1,0,0:0:0:0:
256,192,190318,1,0,0:0:0:0:
256,192,190663,1,8,0:0:0:0:
256,192,190836,1,0,0:0:0:0:
256,192,190922,1,0,0:0:0:0:
256,192,191353,1,8,0:0:0:0:
256,192,191525,1,0,0:0:0:0:
256,192,191698,1,0,0:0:0:0:
256,192,192043,1,8,0:0:0:0:
256,192,192215,1,0,0:0:0:0:
256,192,192301,1,0,0:0:0:0:
256,192,192387,1,0,0:0:0:0:
256,192,192732,1,8,0:0:0:0:
256,192,192905,1,0,0:0:0:0:
256,192,193077,1,0,0:0:0:0:
256,192,193422,1,8,0:0:0:0:
256,192,193594,1,0,0:0:0:0:
256,192,193681,1,0,0:0:0:0:
256,192,194112,1,8,0:0:0:0:
256,192,194284,1,0,0:0:0:0:
256,192,194456,1,0,0:0:0:0:
256,192,194801,1,8,0:0:0:0:
256,192,195491,1,8,0:0:0:0:
256,192,195663,1,0,0:0:0:0:
256,192,195836,1,0,0:0:0:0:
256,192,196008,1,0,0:0:0:0:
256,192,196181,1,8,0:0:0:0:
256,192,196525,1,0,0:0:0:0:
256,192,196698,1,0,0:0:0:0:
256,192,196870,1,8,0:0:0:0:
256,192,197215,1,0,0:0:0:0:
256,192,197301,1,0,0:0:0:0:
256,192,197387,1,0,0:0:0:0:
256,192,197560,1,8,0:0:0:0:
256,192,197732,1,0,0:0:0:0:
256,192,197905,1,0,0:0:0:0:
256,192,197991,1,0,0:0:0:0:
256,192,198077,1,0,0:0:0:0:
256,192,198250,1,8,0:0:0:0:
256,192,198422,1,0,0:0:0:0:
256,192,198508,1,0,0:0:0:0:
256,192,199974,1,4,0:0:0:0:
256,192,200318,1,8,0:0:0:0:
256,192,200491,1,8,0:0:0:0:
256,192,200577,1,8,0:0:0:0:
256,192,200663,1,8,0:0:0:0:
256,192,200836,1,0,0:0:0:0:
256,192,201008,1,8,0:0:0:0:
256,192,201181,1,8,0:0:0:0:
256,192,201267,1,8,0:0:0:0:
256,192,201353,1,8,0:0:0:0:
256,192,201525,1,0,0:0:0:0:
256,192,201698,1,8,0:0:0:0:
256,192,201870,1,0,0:0:0:0:
256,192,201956,1,0,0:0:0:0:
256,192,202043,1,0,0:0:0:0:
256,192,202129,1,0,0:0:0:0:
256,192,202215,1,0,0:0:0:0:
256,192,202387,1,8,0:0:0:0:
256,192,202732,1,0,0:0:0:0:
256,192,203077,1,8,0:0:0:0:
256,192,203336,1,0,0:0:0:0:
256,192,203508,1,0,0:0:0:0:
256,192,203767,1,8,0:0:0:0:
256,192,204025,1,0,0:0:0:0:
256,192,204112,1,0,0:0:0:0:
256,192,204456,1,8,0:0:0:0:
256,192,204715,1,0,0:0:0:0:
256,192,204887,1,0,0:0:0:0:
256,192,205146,1,8,0:0:0:0:
256,192,205491,1,0,0:0:0:0:
256,192,205836,1,8,0:0:0:0:
256,192,206008,1,8,0:0:0:0:
256,192,206094,1,8,0:0:0:0:
256,192,206181,1,8,0:0:0:0:
256,192,206353,1,0,0:0:0:0:
256,192,206525,1,8,0:0:0:0:
256,192,206698,1,8,0:0:0:0:
256,192,206784,1,8,0:0:0:0:
256,192,206870,1,8,0:0:0:0:
256,192,207043,1,0,0:0:0:0:
256,192,207215,1,8,0:0:0:0:
256,192,207387,1,0,0:0:0:0:
256,192,207474,1,0,0:0:0:0:
256,192,207560,1,0,0:0:0:0:
256,192,207646,1,0,0:0:0:0:
256,192,207732,1,0,0:0:0:0:
256,192,207905,1,8,0:0:0:0:
256,192,208250,1,0,0:0:0:0:
256,192,208594,1,8,0:0:0:0:
256,192,208853,1,0,0:0:0:0:
256,192,209025,1,0,0:0:0:0:
256,192,209284,1,8,0:0:0:0:
256,192,209629,1,0,0:0:0:0:
256,192,209974,1,8,0:0:0:0:
256,192,210663,1,8,0:0:0:0:
256,192,211008,1,4,0:0:0:0:
256,192,211353,1,8,0:0:0:0:
256,192,211525,1,8,0:0:0:0:
256,192,211612,1,8,0:0:0:0:
256,192,211698,1,8,0:0:0:0:
256,192,211870,1,0,0:0:0:0:
256,192,212043,1,8,0:0:0:0:
256,192,212215,1,8,0:0:0:0:
256,192,212301,1,8,0:0:0:0:
256,192,212387,1,8,0:0:0:0:
256,192,212560,1,0,0:0:0:0:
256,192,212732,1,8,0:0:0:0:
256,192,212905,1,0,0:0:0:0:
256,192,212991,1,0,0:0:0:0:
256,192,213077,1,0,0:0:0:0:
256,192,213163,1,0,0:0:0:0:
256,192,213250,1,0,0:0:0:0:
256,192,213422,1,8,0:0:0:0:
256,192,213767,1,0,0:0:0:0:
256,192,213939,1,8,0:0:0:0:
256,192,214112,1,8,0:0:0:0:
256,192,214198,1,8,0:0:0:0:
256,192,214284,1,8,0:0:0:0:
256,192,214370,1,8,0:0:0:0:
256,192,214456,1,8,0:0:0:0:
256,192,214629,1,0,0:0:0:0:
256,192,214801,1,8,0:0:0:0:
256,192,215146,1,0,0:0:0:0:
256,192,215491,1,8,0:0:0:0:
256,192,215750,1,0,0:0:0:0:
256,192,215922,1,0,0:0:0:0:
256,192,216181,1,8,0:0:0:0:
256,192,216525,1,0,0:0:0:0:
256,192,216870,1,8,0:0:0:0:
256,192,217043,1,8,0:0:0:0:
256,192,217129,1,8,0:0:0:0:
256,192,217215,1,8,0:0:0:0:
256,192,217387,1,0,0:0:0:0:
256,192,217560,1,8,0:0:0:0:
256,192,217732,1,8,0:0:0:0:
256,192,217818,1,8,0:0:0:0:
256,192,217905,1,8,0:0:0:0:
256,192,218077,1,0,0:0:0:0:
256,192,218250,1,8,0:0:0:0:
256,192,218422,1,0,0:0:0:0:
256,192,218508,1,0,0:0:0:0:
256,192,218594,1,0,0:0:0:0:
256,192,218681,1,0,0:0:0:0:
256,192,218767,1,0,0:0:0:0:
256,192,218939,1,8,0:0:0:0:
256,192,219284,1,0,0:0:0:0:
256,192,219629,1,8,0:0:0:0:
256,192,219887,1,0,0:0:0:0:
256,192,220060,1,0,0:0:0:0:
256,192,220318,1,8,0:0:0:0:
256,192,220577,1,0,0:0:0:0:
256,192,220750,1,0,0:0:0:0:
256,192,221008,1,8,0:0:0:0:
256,192,221267,1,0,0:0:0:0:
256,192,221439,1,0,0:0:0:0:
256,192,221698,1,8,0:0:0:0:
