osu file format v14

[General]
AudioFilename: audio130.mp3
AudioLeadIn: 0
PreviewTime: -1
Countdown: 0
SampleSet: Soft
StackLeniency: 0.7
Mode: 3
LetterboxInBreaks: 0
SpecialStyle: 0
WidescreenStoryboard: 0

[Editor]
DistanceSpacing: 1.3
BeatDivisor: 3
GridSize: 8
TimelineZoom: 2.699999

[Metadata]
Title:Protoflicker
TitleUnicode:Protoflicker
Artist:Silentroom
ArtistUnicode:Silentroom
Creator:kasumi99
Version:Mystic [1.3x Rate]
Source:Lanota
Tags:featured artist fa Video game Instrumental Rainbow Frontier Chapter IV 4 progressive trance noxy games
BeatmapID:2146054
BeatmapSetID:1026167

[Difficulty]
HPDrainRate:6
CircleSize:7
OverallDifficulty:6
ApproachRate:5
SliderMultiplier:1.4
SliderTickRate:1

[Events]
//Background and Video events
0,0,"Lanota - Protoflicker.jpg",0,0
//Break Periods
//Storyboard Layer 0 (Background)
//Storyboard Layer 1 (Fail)
//Storyboard Layer 2 (Pass)
//Storyboard Layer 3 (Foreground)
//Storyboard Layer 4 (Overlay)
//Storyboard Sound Samples

[TimingPoints]
1761,329.67032967033,4,2,0,40,1,0

[HitObjects]
36,192,1761,5,0,0:0:0:0:
329,192,1761,1,0,0:0:0:0:
402,192,1761,1,0,0:0:0:0:
109,192,1870,1,0,0:0:0:0:
182,192,1980,1,0,0:0:0:0:
256,192,2090,1,0,0:0:0:0:
36,192,2090,1,0,0:0:0:0:
475,192,2090,1,0,0:0:0:0:
402,192,2200,1,0,0:0:0:0:
329,192,2310,1,0,0:0:0:0:
36,192,2420,1,0,0:0:0:0:
475,192,2420,1,0,0:0:0:0:
182,192,2420,1,0,0:0:0:0:
256,192,2420,1,0,0:0:0:0:
109,192,2530,1,0,0:0:0:0:
182,192,2639,1,0,0:0:0:0:
256,192,2749,1,0,0:0:0:0:
36,192,2749,1,0,0:0:0:0:
475,192,2749,1,0,0:0:0:0:
402,192,2859,1,0,0:0:0:0:
182,192,2859,1,0,0:0:0:0:
329,192,2969,1,0,0:0:0:0:
109,192,2969,1,0,0:0:0:0:
256,192,3079,1,0,0:0:0:0:
36,192,3079,1,0,0:0:0:0:
402,192,3079,1,0,0:0:0:0:
475,192,3079,1,0,0:0:0:0:
182,192,3189,1,0,0:0:0:0:
36,192,3299,1,0,0:0:0:0:
329,192,3299,1,0,0:0:0:0:
109,192,3408,1,0,0:0:0:0:
182,192,3408,1,0,0:0:0:0:
475,192,3408,1,0,0:0:0:0:
329,192,3518,1,0,0:0:0:0:
475,192,3628,1,0,0:0:0:0:
182,192,3628,1,0,0:0:0:0:
402,192,3738,1,0,0:0:0:0:
329,192,3738,1,0,0:0:0:0:
36,192,3738,1,0,0:0:0:0:
109,192,3848,1,0,0:0:0:0:
182,192,3958,1,0,0:0:0:0:
256,192,3958,1,0,0:0:0:0:
109,192,4068,1,0,0:0:0:0:
36,192,4068,1,0,0:0:0:0:
475,192,4068,1,0,0:0:0:0:
329,192,4178,1,0,0:0:0:0:
182,192,4178,1,0,0:0:0:0:
402,192,4288,1,0,0:0:0:0:
109,192,4288,1,0,0:0:0:0:
329,192,4398,1,0,0:0:0:0:
475,192,4398,1,0,0:0:0:0:
36,192,4398,1,0,0:0:0:0:
109,192,4508,1,0,0:0:0:0:
182,192,4618,1,0,0:0:0:0:
256,192,4728,1,0,0:0:0:0:
402,192,4728,1,0,0:0:0:0:
36,192,4728,1,0,0:0:0:0:
182,192,4838,1,0,0:0:0:0:
109,192,4947,1,0,0:0:0:0:
36,192,5057,1,0,0:0:0:0:
329,192,5057,1,0,0:0:0:0:
475,192,5057,1,0,0:0:0:0:
402,192,5167,1,0,0:0:0:0:
329,192,5277,1,0,0:0:0:0:
182,192,5387,1,0,0:0:0:0:
402,192,5387,1,0,0:0:0:0:
36,192,5387,1,0,0:0:0:0:
256,192,5387,1,0,0:0:0:0:
109,192,5497,1,0,0:0:0:0:
329,192,5497,1,0,0:0:0:0:
182,192,5607,1,0,0:0:0:0:
402,192,5607,1,0,0:0:0:0:
256,192,5716,1,0,0:0:0:0:
475,192,5716,1,0,0:0:0:0:
36,192,5716,1,0,0:0:0:0:
329,192,5826,1,0,0:0:0:0:
402,192,5826,1,0,0:0:0:0:
182,192,5936,1,0,0:0:0:0:
109,192,5936,1,0,0:0:0:0:
36,192,6046,1,0,0:0:0:0:
256,192,6046,1,0,0:0:0:0:
475,192,6046,1,0,0:0:0:0:
182,192,6156,1,0,0:0:0:0:
109,192,6156,1,0,0:0:0:0:
329,192,6266,1,0,0:0:0:0:
402,192,6266,1,0,0:0:0:0:
256,192,6376,1,0,0:0:0:0:
36,192,6376,1,0,0:0:0:0:
475,192,6376,1,0,0:0:0:0:
329,192,6485,1,0,0:0:0:0:
402,192,6485,1,0,0:0:0:0:
182,192,6595,1,0,0:0:0:0:
109,192,6595,1,0,0:0:0:0:
36,192,6705,1,0,0:0:0:0:
256,192,6705,1,0,0:0:0:0:
475,192,6705,1,0,0:0:0:0:
182,192,6815,1,0,0:0:0:0:
109,192,6815,1,0,0:0:0:0:
256,192,6925,1,0,0:0:0:0:
36,192,7035,1,0,0:0:0:0:
182,192,7035,1,0,0:0:0:0:
329,192,7035,1,0,0:0:0:0:
475,192,7035,1,0,0:0:0:0:
109,192,7145,1,0,0:0:0:0:
402,192,7255,1,0,0:0:0:0:
182,192,7255,1,0,0:0:0:0:
256,192,7365,1,0,0:0:0:0:
36,192,7365,1,0,0:0:0:0:
329,192,7365,1,0,0:0:0:0:
402,192,7475,1,0,0:0:0:0:
329,192,7585,1,0,0:0:0:0:
109,192,7585,1,0,0:0:0:0:
256,192,7695,1,0,0:0:0:0:
182,192,7695,1,0,0:0:0:0:
36,192,7695,1,0,0:0:0:0:
475,192,7695,1,0,0:0:0:0:
109,192,7805,1,0,0:0:0:0:
182,192,7915,1,0,0:0:0:0:
329,192,7915,1,0,0:0:0:0:
109,192,8024,1,0,0:0:0:0:
402,192,8024,1,0,0:0:0:0:
475,192,8024,1,0,0:0:0:0:
256,192,8024,1,0,0:0:0:0:
329,192,8134,1,0,0:0:0:0:
182,192,8244,1,0,0:0:0:0:
402,192,8244,1,0,0:0:0:0:
36,192,8354,1,0,0:0:0:0:
256,192,8354,1,0,0:0:0:0:
475,192,8354,1,0,0:0:0:0:
182,192,8464,1,0,0:0:0:0:
109,192,8574,1,0,0:0:0:0:
329,192,8574,1,0,0:0:0:0:
36,192,8684,1,0,0:0:0:0:
256,192,8684,1,0,0:0:0:0:
402,192,8684,1,0,0:0:0:0:
329,192,8793,1,0,0:0:0:0:
402,192,8903,1,0,0:0:0:0:
109,192,8903,1,0,0:0:0:0:
475,192,9013,1,0,0:0:0:0:
256,192,9013,1,0,0:0:0:0:
36,192,9013,1,0,0:0:0:0:
182,192,9123,1,0,0:0:0:0:
109,192,9178,1,0,0:0:0:0:
36,192,9233,1,0,0:0:0:0:
329,192,9233,1,0,0:0:0:0:
109,192,9343,1,0,0:0:0:0:
256,192,9343,1,0,0:0:0:0:
475,192,9343,1,0,0:0:0:0:
402,192,9343,1,0,0:0:0:0:
329,192,9453,1,0,0:0:0:0:
402,192,9562,1,0,0:0:0:0:
182,192,9562,1,0,0:0:0:0:
256,192,9672,1,0,0:0:0:0:
475,192,9672,1,0,0:0:0:0:
36,192,9672,1,0,0:0:0:0:
182,192,9782,1,0,0:0:0:0:
109,192,9782,1,0,0:0:0:0:
329,192,9782,1,0,0:0:0:0:
256,192,9892,1,0,0:0:0:0:
36,192,9892,1,0,0:0:0:0:
402,192,9892,1,0,0:0:0:0:
182,192,10002,1,0,0:0:0:0:
109,192,10112,1,0,0:0:0:0:
182,192,10222,1,0,0:0:0:0:
256,192,10332,1,0,0:0:0:0:
36,192,10332,1,0,0:0:0:0:
475,192,10332,1,0,0:0:0:0:
329,192,10442,1,0,0:0:0:0:
402,192,10442,1,0,0:0:0:0:
182,192,10442,1,0,0:0:0:0:
256,192,10552,1,0,0:0:0:0:
475,192,10552,1,0,0:0:0:0:
109,192,10552,1,0,0:0:0:0:
329,192,10662,1,0,0:0:0:0:
402,192,10772,1,0,0:0:0:0:
329,192,10882,1,0,0:0:0:0:
36,192,10992,1,0,0:0:0:0:
256,192,10992,1,0,0:0:0:0:
475,192,10992,1,0,0:0:0:0:
402,192,11101,1,0,0:0:0:0:
329,192,11211,1,0,0:0:0:0:
182,192,11211,1,0,0:0:0:0:
256,192,11321,1,0,0:0:0:0:
475,192,11321,1,0,0:0:0:0:
36,192,11321,1,0,0:0:0:0:
109,192,11431,1,0,0:0:0:0:
182,192,11541,1,0,0:0:0:0:
329,192,11541,1,0,0:0:0:0:
256,192,11651,1,0,0:0:0:0:
475,192,11651,1,0,0:0:0:0:
36,192,11651,1,0,0:0:0:0:
402,192,11761,1,0,0:0:0:0:
329,192,11870,1,0,0:0:0:0:
256,192,11980,1,0,0:0:0:0:
475,192,11980,128,0,12310:0:0:0:0:
109,192,11980,1,0,0:0:0:0:
402,192,11980,1,0,0:0:0:0:
36,192,11980,128,0,12310:0:0:0:0:
109,192,12310,1,0,0:0:0:0:
402,192,12310,1,0,0:0:0:0:
256,192,12310,1,0,0:0:0:0:
182,192,12420,1,0,0:0:0:0:
329,192,12420,1,0,0:0:0:0:
109,192,12530,1,0,0:0:0:0:
36,192,12530,1,0,0:0:0:0:
256,192,12639,1,0,0:0:0:0:
475,192,12639,1,0,0:0:0:0:
182,192,12695,1,0,0:0:0:0:
109,192,12749,1,0,0:0:0:0:
36,192,12805,1,0,0:0:0:0:
329,192,12859,1,0,0:0:0:0:
402,192,12915,1,0,0:0:0:0:
109,192,12969,1,0,0:0:0:0:
256,192,12969,1,0,0:0:0:0:
182,192,12969,1,0,0:0:0:0:
475,192,12969,1,0,0:0:0:0:
36,192,13079,1,0,0:0:0:0:
182,192,13189,1,0,0:0:0:0:
109,192,13299,1,0,0:0:0:0:
256,192,13299,1,0,0:0:0:0:
402,192,13299,1,0,0:0:0:0:
329,192,13408,1,0,0:0:0:0:
402,192,13518,1,0,0:0:0:0:
182,192,13518,1,0,0:0:0:0:
256,192,13628,1,0,0:0:0:0:
109,192,13628,1,0,0:0:0:0:
329,192,13628,1,0,0:0:0:0:
402,192,13738,1,0,0:0:0:0:
475,192,13848,1,0,0:0:0:0:
182,192,13848,1,0,0:0:0:0:
109,192,13958,1,0,0:0:0:0:
36,192,13958,1,0,0:0:0:0:
256,192,13958,1,0,0:0:0:0:
329,192,13958,1,0,0:0:0:0:
182,192,14068,1,0,0:0:0:0:
109,192,14178,1,0,0:0:0:0:
402,192,14178,1,0,0:0:0:0:
36,192,14288,1,0,0:0:0:0:
256,192,14288,1,0,0:0:0:0:
475,192,14288,1,0,0:0:0:0:
182,192,14398,1,0,0:0:0:0:
329,192,14398,1,0,0:0:0:0:
109,192,14508,1,0,0:0:0:0:
402,192,14508,1,0,0:0:0:0:
256,192,14618,1,0,0:0:0:0:
36,192,14618,1,0,0:0:0:0:
475,192,14618,1,0,0:0:0:0:
329,192,14728,1,0,0:0:0:0:
402,192,14838,1,0,0:0:0:0:
109,192,14838,1,0,0:0:0:0:
329,192,14947,1,0,0:0:0:0:
36,192,14947,1,0,0:0:0:0:
182,192,14947,1,0,0:0:0:0:
256,192,14947,1,0,0:0:0:0:
109,192,15057,1,0,0:0:0:0:
182,192,15167,1,0,0:0:0:0:
475,192,15167,1,0,0:0:0:0:
256,192,15277,1,0,0:0:0:0:
402,192,15277,1,0,0:0:0:0:
182,192,15332,1,0,0:0:0:0:
109,192,15387,1,0,0:0:0:0:
36,192,15442,1,0,0:0:0:0:
475,192,15497,1,0,0:0:0:0:
402,192,15552,1,0,0:0:0:0:
256,192,15607,1,0,0:0:0:0:
329,192,15607,1,0,0:0:0:0:
109,192,15607,1,0,0:0:0:0:
36,192,15716,1,0,0:0:0:0:
182,192,15826,1,0,0:0:0:0:
402,192,15826,1,0,0:0:0:0:
109,192,15936,1,0,0:0:0:0:
256,192,15936,1,0,0:0:0:0:
475,192,15936,1,0,0:0:0:0:
329,192,16046,1,0,0:0:0:0:
402,192,16046,1,0,0:0:0:0:
182,192,16046,1,0,0:0:0:0:
256,192,16156,1,0,0:0:0:0:
109,192,16156,1,0,0:0:0:0:
182,192,16266,1,0,0:0:0:0:
36,192,16266,1,0,0:0:0:0:
475,192,16266,1,0,0:0:0:0:
402,192,16266,1,0,0:0:0:0:
329,192,16376,1,0,0:0:0:0:
402,192,16485,1,0,0:0:0:0:
109,192,16485,1,0,0:0:0:0:
182,192,16595,1,0,0:0:0:0:
256,192,16595,1,0,0:0:0:0:
36,192,16595,1,0,0:0:0:0:
475,192,16595,1,0,0:0:0:0:
109,192,16705,1,0,0:0:0:0:
182,192,16815,1,0,0:0:0:0:
329,192,16815,1,0,0:0:0:0:
256,192,16925,1,0,0:0:0:0:
109,192,16925,1,0,0:0:0:0:
402,192,16925,1,0,0:0:0:0:
329,192,17035,1,0,0:0:0:0:
402,192,17145,1,0,0:0:0:0:
182,192,17145,1,0,0:0:0:0:
109,192,17200,1,0,0:0:0:0:
36,192,17255,1,0,0:0:0:0:
256,192,17255,1,0,0:0:0:0:
329,192,17310,1,0,0:0:0:0:
402,192,17365,1,0,0:0:0:0:
475,192,17420,1,0,0:0:0:0:
36,192,17475,1,0,0:0:0:0:
109,192,17530,1,0,0:0:0:0:
182,192,17585,1,0,0:0:0:0:
256,192,17585,1,0,0:0:0:0:
402,192,17585,1,0,0:0:0:0:
109,192,17695,1,0,0:0:0:0:
36,192,17805,1,0,0:0:0:0:
402,192,17805,1,0,0:0:0:0:
256,192,17915,1,0,0:0:0:0:
109,192,17915,1,0,0:0:0:0:
329,192,17915,1,0,0:0:0:0:
402,192,17969,1,0,0:0:0:0:
475,192,18024,1,0,0:0:0:0:
182,192,18079,1,0,0:0:0:0:
109,192,18134,1,0,0:0:0:0:
36,192,18189,1,0,0:0:0:0:
256,192,18244,1,0,0:0:0:0:
329,192,18244,1,0,0:0:0:0:
182,192,18244,1,0,0:0:0:0:
402,192,18354,1,0,0:0:0:0:
329,192,18464,1,0,0:0:0:0:
36,192,18464,1,0,0:0:0:0:
475,192,18574,1,0,0:0:0:0:
256,192,18574,1,0,0:0:0:0:
109,192,18574,1,0,0:0:0:0:
182,192,18684,1,0,0:0:0:0:
109,192,18793,1,0,0:0:0:0:
402,192,18793,1,0,0:0:0:0:
475,192,18793,1,0,0:0:0:0:
256,192,18903,1,0,0:0:0:0:
36,192,18903,1,0,0:0:0:0:
329,192,18903,1,0,0:0:0:0:
402,192,19013,1,0,0:0:0:0:
475,192,19123,1,0,0:0:0:0:
182,192,19123,1,0,0:0:0:0:
329,192,19233,1,0,0:0:0:0:
256,192,19233,1,0,0:0:0:0:
109,192,19233,1,0,0:0:0:0:
182,192,19343,1,0,0:0:0:0:
36,192,19453,1,0,0:0:0:0:
329,192,19453,1,0,0:0:0:0:
109,192,19562,1,0,0:0:0:0:
256,192,19562,1,0,0:0:0:0:
402,192,19562,1,0,0:0:0:0:
329,192,19672,1,0,0:0:0:0:
475,192,19782,1,0,0:0:0:0:
182,192,19782,1,0,0:0:0:0:
109,192,19782,1,0,0:0:0:0:
402,192,19892,1,0,0:0:0:0:
256,192,19892,1,0,0:0:0:0:
36,192,19892,1,0,0:0:0:0:
182,192,20002,1,0,0:0:0:0:
109,192,20112,1,0,0:0:0:0:
329,192,20112,1,0,0:0:0:0:
36,192,20222,1,0,0:0:0:0:
256,192,20222,1,0,0:0:0:0:
402,192,20222,1,0,0:0:0:0:
475,192,20332,1,0,0:0:0:0:
402,192,20442,1,0,0:0:0:0:
182,192,20442,1,0,0:0:0:0:
329,192,20552,1,0,0:0:0:0:
109,192,20552,1,0,0:0:0:0:
256,192,20552,1,0,0:0:0:0:
402,192,20607,1,0,0:0:0:0:
475,192,20662,1,0,0:0:0:0:
36,192,20716,1,0,0:0:0:0:
109,192,20772,1,0,0:0:0:0:
182,192,20826,1,0,0:0:0:0:
256,192,20882,1,0,0:0:0:0:
475,192,20882,1,0,0:0:0:0:
329,192,20882,1,0,0:0:0:0:
109,192,20992,1,0,0:0:0:0:
182,192,21101,1,0,0:0:0:0:
402,192,21101,1,0,0:0:0:0:
36,192,21211,1,0,0:0:0:0:
256,192,21211,1,0,0:0:0:0:
475,192,21211,1,0,0:0:0:0:
329,192,21321,1,0,0:0:0:0:
182,192,21321,1,0,0:0:0:0:
109,192,21321,1,0,0:0:0:0:
256,192,21431,1,0,0:0:0:0:
402,192,21431,1,0,0:0:0:0:
329,192,21541,1,0,0:0:0:0:
475,192,21541,1,0,0:0:0:0:
36,192,21541,1,0,0:0:0:0:
182,192,21651,1,0,0:0:0:0:
109,192,21761,1,0,0:0:0:0:
329,192,21761,1,0,0:0:0:0:
256,192,21870,1,0,0:0:0:0:
36,192,21870,1,0,0:0:0:0:
402,192,21870,1,0,0:0:0:0:
329,192,21980,1,0,0:0:0:0:
402,192,22090,1,0,0:0:0:0:
182,192,22090,1,0,0:0:0:0:
475,192,22200,1,0,0:0:0:0:
256,192,22200,1,0,0:0:0:0:
109,192,22200,1,0,0:0:0:0:
182,192,22310,1,0,0:0:0:0:
36,192,22420,1,0,0:0:0:0:
109,192,22475,1,0,0:0:0:0:
182,192,22530,1,0,0:0:0:0:
256,192,22530,1,0,0:0:0:0:
475,192,22530,1,0,0:0:0:0:
402,192,22585,1,0,0:0:0:0:
329,192,22639,1,0,0:0:0:0:
36,192,22695,1,0,0:0:0:0:
109,192,22749,1,0,0:0:0:0:
182,192,22805,1,0,0:0:0:0:
256,192,22859,1,0,0:0:0:0:
475,192,22859,1,0,0:0:0:0:
402,192,22859,1,0,0:0:0:0:
182,192,22969,1,0,0:0:0:0:
329,192,22969,1,0,0:0:0:0:
109,192,23079,1,0,0:0:0:0:
256,192,23079,1,0,0:0:0:0:
36,192,23189,1,0,0:0:0:0:
475,192,23189,1,0,0:0:0:0:
402,192,23244,1,0,0:0:0:0:
182,192,23299,1,0,0:0:0:0:
329,192,23299,1,0,0:0:0:0:
475,192,23354,1,0,0:0:0:0:
109,192,23408,1,0,0:0:0:0:
402,192,23408,1,0,0:0:0:0:
329,192,23464,1,0,0:0:0:0:
36,192,23518,1,0,0:0:0:0:
256,192,23518,1,0,0:0:0:0:
329,192,23628,1,0,0:0:0:0:
402,192,23738,1,0,0:0:0:0:
475,192,23848,1,0,0:0:0:0:
256,192,23848,1,0,0:0:0:0:
109,192,23848,1,0,0:0:0:0:
329,192,23958,1,0,0:0:0:0:
402,192,24068,1,0,0:0:0:0:
109,192,24068,1,0,0:0:0:0:
475,192,24178,1,0,0:0:0:0:
36,192,24178,1,0,0:0:0:0:
182,192,24178,1,0,0:0:0:0:
256,192,24178,1,0,0:0:0:0:
329,192,24288,1,0,0:0:0:0:
402,192,24398,1,0,0:0:0:0:
109,192,24398,1,0,0:0:0:0:
329,192,24508,1,0,0:0:0:0:
475,192,24508,1,0,0:0:0:0:
256,192,24508,1,0,0:0:0:0:
182,192,24618,1,0,0:0:0:0:
109,192,24728,1,0,0:0:0:0:
329,192,24728,1,0,0:0:0:0:
36,192,24838,1,0,0:0:0:0:
256,192,24838,1,0,0:0:0:0:
402,192,24838,1,0,0:0:0:0:
329,192,24947,1,0,0:0:0:0:
402,192,25057,1,0,0:0:0:0:
109,192,25057,1,0,0:0:0:0:
475,192,25167,1,0,0:0:0:0:
182,192,25167,1,0,0:0:0:0:
256,192,25167,1,0,0:0:0:0:
109,192,25277,1,0,0:0:0:0:
36,192,25387,1,0,0:0:0:0:
329,192,25387,1,0,0:0:0:0:
256,192,25497,1,0,0:0:0:0:
109,192,25497,1,0,0:0:0:0:
182,192,25607,1,0,0:0:0:0:
109,192,25716,1,0,0:0:0:0:
329,192,25716,1,0,0:0:0:0:
182,192,25826,1,0,0:0:0:0:
402,192,25826,1,0,0:0:0:0:
256,192,25826,1,0,0:0:0:0:
109,192,25882,1,0,0:0:0:0:
36,192,25936,1,0,0:0:0:0:
475,192,25992,1,0,0:0:0:0:
402,192,26046,1,0,0:0:0:0:
329,192,26101,1,0,0:0:0:0:
256,192,26156,1,0,0:0:0:0:
109,192,26156,1,0,0:0:0:0:
36,192,26266,1,0,0:0:0:0:
182,192,26376,1,0,0:0:0:0:
329,192,26376,1,0,0:0:0:0:
109,192,26485,1,0,0:0:0:0:
256,192,26485,1,0,0:0:0:0:
402,192,26485,1,0,0:0:0:0:
475,192,26595,1,0,0:0:0:0:
36,192,26595,1,0,0:0:0:0:
182,192,26595,1,0,0:0:0:0:
329,192,26705,1,0,0:0:0:0:
109,192,26705,1,0,0:0:0:0:
256,192,26705,1,0,0:0:0:0:
402,192,26815,1,0,0:0:0:0:
182,192,26815,1,0,0:0:0:0:
36,192,26815,1,0,0:0:0:0:
329,192,26925,1,0,0:0:0:0:
475,192,26925,1,0,0:0:0:0:
256,192,27035,1,0,0:0:0:0:
402,192,27035,1,0,0:0:0:0:
329,192,27145,1,0,0:0:0:0:
182,192,27145,1,0,0:0:0:0:
36,192,27145,1,0,0:0:0:0:
109,192,27255,1,0,0:0:0:0:
256,192,27255,1,0,0:0:0:0:
182,192,27365,1,0,0:0:0:0:
36,192,27365,1,0,0:0:0:0:
109,192,27475,1,0,0:0:0:0:
256,192,27475,1,0,0:0:0:0:
402,192,27475,1,0,0:0:0:0:
329,192,27585,1,0,0:0:0:0:
475,192,27585,1,0,0:0:0:0:
182,192,27695,1,0,0:0:0:0:
109,192,27749,1,0,0:0:0:0:
36,192,27805,1,0,0:0:0:0:
256,192,27805,1,0,0:0:0:0:
329,192,27859,1,0,0:0:0:0:
402,192,27915,1,0,0:0:0:0:
475,192,27969,1,0,0:0:0:0:
109,192,28024,1,0,0:0:0:0:
182,192,28079,1,0,0:0:0:0:
256,192,28134,1,0,0:0:0:0:
36,192,28134,1,0,0:0:0:0:
402,192,28134,1,0,0:0:0:0:
182,192,28244,1,0,0:0:0:0:
329,192,28244,1,0,0:0:0:0:
256,192,28354,1,0,0:0:0:0:
109,192,28354,1,0,0:0:0:0:
182,192,28464,1,0,0:0:0:0:
36,192,28464,1,0,0:0:0:0:
475,192,28464,1,0,0:0:0:0:
402,192,28518,1,0,0:0:0:0:
329,192,28574,1,0,0:0:0:0:
36,192,28628,1,0,0:0:0:0:
109,192,28684,1,0,0:0:0:0:
182,192,28738,1,0,0:0:0:0:
256,192,28793,1,0,0:0:0:0:
402,192,28793,1,0,0:0:0:0:
329,192,28903,1,0,0:0:0:0:
182,192,28903,1,0,0:0:0:0:
256,192,29013,1,0,0:0:0:0:
402,192,29013,1,0,0:0:0:0:
329,192,29123,1,0,0:0:0:0:
182,192,29123,1,0,0:0:0:0:
36,192,29123,1,0,0:0:0:0:
109,192,29233,1,0,0:0:0:0:
256,192,29233,1,0,0:0:0:0:
182,192,29343,1,0,0:0:0:0:
329,192,29343,1,0,0:0:0:0:
256,192,29453,1,0,0:0:0:0:
109,192,29453,1,0,0:0:0:0:
475,192,29453,1,0,0:0:0:0:
182,192,29562,1,0,0:0:0:0:
36,192,29562,1,0,0:0:0:0:
109,192,29672,1,0,0:0:0:0:
256,192,29672,1,0,0:0:0:0:
329,192,29782,1,0,0:0:0:0:
182,192,29782,1,0,0:0:0:0:
36,192,29782,1,0,0:0:0:0:
256,192,29892,1,0,0:0:0:0:
402,192,29892,1,0,0:0:0:0:
329,192,30002,1,0,0:0:0:0:
475,192,30002,1,0,0:0:0:0:
402,192,30112,1,0,0:0:0:0:
256,192,30112,1,0,0:0:0:0:
36,192,30112,1,0,0:0:0:0:
329,192,30222,1,0,0:0:0:0:
182,192,30222,1,0,0:0:0:0:
402,192,30277,1,0,0:0:0:0:
256,192,30332,1,0,0:0:0:0:
109,192,30332,1,0,0:0:0:0:
182,192,30442,1,0,0:0:0:0:
36,192,30442,1,0,0:0:0:0:
475,192,30442,1,0,0:0:0:0:
402,192,30552,1,0,0:0:0:0:
256,192,30552,1,0,0:0:0:0:
329,192,30662,1,0,0:0:0:0:
182,192,30662,1,0,0:0:0:0:
256,192,30772,1,0,0:0:0:0:
109,192,30772,1,0,0:0:0:0:
36,192,30772,1,0,0:0:0:0:
475,192,30772,1,0,0:0:0:0:
182,192,30882,1,0,0:0:0:0:
329,192,30882,1,0,0:0:0:0:
402,192,30882,1,0,0:0:0:0:
256,192,30992,1,0,0:0:0:0:
36,192,30992,1,0,0:0:0:0:
109,192,30992,1,0,0:0:0:0:
182,192,31101,1,0,0:0:0:0:
475,192,31101,1,0,0:0:0:0:
329,192,31101,1,0,0:0:0:0:
109,192,31211,1,0,0:0:0:0:
402,192,31211,1,0,0:0:0:0:
182,192,31321,1,0,0:0:0:0:
36,192,31321,1,0,0:0:0:0:
329,192,31321,1,0,0:0:0:0:
109,192,31431,1,0,0:0:0:0:
256,192,31431,1,0,0:0:0:0:
475,192,31431,1,0,0:0:0:0:
182,192,31541,1,0,0:0:0:0:
329,192,31541,1,0,0:0:0:0:
256,192,31651,1,0,0:0:0:0:
402,192,31651,1,0,0:0:0:0:
475,192,31761,1,0,0:0:0:0:
329,192,31761,1,0,0:0:0:0:
182,192,31761,1,0,0:0:0:0:
109,192,31870,1,0,0:0:0:0:
402,192,31870,1,0,0:0:0:0:
182,192,31980,1,0,0:0:0:0:
36,192,31980,1,0,0:0:0:0:
329,192,31980,1,0,0:0:0:0:
109,192,32090,1,0,0:0:0:0:
256,192,32090,1,0,0:0:0:0:
475,192,32090,1,0,0:0:0:0:
182,192,32200,1,0,0:0:0:0:
36,192,32200,1,0,0:0:0:0:
109,192,32310,1,0,0:0:0:0:
256,192,32310,1,0,0:0:0:0:
475,192,32420,1,0,0:0:0:0:
329,192,32420,1,0,0:0:0:0:
182,192,32420,1,0,0:0:0:0:
36,192,32420,1,0,0:0:0:0:
402,192,32530,1,0,0:0:0:0:
109,192,32530,1,0,0:0:0:0:
475,192,32639,1,0,0:0:0:0:
182,192,32639,1,0,0:0:0:0:
36,192,32749,1,0,0:0:0:0:
256,192,32749,1,0,0:0:0:0:
402,192,32749,1,0,0:0:0:0:
329,192,32859,1,0,0:0:0:0:
182,192,32859,1,0,0:0:0:0:
109,192,32969,1,0,0:0:0:0:
256,192,32969,1,0,0:0:0:0:
182,192,33079,1,0,0:0:0:0:
36,192,33079,1,0,0:0:0:0:
475,192,33079,1,0,0:0:0:0:
109,192,33189,1,0,0:0:0:0:
402,192,33189,1,0,0:0:0:0:
36,192,33299,1,0,0:0:0:0:
329,192,33299,1,0,0:0:0:0:
109,192,33408,1,0,0:0:0:0:
402,192,33408,1,0,0:0:0:0:
256,192,33408,1,0,0:0:0:0:
329,192,33518,1,0,0:0:0:0:
36,192,33518,1,0,0:0:0:0:
402,192,33628,1,0,0:0:0:0:
475,192,33738,1,0,0:0:0:0:
36,192,33738,1,0,0:0:0:0:
256,192,33738,1,0,0:0:0:0:
109,192,33848,1,0,0:0:0:0:
329,192,33848,1,0,0:0:0:0:
182,192,33958,1,0,0:0:0:0:
109,192,34068,1,0,0:0:0:0:
329,192,34068,1,0,0:0:0:0:
475,192,34068,1,0,0:0:0:0:
402,192,34178,1,0,0:0:0:0:
36,192,34178,1,0,0:0:0:0:
475,192,34288,1,0,0:0:0:0:
256,192,34398,1,0,0:0:0:0:
36,192,34398,1,0,0:0:0:0:
182,192,34398,1,0,0:0:0:0:
402,192,34398,1,0,0:0:0:0:
109,192,34508,1,0,0:0:0:0:
329,192,34508,1,0,0:0:0:0:
182,192,34618,1,0,0:0:0:0:
109,192,34728,1,0,0:0:0:0:
329,192,34728,1,0,0:0:0:0:
256,192,34728,1,0,0:0:0:0:
402,192,34728,1,0,0:0:0:0:
475,192,34838,1,0,0:0:0:0:
182,192,34838,1,0,0:0:0:0:
402,192,34947,1,0,0:0:0:0:
329,192,35057,1,0,0:0:0:0:
182,192,35057,1,0,0:0:0:0:
36,192,35057,1,0,0:0:0:0:
256,192,35167,1,0,0:0:0:0:
402,192,35167,1,0,0:0:0:0:
182,192,35277,1,0,0:0:0:0:
109,192,35387,1,0,0:0:0:0:
402,192,35387,1,0,0:0:0:0:
329,192,35387,1,0,0:0:0:0:
475,192,35387,1,0,0:0:0:0:
36,192,35497,1,0,0:0:0:0:
256,192,35497,1,0,0:0:0:0:
182,192,35552,1,0,0:0:0:0:
329,192,35607,1,0,0:0:0:0:
109,192,35607,1,0,0:0:0:0:
475,192,35607,1,0,0:0:0:0:
402,192,35716,1,0,0:0:0:0:
36,192,35716,1,0,0:0:0:0:
182,192,35716,1,0,0:0:0:0:
329,192,35826,1,0,0:0:0:0:
256,192,35826,1,0,0:0:0:0:
402,192,35936,1,0,0:0:0:0:
475,192,36046,1,0,0:0:0:0:
256,192,36046,1,0,0:0:0:0:
109,192,36046,1,0,0:0:0:0:
36,192,36046,1,0,0:0:0:0:
182,192,36156,1,0,0:0:0:0:
329,192,36156,1,0,0:0:0:0:
109,192,36266,1,0,0:0:0:0:
182,192,36376,1,0,0:0:0:0:
329,192,36376,1,0,0:0:0:0:
402,192,36376,1,0,0:0:0:0:
36,192,36376,1,0,0:0:0:0:
475,192,36485,1,0,0:0:0:0:
256,192,36485,1,0,0:0:0:0:
109,192,36485,1,0,0:0:0:0:
402,192,36595,1,0,0:0:0:0:
182,192,36595,1,0,0:0:0:0:
36,192,36595,1,0,0:0:0:0:
329,192,36705,1,0,0:0:0:0:
256,192,36705,1,0,0:0:0:0:
109,192,36705,1,0,0:0:0:0:
182,192,36815,1,0,0:0:0:0:
402,192,36815,1,0,0:0:0:0:
109,192,36925,1,0,0:0:0:0:
36,192,37035,1,0,0:0:0:0:
329,192,37035,1,0,0:0:0:0:
402,192,37035,1,0,0:0:0:0:
256,192,37035,1,0,0:0:0:0:
475,192,37145,1,0,0:0:0:0:
182,192,37145,1,0,0:0:0:0:
402,192,37255,1,0,0:0:0:0:
109,192,37255,1,0,0:0:0:0:
329,192,37365,1,0,0:0:0:0:
36,192,37365,1,0,0:0:0:0:
182,192,37475,1,0,0:0:0:0:
402,192,37475,1,0,0:0:0:0:
109,192,37585,1,0,0:0:0:0:
182,192,37695,1,0,0:0:0:0:
402,192,37695,1,0,0:0:0:0:
329,192,37695,1,0,0:0:0:0:
36,192,37695,1,0,0:0:0:0:
475,192,37805,1,0,0:0:0:0:
256,192,37805,1,0,0:0:0:0:
329,192,37915,1,0,0:0:0:0:
402,192,38024,1,0,0:0:0:0:
109,192,38024,1,0,0:0:0:0:
36,192,38024,1,0,0:0:0:0:
182,192,38134,1,0,0:0:0:0:
475,192,38134,1,0,0:0:0:0:
109,192,38189,1,0,0:0:0:0:
36,192,38244,1,0,0:0:0:0:
182,192,38354,1,0,0:0:0:0:
475,192,38354,1,0,0:0:0:0:
329,192,38354,1,0,0:0:0:0:
256,192,38354,1,0,0:0:0:0:
109,192,38464,1,0,0:0:0:0:
402,192,38464,1,0,0:0:0:0:
36,192,38574,1,0,0:0:0:0:
329,192,38574,1,0,0:0:0:0:
109,192,38684,1,0,0:0:0:0:
402,192,38684,1,0,0:0:0:0:
475,192,38684,1,0,0:0:0:0:
256,192,38793,1,0,0:0:0:0:
329,192,38793,1,0,0:0:0:0:
182,192,38903,1,0,0:0:0:0:
109,192,39013,1,0,0:0:0:0:
36,192,39013,1,0,0:0:0:0:
329,192,39013,1,0,0:0:0:0:
475,192,39013,1,0,0:0:0:0:
256,192,39123,1,0,0:0:0:0:
182,192,39123,1,0,0:0:0:0:
402,192,39123,1,0,0:0:0:0:
329,192,39233,1,0,0:0:0:0:
109,192,39233,1,0,0:0:0:0:
402,192,39343,1,0,0:0:0:0:
182,192,39343,1,0,0:0:0:0:
36,192,39343,1,0,0:0:0:0:
256,192,39453,1,0,0:0:0:0:
475,192,39453,1,0,0:0:0:0:
182,192,39562,1,0,0:0:0:0:
109,192,39672,1,0,0:0:0:0:
475,192,39672,1,0,0:0:0:0:
402,192,39672,1,0,0:0:0:0:
329,192,39672,1,0,0:0:0:0:
256,192,39782,1,0,0:0:0:0:
36,192,39782,1,0,0:0:0:0:
329,192,39892,1,0,0:0:0:0:
402,192,40002,1,0,0:0:0:0:
475,192,40002,1,0,0:0:0:0:
36,192,40002,1,0,0:0:0:0:
182,192,40002,1,0,0:0:0:0:
109,192,40112,1,0,0:0:0:0:
329,192,40112,1,0,0:0:0:0:
182,192,40222,1,0,0:0:0:0:
109,192,40332,1,0,0:0:0:0:
256,192,40332,1,0,0:0:0:0:
329,192,40332,1,0,0:0:0:0:
475,192,40332,1,0,0:0:0:0:
402,192,40442,1,0,0:0:0:0:
182,192,40442,1,0,0:0:0:0:
329,192,40552,1,0,0:0:0:0:
402,192,40662,1,0,0:0:0:0:
182,192,40662,1,0,0:0:0:0:
109,192,40662,1,0,0:0:0:0:
36,192,40772,1,0,0:0:0:0:
475,192,40772,1,0,0:0:0:0:
109,192,40882,1,0,0:0:0:0:
329,192,40882,1,0,0:0:0:0:
182,192,40992,1,0,0:0:0:0:
256,192,40992,1,0,0:0:0:0:
402,192,40992,1,0,0:0:0:0:
109,192,41101,1,0,0:0:0:0:
475,192,41101,1,0,0:0:0:0:
36,192,41211,1,0,0:0:0:0:
402,192,41211,1,0,0:0:0:0:
109,192,41321,1,0,0:0:0:0:
329,192,41321,1,0,0:0:0:0:
256,192,41321,1,0,0:0:0:0:
182,192,41431,1,0,0:0:0:0:
402,192,41431,1,0,0:0:0:0:
109,192,41541,1,0,0:0:0:0:
36,192,41651,1,0,0:0:0:0:
402,192,41651,1,0,0:0:0:0:
329,192,41651,1,0,0:0:0:0:
256,192,41651,1,0,0:0:0:0:
475,192,41761,1,0,0:0:0:0:
182,192,41761,1,0,0:0:0:0:
402,192,41870,1,0,0:0:0:0:
109,192,41870,1,0,0:0:0:0:
329,192,41980,1,0,0:0:0:0:
36,192,41980,1,0,0:0:0:0:
256,192,41980,1,0,0:0:0:0:
475,192,41980,1,0,0:0:0:0:
182,192,42090,1,0,0:0:0:0:
402,192,42090,1,0,0:0:0:0:
109,192,42200,1,0,0:0:0:0:
182,192,42310,1,0,0:0:0:0:
402,192,42310,1,0,0:0:0:0:
329,192,42310,1,0,0:0:0:0:
256,192,42310,1,0,0:0:0:0:
36,192,42310,1,0,0:0:0:0:
475,192,42420,1,0,0:0:0:0:
109,192,42420,1,0,0:0:0:0:
402,192,42530,1,0,0:0:0:0:
36,192,42530,1,0,0:0:0:0:
329,192,42639,1,0,0:0:0:0:
109,192,42639,1,0,0:0:0:0:
182,192,42639,1,0,0:0:0:0:
36,192,42749,1,0,0:0:0:0:
475,192,42749,1,0,0:0:0:0:
109,192,42859,1,0,0:0:0:0:
402,192,42859,1,0,0:0:0:0:
182,192,42969,1,0,0:0:0:0:
475,192,42969,1,0,0:0:0:0:
329,192,42969,1,0,0:0:0:0:
256,192,42969,1,0,0:0:0:0:
402,192,43079,1,0,0:0:0:0:
109,192,43079,1,0,0:0:0:0:
329,192,43189,1,0,0:0:0:0:
402,192,43299,1,0,0:0:0:0:
182,192,43299,1,0,0:0:0:0:
109,192,43299,1,0,0:0:0:0:
36,192,43299,1,0,0:0:0:0:
256,192,43408,1,0,0:0:0:0:
475,192,43408,1,0,0:0:0:0:
182,192,43518,1,0,0:0:0:0:
109,192,43628,1,0,0:0:0:0:
475,192,43628,1,0,0:0:0:0:
329,192,43628,1,0,0:0:0:0:
256,192,43628,1,0,0:0:0:0:
182,192,43738,1,0,0:0:0:0:
402,192,43738,1,0,0:0:0:0:
109,192,43848,1,0,0:0:0:0:
329,192,43848,1,0,0:0:0:0:
36,192,43958,1,0,0:0:0:0:
402,192,43958,1,0,0:0:0:0:
475,192,43958,1,0,0:0:0:0:
256,192,43958,1,0,0:0:0:0:
109,192,44068,1,0,0:0:0:0:
182,192,44068,1,0,0:0:0:0:
329,192,44068,1,0,0:0:0:0:
256,192,44178,1,0,0:0:0:0:
36,192,44178,1,0,0:0:0:0:
329,192,44288,1,0,0:0:0:0:
182,192,44288,1,0,0:0:0:0:
402,192,44288,1,0,0:0:0:0:
109,192,44398,1,0,0:0:0:0:
36,192,44398,1,0,0:0:0:0:
475,192,44398,1,0,0:0:0:0:
402,192,44508,1,0,0:0:0:0:
182,192,44508,1,0,0:0:0:0:
329,192,44618,1,0,0:0:0:0:
109,192,44618,1,0,0:0:0:0:
402,192,44728,1,0,0:0:0:0:
475,192,44728,1,0,0:0:0:0:
329,192,44838,1,0,0:0:0:0:
182,192,44838,1,0,0:0:0:0:
256,192,44947,1,0,0:0:0:0:
109,192,44947,1,0,0:0:0:0:
36,192,44947,1,0,0:0:0:0:
475,192,44947,1,0,0:0:0:0:
182,192,45057,1,0,0:0:0:0:
329,192,45167,1,0,0:0:0:0:
109,192,45167,1,0,0:0:0:0:
402,192,45277,1,0,0:0:0:0:
475,192,45277,1,0,0:0:0:0:
36,192,45277,1,0,0:0:0:0:
182,192,45277,1,0,0:0:0:0:
329,192,45387,1,0,0:0:0:0:
182,192,45497,1,0,0:0:0:0:
402,192,45497,1,0,0:0:0:0:
109,192,45607,1,0,0:0:0:0:
36,192,45607,1,0,0:0:0:0:
256,192,45607,1,0,0:0:0:0:
475,192,45607,1,0,0:0:0:0:
182,192,45716,1,0,0:0:0:0:
329,192,45826,1,0,0:0:0:0:
109,192,45826,1,0,0:0:0:0:
402,192,45936,1,0,0:0:0:0:
475,192,45936,1,0,0:0:0:0:
36,192,45936,1,0,0:0:0:0:
329,192,46046,1,0,0:0:0:0:
109,192,46101,1,0,0:0:0:0:
182,192,46156,1,0,0:0:0:0:
402,192,46156,1,0,0:0:0:0:
256,192,46266,1,0,0:0:0:0:
36,192,46266,1,0,0:0:0:0:
475,192,46266,1,0,0:0:0:0:
329,192,46376,1,0,0:0:0:0:
402,192,46376,1,0,0:0:0:0:
182,192,46485,1,0,0:0:0:0:
109,192,46485,1,0,0:0:0:0:
36,192,46595,1,0,0:0:0:0:
475,192,46595,1,0,0:0:0:0:
256,192,46595,1,0,0:0:0:0:
329,192,46705,1,0,0:0:0:0:
109,192,46705,1,0,0:0:0:0:
402,192,46815,1,0,0:0:0:0:
256,192,46925,1,0,0:0:0:0:
475,192,46925,1,0,0:0:0:0:
36,192,46925,1,0,0:0:0:0:
182,192,46925,1,0,0:0:0:0:
329,192,47035,1,0,0:0:0:0:
402,192,47145,1,0,0:0:0:0:
109,192,47145,1,0,0:0:0:0:
182,192,47255,1,0,0:0:0:0:
36,192,47255,1,0,0:0:0:0:
329,192,47255,1,0,0:0:0:0:
402,192,47365,1,0,0:0:0:0:
256,192,47365,1,0,0:0:0:0:
475,192,47475,1,0,0:0:0:0:
182,192,47475,1,0,0:0:0:0:
402,192,47585,1,0,0:0:0:0:
109,192,47585,1,0,0:0:0:0:
36,192,47585,1,0,0:0:0:0:
182,192,47695,1,0,0:0:0:0:
329,192,47695,1,0,0:0:0:0:
109,192,47805,1,0,0:0:0:0:
256,192,47805,1,0,0:0:0:0:
36,192,47915,1,0,0:0:0:0:
182,192,47915,1,0,0:0:0:0:
402,192,47915,1,0,0:0:0:0:
475,192,47915,1,0,0:0:0:0:
109,192,48024,1,0,0:0:0:0:
329,192,48024,1,0,0:0:0:0:
402,192,48134,1,0,0:0:0:0:
475,192,48244,1,0,0:0:0:0:
256,192,48244,1,0,0:0:0:0:
109,192,48244,1,0,0:0:0:0:
36,192,48244,1,0,0:0:0:0:
182,192,48354,1,0,0:0:0:0:
329,192,48354,1,0,0:0:0:0:
36,192,48464,1,0,0:0:0:0:
109,192,48574,1,0,0:0:0:0:
329,192,48574,1,0,0:0:0:0:
475,192,48574,1,0,0:0:0:0:
402,192,48684,1,0,0:0:0:0:
182,192,48684,1,0,0:0:0:0:
109,192,48738,1,0,0:0:0:0:
36,192,48793,1,0,0:0:0:0:
256,192,48903,1,0,0:0:0:0:
182,192,48903,1,0,0:0:0:0:
475,192,48903,1,0,0:0:0:0:
109,192,49013,1,0,0:0:0:0:
329,192,49013,1,0,0:0:0:0:
36,192,49123,1,0,0:0:0:0:
402,192,49123,1,0,0:0:0:0:
182,192,49233,1,0,0:0:0:0:
329,192,49233,1,0,0:0:0:0:
475,192,49233,1,0,0:0:0:0:
256,192,49343,1,0,0:0:0:0:
329,192,49453,1,0,0:0:0:0:
109,192,49453,1,0,0:0:0:0:
36,192,49453,1,0,0:0:0:0:
402,192,49562,1,0,0:0:0:0:
182,192,49562,1,0,0:0:0:0:
475,192,49562,1,0,0:0:0:0:
329,192,49672,1,0,0:0:0:0:
256,192,49672,1,0,0:0:0:0:
36,192,49782,1,0,0:0:0:0:
475,192,49782,1,0,0:0:0:0:
182,192,49892,1,0,0:0:0:0:
109,192,49892,1,0,0:0:0:0:
402,192,49892,1,0,0:0:0:0:
36,192,50002,1,0,0:0:0:0:
475,192,50002,1,0,0:0:0:0:
256,192,50112,1,0,0:0:0:0:
329,192,50112,1,0,0:0:0:0:
182,192,50222,1,0,0:0:0:0:
402,192,50332,1,0,0:0:0:0:
475,192,50332,1,0,0:0:0:0:
109,192,50332,1,0,0:0:0:0:
36,192,50332,1,0,0:0:0:0:
256,192,50442,1,0,0:0:0:0:
182,192,50552,1,0,0:0:0:0:
109,192,50552,1,0,0:0:0:0:
329,192,50552,1,0,0:0:0:0:
475,192,50552,1,0,0:0:0:0:
402,192,50662,1,0,0:0:0:0:
36,192,50662,1,0,0:0:0:0:
256,192,50772,1,0,0:0:0:0:
329,192,50772,1,0,0:0:0:0:
36,192,50882,1,0,0:0:0:0:
402,192,50882,1,0,0:0:0:0:
182,192,50992,1,0,0:0:0:0:
109,192,50992,1,0,0:0:0:0:
329,192,51101,1,0,0:0:0:0:
36,192,51101,1,0,0:0:0:0:
402,192,51211,1,0,0:0:0:0:
475,192,51211,1,0,0:0:0:0:
182,192,51211,1,0,0:0:0:0:
329,192,51321,1,0,0:0:0:0:
109,192,51376,1,0,0:0:0:0:
182,192,51431,1,0,0:0:0:0:
402,192,51431,1,0,0:0:0:0:
256,192,51541,1,0,0:0:0:0:
329,192,51541,1,0,0:0:0:0:
36,192,51541,1,0,0:0:0:0:
109,192,51651,1,0,0:0:0:0:
182,192,51651,1,0,0:0:0:0:
256,192,51761,1,0,0:0:0:0:
36,192,51761,1,0,0:0:0:0:
329,192,51870,1,0,0:0:0:0:
182,192,51870,1,0,0:0:0:0:
109,192,51870,1,0,0:0:0:0:
402,192,51870,1,0,0:0:0:0:
475,192,51870,128,0,54398:0:0:0:0:
475,192,54508,1,0,0:0:0:0:
402,192,54728,1,0,0:0:0:0:
329,192,54947,1,0,0:0:0:0:
256,192,55167,1,0,0:0:0:0:
182,192,55387,1,0,0:0:0:0:
109,192,55607,1,0,0:0:0:0:
182,192,55716,1,0,0:0:0:0:
256,192,55826,1,0,0:0:0:0:
36,192,56046,1,0,0:0:0:0:
109,192,56266,1,0,0:0:0:0:
182,192,56485,1,0,0:0:0:0:
256,192,56705,1,0,0:0:0:0:
329,192,56925,1,0,0:0:0:0:
402,192,57035,1,0,0:0:0:0:
256,192,57145,1,0,0:0:0:0:
182,192,57365,1,0,0:0:0:0:
109,192,57585,1,0,0:0:0:0:
36,192,57805,1,0,0:0:0:0:
109,192,58024,1,0,0:0:0:0:
182,192,58244,1,0,0:0:0:0:
256,192,58354,1,0,0:0:0:0:
329,192,58464,1,0,0:0:0:0:
109,192,58684,1,0,0:0:0:0:
182,192,58903,1,0,0:0:0:0:
256,192,59123,1,0,0:0:0:0:
329,192,59343,1,0,0:0:0:0:
402,192,59562,1,0,0:0:0:0:
329,192,59672,1,0,0:0:0:0:
256,192,59782,1,0,0:0:0:0:
475,192,60002,1,0,0:0:0:0:
329,192,60002,1,0,0:0:0:0:
402,192,60222,1,0,0:0:0:0:
256,192,60222,1,0,0:0:0:0:
329,192,60442,1,0,0:0:0:0:
182,192,60442,1,0,0:0:0:0:
256,192,60662,1,0,0:0:0:0:
109,192,60662,1,0,0:0:0:0:
36,192,60882,1,0,0:0:0:0:
329,192,60882,1,0,0:0:0:0:
109,192,60992,1,0,0:0:0:0:
402,192,60992,1,0,0:0:0:0:
182,192,61101,1,0,0:0:0:0:
475,192,61101,1,0,0:0:0:0:
36,192,61321,1,0,0:0:0:0:
182,192,61321,1,0,0:0:0:0:
109,192,61541,1,0,0:0:0:0:
256,192,61541,1,0,0:0:0:0:
182,192,61761,1,0,0:0:0:0:
329,192,61761,1,0,0:0:0:0:
256,192,61980,1,0,0:0:0:0:
402,192,61980,1,0,0:0:0:0:
475,192,62200,1,0,0:0:0:0:
329,192,62200,1,0,0:0:0:0:
256,192,62310,1,0,0:0:0:0:
109,192,62310,1,0,0:0:0:0:
182,192,62420,1,0,0:0:0:0:
402,192,62420,1,0,0:0:0:0:
36,192,62639,1,0,0:0:0:0:
182,192,62639,1,0,0:0:0:0:
109,192,62859,1,0,0:0:0:0:
256,192,62859,1,0,0:0:0:0:
182,192,63079,1,0,0:0:0:0:
329,192,63079,1,0,0:0:0:0:
256,192,63299,1,0,0:0:0:0:
402,192,63299,1,0,0:0:0:0:
329,192,63518,1,0,0:0:0:0:
475,192,63518,1,0,0:0:0:0:
256,192,63628,1,0,0:0:0:0:
402,192,63628,1,0,0:0:0:0:
329,192,63738,1,0,0:0:0:0:
475,192,63738,1,0,0:0:0:0:
256,192,63958,1,0,0:0:0:0:
402,192,63958,1,0,0:0:0:0:
329,192,64178,1,0,0:0:0:0:
182,192,64178,1,0,0:0:0:0:
256,192,64398,1,0,0:0:0:0:
109,192,64398,1,0,0:0:0:0:
182,192,64618,1,0,0:0:0:0:
36,192,64618,1,0,0:0:0:0:
109,192,64838,1,0,0:0:0:0:
256,192,64838,1,0,0:0:0:0:
182,192,64947,1,0,0:0:0:0:
329,192,64947,1,0,0:0:0:0:
256,192,65057,1,0,0:0:0:0:
402,192,65057,1,0,0:0:0:0:
36,192,65057,1,0,0:0:0:0:
109,192,65167,1,0,0:0:0:0:
182,192,65277,1,0,0:0:0:0:
475,192,65387,1,0,0:0:0:0:
256,192,65387,1,0,0:0:0:0:
36,192,65387,1,0,0:0:0:0:
402,192,65497,1,0,0:0:0:0:
329,192,65607,1,0,0:0:0:0:
36,192,65716,1,0,0:0:0:0:
402,192,65716,1,0,0:0:0:0:
475,192,65716,1,0,0:0:0:0:
109,192,65826,1,0,0:0:0:0:
182,192,65936,1,0,0:0:0:0:
475,192,66046,1,0,0:0:0:0:
256,192,66046,1,0,0:0:0:0:
109,192,66046,1,0,0:0:0:0:
402,192,66156,1,0,0:0:0:0:
182,192,66156,1,0,0:0:0:0:
329,192,66266,1,0,0:0:0:0:
109,192,66266,1,0,0:0:0:0:
182,192,66376,1,0,0:0:0:0:
475,192,66376,1,0,0:0:0:0:
109,192,66485,1,0,0:0:0:0:
36,192,66595,1,0,0:0:0:0:
329,192,66705,1,0,0:0:0:0:
256,192,66705,1,0,0:0:0:0:
182,192,66705,1,0,0:0:0:0:
402,192,66815,1,0,0:0:0:0:
475,192,66925,1,0,0:0:0:0:
182,192,67035,1,0,0:0:0:0:
329,192,67035,1,0,0:0:0:0:
109,192,67145,1,0,0:0:0:0:
402,192,67145,1,0,0:0:0:0:
475,192,67200,1,0,0:0:0:0:
36,192,67255,1,0,0:0:0:0:
182,192,67255,1,0,0:0:0:0:
329,192,67365,1,0,0:0:0:0:
256,192,67365,1,0,0:0:0:0:
109,192,67365,1,0,0:0:0:0:
402,192,67475,1,0,0:0:0:0:
182,192,67475,1,0,0:0:0:0:
475,192,67585,1,0,0:0:0:0:
109,192,67585,1,0,0:0:0:0:
256,192,67695,1,0,0:0:0:0:
36,192,67695,1,0,0:0:0:0:
402,192,67695,1,0,0:0:0:0:
182,192,67805,1,0,0:0:0:0:
109,192,67915,1,0,0:0:0:0:
256,192,68024,1,0,0:0:0:0:
402,192,68024,1,0,0:0:0:0:
36,192,68024,1,0,0:0:0:0:
329,192,68134,1,0,0:0:0:0:
402,192,68244,1,0,0:0:0:0:
256,192,68354,1,0,0:0:0:0:
109,192,68354,1,0,0:0:0:0:
36,192,68354,1,0,0:0:0:0:
329,192,68408,1,0,0:0:0:0:
182,192,68464,1,0,0:0:0:0:
109,192,68574,1,0,0:0:0:0:
402,192,68574,1,0,0:0:0:0:
475,192,68574,1,0,0:0:0:0:
256,192,68684,1,0,0:0:0:0:
36,192,68684,1,0,0:0:0:0:
329,192,68793,1,0,0:0:0:0:
109,192,68793,1,0,0:0:0:0:
182,192,68793,1,0,0:0:0:0:
402,192,68903,1,0,0:0:0:0:
36,192,69013,1,0,0:0:0:0:
256,192,69013,1,0,0:0:0:0:
475,192,69013,1,0,0:0:0:0:
329,192,69013,1,0,0:0:0:0:
109,192,69123,1,0,0:0:0:0:
182,192,69233,1,0,0:0:0:0:
329,192,69233,1,0,0:0:0:0:
402,192,69233,1,0,0:0:0:0:
475,192,69343,1,0,0:0:0:0:
256,192,69343,1,0,0:0:0:0:
36,192,69343,1,0,0:0:0:0:
402,192,69453,1,0,0:0:0:0:
182,192,69453,1,0,0:0:0:0:
109,192,69453,1,0,0:0:0:0:
329,192,69562,1,0,0:0:0:0:
36,192,69672,1,0,0:0:0:0:
475,192,69672,1,0,0:0:0:0:
402,192,69672,1,0,0:0:0:0:
109,192,69782,1,0,0:0:0:0:
182,192,69892,1,0,0:0:0:0:
329,192,69892,1,0,0:0:0:0:
475,192,70002,1,0,0:0:0:0:
256,192,70002,1,0,0:0:0:0:
402,192,70112,1,0,0:0:0:0:
36,192,70112,1,0,0:0:0:0:
109,192,70112,1,0,0:0:0:0:
329,192,70222,1,0,0:0:0:0:
182,192,70222,1,0,0:0:0:0:
109,192,70332,1,0,0:0:0:0:
256,192,70332,1,0,0:0:0:0:
475,192,70332,1,0,0:0:0:0:
182,192,70442,1,0,0:0:0:0:
36,192,70442,1,0,0:0:0:0:
256,192,70552,1,0,0:0:0:0:
402,192,70662,1,0,0:0:0:0:
182,192,70662,1,0,0:0:0:0:
109,192,70662,1,0,0:0:0:0:
329,192,70772,1,0,0:0:0:0:
256,192,70882,1,0,0:0:0:0:
36,192,70882,1,0,0:0:0:0:
109,192,70992,1,0,0:0:0:0:
402,192,70992,1,0,0:0:0:0:
475,192,70992,1,0,0:0:0:0:
182,192,71101,1,0,0:0:0:0:
329,192,71101,1,0,0:0:0:0:
256,192,71211,1,0,0:0:0:0:
402,192,71321,1,0,0:0:0:0:
109,192,71321,1,0,0:0:0:0:
36,192,71321,1,0,0:0:0:0:
329,192,71431,1,0,0:0:0:0:
182,192,71431,1,0,0:0:0:0:
256,192,71541,1,0,0:0:0:0:
475,192,71541,1,0,0:0:0:0:
109,192,71651,1,0,0:0:0:0:
402,192,71651,1,0,0:0:0:0:
329,192,71651,1,0,0:0:0:0:
36,192,71651,1,0,0:0:0:0:
182,192,71761,1,0,0:0:0:0:
475,192,71761,1,0,0:0:0:0:
109,192,71870,1,0,0:0:0:0:
402,192,71980,1,0,0:0:0:0:
475,192,71980,1,0,0:0:0:0:
36,192,71980,1,0,0:0:0:0:
329,192,72090,1,0,0:0:0:0:
402,192,72200,1,0,0:0:0:0:
182,192,72200,1,0,0:0:0:0:
256,192,72200,1,0,0:0:0:0:
109,192,72310,1,0,0:0:0:0:
182,192,72420,1,0,0:0:0:0:
36,192,72475,1,0,0:0:0:0:
109,192,72530,1,0,0:0:0:0:
402,192,72639,1,0,0:0:0:0:
256,192,72639,1,0,0:0:0:0:
182,192,72639,1,0,0:0:0:0:
329,192,72749,1,0,0:0:0:0:
109,192,72749,1,0,0:0:0:0:
402,192,72859,1,0,0:0:0:0:
36,192,72859,1,0,0:0:0:0:
182,192,72969,1,0,0:0:0:0:
329,192,72969,1,0,0:0:0:0:
475,192,72969,1,0,0:0:0:0:
109,192,73079,1,0,0:0:0:0:
182,192,73189,1,0,0:0:0:0:
329,192,73299,1,0,0:0:0:0:
256,192,73299,1,0,0:0:0:0:
36,192,73299,1,0,0:0:0:0:
402,192,73408,1,0,0:0:0:0:
109,192,73408,1,0,0:0:0:0:
329,192,73518,1,0,0:0:0:0:
182,192,73628,1,0,0:0:0:0:
109,192,73738,1,0,0:0:0:0:
182,192,73848,1,0,0:0:0:0:
475,192,73848,1,0,0:0:0:0:
329,192,73958,1,0,0:0:0:0:
256,192,73958,1,0,0:0:0:0:
36,192,73958,1,0,0:0:0:0:
402,192,74068,1,0,0:0:0:0:
329,192,74178,1,0,0:0:0:0:
256,192,74288,128,0,75497:0:0:0:0:
36,192,74288,1,0,0:0:0:0:
109,192,74288,1,0,0:0:0:0:
36,192,75607,1,0,0:0:0:0:
329,192,75607,1,0,0:0:0:0:
475,192,75607,1,0,0:0:0:0:
256,192,75607,1,0,0:0:0:0:
182,192,75716,1,0,0:0:0:0:
402,192,75716,1,0,0:0:0:0:
36,192,75826,1,0,0:0:0:0:
109,192,75826,1,0,0:0:0:0:
256,192,75826,1,0,0:0:0:0:
329,192,75826,1,0,0:0:0:0:
182,192,75936,1,0,0:0:0:0:
402,192,75936,1,0,0:0:0:0:
475,192,75936,1,0,0:0:0:0:
109,192,76046,1,0,0:0:0:0:
329,192,76046,1,0,0:0:0:0:
182,192,76156,1,0,0:0:0:0:
36,192,76156,1,0,0:0:0:0:
402,192,76156,1,0,0:0:0:0:
475,192,76156,1,0,0:0:0:0:
329,192,76266,1,0,0:0:0:0:
256,192,76266,1,0,0:0:0:0:
109,192,76266,1,0,0:0:0:0:
36,192,76376,1,0,0:0:0:0:
402,192,76376,1,0,0:0:0:0:
109,192,76485,1,0,0:0:0:0:
182,192,76485,1,0,0:0:0:0:
256,192,76485,1,0,0:0:0:0:
475,192,76485,1,0,0:0:0:0:
36,192,76595,1,0,0:0:0:0:
329,192,76595,1,0,0:0:0:0:
402,192,76595,1,0,0:0:0:0:
256,192,76705,1,0,0:0:0:0:
109,192,76705,1,0,0:0:0:0:
329,192,76815,1,0,0:0:0:0:
402,192,76815,1,0,0:0:0:0:
475,192,76815,1,0,0:0:0:0:
182,192,76815,1,0,0:0:0:0:
36,192,76815,1,0,0:0:0:0:
256,192,76925,1,0,0:0:0:0:
109,192,76925,1,0,0:0:0:0:
182,192,77035,1,0,0:0:0:0:
402,192,77035,1,0,0:0:0:0:
109,192,77145,1,0,0:0:0:0:
36,192,77145,1,0,0:0:0:0:
329,192,77145,1,0,0:0:0:0:
256,192,77145,1,0,0:0:0:0:
475,192,77255,1,0,0:0:0:0:
182,192,77255,1,0,0:0:0:0:
109,192,77365,1,0,0:0:0:0:
36,192,77365,1,0,0:0:0:0:
402,192,77365,1,0,0:0:0:0:
256,192,77365,1,0,0:0:0:0:
329,192,77475,1,0,0:0:0:0:
475,192,77475,1,0,0:0:0:0:
182,192,77475,1,0,0:0:0:0:
109,192,77585,1,0,0:0:0:0:
36,192,77585,1,0,0:0:0:0:
256,192,77585,1,0,0:0:0:0:
329,192,77695,1,0,0:0:0:0:
402,192,77695,1,0,0:0:0:0:
475,192,77695,1,0,0:0:0:0:
256,192,77749,1,0,0:0:0:0:
182,192,77805,1,0,0:0:0:0:
36,192,77805,1,0,0:0:0:0:
329,192,77915,1,0,0:0:0:0:
109,192,77915,1,0,0:0:0:0:
182,192,78024,1,0,0:0:0:0:
256,192,78024,1,0,0:0:0:0:
402,192,78024,1,0,0:0:0:0:
475,192,78024,1,0,0:0:0:0:
329,192,78134,1,0,0:0:0:0:
109,192,78134,1,0,0:0:0:0:
36,192,78134,1,0,0:0:0:0:
182,192,78244,1,0,0:0:0:0:
256,192,78244,1,0,0:0:0:0:
475,192,78244,1,0,0:0:0:0:
402,192,78354,1,0,0:0:0:0:
109,192,78354,1,0,0:0:0:0:
182,192,78464,1,0,0:0:0:0:
36,192,78464,1,0,0:0:0:0:
256,192,78464,1,0,0:0:0:0:
329,192,78464,1,0,0:0:0:0:
402,192,78574,1,0,0:0:0:0:
475,192,78574,1,0,0:0:0:0:
109,192,78574,1,0,0:0:0:0:
182,192,78684,1,0,0:0:0:0:
256,192,78684,1,0,0:0:0:0:
109,192,78793,1,0,0:0:0:0:
36,192,78793,1,0,0:0:0:0:
402,192,78793,1,0,0:0:0:0:
475,192,78793,1,0,0:0:0:0:
182,192,78903,1,0,0:0:0:0:
329,192,78903,1,0,0:0:0:0:
256,192,79013,1,0,0:0:0:0:
402,192,79013,1,0,0:0:0:0:
475,192,79013,1,0,0:0:0:0:
109,192,79013,1,0,0:0:0:0:
182,192,79123,1,0,0:0:0:0:
36,192,79123,1,0,0:0:0:0:
109,192,79233,1,0,0:0:0:0:
329,192,79233,1,0,0:0:0:0:
182,192,79343,1,0,0:0:0:0:
402,192,79343,1,0,0:0:0:0:
475,192,79343,1,0,0:0:0:0:
36,192,79343,1,0,0:0:0:0:
329,192,79453,1,0,0:0:0:0:
256,192,79453,1,0,0:0:0:0:
182,192,79562,1,0,0:0:0:0:
109,192,79562,1,0,0:0:0:0:
36,192,79562,1,0,0:0:0:0:
402,192,79562,1,0,0:0:0:0:
329,192,79672,1,0,0:0:0:0:
475,192,79672,1,0,0:0:0:0:
256,192,79672,1,0,0:0:0:0:
402,192,79782,1,0,0:0:0:0:
182,192,79782,1,0,0:0:0:0:
109,192,79782,1,0,0:0:0:0:
36,192,79892,1,0,0:0:0:0:
256,192,79892,1,0,0:0:0:0:
329,192,79892,1,0,0:0:0:0:
109,192,80002,1,0,0:0:0:0:
402,192,80002,1,0,0:0:0:0:
182,192,80112,1,0,0:0:0:0:
36,192,80112,1,0,0:0:0:0:
329,192,80112,1,0,0:0:0:0:
256,192,80222,1,0,0:0:0:0:
475,192,80222,1,0,0:0:0:0:
402,192,80222,1,0,0:0:0:0:
329,192,80332,1,0,0:0:0:0:
182,192,80332,1,0,0:0:0:0:
109,192,80332,1,0,0:0:0:0:
402,192,80442,1,0,0:0:0:0:
475,192,80442,1,0,0:0:0:0:
36,192,80442,1,0,0:0:0:0:
109,192,80552,1,0,0:0:0:0:
182,192,80552,1,0,0:0:0:0:
256,192,80552,1,0,0:0:0:0:
329,192,80662,1,0,0:0:0:0:
36,192,80662,1,0,0:0:0:0:
109,192,80772,1,0,0:0:0:0:
402,192,80772,1,0,0:0:0:0:
475,192,80772,1,0,0:0:0:0:
182,192,80882,1,0,0:0:0:0:
36,192,80882,1,0,0:0:0:0:
256,192,80882,1,0,0:0:0:0:
329,192,80992,1,0,0:0:0:0:
109,192,80992,1,0,0:0:0:0:
475,192,81101,1,0,0:0:0:0:
402,192,81101,1,0,0:0:0:0:
256,192,81101,1,0,0:0:0:0:
182,192,81101,1,0,0:0:0:0:
329,192,81211,1,0,0:0:0:0:
109,192,81211,1,0,0:0:0:0:
36,192,81211,1,0,0:0:0:0:
402,192,81321,1,0,0:0:0:0:
182,192,81321,1,0,0:0:0:0:
329,192,81431,1,0,0:0:0:0:
475,192,81431,1,0,0:0:0:0:
109,192,81431,1,0,0:0:0:0:
36,192,81431,1,0,0:0:0:0:
182,192,81541,1,0,0:0:0:0:
256,192,81541,1,0,0:0:0:0:
402,192,81541,1,0,0:0:0:0:
475,192,81651,1,0,0:0:0:0:
109,192,81651,1,0,0:0:0:0:
402,192,81761,1,0,0:0:0:0:
329,192,81761,1,0,0:0:0:0:
256,192,81761,1,0,0:0:0:0:
36,192,81761,1,0,0:0:0:0:
475,192,81870,1,0,0:0:0:0:
182,192,81870,1,0,0:0:0:0:
109,192,81870,1,0,0:0:0:0:
256,192,81980,1,0,0:0:0:0:
402,192,81980,1,0,0:0:0:0:
182,192,82090,1,0,0:0:0:0:
109,192,82090,1,0,0:0:0:0:
36,192,82090,1,0,0:0:0:0:
329,192,82090,1,0,0:0:0:0:
475,192,82090,1,0,0:0:0:0:
256,192,82200,1,0,0:0:0:0:
402,192,82200,1,0,0:0:0:0:
329,192,82310,1,0,0:0:0:0:
109,192,82310,1,0,0:0:0:0:
402,192,82420,1,0,0:0:0:0:
475,192,82420,1,0,0:0:0:0:
182,192,82420,1,0,0:0:0:0:
256,192,82420,1,0,0:0:0:0:
36,192,82530,1,0,0:0:0:0:
329,192,82530,1,0,0:0:0:0:
402,192,82639,1,0,0:0:0:0:
475,192,82639,1,0,0:0:0:0:
109,192,82639,1,0,0:0:0:0:
256,192,82639,1,0,0:0:0:0:
182,192,82749,1,0,0:0:0:0:
36,192,82749,1,0,0:0:0:0:
329,192,82749,1,0,0:0:0:0:
402,192,82859,1,0,0:0:0:0:
475,192,82859,1,0,0:0:0:0:
256,192,82859,1,0,0:0:0:0:
182,192,82969,1,0,0:0:0:0:
109,192,82969,1,0,0:0:0:0:
36,192,82969,1,0,0:0:0:0:
256,192,83024,1,0,0:0:0:0:
329,192,83079,1,0,0:0:0:0:
475,192,83079,1,0,0:0:0:0:
182,192,83189,1,0,0:0:0:0:
402,192,83189,1,0,0:0:0:0:
329,192,83299,1,0,0:0:0:0:
256,192,83299,1,0,0:0:0:0:
109,192,83299,1,0,0:0:0:0:
36,192,83299,1,0,0:0:0:0:
182,192,83408,1,0,0:0:0:0:
402,192,83408,1,0,0:0:0:0:
475,192,83408,1,0,0:0:0:0:
329,192,83518,1,0,0:0:0:0:
256,192,83518,1,0,0:0:0:0:
36,192,83518,1,0,0:0:0:0:
109,192,83628,1,0,0:0:0:0:
402,192,83628,1,0,0:0:0:0:
329,192,83738,1,0,0:0:0:0:
475,192,83738,1,0,0:0:0:0:
256,192,83738,1,0,0:0:0:0:
182,192,83738,1,0,0:0:0:0:
109,192,83848,1,0,0:0:0:0:
36,192,83848,1,0,0:0:0:0:
402,192,83848,1,0,0:0:0:0:
329,192,83958,1,0,0:0:0:0:
256,192,83958,1,0,0:0:0:0:
402,192,84068,1,0,0:0:0:0:
475,192,84068,1,0,0:0:0:0:
109,192,84068,1,0,0:0:0:0:
36,192,84068,1,0,0:0:0:0:
329,192,84178,1,0,0:0:0:0:
182,192,84178,1,0,0:0:0:0:
256,192,84288,1,0,0:0:0:0:
109,192,84288,1,0,0:0:0:0:
36,192,84288,1,0,0:0:0:0:
402,192,84288,1,0,0:0:0:0:
329,192,84398,1,0,0:0:0:0:
475,192,84398,1,0,0:0:0:0:
402,192,84508,1,0,0:0:0:0:
182,192,84508,1,0,0:0:0:0:
329,192,84618,1,0,0:0:0:0:
109,192,84618,1,0,0:0:0:0:
36,192,84618,1,0,0:0:0:0:
475,192,84618,1,0,0:0:0:0:
182,192,84728,1,0,0:0:0:0:
256,192,84728,1,0,0:0:0:0:
329,192,84838,1,0,0:0:0:0:
402,192,84838,1,0,0:0:0:0:
475,192,84838,1,0,0:0:0:0:
109,192,84838,1,0,0:0:0:0:
182,192,84947,1,0,0:0:0:0:
36,192,84947,1,0,0:0:0:0:
256,192,84947,1,0,0:0:0:0:
109,192,85057,1,0,0:0:0:0:
329,192,85057,1,0,0:0:0:0:
402,192,85057,1,0,0:0:0:0:
475,192,85167,1,0,0:0:0:0:
256,192,85167,1,0,0:0:0:0:
182,192,85167,1,0,0:0:0:0:
402,192,85277,1,0,0:0:0:0:
109,192,85277,1,0,0:0:0:0:
329,192,85387,1,0,0:0:0:0:
475,192,85387,1,0,0:0:0:0:
182,192,85387,1,0,0:0:0:0:
256,192,85497,1,0,0:0:0:0:
36,192,85497,1,0,0:0:0:0:
109,192,85497,1,0,0:0:0:0:
182,192,85607,1,0,0:0:0:0:
329,192,85607,1,0,0:0:0:0:
402,192,85607,1,0,0:0:0:0:
109,192,85716,1,0,0:0:0:0:
36,192,85716,1,0,0:0:0:0:
475,192,85716,1,0,0:0:0:0:
402,192,85826,1,0,0:0:0:0:
329,192,85826,1,0,0:0:0:0:
256,192,85826,1,0,0:0:0:0:
182,192,85936,1,0,0:0:0:0:
475,192,85936,1,0,0:0:0:0:
402,192,86046,1,0,0:0:0:0:
109,192,86046,1,0,0:0:0:0:
36,192,86046,1,0,0:0:0:0:
329,192,86156,1,0,0:0:0:0:
182,192,86156,1,0,0:0:0:0:
402,192,86266,1,0,0:0:0:0:
475,192,86266,1,0,0:0:0:0:
109,192,86266,1,0,0:0:0:0:
182,192,86376,1,0,0:0:0:0:
256,192,86376,1,0,0:0:0:0:
36,192,86376,1,0,0:0:0:0:
329,192,86485,1,0,0:0:0:0:
475,192,86485,1,0,0:0:0:0:
109,192,86485,1,0,0:0:0:0:
182,192,86595,1,0,0:0:0:0:
402,192,86595,1,0,0:0:0:0:
109,192,86705,1,0,0:0:0:0:
36,192,86705,1,0,0:0:0:0:
256,192,86705,1,0,0:0:0:0:
329,192,86705,1,0,0:0:0:0:
402,192,86815,1,0,0:0:0:0:
475,192,86815,1,0,0:0:0:0:
182,192,86815,1,0,0:0:0:0:
329,192,86925,1,0,0:0:0:0:
256,192,86925,1,0,0:0:0:0:
109,192,86925,1,0,0:0:0:0:
182,192,87035,1,0,0:0:0:0:
36,192,87035,1,0,0:0:0:0:
475,192,87035,1,0,0:0:0:0:
109,192,87145,1,0,0:0:0:0:
402,192,87145,1,0,0:0:0:0:
256,192,87145,1,0,0:0:0:0:
329,192,87255,1,0,0:0:0:0:
475,192,87255,1,0,0:0:0:0:
182,192,87255,1,0,0:0:0:0:
109,192,87365,1,0,0:0:0:0:
36,192,87365,1,0,0:0:0:0:
402,192,87365,1,0,0:0:0:0:
182,192,87475,1,0,0:0:0:0:
329,192,87475,1,0,0:0:0:0:
475,192,87475,1,0,0:0:0:0:
256,192,87585,1,0,0:0:0:0:
109,192,87585,1,0,0:0:0:0:
182,192,87695,1,0,0:0:0:0:
36,192,87695,1,0,0:0:0:0:
329,192,87695,1,0,0:0:0:0:
402,192,87695,1,0,0:0:0:0:
256,192,87805,1,0,0:0:0:0:
475,192,87805,1,0,0:0:0:0:
182,192,87915,1,0,0:0:0:0:
109,192,87915,1,0,0:0:0:0:
402,192,87915,1,0,0:0:0:0:
329,192,87915,1,0,0:0:0:0:
36,192,88024,1,0,0:0:0:0:
475,192,88024,1,0,0:0:0:0:
256,192,88134,1,0,0:0:0:0:
329,192,88134,1,0,0:0:0:0:
109,192,88134,1,0,0:0:0:0:
402,192,88244,1,0,0:0:0:0:
475,192,88244,1,0,0:0:0:0:
36,192,88244,1,0,0:0:0:0:
329,192,88299,1,0,0:0:0:0:
182,192,88354,1,0,0:0:0:0:
109,192,88354,1,0,0:0:0:0:
256,192,88354,1,0,0:0:0:0:
329,192,88464,1,0,0:0:0:0:
36,192,88464,1,0,0:0:0:0:
402,192,88574,1,0,0:0:0:0:
475,192,88574,1,0,0:0:0:0:
109,192,88574,1,0,0:0:0:0:
256,192,88574,1,0,0:0:0:0:
182,192,88684,1,0,0:0:0:0:
329,192,88684,1,0,0:0:0:0:
256,192,88793,1,0,0:0:0:0:
36,192,88793,1,0,0:0:0:0:
109,192,88903,1,0,0:0:0:0:
182,192,88903,1,0,0:0:0:0:
402,192,88903,1,0,0:0:0:0:
329,192,89013,1,0,0:0:0:0:
256,192,89013,1,0,0:0:0:0:
475,192,89013,1,0,0:0:0:0:
182,192,89123,1,0,0:0:0:0:
36,192,89123,1,0,0:0:0:0:
402,192,89123,1,0,0:0:0:0:
329,192,89233,1,0,0:0:0:0:
109,192,89233,1,0,0:0:0:0:
402,192,89343,1,0,0:0:0:0:
475,192,89343,1,0,0:0:0:0:
256,192,89343,1,0,0:0:0:0:
182,192,89343,1,0,0:0:0:0:
109,192,89453,1,0,0:0:0:0:
36,192,89453,1,0,0:0:0:0:
329,192,89453,1,0,0:0:0:0:
182,192,89562,1,0,0:0:0:0:
256,192,89562,1,0,0:0:0:0:
402,192,89562,1,0,0:0:0:0:
329,192,89672,1,0,0:0:0:0:
475,192,89672,1,0,0:0:0:0:
36,192,89672,1,0,0:0:0:0:
402,192,89782,1,0,0:0:0:0:
109,192,89782,1,0,0:0:0:0:
256,192,89782,1,0,0:0:0:0:
182,192,89892,1,0,0:0:0:0:
36,192,89892,1,0,0:0:0:0:
329,192,89892,1,0,0:0:0:0:
402,192,90002,1,0,0:0:0:0:
475,192,90002,1,0,0:0:0:0:
109,192,90002,1,0,0:0:0:0:
329,192,90112,1,0,0:0:0:0:
182,192,90112,1,0,0:0:0:0:
36,192,90112,1,0,0:0:0:0:
256,192,90222,1,0,0:0:0:0:
402,192,90222,1,0,0:0:0:0:
329,192,90332,1,0,0:0:0:0:
475,192,90332,1,0,0:0:0:0:
182,192,90332,1,0,0:0:0:0:
109,192,90332,1,0,0:0:0:0:
256,192,90442,1,0,0:0:0:0:
36,192,90442,1,0,0:0:0:0:
329,192,90552,1,0,0:0:0:0:
402,192,90552,1,0,0:0:0:0:
109,192,90552,1,0,0:0:0:0:
182,192,90552,1,0,0:0:0:0:
475,192,90662,1,0,0:0:0:0:
36,192,90662,1,0,0:0:0:0:
256,192,90772,1,0,0:0:0:0:
182,192,90772,1,0,0:0:0:0:
402,192,90772,1,0,0:0:0:0:
109,192,90882,1,0,0:0:0:0:
36,192,90882,1,0,0:0:0:0:
475,192,90882,1,0,0:0:0:0:
182,192,90936,1,0,0:0:0:0:
329,192,90992,1,0,0:0:0:0:
402,192,90992,1,0,0:0:0:0:
256,192,90992,1,0,0:0:0:0:
182,192,91101,1,0,0:0:0:0:
475,192,91101,1,0,0:0:0:0:
109,192,91211,1,0,0:0:0:0:
36,192,91211,1,0,0:0:0:0:
402,192,91211,1,0,0:0:0:0:
256,192,91211,1,0,0:0:0:0:
329,192,91321,1,0,0:0:0:0:
182,192,91321,1,0,0:0:0:0:
402,192,91431,1,0,0:0:0:0:
475,192,91431,1,0,0:0:0:0:
36,192,91431,1,0,0:0:0:0:
109,192,91541,1,0,0:0:0:0:
182,192,91541,1,0,0:0:0:0:
329,192,91541,1,0,0:0:0:0:
256,192,91651,1,0,0:0:0:0:
36,192,91651,1,0,0:0:0:0:
329,192,91761,1,0,0:0:0:0:
182,192,91761,1,0,0:0:0:0:
109,192,91761,1,0,0:0:0:0:
475,192,91761,1,0,0:0:0:0:
256,192,91870,1,0,0:0:0:0:
402,192,91870,1,0,0:0:0:0:
36,192,91870,1,0,0:0:0:0:
329,192,91980,1,0,0:0:0:0:
475,192,91980,1,0,0:0:0:0:
109,192,91980,1,0,0:0:0:0:
182,192,92090,1,0,0:0:0:0:
36,192,92090,1,0,0:0:0:0:
402,192,92090,1,0,0:0:0:0:
109,192,92200,1,0,0:0:0:0:
475,192,92200,1,0,0:0:0:0:
329,192,92200,1,0,0:0:0:0:
256,192,92310,1,0,0:0:0:0:
36,192,92310,1,0,0:0:0:0:
182,192,92420,1,0,0:0:0:0:
109,192,92420,1,0,0:0:0:0:
329,192,92420,1,0,0:0:0:0:
475,192,92420,1,0,0:0:0:0:
402,192,92530,1,0,0:0:0:0:
36,192,92530,1,0,0:0:0:0:
329,192,92639,1,0,0:0:0:0:
256,192,92639,1,0,0:0:0:0:
109,192,92639,1,0,0:0:0:0:
402,192,92749,1,0,0:0:0:0:
475,192,92749,1,0,0:0:0:0:
182,192,92749,1,0,0:0:0:0:
36,192,92749,1,0,0:0:0:0:
329,192,92859,1,0,0:0:0:0:
109,192,92859,1,0,0:0:0:0:
256,192,92969,1,0,0:0:0:0:
182,192,92969,1,0,0:0:0:0:
402,192,92969,1,0,0:0:0:0:
329,192,93079,1,0,0:0:0:0:
109,192,93079,1,0,0:0:0:0:
36,192,93079,1,0,0:0:0:0:
475,192,93079,1,0,0:0:0:0:
402,192,93189,1,0,0:0:0:0:
182,192,93189,1,0,0:0:0:0:
256,192,93299,1,0,0:0:0:0:
36,192,93299,1,0,0:0:0:0:
329,192,93299,1,0,0:0:0:0:
182,192,93408,1,0,0:0:0:0:
109,192,93408,1,0,0:0:0:0:
475,192,93408,1,0,0:0:0:0:
402,192,93518,1,0,0:0:0:0:
36,192,93518,1,0,0:0:0:0:
329,192,93574,1,0,0:0:0:0:
256,192,93628,1,0,0:0:0:0:
182,192,93628,1,0,0:0:0:0:
475,192,93738,1,0,0:0:0:0:
402,192,93738,1,0,0:0:0:0:
109,192,93738,1,0,0:0:0:0:
36,192,93738,1,0,0:0:0:0:
182,192,93848,1,0,0:0:0:0:
329,192,93848,1,0,0:0:0:0:
256,192,93958,1,0,0:0:0:0:
109,192,93958,1,0,0:0:0:0:
475,192,93958,1,0,0:0:0:0:
402,192,94068,1,0,0:0:0:0:
329,192,94068,1,0,0:0:0:0:
182,192,94068,1,0,0:0:0:0:
36,192,94068,1,0,0:0:0:0:
475,192,94178,1,0,0:0:0:0:
109,192,94178,1,0,0:0:0:0:
256,192,94288,1,0,0:0:0:0:
329,192,94288,1,0,0:0:0:0:
36,192,94288,1,0,0:0:0:0:
109,192,94398,1,0,0:0:0:0:
182,192,94398,1,0,0:0:0:0:
402,192,94398,1,0,0:0:0:0:
36,192,94508,1,0,0:0:0:0:
329,192,94508,1,0,0:0:0:0:
109,192,94618,1,0,0:0:0:0:
256,192,94618,1,0,0:0:0:0:
475,192,94618,1,0,0:0:0:0:
329,192,94728,1,0,0:0:0:0:
402,192,94728,1,0,0:0:0:0:
182,192,94728,1,0,0:0:0:0:
109,192,94838,1,0,0:0:0:0:
36,192,94838,1,0,0:0:0:0:
475,192,94838,1,0,0:0:0:0:
402,192,94947,1,0,0:0:0:0:
182,192,94947,1,0,0:0:0:0:
329,192,95057,1,0,0:0:0:0:
109,192,95057,1,0,0:0:0:0:
36,192,95057,1,0,0:0:0:0:
475,192,95057,1,0,0:0:0:0:
402,192,95167,1,0,0:0:0:0:
182,192,95167,1,0,0:0:0:0:
256,192,95277,1,0,0:0:0:0:
475,192,95277,1,0,0:0:0:0:
109,192,95277,1,0,0:0:0:0:
182,192,95387,1,0,0:0:0:0:
402,192,95387,1,0,0:0:0:0:
329,192,95387,1,0,0:0:0:0:
36,192,95387,1,0,0:0:0:0:
256,192,95497,1,0,0:0:0:0:
475,192,95497,1,0,0:0:0:0:
109,192,95497,1,0,0:0:0:0:
329,192,95607,1,0,0:0:0:0:
182,192,95607,1,0,0:0:0:0:
402,192,95716,1,0,0:0:0:0:
109,192,95716,1,0,0:0:0:0:
36,192,95716,1,0,0:0:0:0:
475,192,95716,1,0,0:0:0:0:
329,192,95826,1,0,0:0:0:0:
182,192,95826,1,0,0:0:0:0:
109,192,95936,1,0,0:0:0:0:
475,192,95936,1,0,0:0:0:0:
402,192,95936,1,0,0:0:0:0:
256,192,96046,1,0,0:0:0:0:
36,192,96046,1,0,0:0:0:0:
182,192,96046,1,0,0:0:0:0:
329,192,96046,1,0,0:0:0:0:
402,192,96156,1,0,0:0:0:0:
475,192,96156,1,0,0:0:0:0:
109,192,96156,1,0,0:0:0:0:
182,192,96211,1,0,0:0:0:0:
256,192,96266,1,0,0:0:0:0:
329,192,96266,1,0,0:0:0:0:
182,192,96376,1,0,0:0:0:0:
109,192,96376,1,0,0:0:0:0:
36,192,96376,1,0,0:0:0:0:
402,192,96376,1,0,0:0:0:0:
329,192,96485,1,0,0:0:0:0:
256,192,96485,1,0,0:0:0:0:
182,192,96595,1,0,0:0:0:0:
256,192,96705,1,0,0:0:0:0:
475,192,96705,1,0,0:0:0:0:
109,192,96815,1,0,0:0:0:0:
36,192,96815,1,0,0:0:0:0:
402,192,96815,1,0,0:0:0:0:
329,192,96925,1,0,0:0:0:0:
256,192,96925,1,0,0:0:0:0:
475,192,96925,1,0,0:0:0:0:
182,192,97035,1,0,0:0:0:0:
36,192,97035,1,0,0:0:0:0:
402,192,97035,1,0,0:0:0:0:
329,192,97145,1,0,0:0:0:0:
109,192,97145,1,0,0:0:0:0:
402,192,97255,1,0,0:0:0:0:
475,192,97255,1,0,0:0:0:0:
256,192,97255,1,0,0:0:0:0:
182,192,97255,1,0,0:0:0:0:
109,192,97365,1,0,0:0:0:0:
36,192,97365,1,0,0:0:0:0:
329,192,97365,1,0,0:0:0:0:
182,192,97475,1,0,0:0:0:0:
256,192,97475,1,0,0:0:0:0:
402,192,97475,1,0,0:0:0:0:
329,192,97585,1,0,0:0:0:0:
475,192,97585,1,0,0:0:0:0:
36,192,97585,1,0,0:0:0:0:
402,192,97695,1,0,0:0:0:0:
109,192,97695,1,0,0:0:0:0:
256,192,97695,1,0,0:0:0:0:
182,192,97805,1,0,0:0:0:0:
36,192,97805,1,0,0:0:0:0:
329,192,97805,1,0,0:0:0:0:
402,192,97915,1,0,0:0:0:0:
475,192,97915,1,0,0:0:0:0:
109,192,97915,1,0,0:0:0:0:
329,192,98024,1,0,0:0:0:0:
182,192,98024,1,0,0:0:0:0:
36,192,98024,1,0,0:0:0:0:
256,192,98134,1,0,0:0:0:0:
402,192,98134,1,0,0:0:0:0:
329,192,98244,1,0,0:0:0:0:
475,192,98244,1,0,0:0:0:0:
182,192,98244,1,0,0:0:0:0:
109,192,98244,1,0,0:0:0:0:
256,192,98354,1,0,0:0:0:0:
36,192,98354,1,0,0:0:0:0:
329,192,98464,1,0,0:0:0:0:
402,192,98464,1,0,0:0:0:0:
109,192,98464,1,0,0:0:0:0:
182,192,98464,1,0,0:0:0:0:
475,192,98574,1,0,0:0:0:0:
36,192,98574,1,0,0:0:0:0:
256,192,98684,1,0,0:0:0:0:
182,192,98684,1,0,0:0:0:0:
402,192,98684,1,0,0:0:0:0:
109,192,98793,1,0,0:0:0:0:
36,192,98793,1,0,0:0:0:0:
475,192,98793,1,0,0:0:0:0:
182,192,98848,1,0,0:0:0:0:
329,192,98903,1,0,0:0:0:0:
402,192,98903,1,0,0:0:0:0:
256,192,98903,1,0,0:0:0:0:
182,192,99013,1,0,0:0:0:0:
475,192,99013,1,0,0:0:0:0:
109,192,99123,1,0,0:0:0:0:
36,192,99123,1,0,0:0:0:0:
402,192,99123,1,0,0:0:0:0:
256,192,99123,1,0,0:0:0:0:
329,192,99233,1,0,0:0:0:0:
182,192,99233,1,0,0:0:0:0:
256,192,99343,1,0,0:0:0:0:
475,192,99343,1,0,0:0:0:0:
402,192,99453,1,0,0:0:0:0:
329,192,99453,1,0,0:0:0:0:
109,192,99453,1,0,0:0:0:0:
182,192,99562,1,0,0:0:0:0:
256,192,99562,1,0,0:0:0:0:
36,192,99562,1,0,0:0:0:0:
329,192,99672,1,0,0:0:0:0:
475,192,99672,1,0,0:0:0:0:
109,192,99672,1,0,0:0:0:0:
182,192,99782,1,0,0:0:0:0:
402,192,99782,1,0,0:0:0:0:
109,192,99892,1,0,0:0:0:0:
36,192,99892,1,0,0:0:0:0:
256,192,99892,1,0,0:0:0:0:
329,192,99892,1,0,0:0:0:0:
402,192,100002,1,0,0:0:0:0:
475,192,100002,1,0,0:0:0:0:
182,192,100002,1,0,0:0:0:0:
329,192,100112,1,0,0:0:0:0:
256,192,100112,1,0,0:0:0:0:
109,192,100112,1,0,0:0:0:0:
182,192,100222,1,0,0:0:0:0:
36,192,100222,1,0,0:0:0:0:
475,192,100222,1,0,0:0:0:0:
109,192,100332,1,0,0:0:0:0:
402,192,100332,1,0,0:0:0:0:
256,192,100332,1,0,0:0:0:0:
329,192,100442,1,0,0:0:0:0:
475,192,100442,1,0,0:0:0:0:
182,192,100442,1,0,0:0:0:0:
109,192,100552,1,0,0:0:0:0:
36,192,100552,1,0,0:0:0:0:
402,192,100552,1,0,0:0:0:0:
182,192,100662,1,0,0:0:0:0:
329,192,100662,1,0,0:0:0:0:
475,192,100662,1,0,0:0:0:0:
256,192,100772,1,0,0:0:0:0:
109,192,100772,1,0,0:0:0:0:
182,192,100882,1,0,0:0:0:0:
36,192,100882,1,0,0:0:0:0:
329,192,100882,1,0,0:0:0:0:
402,192,100882,1,0,0:0:0:0:
256,192,100992,1,0,0:0:0:0:
475,192,100992,1,0,0:0:0:0:
182,192,101101,1,0,0:0:0:0:
109,192,101101,1,0,0:0:0:0:
402,192,101101,1,0,0:0:0:0:
329,192,101101,1,0,0:0:0:0:
36,192,101211,1,0,0:0:0:0:
475,192,101211,1,0,0:0:0:0:
256,192,101321,1,0,0:0:0:0:
329,192,101321,1,0,0:0:0:0:
109,192,101321,1,0,0:0:0:0:
402,192,101431,1,0,0:0:0:0:
475,192,101431,1,0,0:0:0:0:
36,192,101431,1,0,0:0:0:0:
182,192,101541,1,0,0:0:0:0:
109,192,101541,1,0,0:0:0:0:
256,192,101541,1,0,0:0:0:0:
329,192,101651,1,0,0:0:0:0:
36,192,101651,1,0,0:0:0:0:
402,192,101761,1,0,0:0:0:0:
475,192,101761,1,0,0:0:0:0:
109,192,101761,1,0,0:0:0:0:
256,192,101761,1,0,0:0:0:0:
182,192,101870,1,0,0:0:0:0:
329,192,101870,1,0,0:0:0:0:
109,192,101980,1,0,0:0:0:0:
36,192,101980,1,0,0:0:0:0:
475,192,101980,1,0,0:0:0:0:
402,192,102090,1,0,0:0:0:0:
329,192,102090,1,0,0:0:0:0:
182,192,102090,1,0,0:0:0:0:
256,192,102200,1,0,0:0:0:0:
475,192,102200,1,0,0:0:0:0:
182,192,102310,1,0,0:0:0:0:
329,192,102310,1,0,0:0:0:0:
402,192,102310,1,0,0:0:0:0:
36,192,102310,1,0,0:0:0:0:
256,192,102420,1,0,0:0:0:0:
109,192,102420,1,0,0:0:0:0:
475,192,102420,1,0,0:0:0:0:
182,192,102530,1,0,0:0:0:0:
36,192,102530,1,0,0:0:0:0:
402,192,102530,1,0,0:0:0:0:
329,192,102639,1,0,0:0:0:0:
475,192,102639,1,0,0:0:0:0:
109,192,102639,1,0,0:0:0:0:
402,192,102749,1,0,0:0:0:0:
36,192,102749,1,0,0:0:0:0:
182,192,102749,1,0,0:0:0:0:
256,192,102859,1,0,0:0:0:0:
475,192,102859,1,0,0:0:0:0:
329,192,102969,1,0,0:0:0:0:
402,192,102969,1,0,0:0:0:0:
182,192,102969,1,0,0:0:0:0:
36,192,102969,1,0,0:0:0:0:
109,192,103079,1,0,0:0:0:0:
475,192,103079,1,0,0:0:0:0:
182,192,103189,1,0,0:0:0:0:
256,192,103189,1,0,0:0:0:0:
402,192,103189,1,0,0:0:0:0:
109,192,103299,1,0,0:0:0:0:
36,192,103299,1,0,0:0:0:0:
329,192,103299,1,0,0:0:0:0:
475,192,103299,1,0,0:0:0:0:
182,192,103408,1,0,0:0:0:0:
402,192,103408,1,0,0:0:0:0:
256,192,103518,1,0,0:0:0:0:
329,192,103518,1,0,0:0:0:0:
109,192,103518,1,0,0:0:0:0:
182,192,103628,1,0,0:0:0:0:
402,192,103628,1,0,0:0:0:0:
475,192,103628,1,0,0:0:0:0:
36,192,103628,1,0,0:0:0:0:
109,192,103738,1,0,0:0:0:0:
329,192,103738,1,0,0:0:0:0:
256,192,103848,1,0,0:0:0:0:
475,192,103848,1,0,0:0:0:0:
182,192,103848,1,0,0:0:0:0:
329,192,103958,1,0,0:0:0:0:
402,192,103958,1,0,0:0:0:0:
36,192,103958,1,0,0:0:0:0:
109,192,104068,1,0,0:0:0:0:
475,192,104068,1,0,0:0:0:0:
182,192,104123,1,0,0:0:0:0:
256,192,104178,1,0,0:0:0:0:
329,192,104178,1,0,0:0:0:0:
36,192,104288,1,0,0:0:0:0:
109,192,104288,1,0,0:0:0:0:
402,192,104288,1,0,0:0:0:0:
475,192,104288,1,0,0:0:0:0:
329,192,104398,1,0,0:0:0:0:
182,192,104398,1,0,0:0:0:0:
256,192,104508,1,0,0:0:0:0:
402,192,104508,1,0,0:0:0:0:
36,192,104508,1,0,0:0:0:0:
109,192,104618,1,0,0:0:0:0:
182,192,104618,1,0,0:0:0:0:
329,192,104618,1,0,0:0:0:0:
475,192,104618,1,0,0:0:0:0:
36,192,104728,1,0,0:0:0:0:
402,192,104728,1,0,0:0:0:0:
256,192,104838,1,0,0:0:0:0:
182,192,104838,1,0,0:0:0:0:
475,192,104838,1,0,0:0:0:0:
402,192,104947,1,0,0:0:0:0:
329,192,104947,1,0,0:0:0:0:
109,192,104947,1,0,0:0:0:0:
475,192,105057,1,0,0:0:0:0:
182,192,105057,1,0,0:0:0:0:
402,192,105167,1,0,0:0:0:0:
256,192,105167,1,0,0:0:0:0:
36,192,105167,1,0,0:0:0:0:
182,192,105277,1,0,0:0:0:0:
109,192,105277,1,0,0:0:0:0:
329,192,105277,1,0,0:0:0:0:
402,192,105387,1,0,0:0:0:0:
475,192,105387,1,0,0:0:0:0:
36,192,105387,1,0,0:0:0:0:
109,192,105497,1,0,0:0:0:0:
329,192,105497,1,0,0:0:0:0:
182,192,105607,1,0,0:0:0:0:
402,192,105607,1,0,0:0:0:0:
475,192,105607,1,0,0:0:0:0:
36,192,105607,1,0,0:0:0:0:
109,192,105716,1,0,0:0:0:0:
329,192,105716,1,0,0:0:0:0:
256,192,105826,1,0,0:0:0:0:
36,192,105826,1,0,0:0:0:0:
402,192,105826,1,0,0:0:0:0:
329,192,105936,1,0,0:0:0:0:
109,192,105936,1,0,0:0:0:0:
182,192,105936,1,0,0:0:0:0:
475,192,105936,1,0,0:0:0:0:
256,192,106046,1,0,0:0:0:0:
36,192,106046,1,0,0:0:0:0:
402,192,106046,1,0,0:0:0:0:
182,192,106156,1,0,0:0:0:0:
329,192,106156,1,0,0:0:0:0:
109,192,106266,1,0,0:0:0:0:
402,192,106266,1,0,0:0:0:0:
475,192,106266,1,0,0:0:0:0:
36,192,106266,1,0,0:0:0:0:
182,192,106376,1,0,0:0:0:0:
329,192,106376,1,0,0:0:0:0:
402,192,106485,1,0,0:0:0:0:
36,192,106485,1,0,0:0:0:0:
109,192,106485,1,0,0:0:0:0:
256,192,106595,1,0,0:0:0:0:
475,192,106595,1,0,0:0:0:0:
329,192,106595,1,0,0:0:0:0:
182,192,106595,1,0,0:0:0:0:
109,192,106705,1,0,0:0:0:0:
36,192,106705,1,0,0:0:0:0:
402,192,106705,1,0,0:0:0:0:
256,192,106815,1,0,0:0:0:0:
182,192,106815,1,0,0:0:0:0:
329,192,106925,1,0,0:0:0:0:
402,192,106925,1,0,0:0:0:0:
475,192,106925,1,0,0:0:0:0:
109,192,106925,1,0,0:0:0:0:
182,192,107035,1,0,0:0:0:0:
256,192,107035,1,0,0:0:0:0:
329,192,107145,1,0,0:0:0:0:
109,192,107145,1,0,0:0:0:0:
36,192,107255,1,0,0:0:0:0:
475,192,107255,1,0,0:0:0:0:
182,192,107255,1,0,0:0:0:0:
256,192,107365,1,0,0:0:0:0:
402,192,107365,1,0,0:0:0:0:
329,192,107365,1,0,0:0:0:0:
109,192,107365,1,0,0:0:0:0:
182,192,107475,1,0,0:0:0:0:
36,192,107475,1,0,0:0:0:0:
475,192,107475,1,0,0:0:0:0:
402,192,107585,1,0,0:0:0:0:
329,192,107585,1,0,0:0:0:0:
109,192,107585,1,0,0:0:0:0:
256,192,107695,1,0,0:0:0:0:
182,192,107695,1,0,0:0:0:0:
475,192,107695,1,0,0:0:0:0:
36,192,107695,1,0,0:0:0:0:
109,192,107805,1,0,0:0:0:0:
329,192,107805,1,0,0:0:0:0:
402,192,107805,1,0,0:0:0:0:
256,192,107915,1,0,0:0:0:0:
36,192,107915,1,0,0:0:0:0:
475,192,107915,1,0,0:0:0:0:
182,192,108024,1,0,0:0:0:0:
109,192,108024,1,0,0:0:0:0:
402,192,108024,1,0,0:0:0:0:
329,192,108024,1,0,0:0:0:0:
256,192,108134,1,0,0:0:0:0:
36,192,108134,1,0,0:0:0:0:
475,192,108134,1,0,0:0:0:0:
109,192,108244,1,0,0:0:0:0:
329,192,108244,1,0,0:0:0:0:
256,192,108354,1,0,0:0:0:0:
182,192,108354,1,0,0:0:0:0:
109,192,108464,1,0,0:0:0:0:
36,192,108464,1,0,0:0:0:0:
402,192,108464,1,0,0:0:0:0:
256,192,108574,1,0,0:0:0:0:
182,192,108574,1,0,0:0:0:0:
329,192,108574,1,0,0:0:0:0:
475,192,108574,1,0,0:0:0:0:
109,192,108684,1,0,0:0:0:0:
36,192,108684,1,0,0:0:0:0:
182,192,108793,1,0,0:0:0:0:
402,192,108793,1,0,0:0:0:0:
256,192,108793,1,0,0:0:0:0:
36,192,108903,1,0,0:0:0:0:
329,192,108903,1,0,0:0:0:0:
109,192,109013,1,0,0:0:0:0:
256,192,109013,1,0,0:0:0:0:
475,192,109013,1,0,0:0:0:0:
402,192,109013,1,0,0:0:0:0:
182,192,109123,1,0,0:0:0:0:
36,192,109123,1,0,0:0:0:0:
329,192,109123,1,0,0:0:0:0:
109,192,109233,1,0,0:0:0:0:
256,192,109233,1,0,0:0:0:0:
402,192,109233,1,0,0:0:0:0:
182,192,109343,1,0,0:0:0:0:
475,192,109343,1,0,0:0:0:0:
109,192,109398,1,0,0:0:0:0:
36,192,109453,1,0,0:0:0:0:
402,192,109453,1,0,0:0:0:0:
329,192,109453,1,0,0:0:0:0:
256,192,109453,1,0,0:0:0:0:
182,192,109562,1,0,0:0:0:0:
109,192,109562,1,0,0:0:0:0:
475,192,109562,1,0,0:0:0:0:
256,192,109672,1,0,0:0:0:0:
402,192,109672,1,0,0:0:0:0:
36,192,109672,1,0,0:0:0:0:
109,192,109782,1,0,0:0:0:0:
182,192,109782,1,0,0:0:0:0:
36,192,109892,1,0,0:0:0:0:
329,192,109892,1,0,0:0:0:0:
475,192,109892,1,0,0:0:0:0:
256,192,109892,1,0,0:0:0:0:
402,192,110002,1,0,0:0:0:0:
182,192,110002,1,0,0:0:0:0:
109,192,110112,1,0,0:0:0:0:
36,192,110112,1,0,0:0:0:0:
329,192,110112,1,0,0:0:0:0:
256,192,110112,1,0,0:0:0:0:
182,192,110222,1,0,0:0:0:0:
475,192,110222,1,0,0:0:0:0:
109,192,110332,1,0,0:0:0:0:
36,192,110332,1,0,0:0:0:0:
402,192,110332,1,0,0:0:0:0:
329,192,110332,1,0,0:0:0:0:
256,192,110332,1,0,0:0:0:0:
182,192,110442,1,0,0:0:0:0:
475,192,110442,1,0,0:0:0:0:
402,192,110552,1,0,0:0:0:0:
256,192,110552,1,0,0:0:0:0:
109,192,110552,1,0,0:0:0:0:
36,192,110662,1,0,0:0:0:0:
329,192,110662,1,0,0:0:0:0:
475,192,110662,1,0,0:0:0:0:
109,192,110772,1,0,0:0:0:0:
402,192,110772,1,0,0:0:0:0:
182,192,110772,1,0,0:0:0:0:
256,192,110882,1,0,0:0:0:0:
36,192,110882,1,0,0:0:0:0:
475,192,110882,1,0,0:0:0:0:
182,192,110992,1,0,0:0:0:0:
402,192,110992,1,0,0:0:0:0:
329,192,110992,1,0,0:0:0:0:
109,192,111101,1,0,0:0:0:0:
256,192,111101,1,0,0:0:0:0:
475,192,111101,1,0,0:0:0:0:
36,192,111211,1,0,0:0:0:0:
329,192,111211,1,0,0:0:0:0:
256,192,111321,1,0,0:0:0:0:
182,192,111321,1,0,0:0:0:0:
109,192,111321,1,0,0:0:0:0:
402,192,111321,1,0,0:0:0:0:
36,192,111431,1,0,0:0:0:0:
475,192,111431,1,0,0:0:0:0:
329,192,111431,1,0,0:0:0:0:
182,192,111541,1,0,0:0:0:0:
109,192,111541,1,0,0:0:0:0:
402,192,111541,1,0,0:0:0:0:
256,192,111541,1,0,0:0:0:0:
329,192,111651,1,0,0:0:0:0:
475,192,111651,1,0,0:0:0:0:
36,192,111761,1,0,0:0:0:0:
109,192,111761,1,0,0:0:0:0:
402,192,111761,1,0,0:0:0:0:
182,192,111870,1,0,0:0:0:0:
256,192,111870,1,0,0:0:0:0:
329,192,111870,1,0,0:0:0:0:
402,192,111980,1,0,0:0:0:0:
475,192,111980,1,0,0:0:0:0:
109,192,111980,1,0,0:0:0:0:
36,192,111980,1,0,0:0:0:0:
182,192,112090,1,0,0:0:0:0:
329,192,112090,1,0,0:0:0:0:
256,192,112200,1,0,0:0:0:0:
475,192,112200,1,0,0:0:0:0:
109,192,112200,1,0,0:0:0:0:
182,192,112310,1,0,0:0:0:0:
36,192,112310,1,0,0:0:0:0:
402,192,112310,1,0,0:0:0:0:
329,192,112420,1,0,0:0:0:0:
256,192,112420,1,0,0:0:0:0:
109,192,112420,1,0,0:0:0:0:
402,192,112530,1,0,0:0:0:0:
475,192,112530,1,0,0:0:0:0:
36,192,112530,1,0,0:0:0:0:
329,192,112639,1,0,0:0:0:0:
256,192,112639,1,0,0:0:0:0:
182,192,112639,1,0,0:0:0:0:
109,192,112639,1,0,0:0:0:0:
402,192,112749,1,0,0:0:0:0:
475,192,112749,1,0,0:0:0:0:
36,192,112749,1,0,0:0:0:0:
109,192,112859,1,0,0:0:0:0:
256,192,112859,1,0,0:0:0:0:
329,192,112859,1,0,0:0:0:0:
182,192,112969,1,0,0:0:0:0:
475,192,112969,1,0,0:0:0:0:
402,192,112969,1,0,0:0:0:0:
36,192,112969,1,0,0:0:0:0:
329,192,113079,1,0,0:0:0:0:
109,192,113079,1,0,0:0:0:0:
402,192,113189,1,0,0:0:0:0:
182,192,113189,1,0,0:0:0:0:
36,192,113189,1,0,0:0:0:0:
256,192,113189,1,0,0:0:0:0:
329,192,113299,1,0,0:0:0:0:
109,192,113299,1,0,0:0:0:0:
402,192,113408,1,0,0:0:0:0:
475,192,113408,1,0,0:0:0:0:
256,192,113408,1,0,0:0:0:0:
182,192,113408,1,0,0:0:0:0:
329,192,113518,1,0,0:0:0:0:
109,192,113518,1,0,0:0:0:0:
36,192,113518,1,0,0:0:0:0:
256,192,113628,1,0,0:0:0:0:
182,192,113628,1,0,0:0:0:0:
402,192,113628,1,0,0:0:0:0:
475,192,113738,1,0,0:0:0:0:
329,192,113738,1,0,0:0:0:0:
109,192,113738,1,0,0:0:0:0:
182,192,113848,1,0,0:0:0:0:
402,192,113848,1,0,0:0:0:0:
36,192,113848,1,0,0:0:0:0:
109,192,113958,1,0,0:0:0:0:
329,192,113958,1,0,0:0:0:0:
475,192,113958,1,0,0:0:0:0:
182,192,114068,1,0,0:0:0:0:
256,192,114068,1,0,0:0:0:0:
402,192,114068,1,0,0:0:0:0:
109,192,114178,1,0,0:0:0:0:
36,192,114178,1,0,0:0:0:0:
329,192,114178,1,0,0:0:0:0:
182,192,114288,1,0,0:0:0:0:
475,192,114288,1,0,0:0:0:0:
402,192,114288,1,0,0:0:0:0:
109,192,114398,1,0,0:0:0:0:
36,192,114398,1,0,0:0:0:0:
329,192,114398,1,0,0:0:0:0:
256,192,114398,1,0,0:0:0:0:
182,192,114508,1,0,0:0:0:0:
402,192,114508,1,0,0:0:0:0:
475,192,114508,1,0,0:0:0:0:
329,192,114618,1,0,0:0:0:0:
109,192,114618,1,0,0:0:0:0:
36,192,114618,1,0,0:0:0:0:
182,192,114672,1,0,0:0:0:0:
402,192,114672,1,0,0:0:0:0:
475,192,114728,1,0,0:0:0:0:
256,192,114728,1,0,0:0:0:0:
182,192,114838,1,0,0:0:0:0:
109,192,114838,1,0,0:0:0:0:
36,192,114838,1,0,0:0:0:0:
402,192,114838,1,0,0:0:0:0:
256,192,114947,1,0,0:0:0:0:
329,192,114947,1,0,0:0:0:0:
475,192,114947,1,0,0:0:0:0:
182,192,115057,1,0,0:0:0:0:
109,192,115057,1,0,0:0:0:0:
402,192,115057,1,0,0:0:0:0:
329,192,115167,1,0,0:0:0:0:
36,192,115167,1,0,0:0:0:0:
475,192,115167,1,0,0:0:0:0:
109,192,115277,1,0,0:0:0:0:
402,192,115277,1,0,0:0:0:0:
256,192,115277,1,0,0:0:0:0:
182,192,115387,1,0,0:0:0:0:
329,192,115387,1,0,0:0:0:0:
256,192,115497,1,0,0:0:0:0:
109,192,115497,1,0,0:0:0:0:
402,192,115497,1,0,0:0:0:0:
36,192,115497,1,0,0:0:0:0:
182,192,115607,1,0,0:0:0:0:
329,192,115607,1,0,0:0:0:0:
475,192,115716,1,0,0:0:0:0:
402,192,115716,1,0,0:0:0:0:
109,192,115716,1,0,0:0:0:0:
36,192,115716,1,0,0:0:0:0:
329,192,115826,1,0,0:0:0:0:
256,192,115826,1,0,0:0:0:0:
182,192,115826,1,0,0:0:0:0:
402,192,115936,1,0,0:0:0:0:
475,192,115936,1,0,0:0:0:0:
109,192,115936,1,0,0:0:0:0:
36,192,115936,1,0,0:0:0:0:
182,192,116046,1,0,0:0:0:0:
329,192,116046,1,0,0:0:0:0:
109,192,116156,1,0,0:0:0:0:
36,192,116156,1,0,0:0:0:0:
256,192,116156,1,0,0:0:0:0:
402,192,116156,1,0,0:0:0:0:
329,192,116266,1,0,0:0:0:0:
475,192,116266,1,0,0:0:0:0:
182,192,116266,1,0,0:0:0:0:
402,192,116376,1,0,0:0:0:0:
109,192,116376,1,0,0:0:0:0:
256,192,116485,1,0,0:0:0:0:
36,192,116485,1,0,0:0:0:0:
182,192,116485,1,0,0:0:0:0:
475,192,116485,1,0,0:0:0:0:
329,192,116595,1,0,0:0:0:0:
402,192,116595,1,0,0:0:0:0:
109,192,116595,1,0,0:0:0:0:
182,192,116705,1,0,0:0:0:0:
475,192,116705,1,0,0:0:0:0:
256,192,116705,1,0,0:0:0:0:
402,192,116815,1,0,0:0:0:0:
329,192,116815,1,0,0:0:0:0:
109,192,116815,1,0,0:0:0:0:
36,192,116815,1,0,0:0:0:0:
182,192,116925,1,0,0:0:0:0:
475,192,116925,1,0,0:0:0:0:
329,192,117035,1,0,0:0:0:0:
109,192,117035,1,0,0:0:0:0:
256,192,117035,1,0,0:0:0:0:
402,192,117145,1,0,0:0:0:0:
475,192,117145,1,0,0:0:0:0:
182,192,117145,1,0,0:0:0:0:
36,192,117145,1,0,0:0:0:0:
329,192,117255,1,0,0:0:0:0:
109,192,117255,1,0,0:0:0:0:
256,192,117365,1,0,0:0:0:0:
182,192,117365,1,0,0:0:0:0:
402,192,117365,1,0,0:0:0:0:
36,192,117805,1,0,0:0:0:0:
256,192,117805,1,0,0:0:0:0:
182,192,117915,1,0,0:0:0:0:
109,192,118024,1,0,0:0:0:0:
36,192,118134,1,0,0:0:0:0:
256,192,118134,1,0,0:0:0:0:
475,192,118134,1,0,0:0:0:0:
329,192,118244,1,0,0:0:0:0:
402,192,118354,1,0,0:0:0:0:
475,192,118464,1,0,0:0:0:0:
256,192,118464,1,0,0:0:0:0:
36,192,118464,1,0,0:0:0:0:
182,192,118574,1,0,0:0:0:0:
109,192,118684,1,0,0:0:0:0:
36,192,118793,1,0,0:0:0:0:
475,192,118793,1,0,0:0:0:0:
182,192,118793,1,0,0:0:0:0:
402,192,118903,1,0,0:0:0:0:
329,192,119013,1,0,0:0:0:0:
256,192,119123,1,0,0:0:0:0:
109,192,119123,1,0,0:0:0:0:
36,192,119123,1,0,0:0:0:0:
329,192,119233,1,0,0:0:0:0:
402,192,119343,1,0,0:0:0:0:
182,192,119453,1,0,0:0:0:0:
36,192,119453,1,0,0:0:0:0:
475,192,119453,1,0,0:0:0:0:
109,192,119562,1,0,0:0:0:0:
182,192,119672,1,0,0:0:0:0:
256,192,119782,1,0,0:0:0:0:
402,192,119782,1,0,0:0:0:0:
475,192,119782,1,0,0:0:0:0:
36,192,119782,1,0,0:0:0:0:
109,192,119892,1,0,0:0:0:0:
182,192,119947,1,0,0:0:0:0:
36,192,120002,1,0,0:0:0:0:
402,192,120112,1,0,0:0:0:0:
475,192,120112,1,0,0:0:0:0:
109,192,120112,1,0,0:0:0:0:
329,192,120222,1,0,0:0:0:0:
256,192,120332,1,0,0:0:0:0:
182,192,120442,1,0,0:0:0:0:
109,192,120442,1,0,0:0:0:0:
36,192,120442,1,0,0:0:0:0:
475,192,120442,1,0,0:0:0:0:
402,192,120552,1,0,0:0:0:0:
329,192,120662,1,0,0:0:0:0:
256,192,120772,1,0,0:0:0:0:
36,192,120772,1,0,0:0:0:0:
182,192,120772,1,0,0:0:0:0:
329,192,120882,1,0,0:0:0:0:
402,192,120992,1,0,0:0:0:0:
475,192,121101,1,0,0:0:0:0:
109,192,121101,1,0,0:0:0:0:
36,192,121101,1,0,0:0:0:0:
182,192,121211,1,0,0:0:0:0:
256,192,121321,1,0,0:0:0:0:
329,192,121431,1,0,0:0:0:0:
475,192,121431,1,0,0:0:0:0:
256,192,121541,1,0,0:0:0:0:
402,192,121541,1,0,0:0:0:0:
182,192,121651,1,0,0:0:0:0:
329,192,121651,1,0,0:0:0:0:
109,192,121761,1,0,0:0:0:0:
36,192,121761,1,0,0:0:0:0:
475,192,121761,1,0,0:0:0:0:
402,192,121761,1,0,0:0:0:0:
329,192,121870,1,0,0:0:0:0:
182,192,121870,1,0,0:0:0:0:
256,192,121980,1,0,0:0:0:0:
182,192,122090,1,0,0:0:0:0:
329,192,122090,1,0,0:0:0:0:
109,192,122200,1,0,0:0:0:0:
402,192,122200,1,0,0:0:0:0:
475,192,122310,1,0,0:0:0:0:
36,192,122310,1,0,0:0:0:0:
182,192,122420,1,0,0:0:0:0:
329,192,122420,1,0,0:0:0:0:
109,192,122530,1,0,0:0:0:0:
402,192,122530,1,0,0:0:0:0:
182,192,122639,1,0,0:0:0:0:
329,192,122639,1,0,0:0:0:0:
109,192,122749,1,0,0:0:0:0:
402,192,122749,1,0,0:0:0:0:
36,192,122859,1,0,0:0:0:0:
475,192,122859,1,0,0:0:0:0:
109,192,122969,1,0,0:0:0:0:
402,192,122969,1,0,0:0:0:0:
182,192,123079,1,0,0:0:0:0:
256,192,123079,1,0,0:0:0:0:
329,192,123079,1,0,0:0:0:0:
36,192,123079,1,0,0:0:0:0:
475,192,123079,1,0,0:0:0:0:
109,192,123189,1,0,0:0:0:0:
402,192,123189,1,0,0:0:0:0:
182,192,123299,1,0,0:0:0:0:
109,192,123408,1,0,0:0:0:0:
329,192,123408,1,0,0:0:0:0:
36,192,123408,1,0,0:0:0:0:
402,192,123518,1,0,0:0:0:0:
256,192,123518,1,0,0:0:0:0:
329,192,123628,1,0,0:0:0:0:
402,192,123738,1,0,0:0:0:0:
475,192,123738,1,0,0:0:0:0:
182,192,123738,1,0,0:0:0:0:
36,192,123738,1,0,0:0:0:0:
109,192,123848,1,0,0:0:0:0:
329,192,123848,1,0,0:0:0:0:
182,192,123958,1,0,0:0:0:0:
109,192,124068,1,0,0:0:0:0:
402,192,124178,1,0,0:0:0:0:
36,192,124178,1,0,0:0:0:0:
329,192,124288,1,0,0:0:0:0:
402,192,124398,1,0,0:0:0:0:
475,192,124398,1,0,0:0:0:0:
109,192,124398,1,0,0:0:0:0:
182,192,124508,1,0,0:0:0:0:
329,192,124508,1,0,0:0:0:0:
109,192,124618,1,0,0:0:0:0:
182,192,124728,1,0,0:0:0:0:
475,192,124728,1,0,0:0:0:0:
402,192,124728,1,0,0:0:0:0:
329,192,124838,1,0,0:0:0:0:
36,192,124838,1,0,0:0:0:0:
402,192,124947,1,0,0:0:0:0:
329,192,125057,1,0,0:0:0:0:
109,192,125057,1,0,0:0:0:0:
182,192,125167,1,0,0:0:0:0:
475,192,125167,1,0,0:0:0:0:
109,192,125277,1,0,0:0:0:0:
182,192,125387,1,0,0:0:0:0:
36,192,125387,1,0,0:0:0:0:
402,192,125387,1,0,0:0:0:0:
329,192,125497,1,0,0:0:0:0:
109,192,125497,1,0,0:0:0:0:
402,192,125607,1,0,0:0:0:0:
329,192,125716,1,0,0:0:0:0:
256,192,125716,1,0,0:0:0:0:
182,192,125716,1,0,0:0:0:0:
36,192,125716,1,0,0:0:0:0:
109,192,125826,1,0,0:0:0:0:
402,192,125826,1,0,0:0:0:0:
36,192,125936,1,0,0:0:0:0:
182,192,125936,1,0,0:0:0:0:
329,192,125936,1,0,0:0:0:0:
256,192,125936,1,0,0:0:0:0:
402,192,126046,1,0,0:0:0:0:
402,192,126156,1,0,0:0:0:0:
402,192,126266,1,0,0:0:0:0:
36,192,126376,1,0,0:0:0:0:
182,192,126376,1,0,0:0:0:0:
256,192,126376,1,0,0:0:0:0:
329,192,126376,1,0,0:0:0:0:
402,192,126485,1,0,0:0:0:0:
109,192,126485,1,0,0:0:0:0:
329,192,126595,1,0,0:0:0:0:
256,192,126595,1,0,0:0:0:0:
182,192,126595,1,0,0:0:0:0:
36,192,126595,1,0,0:0:0:0:
402,192,126705,1,0,0:0:0:0:
402,192,126815,1,0,0:0:0:0:
402,192,126925,1,0,0:0:0:0:
329,192,127035,1,0,0:0:0:0:
256,192,127035,1,0,0:0:0:0:
36,192,127035,1,0,0:0:0:0:
182,192,127035,1,0,0:0:0:0:
109,192,127145,1,0,0:0:0:0:
329,192,127255,1,0,0:0:0:0:
256,192,127255,1,0,0:0:0:0:
182,192,127255,1,0,0:0:0:0:
36,192,127255,1,0,0:0:0:0:
109,192,127365,1,0,0:0:0:0:
109,192,127475,1,0,0:0:0:0:
109,192,127585,1,0,0:0:0:0:
182,192,127695,1,0,0:0:0:0:
475,192,127695,1,0,0:0:0:0:
402,192,127695,1,0,0:0:0:0:
256,192,127695,1,0,0:0:0:0:
329,192,127805,1,0,0:0:0:0:
182,192,127915,128,0,128354:0:0:0:0:
475,192,127915,128,0,128354:0:0:0:0:
256,192,127915,128,0,128354:0:0:0:0:
402,192,127915,128,0,128354:0:0:0:0:
109,192,127915,1,0,0:0:0:0:
36,192,127915,1,0,0:0:0:0:
