osu file format v14

[General]
AudioFilename: protoflicker.ogg
AudioLeadIn: 0
PreviewTime: 97585
Countdown: 0
SampleSet: Soft
StackLeniency: 0.7
Mode: 3
LetterboxInBreaks: 0
SpecialStyle: 0
WidescreenStoryboard: 0

[Editor]
Bookmarks: 15299,29013,42727,66727,83870,97585,125013,138727,152442,159299
DistanceSpacing: 0.8
BeatDivisor: 6
GridSize: 4
TimelineZoom: 1.950001

[Metadata]
Title:Protoflicker
TitleUnicode:Protoflicker
Artist:Silentroom
ArtistUnicode:Silentroom
Creator:Plutes
Version:Master
Source:Lanota
Tags:chordjacks electronic instrumental video game triplets Featured Artist fa noxy games inc rainbow frontier chapter iv 4 progressive trance
BeatmapID:3905859
BeatmapSetID:1895281

[Difficulty]
HPDrainRate:8.8
CircleSize:4
OverallDifficulty:8.5
ApproachRate:5
SliderMultiplier:1.4
SliderTickRate:1

[Events]
//Background and Video events
0,0,"jeje.jpg",0,0
//Break Periods
//Storyboard Layer 0 (Background)
//Storyboard Layer 1 (Fail)
//Storyboard Layer 2 (Pass)
//Storyboard Layer 3 (Foreground)
//Storyboard Layer 4 (Overlay)
//Storyboard Sound Samples

[TimingPoints]
1585,428.571428571429,4,2,1,40,1,0
13585,-100,4,2,1,35,0,0
15299,-100,4,2,1,25,0,0
23870,-100,4,2,1,30,0,0
29013,-100,4,2,1,32,0,0
32442,-100,4,2,1,34,0,0
35870,-100,4,2,1,36,0,0
42727,-100,4,2,1,45,0,0
66727,-100,4,2,1,25,0,0
70156,-100,4,2,1,20,0,0
78727,-100,4,2,1,45,0,0
80442,-100,4,2,1,50,0,0
83870,-100,4,2,1,40,0,0
97585,-100,4,2,1,50,0,1
124585,-100,4,2,1,50,0,0
125013,-100,4,2,1,55,0,1
138299,-100,4,2,1,55,0,0
138727,-100,4,2,1,60,0,1
152442,-100,4,2,1,35,0,0
159299,-100,4,2,1,55,0,0
162727,-100,4,2,1,60,0,0

[HitObjects]
448,192,1585,5,0,0:0:0:0:
64,192,1585,1,0,0:0:0:0:
320,192,1727,1,0,0:0:0:0:
192,192,1870,1,0,0:0:0:0:
64,192,1870,1,0,0:0:0:0:
448,192,2013,1,0,0:0:0:0:
320,192,2013,1,0,0:0:0:0:
448,192,2156,1,0,0:0:0:0:
64,192,2156,1,0,0:0:0:0:
192,192,2299,1,0,0:0:0:0:
320,192,2442,1,0,0:0:0:0:
448,192,2442,1,0,0:0:0:0:
64,192,2585,1,0,0:0:0:0:
320,192,2727,1,0,0:0:0:0:
64,192,2870,1,0,0:0:0:0:
448,192,2870,1,0,0:0:0:0:
192,192,3013,1,0,0:0:0:0:
320,192,3013,1,0,0:0:0:0:
448,192,3156,1,0,0:0:0:0:
192,192,3156,1,0,0:0:0:0:
320,192,3299,1,0,0:0:0:0:
448,192,3299,1,0,0:0:0:0:
64,192,3442,1,0,0:0:0:0:
448,192,3585,1,0,0:0:0:0:
320,192,3727,1,0,0:0:0:0:
192,192,3727,1,0,0:0:0:0:
64,192,3870,1,0,0:0:0:0:
448,192,4013,1,0,0:0:0:0:
320,192,4156,1,0,0:0:0:0:
192,192,4299,1,0,0:0:0:0:
64,192,4442,1,0,0:0:0:0:
448,192,4585,1,0,0:0:0:0:
320,192,4585,1,0,0:0:0:0:
64,192,4727,1,0,0:0:0:0:
448,192,4727,1,0,0:0:0:0:
320,192,4870,1,0,0:0:0:0:
192,192,4870,1,0,0:0:0:0:
192,192,5013,1,0,0:0:0:0:
64,192,5013,1,0,0:0:0:0:
448,192,5156,1,0,0:0:0:0:
320,192,5299,1,0,0:0:0:0:
64,192,5442,1,0,0:0:0:0:
448,192,5442,1,0,0:0:0:0:
192,192,5585,1,0,0:0:0:0:
320,192,5727,1,0,0:0:0:0:
64,192,5870,1,0,0:0:0:0:
448,192,6013,1,0,0:0:0:0:
192,192,6156,1,0,0:0:0:0:
320,192,6299,1,0,0:0:0:0:
64,192,6299,1,0,0:0:0:0:
448,192,6442,1,0,0:0:0:0:
192,192,6442,1,0,0:0:0:0:
320,192,6585,1,0,0:0:0:0:
448,192,6585,1,0,0:0:0:0:
64,192,6727,1,0,0:0:0:0:
320,192,6727,1,0,0:0:0:0:
192,192,6870,1,0,0:0:0:0:
448,192,7013,1,0,0:0:0:0:
192,192,7156,1,0,0:0:0:0:
320,192,7156,1,0,0:0:0:0:
64,192,7299,1,0,0:0:0:0:
448,192,7442,1,0,0:0:0:0:
192,192,7585,1,0,0:0:0:0:
320,192,7727,1,0,0:0:0:0:
64,192,7870,1,0,0:0:0:0:
448,192,8013,1,0,0:0:0:0:
320,192,8013,1,0,0:0:0:0:
192,192,8156,1,0,0:0:0:0:
320,192,8299,1,0,0:0:0:0:
192,192,8442,1,0,0:0:0:0:
64,192,8442,1,0,0:0:0:0:
448,192,8442,1,0,0:0:0:0:
320,192,8585,1,0,0:0:0:0:
448,192,8585,1,0,0:0:0:0:
64,192,8727,1,0,0:0:0:0:
192,192,8727,1,0,0:0:0:0:
320,192,8870,1,0,0:0:0:0:
448,192,8870,1,0,0:0:0:0:
192,192,8870,1,0,0:0:0:0:
64,192,9013,1,0,0:0:0:0:
448,192,9013,1,0,0:0:0:0:
192,192,9156,1,0,0:0:0:0:
320,192,9156,1,0,0:0:0:0:
64,192,9299,1,0,0:0:0:0:
320,192,9299,1,0,0:0:0:0:
448,192,9299,1,0,0:0:0:0:
192,192,9442,1,0,0:0:0:0:
448,192,9442,1,0,0:0:0:0:
320,192,9585,1,0,0:0:0:0:
64,192,9585,1,0,0:0:0:0:
192,192,9727,1,0,0:0:0:0:
64,192,9727,1,0,0:0:0:0:
448,192,9727,1,0,0:0:0:0:
320,192,9799,1,0,0:0:0:0:
192,192,9870,1,0,0:0:0:0:
64,192,9870,1,0,0:0:0:0:
448,192,10013,1,0,0:0:0:0:
320,192,10013,1,0,0:0:0:0:
320,192,10156,1,0,0:0:0:0:
192,192,10156,1,0,0:0:0:0:
64,192,10156,1,0,0:0:0:0:
192,192,10299,1,0,0:0:0:0:
448,192,10299,1,0,0:0:0:0:
64,192,10442,1,0,0:0:0:0:
448,192,10442,1,0,0:0:0:0:
192,192,10585,1,0,0:0:0:0:
320,192,10585,1,0,0:0:0:0:
448,192,10585,1,0,0:0:0:0:
64,192,10727,1,0,0:0:0:0:
320,192,10727,1,0,0:0:0:0:
192,192,10870,1,0,0:0:0:0:
448,192,10870,1,0,0:0:0:0:
448,192,11013,1,0,0:0:0:0:
320,192,11013,1,0,0:0:0:0:
64,192,11013,1,0,0:0:0:0:
192,192,11156,1,0,0:0:0:0:
64,192,11156,1,0,0:0:0:0:
320,192,11227,1,0,0:0:0:0:
448,192,11299,1,0,0:0:0:0:
192,192,11299,1,0,0:0:0:0:
192,192,11442,1,0,0:0:0:0:
64,192,11442,1,0,0:0:0:0:
320,192,11442,1,0,0:0:0:0:
448,192,11585,1,0,0:0:0:0:
320,192,11585,1,0,0:0:0:0:
64,192,11727,1,0,0:0:0:0:
448,192,11727,1,0,0:0:0:0:
448,192,11870,1,0,0:0:0:0:
192,192,11870,1,0,0:0:0:0:
320,192,11870,1,0,0:0:0:0:
320,192,12013,1,0,0:0:0:0:
64,192,12013,1,0,0:0:0:0:
192,192,12156,1,0,0:0:0:0:
320,192,12156,1,0,0:0:0:0:
448,192,12156,1,0,0:0:0:0:
64,192,12299,1,0,0:0:0:0:
192,192,12299,1,0,0:0:0:0:
448,192,12299,1,0,0:0:0:0:
320,192,12442,1,0,0:0:0:0:
64,192,12585,1,0,0:0:0:0:
320,192,12727,1,0,0:0:0:0:
192,192,12727,1,0,0:0:0:0:
64,192,12727,1,0,0:0:0:0:
448,192,12870,1,0,0:0:0:0:
192,192,12870,1,0,0:0:0:0:
64,192,13013,1,0,0:0:0:0:
320,192,13013,1,0,0:0:0:0:
192,192,13013,1,0,0:0:0:0:
448,192,13156,1,0,0:0:0:0:
64,192,13156,1,0,0:0:0:0:
320,192,13156,1,0,0:0:0:0:
192,192,13299,1,0,0:0:0:0:
448,192,13442,1,0,0:0:0:0:
320,192,13585,1,0,0:0:0:0:
448,192,13585,1,0,0:0:0:0:
64,192,13585,1,0,0:0:0:0:
192,192,13727,1,0,0:0:0:0:
64,192,13727,1,0,0:0:0:0:
192,192,13870,1,0,0:0:0:0:
64,192,13870,1,0,0:0:0:0:
64,192,14013,1,0,0:0:0:0:
448,192,14013,1,0,0:0:0:0:
448,192,14156,1,0,0:0:0:0:
320,192,14156,1,0,0:0:0:0:
448,192,14299,1,0,0:0:0:0:
320,192,14299,1,0,0:0:0:0:
448,192,14442,1,0,0:0:0:0:
192,192,14442,1,0,0:0:0:0:
320,192,14585,1,0,0:0:0:0:
192,192,14585,1,0,0:0:0:0:
320,192,14727,1,0,0:0:0:0:
192,192,14727,1,0,0:0:0:0:
192,192,14870,1,0,0:0:0:0:
64,192,14870,1,0,0:0:0:0:
448,192,14870,1,0,0:0:0:0:
320,192,14870,1,0,0:0:0:0:
192,192,15299,1,0,0:0:0:0:
320,192,15299,1,0,0:0:0:0:
448,192,15299,1,0,0:0:0:0:
192,192,15442,1,0,0:0:0:0:
64,192,15442,1,0,0:0:0:0:
448,192,15585,1,0,0:0:0:0:
320,192,15585,1,0,0:0:0:0:
192,192,15727,1,0,0:0:0:0:
64,192,15727,1,0,0:0:0:0:
448,192,15727,1,0,0:0:0:0:
320,192,15799,1,0,0:0:0:0:
192,192,15870,1,0,0:0:0:0:
64,192,15942,1,0,0:0:0:0:
448,192,16013,1,0,0:0:0:0:
320,192,16085,1,0,0:0:0:0:
192,192,16156,1,0,0:0:0:0:
64,192,16156,1,0,0:0:0:0:
448,192,16156,1,0,0:0:0:0:
320,192,16299,1,0,0:0:0:0:
448,192,16299,1,0,0:0:0:0:
320,192,16442,1,0,0:0:0:0:
192,192,16442,1,0,0:0:0:0:
192,192,16585,1,0,0:0:0:0:
448,192,16585,1,0,0:0:0:0:
64,192,16585,1,0,0:0:0:0:
64,192,16870,1,0,0:0:0:0:
320,192,16870,1,0,0:0:0:0:
64,192,17013,1,0,0:0:0:0:
192,192,17013,1,0,0:0:0:0:
448,192,17013,1,0,0:0:0:0:
448,192,17442,1,0,0:0:0:0:
320,192,17442,1,0,0:0:0:0:
64,192,17442,1,0,0:0:0:0:
320,192,17585,1,0,0:0:0:0:
448,192,17727,1,0,0:0:0:0:
192,192,17727,1,0,0:0:0:0:
192,192,17870,1,0,0:0:0:0:
64,192,17870,1,0,0:0:0:0:
320,192,17870,1,0,0:0:0:0:
192,192,18156,1,0,0:0:0:0:
64,192,18156,1,0,0:0:0:0:
192,192,18299,1,0,0:0:0:0:
320,192,18299,1,0,0:0:0:0:
448,192,18299,1,0,0:0:0:0:
448,192,18442,1,0,0:0:0:0:
64,192,18442,1,0,0:0:0:0:
320,192,18585,1,0,0:0:0:0:
448,192,18585,1,0,0:0:0:0:
192,192,18727,1,0,0:0:0:0:
64,192,18727,1,0,0:0:0:0:
320,192,18727,1,0,0:0:0:0:
448,192,18870,1,0,0:0:0:0:
64,192,18870,1,0,0:0:0:0:
192,192,19013,1,0,0:0:0:0:
320,192,19013,1,0,0:0:0:0:
448,192,19156,1,0,0:0:0:0:
320,192,19156,1,0,0:0:0:0:
64,192,19156,1,0,0:0:0:0:
192,192,19227,1,0,0:0:0:0:
320,192,19299,1,0,0:0:0:0:
448,192,19370,1,0,0:0:0:0:
64,192,19442,1,0,0:0:0:0:
192,192,19513,1,0,0:0:0:0:
320,192,19585,1,0,0:0:0:0:
448,192,19585,1,0,0:0:0:0:
64,192,19585,1,0,0:0:0:0:
320,192,19727,1,0,0:0:0:0:
448,192,19727,1,0,0:0:0:0:
192,192,19870,1,0,0:0:0:0:
64,192,19870,1,0,0:0:0:0:
448,192,20013,1,0,0:0:0:0:
320,192,20013,1,0,0:0:0:0:
64,192,20013,1,0,0:0:0:0:
192,192,20156,1,0,0:0:0:0:
64,192,20156,1,0,0:0:0:0:
448,192,20156,1,0,0:0:0:0:
320,192,20299,1,0,0:0:0:0:
192,192,20299,1,0,0:0:0:0:
448,192,20299,1,0,0:0:0:0:
192,192,20442,1,0,0:0:0:0:
64,192,20442,1,0,0:0:0:0:
320,192,20442,1,0,0:0:0:0:
448,192,20870,1,0,0:0:0:0:
320,192,20870,1,0,0:0:0:0:
192,192,20870,1,0,0:0:0:0:
64,192,21013,1,0,0:0:0:0:
320,192,21013,1,0,0:0:0:0:
448,192,21156,1,0,0:0:0:0:
192,192,21156,1,0,0:0:0:0:
448,192,21299,1,0,0:0:0:0:
64,192,21299,1,0,0:0:0:0:
320,192,21299,1,0,0:0:0:0:
448,192,21442,1,0,0:0:0:0:
192,192,21585,1,0,0:0:0:0:
64,192,21585,1,0,0:0:0:0:
320,192,21656,1,0,0:0:0:0:
448,192,21727,1,0,0:0:0:0:
64,192,21727,1,0,0:0:0:0:
192,192,21727,1,0,0:0:0:0:
320,192,21799,1,0,0:0:0:0:
448,192,21870,1,0,0:0:0:0:
64,192,21942,1,0,0:0:0:0:
192,192,22013,1,0,0:0:0:0:
320,192,22085,1,0,0:0:0:0:
192,192,22156,1,0,0:0:0:0:
64,192,22156,1,0,0:0:0:0:
448,192,22156,1,0,0:0:0:0:
448,192,22299,1,0,0:0:0:0:
64,192,22299,1,0,0:0:0:0:
192,192,22442,1,0,0:0:0:0:
320,192,22442,1,0,0:0:0:0:
448,192,22585,1,0,0:0:0:0:
64,192,22585,1,0,0:0:0:0:
192,192,22585,1,0,0:0:0:0:
320,192,22656,1,0,0:0:0:0:
192,192,22727,1,0,0:0:0:0:
64,192,22799,1,0,0:0:0:0:
448,192,22870,1,0,0:0:0:0:
320,192,22942,1,0,0:0:0:0:
448,192,23013,1,0,0:0:0:0:
64,192,23013,1,0,0:0:0:0:
192,192,23013,1,0,0:0:0:0:
448,192,23156,1,0,0:0:0:0:
320,192,23156,1,0,0:0:0:0:
64,192,23299,1,0,0:0:0:0:
192,192,23299,1,0,0:0:0:0:
64,192,23442,1,0,0:0:0:0:
448,192,23442,1,0,0:0:0:0:
320,192,23442,1,0,0:0:0:0:
192,192,23585,1,0,0:0:0:0:
448,192,23585,1,0,0:0:0:0:
320,192,23727,1,0,0:0:0:0:
64,192,23727,1,0,0:0:0:0:
64,192,23870,1,0,0:0:0:0:
448,192,23870,1,0,0:0:0:0:
192,192,23870,1,0,0:0:0:0:
448,192,24013,1,0,0:0:0:0:
192,192,24156,1,0,0:0:0:0:
320,192,24299,1,0,0:0:0:0:
448,192,24299,1,0,0:0:0:0:
64,192,24299,1,0,0:0:0:0:
64,192,24442,1,0,0:0:0:0:
320,192,24585,1,0,0:0:0:0:
192,192,24585,1,0,0:0:0:0:
192,192,24727,1,0,0:0:0:0:
64,192,24727,1,0,0:0:0:0:
448,192,24727,1,0,0:0:0:0:
320,192,24870,1,0,0:0:0:0:
192,192,24942,1,0,0:0:0:0:
448,192,25013,1,0,0:0:0:0:
64,192,25013,1,0,0:0:0:0:
320,192,25156,1,0,0:0:0:0:
448,192,25156,1,0,0:0:0:0:
64,192,25156,1,0,0:0:0:0:
192,192,25299,1,0,0:0:0:0:
448,192,25442,1,0,0:0:0:0:
320,192,25585,1,0,0:0:0:0:
192,192,25585,1,0,0:0:0:0:
64,192,25585,1,0,0:0:0:0:
320,192,25727,1,0,0:0:0:0:
64,192,25870,1,0,0:0:0:0:
448,192,26013,1,0,0:0:0:0:
320,192,26013,1,0,0:0:0:0:
192,192,26013,1,0,0:0:0:0:
64,192,26085,1,0,0:0:0:0:
192,192,26156,1,0,0:0:0:0:
320,192,26227,1,0,0:0:0:0:
448,192,26299,1,0,0:0:0:0:
192,192,26370,1,0,0:0:0:0:
64,192,26442,1,0,0:0:0:0:
320,192,26442,1,0,0:0:0:0:
448,192,26442,1,0,0:0:0:0:
192,192,26585,1,0,0:0:0:0:
64,192,26585,1,0,0:0:0:0:
320,192,26727,1,0,0:0:0:0:
448,192,26727,1,0,0:0:0:0:
192,192,26870,1,0,0:0:0:0:
64,192,26870,1,0,0:0:0:0:
448,192,26870,1,0,0:0:0:0:
320,192,27013,1,0,0:0:0:0:
64,192,27013,1,0,0:0:0:0:
192,192,27013,1,0,0:0:0:0:
448,192,27156,1,0,0:0:0:0:
320,192,27156,1,0,0:0:0:0:
192,192,27156,1,0,0:0:0:0:
448,192,27299,1,0,0:0:0:0:
64,192,27299,1,0,0:0:0:0:
320,192,27299,1,0,0:0:0:0:
64,192,27442,1,0,0:0:0:0:
320,192,27585,1,0,0:0:0:0:
192,192,27727,1,0,0:0:0:0:
448,192,27727,1,0,0:0:0:0:
64,192,27727,1,0,0:0:0:0:
448,192,27870,1,0,0:0:0:0:
320,192,27870,1,0,0:0:0:0:
192,192,28013,1,0,0:0:0:0:
64,192,28013,1,0,0:0:0:0:
64,192,28156,1,0,0:0:0:0:
448,192,28156,1,0,0:0:0:0:
320,192,28156,1,0,0:0:0:0:
192,192,28299,1,0,0:0:0:0:
320,192,28442,1,0,0:0:0:0:
448,192,28442,1,0,0:0:0:0:
192,192,28513,1,0,0:0:0:0:
448,192,28585,1,0,0:0:0:0:
320,192,28585,1,0,0:0:0:0:
64,192,28585,1,0,0:0:0:0:
192,192,28656,1,0,0:0:0:0:
320,192,28727,1,0,0:0:0:0:
448,192,28799,1,0,0:0:0:0:
64,192,28870,1,0,0:0:0:0:
192,192,28942,1,0,0:0:0:0:
448,192,29013,1,0,0:0:0:0:
320,192,29013,1,0,0:0:0:0:
64,192,29013,1,0,0:0:0:0:
320,192,29156,1,0,0:0:0:0:
192,192,29156,1,0,0:0:0:0:
192,192,29299,1,0,0:0:0:0:
64,192,29299,1,0,0:0:0:0:
448,192,29299,1,0,0:0:0:0:
448,192,29442,1,0,0:0:0:0:
64,192,29442,1,0,0:0:0:0:
320,192,29442,1,0,0:0:0:0:
192,192,29513,1,0,0:0:0:0:
320,192,29585,1,0,0:0:0:0:
448,192,29656,1,0,0:0:0:0:
64,192,29727,1,0,0:0:0:0:
192,192,29799,1,0,0:0:0:0:
64,192,29870,1,0,0:0:0:0:
320,192,29870,1,0,0:0:0:0:
448,192,29870,1,0,0:0:0:0:
320,192,30013,1,0,0:0:0:0:
192,192,30013,1,0,0:0:0:0:
64,192,30156,1,0,0:0:0:0:
448,192,30156,1,0,0:0:0:0:
320,192,30299,1,0,0:0:0:0:
192,192,30299,1,0,0:0:0:0:
64,192,30299,1,0,0:0:0:0:
448,192,30442,1,0,0:0:0:0:
320,192,30442,1,0,0:0:0:0:
64,192,30585,1,0,0:0:0:0:
448,192,30585,1,0,0:0:0:0:
320,192,30727,1,0,0:0:0:0:
192,192,30727,1,0,0:0:0:0:
64,192,30727,1,0,0:0:0:0:
448,192,30870,1,0,0:0:0:0:
320,192,30870,1,0,0:0:0:0:
192,192,31013,1,0,0:0:0:0:
64,192,31013,1,0,0:0:0:0:
64,192,31156,1,0,0:0:0:0:
320,192,31156,1,0,0:0:0:0:
448,192,31156,1,0,0:0:0:0:
192,192,31299,1,0,0:0:0:0:
320,192,31299,1,0,0:0:0:0:
448,192,31442,1,0,0:0:0:0:
64,192,31442,1,0,0:0:0:0:
192,192,31585,1,0,0:0:0:0:
64,192,31585,1,0,0:0:0:0:
448,192,31585,1,0,0:0:0:0:
64,192,31727,1,0,0:0:0:0:
320,192,31727,1,0,0:0:0:0:
192,192,31799,1,0,0:0:0:0:
448,192,31870,1,0,0:0:0:0:
320,192,31870,1,0,0:0:0:0:
320,192,32013,1,0,0:0:0:0:
192,192,32013,1,0,0:0:0:0:
64,192,32013,1,0,0:0:0:0:
448,192,32156,1,0,0:0:0:0:
64,192,32156,1,0,0:0:0:0:
320,192,32299,1,0,0:0:0:0:
192,192,32299,1,0,0:0:0:0:
192,192,32442,1,0,0:0:0:0:
320,192,32442,1,0,0:0:0:0:
448,192,32442,1,0,0:0:0:0:
64,192,32585,1,0,0:0:0:0:
448,192,32585,1,0,0:0:0:0:
192,192,32727,1,0,0:0:0:0:
64,192,32727,1,0,0:0:0:0:
64,192,32870,1,0,0:0:0:0:
320,192,32870,1,0,0:0:0:0:
448,192,32870,1,0,0:0:0:0:
192,192,32942,1,0,0:0:0:0:
320,192,33013,1,0,0:0:0:0:
448,192,33085,1,0,0:0:0:0:
64,192,33156,1,0,0:0:0:0:
192,192,33227,1,0,0:0:0:0:
320,192,33299,1,0,0:0:0:0:
448,192,33299,1,0,0:0:0:0:
64,192,33299,1,0,0:0:0:0:
192,192,33370,1,0,0:0:0:0:
320,192,33442,1,0,0:0:0:0:
448,192,33442,1,0,0:0:0:0:
448,192,33585,1,0,0:0:0:0:
64,192,33585,1,0,0:0:0:0:
320,192,33727,1,0,0:0:0:0:
192,192,33727,1,0,0:0:0:0:
64,192,33727,1,0,0:0:0:0:
448,192,33870,1,0,0:0:0:0:
320,192,33870,1,0,0:0:0:0:
64,192,34013,1,0,0:0:0:0:
448,192,34013,1,0,0:0:0:0:
64,192,34156,1,0,0:0:0:0:
192,192,34156,1,0,0:0:0:0:
320,192,34156,1,0,0:0:0:0:
192,192,34299,1,0,0:0:0:0:
448,192,34299,1,0,0:0:0:0:
64,192,34442,1,0,0:0:0:0:
320,192,34442,1,0,0:0:0:0:
192,192,34585,1,0,0:0:0:0:
320,192,34585,1,0,0:0:0:0:
448,192,34585,1,0,0:0:0:0:
64,192,34727,1,0,0:0:0:0:
192,192,34727,1,0,0:0:0:0:
448,192,34870,1,0,0:0:0:0:
64,192,34870,1,0,0:0:0:0:
448,192,35013,1,0,0:0:0:0:
320,192,35013,1,0,0:0:0:0:
192,192,35013,1,0,0:0:0:0:
192,192,35156,1,0,0:0:0:0:
64,192,35156,1,0,0:0:0:0:
448,192,35227,1,0,0:0:0:0:
320,192,35299,1,0,0:0:0:0:
64,192,35299,1,0,0:0:0:0:
192,192,35370,1,0,0:0:0:0:
320,192,35442,1,0,0:0:0:0:
448,192,35442,1,0,0:0:0:0:
64,192,35442,1,0,0:0:0:0:
192,192,35513,1,0,0:0:0:0:
320,192,35585,1,0,0:0:0:0:
448,192,35656,1,0,0:0:0:0:
64,192,35727,1,0,0:0:0:0:
192,192,35799,1,0,0:0:0:0:
448,192,35870,1,0,0:0:0:0:
64,192,35870,1,0,0:0:0:0:
320,192,35870,1,0,0:0:0:0:
448,192,36013,1,0,0:0:0:0:
320,192,36013,1,0,0:0:0:0:
192,192,36156,1,0,0:0:0:0:
64,192,36156,1,0,0:0:0:0:
448,192,36299,1,0,0:0:0:0:
320,192,36299,1,0,0:0:0:0:
64,192,36299,1,0,0:0:0:0:
192,192,36370,1,0,0:0:0:0:
64,192,36442,1,0,0:0:0:0:
448,192,36513,1,0,0:0:0:0:
320,192,36585,1,0,0:0:0:0:
192,192,36656,1,0,0:0:0:0:
448,192,36727,1,0,0:0:0:0:
64,192,36727,1,0,0:0:0:0:
320,192,36727,1,0,0:0:0:0:
64,192,36870,1,0,0:0:0:0:
192,192,36870,1,0,0:0:0:0:
448,192,37013,1,0,0:0:0:0:
320,192,37013,1,0,0:0:0:0:
192,192,37156,1,0,0:0:0:0:
64,192,37156,1,0,0:0:0:0:
320,192,37156,1,0,0:0:0:0:
448,192,37299,1,0,0:0:0:0:
64,192,37299,1,0,0:0:0:0:
320,192,37442,1,0,0:0:0:0:
192,192,37442,1,0,0:0:0:0:
320,192,37585,1,0,0:0:0:0:
448,192,37585,1,0,0:0:0:0:
64,192,37585,1,0,0:0:0:0:
192,192,37727,1,0,0:0:0:0:
448,192,37727,1,0,0:0:0:0:
320,192,37870,1,0,0:0:0:0:
64,192,37870,1,0,0:0:0:0:
64,192,38013,1,0,0:0:0:0:
192,192,38013,1,0,0:0:0:0:
448,192,38013,1,0,0:0:0:0:
320,192,38156,1,0,0:0:0:0:
448,192,38156,1,0,0:0:0:0:
192,192,38299,1,0,0:0:0:0:
64,192,38299,1,0,0:0:0:0:
448,192,38442,1,0,0:0:0:0:
320,192,38442,1,0,0:0:0:0:
64,192,38442,1,0,0:0:0:0:
448,192,38585,1,0,0:0:0:0:
64,192,38585,1,0,0:0:0:0:
192,192,38656,1,0,0:0:0:0:
320,192,38727,1,0,0:0:0:0:
448,192,38727,1,0,0:0:0:0:
192,192,38870,1,0,0:0:0:0:
64,192,38870,1,0,0:0:0:0:
320,192,38870,1,0,0:0:0:0:
448,192,39013,1,0,0:0:0:0:
192,192,39013,1,0,0:0:0:0:
64,192,39156,1,0,0:0:0:0:
320,192,39156,1,0,0:0:0:0:
320,192,39299,1,0,0:0:0:0:
448,192,39299,1,0,0:0:0:0:
192,192,39299,1,0,0:0:0:0:
192,192,39442,1,0,0:0:0:0:
64,192,39442,1,0,0:0:0:0:
448,192,39585,1,0,0:0:0:0:
320,192,39585,1,0,0:0:0:0:
64,192,39727,1,0,0:0:0:0:
448,192,39727,1,0,0:0:0:0:
192,192,39727,1,0,0:0:0:0:
320,192,39799,1,0,0:0:0:0:
448,192,39870,1,0,0:0:0:0:
64,192,39942,1,0,0:0:0:0:
192,192,40013,1,0,0:0:0:0:
320,192,40085,1,0,0:0:0:0:
192,192,40156,1,0,0:0:0:0:
64,192,40156,1,0,0:0:0:0:
448,192,40156,1,0,0:0:0:0:
320,192,40299,1,0,0:0:0:0:
64,192,40299,1,0,0:0:0:0:
192,192,40442,1,0,0:0:0:0:
448,192,40442,1,0,0:0:0:0:
320,192,40585,1,0,0:0:0:0:
64,192,40585,1,0,0:0:0:0:
192,192,40585,1,0,0:0:0:0:
448,192,40727,1,0,0:0:0:0:
320,192,40727,1,0,0:0:0:0:
64,192,40870,1,0,0:0:0:0:
448,192,40870,1,0,0:0:0:0:
320,192,41013,1,0,0:0:0:0:
192,192,41013,1,0,0:0:0:0:
448,192,41013,1,0,0:0:0:0:
64,192,41156,1,0,0:0:0:0:
320,192,41156,1,0,0:0:0:0:
192,192,41299,1,0,0:0:0:0:
448,192,41299,1,0,0:0:0:0:
448,192,41442,1,0,0:0:0:0:
320,192,41442,1,0,0:0:0:0:
64,192,41442,1,0,0:0:0:0:
192,192,41585,1,0,0:0:0:0:
320,192,41585,1,0,0:0:0:0:
64,192,41727,1,0,0:0:0:0:
448,192,41727,1,0,0:0:0:0:
192,192,41870,1,0,0:0:0:0:
64,192,41870,1,0,0:0:0:0:
448,192,41870,1,0,0:0:0:0:
320,192,42013,1,0,0:0:0:0:
448,192,42013,1,0,0:0:0:0:
192,192,42085,1,0,0:0:0:0:
64,192,42156,1,0,0:0:0:0:
448,192,42156,1,0,0:0:0:0:
320,192,42227,1,0,0:0:0:0:
448,192,42299,1,0,0:0:0:0:
64,192,42299,1,0,0:0:0:0:
192,192,42299,1,0,0:0:0:0:
320,192,42370,1,0,0:0:0:0:
64,192,42442,1,0,0:0:0:0:
192,192,42442,1,0,0:0:0:0:
448,192,42513,1,0,0:0:0:0:
320,192,42585,1,0,0:0:0:0:
192,192,42585,1,0,0:0:0:0:
64,192,42656,1,0,0:0:0:0:
448,192,42727,1,0,0:0:0:0:
320,192,42727,1,0,0:0:0:0:
192,192,42727,1,0,0:0:0:0:
448,192,42870,1,0,0:0:0:0:
64,192,42870,1,0,0:0:0:0:
320,192,43013,1,0,0:0:0:0:
192,192,43013,1,0,0:0:0:0:
320,192,43156,1,0,0:0:0:0:
64,192,43156,1,0,0:0:0:0:
448,192,43156,1,0,0:0:0:0:
192,192,43299,1,0,0:0:0:0:
448,192,43299,1,0,0:0:0:0:
320,192,43442,1,0,0:0:0:0:
448,192,43442,1,0,0:0:0:0:
192,192,43585,1,0,0:0:0:0:
64,192,43585,1,0,0:0:0:0:
320,192,43585,1,0,0:0:0:0:
64,192,43727,1,0,0:0:0:0:
448,192,43727,1,0,0:0:0:0:
320,192,43870,1,0,0:0:0:0:
192,192,43870,1,0,0:0:0:0:
192,192,44013,1,0,0:0:0:0:
64,192,44013,1,0,0:0:0:0:
448,192,44013,1,0,0:0:0:0:
320,192,44156,1,0,0:0:0:0:
64,192,44156,1,0,0:0:0:0:
192,192,44299,1,0,0:0:0:0:
64,192,44299,1,0,0:0:0:0:
320,192,44442,1,0,0:0:0:0:
192,192,44442,1,0,0:0:0:0:
448,192,44442,1,0,0:0:0:0:
448,192,44585,1,0,0:0:0:0:
64,192,44585,1,0,0:0:0:0:
64,192,44727,1,0,0:0:0:0:
320,192,44727,1,0,0:0:0:0:
192,192,44870,1,0,0:0:0:0:
320,192,44870,1,0,0:0:0:0:
448,192,44870,1,0,0:0:0:0:
64,192,45013,1,0,0:0:0:0:
448,192,45013,1,0,0:0:0:0:
320,192,45156,1,0,0:0:0:0:
192,192,45156,1,0,0:0:0:0:
192,192,45299,1,0,0:0:0:0:
64,192,45299,1,0,0:0:0:0:
448,192,45299,1,0,0:0:0:0:
320,192,45442,1,0,0:0:0:0:
192,192,45442,1,0,0:0:0:0:
448,192,45585,1,0,0:0:0:0:
64,192,45585,1,0,0:0:0:0:
320,192,45585,1,0,0:0:0:0:
192,192,45727,1,0,0:0:0:0:
64,192,45727,1,0,0:0:0:0:
448,192,45727,1,0,0:0:0:0:
448,192,45870,1,0,0:0:0:0:
64,192,45870,1,0,0:0:0:0:
320,192,45870,1,0,0:0:0:0:
320,192,46013,1,0,0:0:0:0:
192,192,46013,1,0,0:0:0:0:
448,192,46156,1,0,0:0:0:0:
192,192,46156,1,0,0:0:0:0:
64,192,46156,1,0,0:0:0:0:
448,192,46299,1,0,0:0:0:0:
320,192,46299,1,0,0:0:0:0:
64,192,46442,1,0,0:0:0:0:
448,192,46442,1,0,0:0:0:0:
320,192,46585,1,0,0:0:0:0:
192,192,46585,1,0,0:0:0:0:
64,192,46585,1,0,0:0:0:0:
448,192,46727,1,0,0:0:0:0:
320,192,46727,1,0,0:0:0:0:
192,192,46727,1,0,0:0:0:0:
448,192,46870,1,0,0:0:0:0:
320,192,46870,1,0,0:0:0:0:
64,192,46870,1,0,0:0:0:0:
448,192,47013,1,0,0:0:0:0:
192,192,47013,1,0,0:0:0:0:
64,192,47013,1,0,0:0:0:0:
320,192,47156,1,0,0:0:0:0:
192,192,47156,1,0,0:0:0:0:
64,192,47299,1,0,0:0:0:0:
320,192,47299,1,0,0:0:0:0:
192,192,47442,1,0,0:0:0:0:
64,192,47442,1,0,0:0:0:0:
448,192,47442,1,0,0:0:0:0:
320,192,47585,1,0,0:0:0:0:
192,192,47585,1,0,0:0:0:0:
448,192,47727,1,0,0:0:0:0:
320,192,47727,1,0,0:0:0:0:
192,192,47870,1,0,0:0:0:0:
64,192,47870,1,0,0:0:0:0:
448,192,47870,1,0,0:0:0:0:
192,192,48013,1,0,0:0:0:0:
320,192,48013,1,0,0:0:0:0:
64,192,48156,1,0,0:0:0:0:
448,192,48156,1,0,0:0:0:0:
192,192,48299,1,0,0:0:0:0:
64,192,48299,1,0,0:0:0:0:
320,192,48299,1,0,0:0:0:0:
448,192,48442,1,0,0:0:0:0:
192,192,48442,1,0,0:0:0:0:
320,192,48585,1,0,0:0:0:0:
448,192,48585,1,0,0:0:0:0:
192,192,48727,1,0,0:0:0:0:
64,192,48727,1,0,0:0:0:0:
448,192,48727,1,0,0:0:0:0:
320,192,48870,1,0,0:0:0:0:
64,192,48870,1,0,0:0:0:0:
192,192,48942,1,0,0:0:0:0:
448,192,49013,1,0,0:0:0:0:
64,192,49013,1,0,0:0:0:0:
192,192,49156,1,0,0:0:0:0:
320,192,49156,1,0,0:0:0:0:
448,192,49156,1,0,0:0:0:0:
448,192,49299,1,0,0:0:0:0:
320,192,49299,1,0,0:0:0:0:
64,192,49299,1,0,0:0:0:0:
320,192,49442,1,0,0:0:0:0:
192,192,49442,1,0,0:0:0:0:
64,192,49442,1,0,0:0:0:0:
448,192,49585,1,0,0:0:0:0:
192,192,49585,1,0,0:0:0:0:
320,192,49585,1,0,0:0:0:0:
64,192,49727,1,0,0:0:0:0:
448,192,49727,1,0,0:0:0:0:
64,192,49870,1,0,0:0:0:0:
192,192,49870,1,0,0:0:0:0:
192,192,50013,1,0,0:0:0:0:
320,192,50013,1,0,0:0:0:0:
448,192,50013,1,0,0:0:0:0:
448,192,50156,1,0,0:0:0:0:
64,192,50156,1,0,0:0:0:0:
320,192,50156,1,0,0:0:0:0:
320,192,50299,1,0,0:0:0:0:
192,192,50299,1,0,0:0:0:0:
64,192,50299,1,0,0:0:0:0:
448,192,50442,1,0,0:0:0:0:
64,192,50442,1,0,0:0:0:0:
192,192,50442,1,0,0:0:0:0:
320,192,50585,1,0,0:0:0:0:
192,192,50585,1,0,0:0:0:0:
448,192,50727,1,0,0:0:0:0:
64,192,50727,1,0,0:0:0:0:
448,192,50870,1,0,0:0:0:0:
320,192,50870,1,0,0:0:0:0:
64,192,50870,1,0,0:0:0:0:
192,192,51013,1,0,0:0:0:0:
320,192,51013,1,0,0:0:0:0:
448,192,51156,1,0,0:0:0:0:
320,192,51156,1,0,0:0:0:0:
64,192,51299,1,0,0:0:0:0:
192,192,51299,1,0,0:0:0:0:
448,192,51299,1,0,0:0:0:0:
320,192,51442,1,0,0:0:0:0:
192,192,51442,1,0,0:0:0:0:
64,192,51585,1,0,0:0:0:0:
320,192,51585,1,0,0:0:0:0:
448,192,51727,1,0,0:0:0:0:
192,192,51727,1,0,0:0:0:0:
64,192,51727,1,0,0:0:0:0:
320,192,51870,1,0,0:0:0:0:
192,192,51870,1,0,0:0:0:0:
448,192,52013,1,0,0:0:0:0:
320,192,52013,1,0,0:0:0:0:
64,192,52156,1,0,0:0:0:0:
192,192,52156,1,0,0:0:0:0:
448,192,52156,1,0,0:0:0:0:
320,192,52299,1,0,0:0:0:0:
64,192,52299,1,0,0:0:0:0:
192,192,52370,1,0,0:0:0:0:
320,192,52442,1,0,0:0:0:0:
448,192,52442,1,0,0:0:0:0:
64,192,52442,1,0,0:0:0:0:
448,192,52585,1,0,0:0:0:0:
192,192,52585,1,0,0:0:0:0:
64,192,52727,1,0,0:0:0:0:
320,192,52727,1,0,0:0:0:0:
192,192,52727,1,0,0:0:0:0:
448,192,52870,1,0,0:0:0:0:
320,192,52870,1,0,0:0:0:0:
64,192,52870,1,0,0:0:0:0:
192,192,53013,1,0,0:0:0:0:
448,192,53013,1,0,0:0:0:0:
320,192,53013,1,0,0:0:0:0:
64,192,53156,1,0,0:0:0:0:
448,192,53156,1,0,0:0:0:0:
192,192,53299,1,0,0:0:0:0:
320,192,53299,1,0,0:0:0:0:
320,192,53442,1,0,0:0:0:0:
64,192,53442,1,0,0:0:0:0:
448,192,53442,1,0,0:0:0:0:
448,192,53585,1,0,0:0:0:0:
192,192,53585,1,0,0:0:0:0:
64,192,53585,1,0,0:0:0:0:
448,192,53727,1,0,0:0:0:0:
320,192,53727,1,0,0:0:0:0:
192,192,53727,1,0,0:0:0:0:
320,192,53870,1,0,0:0:0:0:
192,192,53870,1,0,0:0:0:0:
64,192,53870,1,0,0:0:0:0:
448,192,54013,1,0,0:0:0:0:
64,192,54013,1,0,0:0:0:0:
192,192,54156,1,0,0:0:0:0:
320,192,54156,1,0,0:0:0:0:
448,192,54299,1,0,0:0:0:0:
320,192,54299,1,0,0:0:0:0:
64,192,54299,1,0,0:0:0:0:
192,192,54442,1,0,0:0:0:0:
64,192,54442,1,0,0:0:0:0:
448,192,54585,1,0,0:0:0:0:
320,192,54585,1,0,0:0:0:0:
192,192,54727,1,0,0:0:0:0:
320,192,54727,1,0,0:0:0:0:
448,192,54727,1,0,0:0:0:0:
64,192,54870,1,0,0:0:0:0:
448,192,54870,1,0,0:0:0:0:
320,192,55013,1,0,0:0:0:0:
192,192,55013,1,0,0:0:0:0:
192,192,55156,1,0,0:0:0:0:
64,192,55156,1,0,0:0:0:0:
448,192,55156,1,0,0:0:0:0:
320,192,55299,1,0,0:0:0:0:
192,192,55299,1,0,0:0:0:0:
448,192,55442,1,0,0:0:0:0:
320,192,55442,1,0,0:0:0:0:
192,192,55585,1,0,0:0:0:0:
64,192,55585,1,0,0:0:0:0:
448,192,55585,1,0,0:0:0:0:
320,192,55727,1,0,0:0:0:0:
64,192,55727,1,0,0:0:0:0:
192,192,55870,1,0,0:0:0:0:
448,192,55870,1,0,0:0:0:0:
320,192,56013,1,0,0:0:0:0:
192,192,56013,1,0,0:0:0:0:
64,192,56013,1,0,0:0:0:0:
448,192,56156,1,0,0:0:0:0:
320,192,56156,1,0,0:0:0:0:
64,192,56156,1,0,0:0:0:0:
448,192,56299,1,0,0:0:0:0:
192,192,56299,1,0,0:0:0:0:
64,192,56299,1,0,0:0:0:0:
448,192,56442,1,0,0:0:0:0:
320,192,56442,1,0,0:0:0:0:
192,192,56442,1,0,0:0:0:0:
64,192,56585,1,0,0:0:0:0:
320,192,56585,1,0,0:0:0:0:
192,192,56727,1,0,0:0:0:0:
64,192,56727,1,0,0:0:0:0:
320,192,56870,1,0,0:0:0:0:
192,192,56870,1,0,0:0:0:0:
448,192,56870,1,0,0:0:0:0:
448,192,57013,1,0,0:0:0:0:
64,192,57013,1,0,0:0:0:0:
320,192,57013,1,0,0:0:0:0:
320,192,57156,1,0,0:0:0:0:
192,192,57156,1,0,0:0:0:0:
64,192,57156,1,0,0:0:0:0:
448,192,57299,1,0,0:0:0:0:
192,192,57299,1,0,0:0:0:0:
64,192,57299,1,0,0:0:0:0:
320,192,57442,1,0,0:0:0:0:
192,192,57442,1,0,0:0:0:0:
448,192,57585,1,0,0:0:0:0:
320,192,57585,1,0,0:0:0:0:
192,192,57727,1,0,0:0:0:0:
64,192,57727,1,0,0:0:0:0:
448,192,57727,1,0,0:0:0:0:
320,192,57870,1,0,0:0:0:0:
64,192,57870,1,0,0:0:0:0:
192,192,58013,1,0,0:0:0:0:
448,192,58013,1,0,0:0:0:0:
320,192,58156,1,0,0:0:0:0:
448,192,58156,1,0,0:0:0:0:
64,192,58156,1,0,0:0:0:0:
192,192,58299,1,0,0:0:0:0:
320,192,58299,1,0,0:0:0:0:
64,192,58442,1,0,0:0:0:0:
448,192,58442,1,0,0:0:0:0:
320,192,58585,1,0,0:0:0:0:
192,192,58585,1,0,0:0:0:0:
64,192,58585,1,0,0:0:0:0:
192,192,58727,1,0,0:0:0:0:
448,192,58727,1,0,0:0:0:0:
320,192,58870,1,0,0:0:0:0:
448,192,58870,1,0,0:0:0:0:
192,192,59013,1,0,0:0:0:0:
64,192,59013,1,0,0:0:0:0:
448,192,59013,1,0,0:0:0:0:
320,192,59156,1,0,0:0:0:0:
192,192,59156,1,0,0:0:0:0:
448,192,59227,1,0,0:0:0:0:
192,192,59299,1,0,0:0:0:0:
64,192,59299,1,0,0:0:0:0:
448,192,59442,1,0,0:0:0:0:
320,192,59442,1,0,0:0:0:0:
64,192,59442,1,0,0:0:0:0:
448,192,59585,1,0,0:0:0:0:
192,192,59585,1,0,0:0:0:0:
320,192,59585,1,0,0:0:0:0:
192,192,59727,1,0,0:0:0:0:
64,192,59727,1,0,0:0:0:0:
320,192,59727,1,0,0:0:0:0:
448,192,59870,1,0,0:0:0:0:
192,192,59870,1,0,0:0:0:0:
64,192,59870,1,0,0:0:0:0:
320,192,60013,1,0,0:0:0:0:
192,192,60013,1,0,0:0:0:0:
448,192,60156,1,0,0:0:0:0:
64,192,60156,1,0,0:0:0:0:
192,192,60299,1,0,0:0:0:0:
64,192,60299,1,0,0:0:0:0:
320,192,60299,1,0,0:0:0:0:
192,192,60442,1,0,0:0:0:0:
448,192,60442,1,0,0:0:0:0:
320,192,60585,1,0,0:0:0:0:
64,192,60585,1,0,0:0:0:0:
192,192,60727,1,0,0:0:0:0:
320,192,60727,1,0,0:0:0:0:
448,192,60727,1,0,0:0:0:0:
64,192,60870,1,0,0:0:0:0:
448,192,60870,1,0,0:0:0:0:
320,192,61013,1,0,0:0:0:0:
64,192,61013,1,0,0:0:0:0:
192,192,61156,1,0,0:0:0:0:
320,192,61156,1,0,0:0:0:0:
448,192,61156,1,0,0:0:0:0:
448,192,61299,1,0,0:0:0:0:
192,192,61299,1,0,0:0:0:0:
64,192,61299,1,0,0:0:0:0:
320,192,61442,1,0,0:0:0:0:
192,192,61442,1,0,0:0:0:0:
64,192,61442,1,0,0:0:0:0:
448,192,61585,1,0,0:0:0:0:
64,192,61585,1,0,0:0:0:0:
320,192,61585,1,0,0:0:0:0:
192,192,61727,1,0,0:0:0:0:
320,192,61727,1,0,0:0:0:0:
448,192,61870,1,0,0:0:0:0:
192,192,61870,1,0,0:0:0:0:
320,192,62013,1,0,0:0:0:0:
448,192,62013,1,0,0:0:0:0:
64,192,62013,1,0,0:0:0:0:
192,192,62156,1,0,0:0:0:0:
320,192,62156,1,0,0:0:0:0:
64,192,62299,1,0,0:0:0:0:
192,192,62299,1,0,0:0:0:0:
448,192,62442,1,0,0:0:0:0:
320,192,62442,1,0,0:0:0:0:
64,192,62442,1,0,0:0:0:0:
192,192,62585,1,0,0:0:0:0:
448,192,62585,1,0,0:0:0:0:
320,192,62656,1,0,0:0:0:0:
64,192,62727,1,0,0:0:0:0:
192,192,62727,1,0,0:0:0:0:
64,192,62870,1,0,0:0:0:0:
448,192,62870,1,0,0:0:0:0:
320,192,62870,1,0,0:0:0:0:
448,192,63013,1,0,0:0:0:0:
320,192,63013,1,0,0:0:0:0:
192,192,63013,1,0,0:0:0:0:
192,192,63156,1,0,0:0:0:0:
64,192,63156,1,0,0:0:0:0:
448,192,63156,1,0,0:0:0:0:
64,192,63299,1,0,0:0:0:0:
320,192,63299,1,0,0:0:0:0:
192,192,63299,1,0,0:0:0:0:
448,192,63442,1,0,0:0:0:0:
320,192,63442,1,0,0:0:0:0:
448,192,63585,1,0,0:0:0:0:
64,192,63585,1,0,0:0:0:0:
320,192,63727,1,0,0:0:0:0:
448,192,63727,1,0,0:0:0:0:
64,192,63727,1,0,0:0:0:0:
192,192,63870,1,0,0:0:0:0:
320,192,63870,1,0,0:0:0:0:
448,192,64013,1,0,0:0:0:0:
64,192,64013,1,0,0:0:0:0:
192,192,64156,1,0,0:0:0:0:
64,192,64156,1,0,0:0:0:0:
448,192,64156,1,0,0:0:0:0:
320,192,64299,1,0,0:0:0:0:
192,192,64299,1,0,0:0:0:0:
320,192,64442,1,0,0:0:0:0:
448,192,64442,1,0,0:0:0:0:
192,192,64585,1,0,0:0:0:0:
64,192,64585,1,0,0:0:0:0:
448,192,64585,1,0,0:0:0:0:
320,192,64727,1,0,0:0:0:0:
192,192,64727,1,0,0:0:0:0:
64,192,64870,1,0,0:0:0:0:
320,192,64870,1,0,0:0:0:0:
192,192,65013,1,0,0:0:0:0:
64,192,65013,1,0,0:0:0:0:
448,192,65013,1,0,0:0:0:0:
320,192,65156,1,0,0:0:0:0:
192,192,65156,1,0,0:0:0:0:
448,192,65299,1,0,0:0:0:0:
64,192,65299,1,0,0:0:0:0:
320,192,65442,1,0,0:0:0:0:
448,192,65442,1,0,0:0:0:0:
64,192,65442,1,0,0:0:0:0:
64,192,65585,1,0,0:0:0:0:
192,192,65585,1,0,0:0:0:0:
320,192,65727,1,0,0:0:0:0:
192,192,65727,1,0,0:0:0:0:
448,192,65870,1,0,0:0:0:0:
320,192,65870,1,0,0:0:0:0:
64,192,65870,1,0,0:0:0:0:
192,192,66013,1,0,0:0:0:0:
448,192,66013,1,0,0:0:0:0:
64,192,66085,1,0,0:0:0:0:
448,192,66156,1,0,0:0:0:0:
320,192,66156,1,0,0:0:0:0:
192,192,66299,1,0,0:0:0:0:
64,192,66299,1,0,0:0:0:0:
320,192,66299,1,0,0:0:0:0:
448,192,66442,1,0,0:0:0:0:
192,192,66442,1,0,0:0:0:0:
320,192,66585,1,0,0:0:0:0:
64,192,66585,1,0,0:0:0:0:
64,192,66727,1,0,0:0:0:0:
192,192,66727,1,0,0:0:0:0:
448,192,66727,1,0,0:0:0:0:
320,192,67013,128,0,67585:0:0:0:0:
192,192,67585,128,0,69299:0:0:0:0:
448,192,67585,1,0,0:0:0:0:
64,192,69299,128,0,70156:0:0:0:0:
320,192,69299,1,0,0:0:0:0:
448,192,70156,1,0,0:0:0:0:
320,192,70156,1,0,0:0:0:0:
192,192,70442,1,0,0:0:0:0:
320,192,70727,1,0,0:0:0:0:
64,192,71013,1,0,0:0:0:0:
64,192,71299,1,0,0:0:0:0:
320,192,71585,1,0,0:0:0:0:
448,192,71585,1,0,0:0:0:0:
448,192,71727,1,0,0:0:0:0:
192,192,71727,1,0,0:0:0:0:
448,192,71870,1,0,0:0:0:0:
64,192,71870,1,0,0:0:0:0:
192,192,72156,1,0,0:0:0:0:
320,192,72442,1,0,0:0:0:0:
64,192,72727,1,0,0:0:0:0:
448,192,73013,1,0,0:0:0:0:
320,192,73299,1,0,0:0:0:0:
448,192,73299,1,0,0:0:0:0:
320,192,73442,1,0,0:0:0:0:
192,192,73442,1,0,0:0:0:0:
320,192,73585,1,0,0:0:0:0:
64,192,73585,1,0,0:0:0:0:
448,192,73870,1,0,0:0:0:0:
320,192,74156,1,0,0:0:0:0:
192,192,74442,1,0,0:0:0:0:
320,192,74727,1,0,0:0:0:0:
64,192,75013,1,0,0:0:0:0:
192,192,75013,1,0,0:0:0:0:
64,192,75156,1,0,0:0:0:0:
320,192,75156,1,0,0:0:0:0:
64,192,75299,1,0,0:0:0:0:
448,192,75299,1,0,0:0:0:0:
320,192,75585,1,0,0:0:0:0:
64,192,75870,1,0,0:0:0:0:
448,192,76156,1,0,0:0:0:0:
320,192,76442,1,0,0:0:0:0:
192,192,76727,1,0,0:0:0:0:
320,192,76727,1,0,0:0:0:0:
192,192,76870,1,0,0:0:0:0:
64,192,76870,1,0,0:0:0:0:
192,192,77013,1,0,0:0:0:0:
448,192,77013,1,0,0:0:0:0:
320,192,77299,1,0,0:0:0:0:
192,192,77585,1,0,0:0:0:0:
64,192,77870,1,0,0:0:0:0:
448,192,78156,1,0,0:0:0:0:
192,192,78442,1,0,0:0:0:0:
64,192,78442,1,0,0:0:0:0:
192,192,78585,1,0,0:0:0:0:
320,192,78585,1,0,0:0:0:0:
192,192,78727,1,0,0:0:0:0:
448,192,78727,1,0,0:0:0:0:
64,192,79013,128,0,79299:0:0:0:0:
192,192,79299,128,0,79585:0:0:0:0:
320,192,79585,128,0,79870:0:0:0:0:
448,192,79870,128,0,80156:0:0:0:0:
192,192,80156,128,0,80442:0:0:0:0:
64,192,80156,1,0,0:0:0:0:
448,192,80299,1,0,0:0:0:0:
64,192,80299,1,0,0:0:0:0:
320,192,80442,128,0,80727:0:0:0:0:
448,192,80442,1,0,0:0:0:0:
448,192,80727,128,0,81013:0:0:0:0:
192,192,81013,128,0,81299:0:0:0:0:
320,192,81299,128,0,81585:0:0:0:0:
64,192,81585,128,0,81870:0:0:0:0:
192,192,81870,128,0,82156:0:0:0:0:
320,192,81870,1,0,0:0:0:0:
448,192,82013,1,0,0:0:0:0:
64,192,82013,1,0,0:0:0:0:
320,192,82156,128,0,82442:0:0:0:0:
64,192,82156,1,0,0:0:0:0:
448,192,82442,128,0,82727:0:0:0:0:
192,192,82727,128,0,83013:0:0:0:0:
64,192,83013,128,0,83299:0:0:0:0:
320,192,83299,128,0,83585:0:0:0:0:
192,192,83585,128,0,83870:0:0:0:0:
448,192,83585,1,0,0:0:0:0:
320,192,83727,1,0,0:0:0:0:
64,192,83727,1,0,0:0:0:0:
448,192,83870,1,0,0:0:0:0:
64,192,83870,1,0,0:0:0:0:
320,192,84013,1,0,0:0:0:0:
448,192,84013,1,0,0:0:0:0:
192,192,84156,1,0,0:0:0:0:
64,192,84156,1,0,0:0:0:0:
448,192,84299,1,0,0:0:0:0:
64,192,84299,1,0,0:0:0:0:
320,192,84442,1,0,0:0:0:0:
192,192,84442,1,0,0:0:0:0:
448,192,84585,1,0,0:0:0:0:
320,192,84585,1,0,0:0:0:0:
64,192,84727,1,0,0:0:0:0:
448,192,84727,1,0,0:0:0:0:
320,192,84870,1,0,0:0:0:0:
192,192,84870,1,0,0:0:0:0:
192,192,85013,1,0,0:0:0:0:
64,192,85013,1,0,0:0:0:0:
64,192,85156,1,0,0:0:0:0:
448,192,85156,1,0,0:0:0:0:
320,192,85227,1,0,0:0:0:0:
192,192,85299,1,0,0:0:0:0:
448,192,85299,1,0,0:0:0:0:
320,192,85442,1,0,0:0:0:0:
192,192,85442,1,0,0:0:0:0:
64,192,85585,1,0,0:0:0:0:
320,192,85585,1,0,0:0:0:0:
192,192,85727,1,0,0:0:0:0:
448,192,85727,1,0,0:0:0:0:
448,192,85870,1,0,0:0:0:0:
320,192,85870,1,0,0:0:0:0:
192,192,86013,1,0,0:0:0:0:
64,192,86013,1,0,0:0:0:0:
448,192,86156,1,0,0:0:0:0:
64,192,86156,1,0,0:0:0:0:
192,192,86299,1,0,0:0:0:0:
320,192,86299,1,0,0:0:0:0:
448,192,86442,1,0,0:0:0:0:
320,192,86442,1,0,0:0:0:0:
64,192,86585,1,0,0:0:0:0:
448,192,86585,1,0,0:0:0:0:
192,192,86656,1,0,0:0:0:0:
320,192,86656,1,0,0:0:0:0:
64,192,86727,1,0,0:0:0:0:
448,192,86727,1,0,0:0:0:0:
192,192,86870,1,0,0:0:0:0:
64,192,86870,1,0,0:0:0:0:
448,192,87013,1,0,0:0:0:0:
320,192,87013,1,0,0:0:0:0:
192,192,87156,1,0,0:0:0:0:
448,192,87156,1,0,0:0:0:0:
320,192,87299,1,0,0:0:0:0:
64,192,87299,1,0,0:0:0:0:
192,192,87442,1,0,0:0:0:0:
64,192,87442,1,0,0:0:0:0:
448,192,87585,1,0,0:0:0:0:
192,192,87585,1,0,0:0:0:0:
448,192,87727,1,0,0:0:0:0:
320,192,87727,1,0,0:0:0:0:
64,192,87870,1,0,0:0:0:0:
192,192,87870,1,0,0:0:0:0:
448,192,88013,1,0,0:0:0:0:
64,192,88013,1,0,0:0:0:0:
192,192,88156,1,0,0:0:0:0:
448,192,88156,1,0,0:0:0:0:
320,192,88227,1,0,0:0:0:0:
64,192,88227,1,0,0:0:0:0:
192,192,88299,1,0,0:0:0:0:
448,192,88299,1,0,0:0:0:0:
320,192,88442,1,0,0:0:0:0:
192,192,88442,1,0,0:0:0:0:
64,192,88585,1,0,0:0:0:0:
320,192,88585,1,0,0:0:0:0:
64,192,88727,1,0,0:0:0:0:
448,192,88727,1,0,0:0:0:0:
320,192,88870,1,0,0:0:0:0:
192,192,88870,1,0,0:0:0:0:
320,192,89013,1,0,0:0:0:0:
448,192,89013,1,0,0:0:0:0:
64,192,89156,1,0,0:0:0:0:
448,192,89156,1,0,0:0:0:0:
192,192,89299,1,0,0:0:0:0:
320,192,89299,1,0,0:0:0:0:
320,192,89442,1,0,0:0:0:0:
64,192,89442,1,0,0:0:0:0:
192,192,89585,1,0,0:0:0:0:
64,192,89585,1,0,0:0:0:0:
448,192,89727,1,0,0:0:0:0:
320,192,89727,1,0,0:0:0:0:
64,192,89870,1,0,0:0:0:0:
448,192,89870,1,0,0:0:0:0:
192,192,90013,1,0,0:0:0:0:
64,192,90013,1,0,0:0:0:0:
320,192,90085,1,0,0:0:0:0:
448,192,90085,1,0,0:0:0:0:
192,192,90156,1,0,0:0:0:0:
64,192,90156,1,0,0:0:0:0:
448,192,90299,1,0,0:0:0:0:
192,192,90299,1,0,0:0:0:0:
320,192,90442,1,0,0:0:0:0:
448,192,90442,1,0,0:0:0:0:
192,192,90585,1,0,0:0:0:0:
64,192,90585,1,0,0:0:0:0:
64,192,90727,1,0,0:0:0:0:
448,192,90727,1,0,0:0:0:0:
192,192,90870,1,0,0:0:0:0:
320,192,90870,1,0,0:0:0:0:
192,192,91013,1,0,0:0:0:0:
448,192,91013,1,0,0:0:0:0:
320,192,91156,1,0,0:0:0:0:
448,192,91156,1,0,0:0:0:0:
64,192,91299,1,0,0:0:0:0:
192,192,91299,1,0,0:0:0:0:
448,192,91442,1,0,0:0:0:0:
64,192,91442,1,0,0:0:0:0:
192,192,91585,1,0,0:0:0:0:
320,192,91585,1,0,0:0:0:0:
448,192,91727,1,0,0:0:0:0:
320,192,91727,1,0,0:0:0:0:
64,192,91870,1,0,0:0:0:0:
192,192,91870,1,0,0:0:0:0:
64,192,92013,1,0,0:0:0:0:
448,192,92013,1,0,0:0:0:0:
192,192,92085,1,0,0:0:0:0:
320,192,92156,1,0,0:0:0:0:
64,192,92156,1,0,0:0:0:0:
448,192,92299,1,0,0:0:0:0:
320,192,92299,1,0,0:0:0:0:
64,192,92442,1,0,0:0:0:0:
448,192,92442,1,0,0:0:0:0:
192,192,92585,1,0,0:0:0:0:
320,192,92585,1,0,0:0:0:0:
64,192,92727,1,0,0:0:0:0:
320,192,92727,1,0,0:0:0:0:
192,192,92870,1,0,0:0:0:0:
448,192,92870,1,0,0:0:0:0:
448,192,93013,1,0,0:0:0:0:
64,192,93013,1,0,0:0:0:0:
192,192,93156,1,0,0:0:0:0:
64,192,93156,1,0,0:0:0:0:
448,192,93299,1,0,0:0:0:0:
320,192,93299,1,0,0:0:0:0:
320,192,93442,1,0,0:0:0:0:
64,192,93442,1,0,0:0:0:0:
192,192,93513,1,0,0:0:0:0:
448,192,93513,1,0,0:0:0:0:
320,192,93585,1,0,0:0:0:0:
64,192,93585,1,0,0:0:0:0:
448,192,93727,1,0,0:0:0:0:
192,192,93727,1,0,0:0:0:0:
320,192,93870,1,0,0:0:0:0:
192,192,93870,1,0,0:0:0:0:
64,192,94013,1,0,0:0:0:0:
320,192,94013,1,0,0:0:0:0:
192,192,94156,1,0,0:0:0:0:
64,192,94156,1,0,0:0:0:0:
448,192,94299,1,0,0:0:0:0:
320,192,94299,1,0,0:0:0:0:
192,192,94442,1,0,0:0:0:0:
320,192,94442,1,0,0:0:0:0:
64,192,94585,1,0,0:0:0:0:
448,192,94585,1,0,0:0:0:0:
192,192,94727,1,0,0:0:0:0:
64,192,94727,1,0,0:0:0:0:
320,192,94870,1,0,0:0:0:0:
192,192,94870,1,0,0:0:0:0:
448,192,95013,1,0,0:0:0:0:
320,192,95013,1,0,0:0:0:0:
64,192,95156,1,0,0:0:0:0:
448,192,95156,1,0,0:0:0:0:
320,192,95299,1,0,0:0:0:0:
192,192,95299,1,0,0:0:0:0:
320,192,95442,1,0,0:0:0:0:
448,192,95442,1,0,0:0:0:0:
192,192,95585,1,0,0:0:0:0:
64,192,95585,1,0,0:0:0:0:
448,192,95727,1,0,0:0:0:0:
64,192,95727,1,0,0:0:0:0:
320,192,95870,1,0,0:0:0:0:
448,192,95870,128,0,97585:0:0:0:0:
320,192,97585,1,0,0:0:0:0:
192,192,97585,1,0,0:0:0:0:
64,192,97585,1,0,0:0:0:0:
448,192,97727,1,0,0:0:0:0:
64,192,97727,1,0,0:0:0:0:
192,192,97870,1,0,0:0:0:0:
320,192,97870,1,0,0:0:0:0:
64,192,98013,1,0,0:0:0:0:
320,192,98013,1,0,0:0:0:0:
448,192,98013,1,0,0:0:0:0:
192,192,98156,1,0,0:0:0:0:
64,192,98156,1,0,0:0:0:0:
320,192,98299,1,0,0:0:0:0:
448,192,98299,1,0,0:0:0:0:
64,192,98442,1,0,0:0:0:0:
192,192,98442,1,0,0:0:0:0:
448,192,98442,1,0,0:0:0:0:
320,192,98585,1,0,0:0:0:0:
192,192,98585,1,0,0:0:0:0:
64,192,98727,1,0,0:0:0:0:
448,192,98727,1,0,0:0:0:0:
192,192,98870,1,0,0:0:0:0:
320,192,98870,1,0,0:0:0:0:
448,192,98870,1,0,0:0:0:0:
64,192,98942,1,0,0:0:0:0:
320,192,99013,1,0,0:0:0:0:
192,192,99013,1,0,0:0:0:0:
448,192,99156,1,0,0:0:0:0:
64,192,99156,1,0,0:0:0:0:
64,192,99299,1,0,0:0:0:0:
192,192,99299,1,0,0:0:0:0:
320,192,99299,1,0,0:0:0:0:
448,192,99442,1,0,0:0:0:0:
320,192,99442,1,0,0:0:0:0:
192,192,99585,1,0,0:0:0:0:
64,192,99585,1,0,0:0:0:0:
320,192,99727,1,0,0:0:0:0:
448,192,99727,1,0,0:0:0:0:
64,192,99727,1,0,0:0:0:0:
192,192,99870,1,0,0:0:0:0:
448,192,99870,1,0,0:0:0:0:
320,192,100013,1,0,0:0:0:0:
448,192,100013,1,0,0:0:0:0:
192,192,100156,1,0,0:0:0:0:
64,192,100156,1,0,0:0:0:0:
320,192,100156,1,0,0:0:0:0:
64,192,100299,1,0,0:0:0:0:
448,192,100299,1,0,0:0:0:0:
320,192,100370,1,0,0:0:0:0:
192,192,100370,1,0,0:0:0:0:
448,192,100442,1,0,0:0:0:0:
64,192,100442,1,0,0:0:0:0:
448,192,100585,1,0,0:0:0:0:
192,192,100585,1,0,0:0:0:0:
64,192,100585,1,0,0:0:0:0:
320,192,100727,1,0,0:0:0:0:
192,192,100727,1,0,0:0:0:0:
64,192,100870,1,0,0:0:0:0:
448,192,100870,1,0,0:0:0:0:
64,192,101013,1,0,0:0:0:0:
320,192,101013,1,0,0:0:0:0:
192,192,101013,1,0,0:0:0:0:
448,192,101156,1,0,0:0:0:0:
192,192,101156,1,0,0:0:0:0:
320,192,101299,1,0,0:0:0:0:
448,192,101299,1,0,0:0:0:0:
64,192,101442,1,0,0:0:0:0:
448,192,101442,1,0,0:0:0:0:
192,192,101442,1,0,0:0:0:0:
320,192,101585,1,0,0:0:0:0:
64,192,101585,1,0,0:0:0:0:
192,192,101727,1,0,0:0:0:0:
64,192,101727,1,0,0:0:0:0:
192,192,101870,1,0,0:0:0:0:
448,192,101870,1,0,0:0:0:0:
320,192,101870,1,0,0:0:0:0:
64,192,101942,1,0,0:0:0:0:
448,192,102013,1,0,0:0:0:0:
320,192,102013,1,0,0:0:0:0:
320,192,102156,1,0,0:0:0:0:
192,192,102156,1,0,0:0:0:0:
192,192,102299,1,0,0:0:0:0:
448,192,102299,1,0,0:0:0:0:
64,192,102299,1,0,0:0:0:0:
320,192,102442,1,0,0:0:0:0:
64,192,102442,1,0,0:0:0:0:
192,192,102585,1,0,0:0:0:0:
448,192,102585,1,0,0:0:0:0:
192,192,102727,1,0,0:0:0:0:
64,192,102727,1,0,0:0:0:0:
320,192,102727,1,0,0:0:0:0:
320,192,102870,1,0,0:0:0:0:
448,192,102870,1,0,0:0:0:0:
320,192,103013,1,0,0:0:0:0:
64,192,103013,1,0,0:0:0:0:
64,192,103156,1,0,0:0:0:0:
192,192,103156,1,0,0:0:0:0:
448,192,103156,1,0,0:0:0:0:
192,192,103299,1,0,0:0:0:0:
320,192,103299,1,0,0:0:0:0:
192,192,103442,1,0,0:0:0:0:
64,192,103442,1,0,0:0:0:0:
64,192,103585,1,0,0:0:0:0:
320,192,103585,1,0,0:0:0:0:
448,192,103585,1,0,0:0:0:0:
448,192,103727,1,0,0:0:0:0:
192,192,103727,1,0,0:0:0:0:
64,192,103799,1,0,0:0:0:0:
320,192,103799,1,0,0:0:0:0:
448,192,103870,1,0,0:0:0:0:
192,192,103870,1,0,0:0:0:0:
64,192,104013,1,0,0:0:0:0:
192,192,104013,1,0,0:0:0:0:
320,192,104013,1,0,0:0:0:0:
448,192,104156,1,0,0:0:0:0:
320,192,104156,1,0,0:0:0:0:
64,192,104299,1,0,0:0:0:0:
192,192,104299,1,0,0:0:0:0:
64,192,104442,1,0,0:0:0:0:
320,192,104442,1,0,0:0:0:0:
448,192,104442,1,0,0:0:0:0:
192,192,104585,1,0,0:0:0:0:
448,192,104585,1,0,0:0:0:0:
320,192,104727,1,0,0:0:0:0:
64,192,104727,1,0,0:0:0:0:
64,192,104870,1,0,0:0:0:0:
192,192,104870,1,0,0:0:0:0:
448,192,104870,1,0,0:0:0:0:
320,192,105013,1,0,0:0:0:0:
192,192,105013,1,0,0:0:0:0:
320,192,105156,1,0,0:0:0:0:
448,192,105156,1,0,0:0:0:0:
64,192,105299,1,0,0:0:0:0:
320,192,105299,1,0,0:0:0:0:
448,192,105299,1,0,0:0:0:0:
192,192,105442,1,0,0:0:0:0:
64,192,105442,1,0,0:0:0:0:
320,192,105585,1,0,0:0:0:0:
192,192,105585,1,0,0:0:0:0:
320,192,105727,1,0,0:0:0:0:
448,192,105727,1,0,0:0:0:0:
64,192,105727,1,0,0:0:0:0:
192,192,105799,1,0,0:0:0:0:
448,192,105870,1,0,0:0:0:0:
320,192,105870,1,0,0:0:0:0:
64,192,106013,1,0,0:0:0:0:
448,192,106013,1,0,0:0:0:0:
64,192,106156,1,0,0:0:0:0:
192,192,106156,1,0,0:0:0:0:
320,192,106156,1,0,0:0:0:0:
64,192,106299,1,0,0:0:0:0:
448,192,106299,1,0,0:0:0:0:
320,192,106442,1,0,0:0:0:0:
192,192,106442,1,0,0:0:0:0:
64,192,106585,1,0,0:0:0:0:
192,192,106585,1,0,0:0:0:0:
448,192,106585,1,0,0:0:0:0:
320,192,106727,1,0,0:0:0:0:
448,192,106727,1,0,0:0:0:0:
320,192,106870,1,0,0:0:0:0:
192,192,106870,1,0,0:0:0:0:
64,192,107013,1,0,0:0:0:0:
320,192,107013,1,0,0:0:0:0:
448,192,107013,1,0,0:0:0:0:
192,192,107156,1,0,0:0:0:0:
64,192,107156,1,0,0:0:0:0:
448,192,107227,1,0,0:0:0:0:
320,192,107227,1,0,0:0:0:0:
192,192,107299,1,0,0:0:0:0:
64,192,107299,1,0,0:0:0:0:
320,192,107442,1,0,0:0:0:0:
448,192,107442,1,0,0:0:0:0:
64,192,107442,1,0,0:0:0:0:
192,192,107585,1,0,0:0:0:0:
448,192,107585,1,0,0:0:0:0:
320,192,107727,1,0,0:0:0:0:
64,192,107727,1,0,0:0:0:0:
64,192,107870,1,0,0:0:0:0:
448,192,107870,1,0,0:0:0:0:
192,192,107870,1,0,0:0:0:0:
320,192,108013,1,0,0:0:0:0:
448,192,108013,1,0,0:0:0:0:
64,192,108156,1,0,0:0:0:0:
448,192,108156,1,0,0:0:0:0:
64,192,108299,1,0,0:0:0:0:
192,192,108299,1,0,0:0:0:0:
320,192,108299,1,0,0:0:0:0:
192,192,108442,1,0,0:0:0:0:
448,192,108442,1,0,0:0:0:0:
448,192,108585,1,0,0:0:0:0:
320,192,108585,1,0,0:0:0:0:
64,192,108727,1,0,0:0:0:0:
192,192,108727,1,0,0:0:0:0:
320,192,108727,1,0,0:0:0:0:
448,192,108799,1,0,0:0:0:0:
64,192,108870,1,0,0:0:0:0:
192,192,108870,1,0,0:0:0:0:
192,192,109013,1,0,0:0:0:0:
320,192,109013,1,0,0:0:0:0:
64,192,109156,1,0,0:0:0:0:
320,192,109156,1,0,0:0:0:0:
448,192,109156,1,0,0:0:0:0:
192,192,109299,1,0,0:0:0:0:
448,192,109299,1,0,0:0:0:0:
320,192,109442,1,0,0:0:0:0:
64,192,109442,1,0,0:0:0:0:
64,192,109585,1,0,0:0:0:0:
192,192,109585,1,0,0:0:0:0:
448,192,109585,1,0,0:0:0:0:
320,192,109727,1,0,0:0:0:0:
448,192,109727,1,0,0:0:0:0:
64,192,109870,1,0,0:0:0:0:
192,192,109870,1,0,0:0:0:0:
192,192,110013,1,0,0:0:0:0:
320,192,110013,1,0,0:0:0:0:
448,192,110013,1,0,0:0:0:0:
64,192,110156,1,0,0:0:0:0:
448,192,110156,1,0,0:0:0:0:
192,192,110299,1,0,0:0:0:0:
320,192,110299,1,0,0:0:0:0:
320,192,110442,1,0,0:0:0:0:
448,192,110442,1,0,0:0:0:0:
64,192,110442,1,0,0:0:0:0:
192,192,110585,1,0,0:0:0:0:
448,192,110585,1,0,0:0:0:0:
192,192,110727,1,0,0:0:0:0:
64,192,110727,1,0,0:0:0:0:
64,192,110870,1,0,0:0:0:0:
448,192,110870,1,0,0:0:0:0:
320,192,110870,1,0,0:0:0:0:
320,192,111013,1,0,0:0:0:0:
192,192,111013,1,0,0:0:0:0:
64,192,111156,1,0,0:0:0:0:
448,192,111156,1,0,0:0:0:0:
64,192,111299,1,0,0:0:0:0:
192,192,111299,1,0,0:0:0:0:
448,192,111299,1,0,0:0:0:0:
320,192,111442,1,0,0:0:0:0:
192,192,111442,1,0,0:0:0:0:
320,192,111585,1,0,0:0:0:0:
448,192,111585,1,0,0:0:0:0:
64,192,111727,1,0,0:0:0:0:
192,192,111727,1,0,0:0:0:0:
448,192,111727,1,0,0:0:0:0:
320,192,111870,1,0,0:0:0:0:
64,192,111870,1,0,0:0:0:0:
192,192,112013,1,0,0:0:0:0:
64,192,112013,1,0,0:0:0:0:
192,192,112156,1,0,0:0:0:0:
320,192,112156,1,0,0:0:0:0:
448,192,112156,1,0,0:0:0:0:
64,192,112299,1,0,0:0:0:0:
448,192,112299,1,0,0:0:0:0:
320,192,112442,1,0,0:0:0:0:
192,192,112442,1,0,0:0:0:0:
64,192,112585,1,0,0:0:0:0:
320,192,112585,1,0,0:0:0:0:
448,192,112585,1,0,0:0:0:0:
192,192,112656,1,0,0:0:0:0:
448,192,112727,1,0,0:0:0:0:
320,192,112727,1,0,0:0:0:0:
64,192,112870,1,0,0:0:0:0:
448,192,112870,1,0,0:0:0:0:
192,192,113013,1,0,0:0:0:0:
320,192,113013,1,0,0:0:0:0:
64,192,113013,1,0,0:0:0:0:
448,192,113156,1,0,0:0:0:0:
320,192,113156,1,0,0:0:0:0:
192,192,113299,1,0,0:0:0:0:
64,192,113299,1,0,0:0:0:0:
320,192,113442,1,0,0:0:0:0:
448,192,113442,1,0,0:0:0:0:
192,192,113442,1,0,0:0:0:0:
448,192,113585,1,0,0:0:0:0:
64,192,113585,1,0,0:0:0:0:
320,192,113727,1,0,0:0:0:0:
448,192,113727,1,0,0:0:0:0:
64,192,113870,1,0,0:0:0:0:
192,192,113870,1,0,0:0:0:0:
320,192,113870,1,0,0:0:0:0:
448,192,114013,1,0,0:0:0:0:
64,192,114013,1,0,0:0:0:0:
320,192,114085,1,0,0:0:0:0:
192,192,114085,1,0,0:0:0:0:
64,192,114156,1,0,0:0:0:0:
448,192,114156,1,0,0:0:0:0:
448,192,114299,1,0,0:0:0:0:
320,192,114299,1,0,0:0:0:0:
192,192,114299,1,0,0:0:0:0:
64,192,114442,1,0,0:0:0:0:
192,192,114442,1,0,0:0:0:0:
320,192,114585,1,0,0:0:0:0:
448,192,114585,1,0,0:0:0:0:
64,192,114727,1,0,0:0:0:0:
192,192,114727,1,0,0:0:0:0:
448,192,114727,1,0,0:0:0:0:
320,192,114870,1,0,0:0:0:0:
64,192,114870,1,0,0:0:0:0:
192,192,115013,1,0,0:0:0:0:
448,192,115013,1,0,0:0:0:0:
64,192,115156,1,0,0:0:0:0:
320,192,115156,1,0,0:0:0:0:
448,192,115156,1,0,0:0:0:0:
192,192,115299,1,0,0:0:0:0:
64,192,115299,1,0,0:0:0:0:
320,192,115442,1,0,0:0:0:0:
448,192,115442,1,0,0:0:0:0:
64,192,115585,1,0,0:0:0:0:
192,192,115585,1,0,0:0:0:0:
448,192,115585,1,0,0:0:0:0:
320,192,115656,1,0,0:0:0:0:
192,192,115727,1,0,0:0:0:0:
64,192,115727,1,0,0:0:0:0:
448,192,115870,1,0,0:0:0:0:
320,192,115870,1,0,0:0:0:0:
64,192,116013,1,0,0:0:0:0:
448,192,116013,1,0,0:0:0:0:
192,192,116013,1,0,0:0:0:0:
320,192,116156,1,0,0:0:0:0:
192,192,116156,1,0,0:0:0:0:
64,192,116299,1,0,0:0:0:0:
448,192,116299,1,0,0:0:0:0:
64,192,116442,1,0,0:0:0:0:
320,192,116442,1,0,0:0:0:0:
448,192,116442,1,0,0:0:0:0:
192,192,116585,1,0,0:0:0:0:
320,192,116585,1,0,0:0:0:0:
64,192,116727,1,0,0:0:0:0:
320,192,116727,1,0,0:0:0:0:
192,192,116870,1,0,0:0:0:0:
448,192,116870,1,0,0:0:0:0:
64,192,116870,1,0,0:0:0:0:
64,192,117013,1,0,0:0:0:0:
448,192,117013,1,0,0:0:0:0:
448,192,117156,1,0,0:0:0:0:
192,192,117156,1,0,0:0:0:0:
64,192,117299,1,0,0:0:0:0:
192,192,117299,1,0,0:0:0:0:
320,192,117299,1,0,0:0:0:0:
320,192,117442,1,0,0:0:0:0:
448,192,117442,1,0,0:0:0:0:
64,192,117513,1,0,0:0:0:0:
192,192,117513,1,0,0:0:0:0:
448,192,117585,1,0,0:0:0:0:
320,192,117585,1,0,0:0:0:0:
64,192,117727,1,0,0:0:0:0:
448,192,117727,1,0,0:0:0:0:
192,192,117727,1,0,0:0:0:0:
64,192,117870,1,0,0:0:0:0:
320,192,117870,1,0,0:0:0:0:
64,192,118013,1,0,0:0:0:0:
448,192,118013,1,0,0:0:0:0:
192,192,118156,1,0,0:0:0:0:
320,192,118156,1,0,0:0:0:0:
448,192,118156,1,0,0:0:0:0:
64,192,118299,1,0,0:0:0:0:
320,192,118299,1,0,0:0:0:0:
192,192,118442,1,0,0:0:0:0:
448,192,118442,1,0,0:0:0:0:
64,192,118585,1,0,0:0:0:0:
320,192,118585,1,0,0:0:0:0:
448,192,118585,1,0,0:0:0:0:
192,192,118727,1,0,0:0:0:0:
320,192,118727,1,0,0:0:0:0:
448,192,118870,1,0,0:0:0:0:
320,192,118870,1,0,0:0:0:0:
64,192,119013,1,0,0:0:0:0:
192,192,119013,1,0,0:0:0:0:
448,192,119013,1,0,0:0:0:0:
320,192,119156,1,0,0:0:0:0:
64,192,119156,1,0,0:0:0:0:
192,192,119299,1,0,0:0:0:0:
448,192,119299,1,0,0:0:0:0:
320,192,119442,1,0,0:0:0:0:
448,192,119442,1,0,0:0:0:0:
64,192,119442,1,0,0:0:0:0:
192,192,119513,1,0,0:0:0:0:
448,192,119585,1,0,0:0:0:0:
320,192,119585,1,0,0:0:0:0:
64,192,119727,1,0,0:0:0:0:
192,192,119727,1,0,0:0:0:0:
320,192,119870,1,0,0:0:0:0:
448,192,119870,1,0,0:0:0:0:
192,192,119870,1,0,0:0:0:0:
64,192,120013,1,0,0:0:0:0:
320,192,120013,1,0,0:0:0:0:
192,192,120156,1,0,0:0:0:0:
448,192,120156,1,0,0:0:0:0:
64,192,120299,1,0,0:0:0:0:
320,192,120299,1,0,0:0:0:0:
448,192,120299,1,0,0:0:0:0:
192,192,120442,1,0,0:0:0:0:
320,192,120442,1,0,0:0:0:0:
448,192,120585,1,0,0:0:0:0:
320,192,120585,1,0,0:0:0:0:
64,192,120727,1,0,0:0:0:0:
192,192,120727,1,0,0:0:0:0:
448,192,120727,1,0,0:0:0:0:
320,192,120870,1,0,0:0:0:0:
192,192,120870,1,0,0:0:0:0:
448,192,120942,1,0,0:0:0:0:
64,192,120942,1,0,0:0:0:0:
192,192,121013,1,0,0:0:0:0:
320,192,121013,1,0,0:0:0:0:
320,192,121156,1,0,0:0:0:0:
448,192,121156,1,0,0:0:0:0:
64,192,121156,1,0,0:0:0:0:
192,192,121299,1,0,0:0:0:0:
448,192,121299,1,0,0:0:0:0:
320,192,121442,1,0,0:0:0:0:
64,192,121442,1,0,0:0:0:0:
64,192,121585,1,0,0:0:0:0:
192,192,121585,1,0,0:0:0:0:
448,192,121585,1,0,0:0:0:0:
320,192,121727,1,0,0:0:0:0:
192,192,121727,1,0,0:0:0:0:
64,192,121870,1,0,0:0:0:0:
448,192,121870,1,0,0:0:0:0:
192,192,122013,1,0,0:0:0:0:
320,192,122013,1,0,0:0:0:0:
448,192,122013,1,0,0:0:0:0:
320,192,122156,1,0,0:0:0:0:
192,192,122156,1,0,0:0:0:0:
64,192,122299,1,0,0:0:0:0:
448,192,122299,1,0,0:0:0:0:
192,192,122442,1,0,0:0:0:0:
320,192,122442,1,0,0:0:0:0:
448,192,122442,1,0,0:0:0:0:
64,192,122585,1,0,0:0:0:0:
320,192,122585,1,0,0:0:0:0:
192,192,122727,1,0,0:0:0:0:
64,192,122727,1,0,0:0:0:0:
192,192,122870,1,0,0:0:0:0:
320,192,122870,1,0,0:0:0:0:
448,192,122870,1,0,0:0:0:0:
320,192,123013,1,0,0:0:0:0:
448,192,123013,1,0,0:0:0:0:
192,192,123156,1,0,0:0:0:0:
320,192,123156,1,0,0:0:0:0:
64,192,123299,1,0,0:0:0:0:
192,192,123299,1,0,0:0:0:0:
448,192,123299,1,0,0:0:0:0:
320,192,123442,1,0,0:0:0:0:
64,192,123442,1,0,0:0:0:0:
192,192,123585,1,0,0:0:0:0:
448,192,123585,1,0,0:0:0:0:
64,192,123727,1,0,0:0:0:0:
320,192,123727,1,0,0:0:0:0:
448,192,123727,1,0,0:0:0:0:
192,192,123870,1,0,0:0:0:0:
320,192,123870,1,0,0:0:0:0:
64,192,124013,1,0,0:0:0:0:
448,192,124013,1,0,0:0:0:0:
192,192,124156,1,0,0:0:0:0:
320,192,124156,1,0,0:0:0:0:
64,192,124156,1,0,0:0:0:0:
320,192,124299,1,0,0:0:0:0:
448,192,124299,1,0,0:0:0:0:
192,192,124370,1,0,0:0:0:0:
64,192,124370,1,0,0:0:0:0:
448,192,124442,1,0,0:0:0:0:
320,192,124442,1,0,0:0:0:0:
64,192,124513,1,0,0:0:0:0:
448,192,124585,1,0,0:0:0:0:
320,192,124585,1,0,0:0:0:0:
192,192,124585,1,0,0:0:0:0:
64,192,124656,1,0,0:0:0:0:
448,192,124727,1,0,0:0:0:0:
192,192,124727,1,0,0:0:0:0:
320,192,124799,1,0,0:0:0:0:
64,192,124870,1,0,0:0:0:0:
192,192,124870,1,0,0:0:0:0:
448,192,124942,1,0,0:0:0:0:
64,192,125013,1,0,0:0:0:0:
192,192,125013,1,0,0:0:0:0:
320,192,125013,1,0,0:0:0:0:
448,192,125156,1,0,0:0:0:0:
320,192,125156,1,0,0:0:0:0:
192,192,125299,1,0,0:0:0:0:
64,192,125299,1,0,0:0:0:0:
64,192,125442,1,0,0:0:0:0:
320,192,125442,1,0,0:0:0:0:
448,192,125442,1,0,0:0:0:0:
192,192,125585,1,0,0:0:0:0:
448,192,125585,1,0,0:0:0:0:
320,192,125727,1,0,0:0:0:0:
64,192,125727,1,0,0:0:0:0:
192,192,125870,1,0,0:0:0:0:
320,192,125870,1,0,0:0:0:0:
448,192,125870,1,0,0:0:0:0:
64,192,126013,1,0,0:0:0:0:
448,192,126013,1,0,0:0:0:0:
320,192,126156,1,0,0:0:0:0:
192,192,126156,1,0,0:0:0:0:
64,192,126299,1,0,0:0:0:0:
192,192,126299,1,0,0:0:0:0:
448,192,126299,1,0,0:0:0:0:
320,192,126370,1,0,0:0:0:0:
448,192,126442,1,0,0:0:0:0:
64,192,126442,1,0,0:0:0:0:
192,192,126442,1,0,0:0:0:0:
448,192,126585,1,0,0:0:0:0:
64,192,126585,1,0,0:0:0:0:
320,192,126585,1,0,0:0:0:0:
64,192,126727,1,0,0:0:0:0:
320,192,126727,1,0,0:0:0:0:
192,192,126727,1,0,0:0:0:0:
448,192,126870,1,0,0:0:0:0:
192,192,126870,1,0,0:0:0:0:
320,192,127013,1,0,0:0:0:0:
64,192,127013,1,0,0:0:0:0:
192,192,127156,1,0,0:0:0:0:
320,192,127156,1,0,0:0:0:0:
448,192,127156,1,0,0:0:0:0:
64,192,127299,1,0,0:0:0:0:
192,192,127299,1,0,0:0:0:0:
320,192,127442,1,0,0:0:0:0:
448,192,127442,1,0,0:0:0:0:
64,192,127585,1,0,0:0:0:0:
448,192,127585,1,0,0:0:0:0:
192,192,127585,1,0,0:0:0:0:
320,192,127727,1,0,0:0:0:0:
64,192,127727,1,0,0:0:0:0:
448,192,127799,1,0,0:0:0:0:
192,192,127799,1,0,0:0:0:0:
64,192,127870,1,0,0:0:0:0:
320,192,127870,1,0,0:0:0:0:
320,192,128013,1,0,0:0:0:0:
448,192,128013,1,0,0:0:0:0:
192,192,128013,1,0,0:0:0:0:
64,192,128156,1,0,0:0:0:0:
448,192,128156,1,0,0:0:0:0:
320,192,128156,1,0,0:0:0:0:
192,192,128299,1,0,0:0:0:0:
448,192,128299,1,0,0:0:0:0:
64,192,128299,1,0,0:0:0:0:
320,192,128442,1,0,0:0:0:0:
64,192,128442,1,0,0:0:0:0:
192,192,128442,1,0,0:0:0:0:
448,192,128585,1,0,0:0:0:0:
320,192,128585,1,0,0:0:0:0:
64,192,128727,1,0,0:0:0:0:
448,192,128727,1,0,0:0:0:0:
448,192,128870,1,0,0:0:0:0:
64,192,128870,1,0,0:0:0:0:
192,192,128870,1,0,0:0:0:0:
320,192,129013,1,0,0:0:0:0:
192,192,129013,1,0,0:0:0:0:
448,192,129156,1,0,0:0:0:0:
64,192,129156,1,0,0:0:0:0:
192,192,129299,1,0,0:0:0:0:
320,192,129299,1,0,0:0:0:0:
448,192,129299,1,0,0:0:0:0:
64,192,129370,1,0,0:0:0:0:
192,192,129442,1,0,0:0:0:0:
320,192,129442,1,0,0:0:0:0:
448,192,129585,1,0,0:0:0:0:
320,192,129585,1,0,0:0:0:0:
64,192,129727,1,0,0:0:0:0:
192,192,129727,1,0,0:0:0:0:
448,192,129727,1,0,0:0:0:0:
64,192,129870,1,0,0:0:0:0:
320,192,129870,1,0,0:0:0:0:
448,192,129870,1,0,0:0:0:0:
192,192,130013,1,0,0:0:0:0:
64,192,130013,1,0,0:0:0:0:
320,192,130013,1,0,0:0:0:0:
192,192,130156,1,0,0:0:0:0:
448,192,130156,1,0,0:0:0:0:
320,192,130156,1,0,0:0:0:0:
64,192,130299,1,0,0:0:0:0:
448,192,130299,1,0,0:0:0:0:
320,192,130442,1,0,0:0:0:0:
192,192,130442,1,0,0:0:0:0:
320,192,130585,1,0,0:0:0:0:
448,192,130585,1,0,0:0:0:0:
64,192,130585,1,0,0:0:0:0:
192,192,130727,1,0,0:0:0:0:
64,192,130727,1,0,0:0:0:0:
448,192,130870,1,0,0:0:0:0:
64,192,130870,1,0,0:0:0:0:
320,192,131013,1,0,0:0:0:0:
448,192,131013,1,0,0:0:0:0:
192,192,131013,1,0,0:0:0:0:
64,192,131156,1,0,0:0:0:0:
320,192,131156,1,0,0:0:0:0:
448,192,131227,1,0,0:0:0:0:
192,192,131227,1,0,0:0:0:0:
320,192,131299,1,0,0:0:0:0:
64,192,131299,1,0,0:0:0:0:
64,192,131442,1,0,0:0:0:0:
192,192,131442,1,0,0:0:0:0:
448,192,131442,1,0,0:0:0:0:
320,192,131585,1,0,0:0:0:0:
448,192,131585,1,0,0:0:0:0:
192,192,131585,1,0,0:0:0:0:
192,192,131727,1,0,0:0:0:0:
64,192,131727,1,0,0:0:0:0:
320,192,131727,1,0,0:0:0:0:
320,192,131870,1,0,0:0:0:0:
448,192,131870,1,0,0:0:0:0:
64,192,131870,1,0,0:0:0:0:
64,192,132013,1,0,0:0:0:0:
192,192,132013,1,0,0:0:0:0:
448,192,132156,1,0,0:0:0:0:
320,192,132156,1,0,0:0:0:0:
64,192,132299,1,0,0:0:0:0:
192,192,132299,1,0,0:0:0:0:
320,192,132299,1,0,0:0:0:0:
64,192,132442,1,0,0:0:0:0:
448,192,132442,1,0,0:0:0:0:
320,192,132585,1,0,0:0:0:0:
192,192,132585,1,0,0:0:0:0:
64,192,132727,1,0,0:0:0:0:
192,192,132727,1,0,0:0:0:0:
448,192,132727,1,0,0:0:0:0:
320,192,132870,1,0,0:0:0:0:
192,192,132870,1,0,0:0:0:0:
64,192,133013,1,0,0:0:0:0:
448,192,133013,1,0,0:0:0:0:
192,192,133156,1,0,0:0:0:0:
320,192,133156,1,0,0:0:0:0:
448,192,133156,1,0,0:0:0:0:
64,192,133227,1,0,0:0:0:0:
320,192,133299,1,0,0:0:0:0:
448,192,133299,1,0,0:0:0:0:
192,192,133299,1,0,0:0:0:0:
192,192,133442,1,0,0:0:0:0:
64,192,133442,1,0,0:0:0:0:
320,192,133442,1,0,0:0:0:0:
192,192,133585,1,0,0:0:0:0:
448,192,133585,1,0,0:0:0:0:
64,192,133585,1,0,0:0:0:0:
320,192,133727,1,0,0:0:0:0:
448,192,133727,1,0,0:0:0:0:
64,192,133870,1,0,0:0:0:0:
192,192,133870,1,0,0:0:0:0:
64,192,134013,1,0,0:0:0:0:
320,192,134013,1,0,0:0:0:0:
448,192,134013,1,0,0:0:0:0:
192,192,134156,1,0,0:0:0:0:
448,192,134156,1,0,0:0:0:0:
320,192,134299,1,0,0:0:0:0:
192,192,134299,1,0,0:0:0:0:
64,192,134442,1,0,0:0:0:0:
448,192,134442,1,0,0:0:0:0:
192,192,134442,1,0,0:0:0:0:
448,192,134585,1,0,0:0:0:0:
320,192,134585,1,0,0:0:0:0:
192,192,134656,1,0,0:0:0:0:
64,192,134656,1,0,0:0:0:0:
320,192,134727,1,0,0:0:0:0:
448,192,134727,1,0,0:0:0:0:
192,192,134870,1,0,0:0:0:0:
320,192,134870,1,0,0:0:0:0:
64,192,134870,1,0,0:0:0:0:
64,192,135013,1,0,0:0:0:0:
320,192,135013,1,0,0:0:0:0:
448,192,135013,1,0,0:0:0:0:
192,192,135156,1,0,0:0:0:0:
448,192,135156,1,0,0:0:0:0:
320,192,135156,1,0,0:0:0:0:
64,192,135299,1,0,0:0:0:0:
192,192,135299,1,0,0:0:0:0:
448,192,135299,1,0,0:0:0:0:
320,192,135442,1,0,0:0:0:0:
192,192,135442,1,0,0:0:0:0:
64,192,135585,1,0,0:0:0:0:
448,192,135585,1,0,0:0:0:0:
64,192,135727,1,0,0:0:0:0:
320,192,135727,1,0,0:0:0:0:
448,192,135727,1,0,0:0:0:0:
320,192,135870,1,0,0:0:0:0:
192,192,135870,1,0,0:0:0:0:
448,192,136013,1,0,0:0:0:0:
64,192,136013,1,0,0:0:0:0:
64,192,136156,1,0,0:0:0:0:
448,192,136156,1,0,0:0:0:0:
320,192,136156,1,0,0:0:0:0:
192,192,136227,1,0,0:0:0:0:
64,192,136299,1,0,0:0:0:0:
448,192,136299,1,0,0:0:0:0:
320,192,136442,1,0,0:0:0:0:
448,192,136442,1,0,0:0:0:0:
192,192,136585,1,0,0:0:0:0:
320,192,136585,1,0,0:0:0:0:
64,192,136585,1,0,0:0:0:0:
64,192,136727,1,0,0:0:0:0:
320,192,136727,1,0,0:0:0:0:
448,192,136727,1,0,0:0:0:0:
448,192,136870,1,0,0:0:0:0:
64,192,136870,1,0,0:0:0:0:
192,192,136870,1,0,0:0:0:0:
64,192,137013,1,0,0:0:0:0:
448,192,137013,1,0,0:0:0:0:
320,192,137013,1,0,0:0:0:0:
192,192,137156,1,0,0:0:0:0:
320,192,137156,1,0,0:0:0:0:
448,192,137299,1,0,0:0:0:0:
320,192,137299,1,0,0:0:0:0:
64,192,137442,1,0,0:0:0:0:
192,192,137442,1,0,0:0:0:0:
448,192,137442,1,0,0:0:0:0:
320,192,137585,1,0,0:0:0:0:
64,192,137585,1,0,0:0:0:0:
192,192,137727,1,0,0:0:0:0:
320,192,137727,1,0,0:0:0:0:
64,192,137870,1,0,0:0:0:0:
320,192,137870,1,0,0:0:0:0:
448,192,137870,1,0,0:0:0:0:
192,192,138013,1,0,0:0:0:0:
448,192,138013,1,0,0:0:0:0:
320,192,138156,1,0,0:0:0:0:
448,192,138156,1,0,0:0:0:0:
192,192,138299,1,0,0:0:0:0:
320,192,138299,1,0,0:0:0:0:
64,192,138299,1,0,0:0:0:0:
448,192,138442,1,0,0:0:0:0:
192,192,138442,1,0,0:0:0:0:
64,192,138442,1,0,0:0:0:0:
320,192,138585,1,0,0:0:0:0:
64,192,138585,1,0,0:0:0:0:
448,192,138585,1,0,0:0:0:0:
448,192,138727,1,0,0:0:0:0:
64,192,138727,1,0,0:0:0:0:
192,192,138727,1,0,0:0:0:0:
320,192,138870,1,0,0:0:0:0:
192,192,138870,1,0,0:0:0:0:
448,192,139013,1,0,0:0:0:0:
320,192,139013,1,0,0:0:0:0:
64,192,139013,1,0,0:0:0:0:
320,192,139156,1,0,0:0:0:0:
448,192,139156,1,0,0:0:0:0:
64,192,139156,1,0,0:0:0:0:
192,192,139156,1,0,0:0:0:0:
64,192,139299,1,0,0:0:0:0:
448,192,139299,1,0,0:0:0:0:
320,192,139299,1,0,0:0:0:0:
192,192,139442,1,0,0:0:0:0:
64,192,139442,1,0,0:0:0:0:
192,192,139585,1,0,0:0:0:0:
320,192,139585,1,0,0:0:0:0:
448,192,139585,1,0,0:0:0:0:
64,192,139727,1,0,0:0:0:0:
448,192,139727,1,0,0:0:0:0:
320,192,139870,1,0,0:0:0:0:
192,192,139870,1,0,0:0:0:0:
448,192,139870,1,0,0:0:0:0:
64,192,140013,1,0,0:0:0:0:
192,192,140013,1,0,0:0:0:0:
320,192,140013,1,0,0:0:0:0:
448,192,140013,1,0,0:0:0:0:
64,192,140156,1,0,0:0:0:0:
192,192,140156,1,0,0:0:0:0:
320,192,140156,1,0,0:0:0:0:
320,192,140299,1,0,0:0:0:0:
448,192,140299,1,0,0:0:0:0:
64,192,140299,1,0,0:0:0:0:
192,192,140442,1,0,0:0:0:0:
64,192,140442,1,0,0:0:0:0:
448,192,140442,1,0,0:0:0:0:
320,192,140585,1,0,0:0:0:0:
192,192,140585,1,0,0:0:0:0:
64,192,140727,1,0,0:0:0:0:
448,192,140727,1,0,0:0:0:0:
320,192,140727,1,0,0:0:0:0:
64,192,140870,1,0,0:0:0:0:
320,192,140870,1,0,0:0:0:0:
448,192,140870,1,0,0:0:0:0:
192,192,140870,1,0,0:0:0:0:
192,192,141013,1,0,0:0:0:0:
320,192,141013,1,0,0:0:0:0:
448,192,141013,1,0,0:0:0:0:
64,192,141156,1,0,0:0:0:0:
192,192,141156,1,0,0:0:0:0:
448,192,141299,1,0,0:0:0:0:
320,192,141299,1,0,0:0:0:0:
64,192,141299,1,0,0:0:0:0:
192,192,141442,1,0,0:0:0:0:
64,192,141442,1,0,0:0:0:0:
448,192,141513,1,0,0:0:0:0:
192,192,141585,1,0,0:0:0:0:
64,192,141585,1,0,0:0:0:0:
320,192,141585,1,0,0:0:0:0:
64,192,141727,1,0,0:0:0:0:
320,192,141727,1,0,0:0:0:0:
448,192,141727,1,0,0:0:0:0:
192,192,141727,1,0,0:0:0:0:
192,192,141870,1,0,0:0:0:0:
320,192,141870,1,0,0:0:0:0:
448,192,141870,1,0,0:0:0:0:
64,192,142013,1,0,0:0:0:0:
320,192,142013,1,0,0:0:0:0:
448,192,142013,1,0,0:0:0:0:
192,192,142156,1,0,0:0:0:0:
320,192,142156,1,0,0:0:0:0:
448,192,142156,1,0,0:0:0:0:
64,192,142299,1,0,0:0:0:0:
192,192,142299,1,0,0:0:0:0:
320,192,142442,1,0,0:0:0:0:
64,192,142442,1,0,0:0:0:0:
448,192,142442,1,0,0:0:0:0:
64,192,142585,1,0,0:0:0:0:
192,192,142585,1,0,0:0:0:0:
320,192,142585,1,0,0:0:0:0:
448,192,142585,1,0,0:0:0:0:
320,192,142727,1,0,0:0:0:0:
448,192,142727,1,0,0:0:0:0:
192,192,142727,1,0,0:0:0:0:
64,192,142870,1,0,0:0:0:0:
448,192,142870,1,0,0:0:0:0:
192,192,143013,1,0,0:0:0:0:
64,192,143013,1,0,0:0:0:0:
320,192,143013,1,0,0:0:0:0:
192,192,143156,1,0,0:0:0:0:
448,192,143156,1,0,0:0:0:0:
320,192,143299,1,0,0:0:0:0:
448,192,143299,1,0,0:0:0:0:
64,192,143299,1,0,0:0:0:0:
64,192,143442,1,0,0:0:0:0:
192,192,143442,1,0,0:0:0:0:
320,192,143442,1,0,0:0:0:0:
448,192,143442,1,0,0:0:0:0:
192,192,143585,1,0,0:0:0:0:
448,192,143585,1,0,0:0:0:0:
64,192,143585,1,0,0:0:0:0:
320,192,143727,1,0,0:0:0:0:
192,192,143727,1,0,0:0:0:0:
64,192,143727,1,0,0:0:0:0:
448,192,143870,1,0,0:0:0:0:
320,192,143870,1,0,0:0:0:0:
64,192,143870,1,0,0:0:0:0:
192,192,144013,1,0,0:0:0:0:
320,192,144013,1,0,0:0:0:0:
448,192,144156,1,0,0:0:0:0:
192,192,144156,1,0,0:0:0:0:
64,192,144156,1,0,0:0:0:0:
320,192,144299,1,0,0:0:0:0:
448,192,144299,1,0,0:0:0:0:
192,192,144299,1,0,0:0:0:0:
64,192,144299,1,0,0:0:0:0:
320,192,144442,1,0,0:0:0:0:
448,192,144442,1,0,0:0:0:0:
64,192,144442,1,0,0:0:0:0:
320,192,144585,1,0,0:0:0:0:
192,192,144585,1,0,0:0:0:0:
64,192,144727,1,0,0:0:0:0:
448,192,144727,1,0,0:0:0:0:
192,192,144727,1,0,0:0:0:0:
320,192,144870,1,0,0:0:0:0:
64,192,144870,1,0,0:0:0:0:
192,192,144942,1,0,0:0:0:0:
448,192,145013,1,0,0:0:0:0:
320,192,145013,1,0,0:0:0:0:
64,192,145013,1,0,0:0:0:0:
64,192,145156,1,0,0:0:0:0:
192,192,145156,1,0,0:0:0:0:
320,192,145156,1,0,0:0:0:0:
448,192,145156,1,0,0:0:0:0:
448,192,145299,1,0,0:0:0:0:
320,192,145299,1,0,0:0:0:0:
192,192,145299,1,0,0:0:0:0:
64,192,145370,1,0,0:0:0:0:
192,192,145442,1,0,0:0:0:0:
320,192,145442,1,0,0:0:0:0:
448,192,145513,1,0,0:0:0:0:
320,192,145585,1,0,0:0:0:0:
192,192,145585,1,0,0:0:0:0:
64,192,145585,1,0,0:0:0:0:
448,192,145727,1,0,0:0:0:0:
64,192,145727,1,0,0:0:0:0:
320,192,145870,1,0,0:0:0:0:
192,192,145870,1,0,0:0:0:0:
64,192,145870,1,0,0:0:0:0:
320,192,146013,1,0,0:0:0:0:
448,192,146013,1,0,0:0:0:0:
64,192,146013,1,0,0:0:0:0:
192,192,146013,1,0,0:0:0:0:
448,192,146156,1,0,0:0:0:0:
320,192,146156,1,0,0:0:0:0:
192,192,146156,1,0,0:0:0:0:
64,192,146299,1,0,0:0:0:0:
448,192,146299,1,0,0:0:0:0:
192,192,146442,1,0,0:0:0:0:
320,192,146442,1,0,0:0:0:0:
64,192,146442,1,0,0:0:0:0:
320,192,146585,1,0,0:0:0:0:
448,192,146585,1,0,0:0:0:0:
448,192,146727,1,0,0:0:0:0:
192,192,146727,1,0,0:0:0:0:
64,192,146727,1,0,0:0:0:0:
64,192,146870,1,0,0:0:0:0:
192,192,146870,1,0,0:0:0:0:
320,192,146870,1,0,0:0:0:0:
448,192,146870,1,0,0:0:0:0:
320,192,147013,1,0,0:0:0:0:
192,192,147013,1,0,0:0:0:0:
64,192,147013,1,0,0:0:0:0:
192,192,147156,1,0,0:0:0:0:
64,192,147156,1,0,0:0:0:0:
448,192,147156,1,0,0:0:0:0:
448,192,147299,1,0,0:0:0:0:
320,192,147299,1,0,0:0:0:0:
64,192,147299,1,0,0:0:0:0:
192,192,147442,1,0,0:0:0:0:
320,192,147442,1,0,0:0:0:0:
448,192,147585,1,0,0:0:0:0:
192,192,147585,1,0,0:0:0:0:
64,192,147585,1,0,0:0:0:0:
64,192,147727,1,0,0:0:0:0:
192,192,147727,1,0,0:0:0:0:
320,192,147727,1,0,0:0:0:0:
448,192,147727,1,0,0:0:0:0:
320,192,147870,1,0,0:0:0:0:
192,192,147870,1,0,0:0:0:0:
448,192,147870,1,0,0:0:0:0:
64,192,148013,1,0,0:0:0:0:
320,192,148013,1,0,0:0:0:0:
192,192,148156,1,0,0:0:0:0:
64,192,148156,1,0,0:0:0:0:
448,192,148156,1,0,0:0:0:0:
320,192,148299,1,0,0:0:0:0:
448,192,148299,1,0,0:0:0:0:
192,192,148370,1,0,0:0:0:0:
448,192,148442,1,0,0:0:0:0:
64,192,148442,1,0,0:0:0:0:
320,192,148442,1,0,0:0:0:0:
320,192,148585,1,0,0:0:0:0:
448,192,148585,1,0,0:0:0:0:
64,192,148585,1,0,0:0:0:0:
192,192,148585,1,0,0:0:0:0:
192,192,148727,1,0,0:0:0:0:
448,192,148727,1,0,0:0:0:0:
64,192,148727,1,0,0:0:0:0:
192,192,148870,1,0,0:0:0:0:
64,192,148870,1,0,0:0:0:0:
320,192,148870,1,0,0:0:0:0:
448,192,149013,1,0,0:0:0:0:
64,192,149013,1,0,0:0:0:0:
320,192,149013,1,0,0:0:0:0:
192,192,149156,1,0,0:0:0:0:
64,192,149156,1,0,0:0:0:0:
320,192,149227,1,0,0:0:0:0:
448,192,149227,1,0,0:0:0:0:
192,192,149299,1,0,0:0:0:0:
64,192,149299,1,0,0:0:0:0:
320,192,149370,1,0,0:0:0:0:
448,192,149442,1,0,0:0:0:0:
192,192,149442,1,0,0:0:0:0:
64,192,149442,1,0,0:0:0:0:
320,192,149585,1,0,0:0:0:0:
448,192,149585,1,0,0:0:0:0:
192,192,149656,1,0,0:0:0:0:
64,192,149656,1,0,0:0:0:0:
320,192,149727,1,0,0:0:0:0:
448,192,149727,1,0,0:0:0:0:
192,192,149799,1,0,0:0:0:0:
64,192,149870,1,0,0:0:0:0:
448,192,149870,1,0,0:0:0:0:
320,192,149870,1,0,0:0:0:0:
64,192,150013,1,0,0:0:0:0:
448,192,150013,1,0,0:0:0:0:
320,192,150085,1,0,0:0:0:0:
192,192,150085,1,0,0:0:0:0:
64,192,150156,1,0,0:0:0:0:
448,192,150156,1,0,0:0:0:0:
320,192,150227,1,0,0:0:0:0:
64,192,150299,1,0,0:0:0:0:
192,192,150299,1,0,0:0:0:0:
448,192,150299,1,0,0:0:0:0:
448,192,150442,1,0,0:0:0:0:
64,192,150442,1,0,0:0:0:0:
192,192,150513,1,0,0:0:0:0:
320,192,150513,1,0,0:0:0:0:
448,192,150585,1,0,0:0:0:0:
64,192,150585,1,0,0:0:0:0:
192,192,150656,1,0,0:0:0:0:
320,192,150727,1,0,0:0:0:0:
448,192,150727,1,0,0:0:0:0:
64,192,150727,1,0,0:0:0:0:
192,192,150870,1,0,0:0:0:0:
64,192,150870,1,0,0:0:0:0:
320,192,150942,1,0,0:0:0:0:
448,192,150942,1,0,0:0:0:0:
192,192,151013,1,0,0:0:0:0:
64,192,151013,1,0,0:0:0:0:
320,192,151085,1,0,0:0:0:0:
64,192,151156,1,0,0:0:0:0:
192,192,151156,1,0,0:0:0:0:
448,192,151156,1,0,0:0:0:0:
320,192,151299,1,0,0:0:0:0:
448,192,151299,1,0,0:0:0:0:
192,192,151370,1,0,0:0:0:0:
64,192,151370,1,0,0:0:0:0:
320,192,151442,1,0,0:0:0:0:
448,192,151442,1,0,0:0:0:0:
192,192,151513,1,0,0:0:0:0:
64,192,151585,1,0,0:0:0:0:
320,192,151585,1,0,0:0:0:0:
448,192,151585,1,0,0:0:0:0:
320,192,151727,1,0,0:0:0:0:
192,192,151727,1,0,0:0:0:0:
64,192,151870,1,0,0:0:0:0:
192,192,151870,1,0,0:0:0:0:
448,192,151870,1,0,0:0:0:0:
448,192,152156,1,0,0:0:0:0:
320,192,152227,1,0,0:0:0:0:
64,192,152299,1,0,0:0:0:0:
192,192,152370,1,0,0:0:0:0:
448,192,152442,1,0,0:0:0:0:
320,192,152442,1,0,0:0:0:0:
448,192,152585,1,0,0:0:0:0:
64,192,152585,1,0,0:0:0:0:
320,192,152727,1,0,0:0:0:0:
192,192,152727,1,0,0:0:0:0:
64,192,152870,1,0,0:0:0:0:
192,192,152870,1,0,0:0:0:0:
64,192,153013,1,0,0:0:0:0:
448,192,153013,1,0,0:0:0:0:
320,192,153156,1,0,0:0:0:0:
448,192,153156,1,0,0:0:0:0:
64,192,153299,1,0,0:0:0:0:
320,192,153299,1,0,0:0:0:0:
192,192,153442,1,0,0:0:0:0:
64,192,153442,1,0,0:0:0:0:
448,192,153585,1,0,0:0:0:0:
192,192,153585,1,0,0:0:0:0:
320,192,153727,1,0,0:0:0:0:
448,192,153727,1,0,0:0:0:0:
192,192,153799,1,0,0:0:0:0:
64,192,153870,1,0,0:0:0:0:
320,192,153870,1,0,0:0:0:0:
64,192,154013,1,0,0:0:0:0:
448,192,154013,1,0,0:0:0:0:
320,192,154156,1,0,0:0:0:0:
192,192,154156,1,0,0:0:0:0:
448,192,154299,1,0,0:0:0:0:
320,192,154299,1,0,0:0:0:0:
64,192,154442,1,0,0:0:0:0:
192,192,154442,1,0,0:0:0:0:
448,192,154585,1,0,0:0:0:0:
64,192,154585,1,0,0:0:0:0:
192,192,154727,1,0,0:0:0:0:
320,192,154727,1,0,0:0:0:0:
320,192,154870,1,0,0:0:0:0:
448,192,154870,1,0,0:0:0:0:
64,192,155013,1,0,0:0:0:0:
448,192,155013,1,0,0:0:0:0:
320,192,155156,1,0,0:0:0:0:
192,192,155156,1,0,0:0:0:0:
64,192,155227,1,0,0:0:0:0:
448,192,155227,1,0,0:0:0:0:
320,192,155299,1,0,0:0:0:0:
192,192,155299,1,0,0:0:0:0:
192,192,155442,1,0,0:0:0:0:
64,192,155442,1,0,0:0:0:0:
448,192,155585,1,0,0:0:0:0:
320,192,155585,1,0,0:0:0:0:
64,192,155727,1,0,0:0:0:0:
448,192,155727,1,0,0:0:0:0:
320,192,155870,1,0,0:0:0:0:
192,192,155870,1,0,0:0:0:0:
64,192,156013,1,0,0:0:0:0:
192,192,156013,1,0,0:0:0:0:
448,192,156156,1,0,0:0:0:0:
64,192,156156,1,0,0:0:0:0:
320,192,156299,1,0,0:0:0:0:
448,192,156299,1,0,0:0:0:0:
192,192,156442,1,0,0:0:0:0:
64,192,156442,1,0,0:0:0:0:
320,192,156585,1,0,0:0:0:0:
64,192,156585,1,0,0:0:0:0:
192,192,156727,1,0,0:0:0:0:
448,192,156727,1,0,0:0:0:0:
320,192,156799,1,0,0:0:0:0:
64,192,156799,1,0,0:0:0:0:
192,192,156870,1,0,0:0:0:0:
448,192,156870,1,0,0:0:0:0:
448,192,157013,1,0,0:0:0:0:
320,192,157013,1,0,0:0:0:0:
192,192,157156,1,0,0:0:0:0:
64,192,157156,1,0,0:0:0:0:
320,192,157299,1,0,0:0:0:0:
192,192,157299,1,0,0:0:0:0:
64,192,157442,1,0,0:0:0:0:
448,192,157442,1,0,0:0:0:0:
320,192,157585,1,0,0:0:0:0:
448,192,157585,1,0,0:0:0:0:
192,192,157727,1,0,0:0:0:0:
64,192,157727,1,0,0:0:0:0:
320,192,157870,1,0,0:0:0:0:
192,192,157870,1,0,0:0:0:0:
64,192,158013,1,0,0:0:0:0:
448,192,158013,1,0,0:0:0:0:
320,192,158156,1,0,0:0:0:0:
192,192,158156,1,0,0:0:0:0:
448,192,158299,1,0,0:0:0:0:
320,192,158299,1,0,0:0:0:0:
64,192,158442,1,0,0:0:0:0:
448,192,158442,1,0,0:0:0:0:
192,192,158585,1,0,0:0:0:0:
64,192,158585,1,0,0:0:0:0:
320,192,158656,1,0,0:0:0:0:
448,192,158656,1,0,0:0:0:0:
192,192,158727,1,0,0:0:0:0:
64,192,158727,1,0,0:0:0:0:
320,192,158870,1,0,0:0:0:0:
448,192,158870,1,0,0:0:0:0:
64,192,159013,1,0,0:0:0:0:
448,192,159013,1,0,0:0:0:0:
320,192,159156,1,0,0:0:0:0:
192,192,159156,1,0,0:0:0:0:
448,192,159299,1,0,0:0:0:0:
64,192,159299,1,0,0:0:0:0:
192,192,159299,1,0,0:0:0:0:
320,192,159442,1,0,0:0:0:0:
192,192,159442,1,0,0:0:0:0:
64,192,159585,1,0,0:0:0:0:
448,192,159585,1,0,0:0:0:0:
448,192,159727,1,0,0:0:0:0:
320,192,159727,1,0,0:0:0:0:
192,192,159727,1,0,0:0:0:0:
64,192,159727,1,0,0:0:0:0:
320,192,159870,1,0,0:0:0:0:
192,192,159870,1,0,0:0:0:0:
64,192,160013,1,0,0:0:0:0:
448,192,160013,1,0,0:0:0:0:
320,192,160156,1,0,0:0:0:0:
192,192,160156,1,0,0:0:0:0:
448,192,160156,1,0,0:0:0:0:
64,192,160299,1,0,0:0:0:0:
320,192,160299,1,0,0:0:0:0:
192,192,160442,1,0,0:0:0:0:
448,192,160442,1,0,0:0:0:0:
448,192,160585,1,0,0:0:0:0:
320,192,160585,1,0,0:0:0:0:
192,192,160585,1,0,0:0:0:0:
64,192,160585,1,0,0:0:0:0:
320,192,160727,1,0,0:0:0:0:
448,192,160727,1,0,0:0:0:0:
192,192,160870,1,0,0:0:0:0:
64,192,160870,1,0,0:0:0:0:
64,192,161013,1,0,0:0:0:0:
448,192,161013,1,0,0:0:0:0:
320,192,161013,1,0,0:0:0:0:
192,192,161156,1,0,0:0:0:0:
320,192,161156,1,0,0:0:0:0:
64,192,161299,1,0,0:0:0:0:
448,192,161299,1,0,0:0:0:0:
448,192,161442,1,0,0:0:0:0:
320,192,161442,1,0,0:0:0:0:
192,192,161442,1,0,0:0:0:0:
64,192,161442,1,0,0:0:0:0:
320,192,161585,1,0,0:0:0:0:
192,192,161585,1,0,0:0:0:0:
448,192,161727,1,0,0:0:0:0:
320,192,161727,1,0,0:0:0:0:
448,192,161870,1,0,0:0:0:0:
64,192,161870,1,0,0:0:0:0:
192,192,161870,1,0,0:0:0:0:
320,192,162013,1,0,0:0:0:0:
64,192,162013,1,0,0:0:0:0:
448,192,162085,1,0,0:0:0:0:
192,192,162156,1,0,0:0:0:0:
320,192,162156,1,0,0:0:0:0:
448,192,162299,1,0,0:0:0:0:
192,192,162299,1,0,0:0:0:0:
64,192,162299,1,0,0:0:0:0:
320,192,162299,1,0,0:0:0:0:
448,192,162442,1,0,0:0:0:0:
64,192,162442,1,0,0:0:0:0:
192,192,162585,1,0,0:0:0:0:
64,192,162585,1,0,0:0:0:0:
448,192,162727,1,0,0:0:0:0:
320,192,162727,1,0,0:0:0:0:
192,192,162727,1,0,0:0:0:0:
64,192,162727,1,0,0:0:0:0:
320,192,162870,1,0,0:0:0:0:
192,192,162870,1,0,0:0:0:0:
448,192,163013,1,0,0:0:0:0:
192,192,163013,1,0,0:0:0:0:
64,192,163013,1,0,0:0:0:0:
320,192,163013,1,0,0:0:0:0:
320,192,163156,1,0,0:0:0:0:
64,192,163156,1,0,0:0:0:0:
448,192,163156,1,0,0:0:0:0:
192,192,163299,1,0,0:0:0:0:
64,192,163299,1,0,0:0:0:0:
320,192,163442,1,0,0:0:0:0:
192,192,163442,1,0,0:0:0:0:
448,192,163585,1,0,0:0:0:0:
320,192,163585,1,0,0:0:0:0:
192,192,163585,1,0,0:0:0:0:
64,192,163585,1,0,0:0:0:0:
448,192,163727,1,0,0:0:0:0:
64,192,163727,1,0,0:0:0:0:
448,192,163870,1,0,0:0:0:0:
320,192,163870,1,0,0:0:0:0:
192,192,163870,1,0,0:0:0:0:
64,192,163870,1,0,0:0:0:0:
192,192,164013,1,0,0:0:0:0:
320,192,164013,1,0,0:0:0:0:
448,192,164013,1,0,0:0:0:0:
64,192,164156,1,0,0:0:0:0:
192,192,164156,1,0,0:0:0:0:
320,192,164299,1,0,0:0:0:0:
448,192,164299,1,0,0:0:0:0:
448,192,164442,1,0,0:0:0:0:
192,192,164442,1,0,0:0:0:0:
64,192,164442,1,0,0:0:0:0:
320,192,164442,1,0,0:0:0:0:
448,192,164585,1,0,0:0:0:0:
64,192,164585,1,0,0:0:0:0:
448,192,164727,1,0,0:0:0:0:
320,192,164727,1,0,0:0:0:0:
192,192,164727,1,0,0:0:0:0:
64,192,164727,1,0,0:0:0:0:
192,192,164870,1,0,0:0:0:0:
64,192,164870,1,0,0:0:0:0:
320,192,164870,1,0,0:0:0:0:
448,192,165013,1,0,0:0:0:0:
320,192,165013,1,0,0:0:0:0:
64,192,165156,1,0,0:0:0:0:
448,192,165156,1,0,0:0:0:0:
448,192,165299,1,0,0:0:0:0:
320,192,165299,1,0,0:0:0:0:
192,192,165299,1,0,0:0:0:0:
64,192,165299,1,0,0:0:0:0:
192,192,165442,1,0,0:0:0:0:
320,192,165442,1,0,0:0:0:0:
448,192,165585,1,0,0:0:0:0:
320,192,165585,1,0,0:0:0:0:
192,192,165585,1,0,0:0:0:0:
64,192,165585,1,0,0:0:0:0:
